  0
SECTION
  2
HEADER
  9
$ACADVER
  1
AC1015
  9
$ACADMAINTVER
 70
     6
  9
$DWGCODEPAGE
  3
ANSI_1252
  9
$INSBASE
 10
0.0
 20
0.0
 30
0.0
  9
$EXTMIN
 10
322.7698678120308
 20
236.4203444445809
 30
0.0
  9
$EXTMAX
 10
489.708117190877
 20
360.6061153239664
 30
0.0
  9
$LIMMIN
 10
0.0
 20
0.0
  9
$LIMMAX
 10
12.0
 20
9.0
  9
$ORTHOMODE
 70
     0
  9
$REGENMODE
 70
     1
  9
$FILLMODE
 70
     1
  9
$QTEXTMODE
 70
     0
  9
$MIRRTEXT
 70
     0
  9
$LTSCALE
 40
1.0
  9
$ATTMODE
 70
     2
  9
$TEXTSIZE
 40
12.0
  9
$TRACEWID
 40
0.05
  9
$TEXTSTYLE
  7
STANDARD
  9
$CLAYER
  8
A1
  9
$CELTYPE
  6
BYLAYER
  9
$CECOLOR
 62
     7
  9
$CELTSCALE
 40
1.0
  9
$DISPSILH
 70
     0
  9
$DIMSCALE
 40
3.0
  9
$DIMASZ
 40
0.5
  9
$DIMEXO
 40
1.0
  9
$DIMDLI
 40
0.0625
  9
$DIMRND
 40
0.0
  9
$DIMDLE
 40
0.0
  9
$DIMEXE
 40
0.25
  9
$DIMTP
 40
0.0
  9
$DIMTM
 40
0.0
  9
$DIMTXT
 40
1.0
  9
$DIMCEN
 40
0.0
  9
$DIMTSZ
 40
0.0
  9
$DIMTOL
 70
     0
  9
$DIMLIM
 70
     0
  9
$DIMTIH
 70
     1
  9
$DIMTOH
 70
     1
  9
$DIMSE1
 70
     0
  9
$DIMSE2
 70
     0
  9
$DIMTAD
 70
     0
  9
$DIMZIN
 70
     0
  9
$DIMBLK
  1

  9
$DIMASO
 70
     1
  9
$DIMSHO
 70
     1
  9
$DIMPOST
  1
"
  9
$DIMAPOST
  1

  9
$DIMALT
 70
     0
  9
$DIMALTD
 70
     0
  9
$DIMALTF
 40
25.4
  9
$DIMLFAC
 40
1.0
  9
$DIMTOFL
 70
     0
  9
$DIMTVP
 40
0.0
  9
$DIMTIX
 70
     0
  9
$DIMSOXD
 70
     0
  9
$DIMSAH
 70
     0
  9
$DIMBLK1
  1

  9
$DIMBLK2
  1

  9
$DIMSTYLE
  2
STANDARD
  9
$DIMCLRD
 70
     0
  9
$DIMCLRE
 70
     0
  9
$DIMCLRT
 70
     0
  9
$DIMTFAC
 40
0.125
  9
$DIMGAP
 40
0.5
  9
$DIMJUST
 70
     0
  9
$DIMSD1
 70
     0
  9
$DIMSD2
 70
     0
  9
$DIMTOLJ
 70
     1
  9
$DIMTZIN
 70
     0
  9
$DIMALTZ
 70
     2
  9
$DIMALTTZ
 70
     2
  9
$DIMUPT
 70
     1
  9
$DIMDEC
 70
     4
  9
$DIMTDEC
 70
     4
  9
$DIMALTU
 70
     2
  9
$DIMALTTD
 70
     0
  9
$DIMTXSTY
  7
STANDARD
  9
$DIMAUNIT
 70
     0
  9
$DIMADEC
 70
     0
  9
$DIMALTRND
 40
0.0
  9
$DIMAZIN
 70
     0
  9
$DIMDSEP
 70
    46
  9
$DIMATFIT
 70
     1
  9
$DIMFRAC
 70
     2
  9
$DIMLDRBLK
  1

  9
$DIMLUNIT
 70
     5
  9
$DIMLWD
 70
    -2
  9
$DIMLWE
 70
    -2
  9
$DIMTMOVE
 70
     1
  9
$LUNITS
 70
     5
  9
$LUPREC
 70
     4
  9
$SKETCHINC
 40
0.1
  9
$FILLETRAD
 40
0.0
  9
$AUNITS
 70
     0
  9
$AUPREC
 70
     1
  9
$MENU
  1
acad
  9
$ELEVATION
 40
0.0
  9
$PELEVATION
 40
0.0
  9
$THICKNESS
 40
0.0
  9
$LIMCHECK
 70
     0
  9
$CHAMFERA
 40
0.75
  9
$CHAMFERB
 40
0.75
  9
$CHAMFERC
 40
0.0
  9
$CHAMFERD
 40
0.0
  9
$SKPOLY
 70
     0
  9
$TDCREATE
 40
2451085.664838310
  9
$TDUCREATE
 40
2451085.831504977
  9
$TDUPDATE
 40
2451660.532835069
  9
$TDUUPDATE
 40
2451660.699501736
  9
$TDINDWG
 40
1.9848658565
  9
$TDUSRTIMER
 40
1.9848658565
  9
$USRTIMER
 70
     1
  9
$ANGBASE
 50
0.0
  9
$ANGDIR
 70
     0
  9
$PDMODE
 70
     0
  9
$PDSIZE
 40
0.0
  9
$PLINEWID
 40
0.0
  9
$SPLFRAME
 70
     0
  9
$SPLINETYPE
 70
     6
  9
$SPLINESEGS
 70
     8
  9
$HANDSEED
  5
71E00
  9
$SURFTAB1
 70
     6
  9
$SURFTAB2
 70
     6
  9
$SURFTYPE
 70
     6
  9
$SURFU
 70
     6
  9
$SURFV
 70
     6
  9
$UCSBASE
  2

  9
$UCSNAME
  2

  9
$UCSORG
 10
0.0
 20
0.0
 30
0.0
  9
$UCSXDIR
 10
1.0
 20
0.0
 30
0.0
  9
$UCSYDIR
 10
0.0
 20
1.0
 30
0.0
  9
$UCSORTHOREF
  2

  9
$UCSORTHOVIEW
 70
     0
  9
$UCSORGTOP
 10
0.0
 20
0.0
 30
0.0
  9
$UCSORGBOTTOM
 10
0.0
 20
0.0
 30
0.0
  9
$UCSORGLEFT
 10
0.0
 20
0.0
 30
0.0
  9
$UCSORGRIGHT
 10
0.0
 20
0.0
 30
0.0
  9
$UCSORGFRONT
 10
0.0
 20
0.0
 30
0.0
  9
$UCSORGBACK
 10
0.0
 20
0.0
 30
0.0
  9
$PUCSBASE
  2

  9
$PUCSNAME
  2

  9
$PUCSORG
 10
0.0
 20
0.0
 30
0.0
  9
$PUCSXDIR
 10
1.0
 20
0.0
 30
0.0
  9
$PUCSYDIR
 10
0.0
 20
1.0
 30
0.0
  9
$PUCSORTHOREF
  2

  9
$PUCSORTHOVIEW
 70
     0
  9
$PUCSORGTOP
 10
0.0
 20
0.0
 30
0.0
  9
$PUCSORGBOTTOM
 10
0.0
 20
0.0
 30
0.0
  9
$PUCSORGLEFT
 10
0.0
 20
0.0
 30
0.0
  9
$PUCSORGRIGHT
 10
0.0
 20
0.0
 30
0.0
  9
$PUCSORGFRONT
 10
0.0
 20
0.0
 30
0.0
  9
$PUCSORGBACK
 10
0.0
 20
0.0
 30
0.0
  9
$USERI1
 70
     0
  9
$USERI2
 70
     0
  9
$USERI3
 70
     0
  9
$USERI4
 70
     0
  9
$USERI5
 70
     0
  9
$USERR1
 40
0.0
  9
$USERR2
 40
0.0
  9
$USERR3
 40
0.0
  9
$USERR4
 40
0.0
  9
$USERR5
 40
0.0
  9
$WORLDVIEW
 70
     1
  9
$SHADEDGE
 70
     1
  9
$SHADEDIF
 70
    70
  9
$TILEMODE
 70
     1
  9
$MAXACTVP
 70
    16
  9
$PINSBASE
 10
0.0
 20
0.0
 30
0.0
  9
$PLIMCHECK
 70
     0
  9
$PEXTMIN
 10
1.000000000000000E+20
 20
1.000000000000000E+20
 30
1.000000000000000E+20
  9
$PEXTMAX
 10
-1.000000000000000E+20
 20
-1.000000000000000E+20
 30
-1.000000000000000E+20
  9
$PLIMMIN
 10
0.0
 20
0.0
  9
$PLIMMAX
 10
12.0
 20
9.0
  9
$UNITMODE
 70
     0
  9
$VISRETAIN
 70
     0
  9
$PLINEGEN
 70
     0
  9
$PSLTSCALE
 70
     1
  9
$TREEDEPTH
 70
  3020
  9
$CMLSTYLE
  2
STANDARD
  9
$CMLJUST
 70
     0
  9
$CMLSCALE
 40
1.0
  9
$PROXYGRAPHICS
 70
     1
  9
$MEASUREMENT
 70
     0
  9
$CELWEIGHT
370
    -1
  9
$ENDCAPS
280
     0
  9
$JOINSTYLE
280
     0
  9
$LWDISPLAY
290
     0
  9
$INSUNITS
 70
     0
  9
$HYPERLINKBASE
  1

  9
$STYLESHEET
  1

  9
$XEDIT
290
     1
  9
$CEPSNTYPE
380
     0
  9
$PSTYLEMODE
290
     1
  9
$FINGERPRINTGUID
  2
{A6232B84-9B2E-11D3-8DA4-00A0C981A35F}
  9
$VERSIONGUID
  2
{AC53A92A-FA83-11D3-8DA4-00A0C981A35F}
  9
$EXTNAMES
290
     1
  9
$PSVPSCALE
 40
0.0
  9
$OLESTARTUP
290
     0
  0
ENDSEC
  0
SECTION
  2
CLASSES
  0
CLASS
  1
DICTIONARYVAR
  2
AcDbDictionaryVar
  3
AutoCAD 2000
 90
    32768
280
     0
281
     0
  0
CLASS
  1
LWPOLYLINE
  2
AcDbPolyline
  3
AutoCAD 2000
 90
    32768
280
     0
281
     1
  0
CLASS
  1
RASTERVARIABLES
  2
AcDbRasterVariables
  3
ISM
 90
    32768
280
     0
281
     0
  0
CLASS
  1
ACDBDICTIONARYWDFLT
  2
AcDbDictionaryWithDefault
  3
AutoCAD 2000
 90
        0
280
     0
281
     0
  0
CLASS
  1
ACDBPLACEHOLDER
  2
AcDbPlaceHolder
  3
AutoCAD 2000
 90
        0
280
     0
281
     0
  0
CLASS
  1
LAYOUT
  2
AcDbLayout
  3
AutoCAD 2000
 90
        0
280
     0
281
     0
  0
CLASS
  1
ACME_DOCUMENT
  2
AcMeDbDoc
  3
AcMeServices
 90
    32768
280
     1
281
     0
  0
CLASS
  1
ACMESCOPE
  2
AcMeScope
  3
AcMeServices
 90
    32768
280
     1
281
     0
  0
CLASS
  1
ACMECOMMANDHISTORY
  2
AcMeCommandHistory
  3
AcMeServices
 90
    32768
280
     1
281
     0
  0
CLASS
  1
ACIMSYSVARMAN
  2
AcImSysVarManager
  3
AcMeServices
 90
    32768
280
     1
281
     0
  0
CLASS
  1
ACIMREALSYSVAR
  2
AcImRealSysVar
  3
AcMeServices
 90
    32768
280
     1
281
     0
  0
CLASS
  1
ACIMINTSYSVAR
  2
AcImIntSysVar
  3
AcMeServices
 90
    32768
280
     1
281
     0
  0
CLASS
  1
ACMEDRAWINGMAN
  2
AcMeDrawingMan
  3
AcMeServices
 90
    32768
280
     1
281
     0
  0
CLASS
  1
ACMEVIEW
  2
AcMeView
  3
AcMeServices
 90
    32768
280
     1
281
     0
  0
CLASS
  1
ACDBENTITYCACHE
  2
AcMeEntityCache
  3
AcMeServices
 90
    32768
280
     1
281
     0
  0
CLASS
  1
GSMANAGER
  2
AcMeGSManager
  3
AcMeServices
 90
    32768
280
     1
281
     0
  0
CLASS
  1
AmdtInternalReactor
  2
AmdtInternalReactor
  3
AcMeServices
 90
    32768
280
     1
281
     0
  0
CLASS
  1
ACMESTATEMGR
  2
AcMeStateMgr
  3
AcMeServices
 90
    32768
280
     1
281
     0
  0
CLASS
  1
ACGREFMASTER
  2
AcGrefMaster
  3
AcAttribServices
 90
    32768
280
     1
281
     0
  0
CLASS
  1
AM_DRAWING_MGR
  2
AcDmDwgMgr
  3
AcMechDwgViewMgmt
 90
    32768
280
     1
281
     0
  0
CLASS
  1
AM_DWG_DOCUMENT
  2
AcDmDwgDocument
  3
AcMechDwgViewMgmt
 90
    32768
280
     1
281
     0
  0
CLASS
  1
AM_DWG_SHEET
  2
AcDmSheet
  3
AcMechDwgViewMgmt
 90
    32768
280
     1
281
     0
  0
CLASS
  1
AM_VIEWDIMPARMAP
  2
AcDmViewDimParMap
  3
AcMechDwgViewMgmt
 90
    32768
280
     1
281
     0
  0
CLASS
  1
AM_DWGMGR_NAME
  2
AcDmDwgMgrName
  3
AcMechDwgViewMgmt
 90
    32768
280
     1
281
     0
  0
CLASS
  1
ACME_DATABASE
  2
AcMeDbDatabase
  3
AcMeServices
 90
    32768
280
     1
281
     0
  0
CLASS
  1
ACRFINSADJUSTERMGR
  2
AcRfInsAdjusterMgr
  3
AcMeServices
 90
    32768
280
     1
281
     0
  0
CLASS
  1
ACGREFMASTER
  2
AcGrefacadMaster
  3
AcGrefServices
 90
    32768
280
     1
281
     0
  0
CLASS
  1
AMDTMENUSTATEMGR
  2
AmdtMenuStateMgr
  3
McadcomServices
 90
    32768
280
     1
281
     0
  0
CLASS
  1
AMDTMCOMMENUSTATE
  2
AmdtMcomMenuState
  3
McadcomServices
 90
    32768
280
     1
281
     0
  0
CLASS
  1
ASAPP
  2
AcAsAppObject
  3
AutoSurfServices
 90
    32768
280
     1
281
     0
  0
CLASS
  1
IM_STATIC_MAN
  2
AcImStaticVarManager
  3
AcMeServices
 90
    32768
280
     1
281
     0
  0
CLASS
  1
ACIMSTRSYSVAR
  2
AcImStrSysVar
  3
AcMeServices
 90
    32768
280
     1
281
     0
  0
CLASS
  1
ACIMDBLSTATICVAR
  2
AcImDblStaticVar
  3
AcMeServices
 90
    32768
280
     1
281
     0
  0
CLASS
  1
ACIMSTRSTATICVAR
  2
AcImStrStaticVar
  3
AcMeServices
 90
    32768
280
     1
281
     0
  0
CLASS
  1
ACIMINTSTATICVAR
  2
AcImIntStaticVar
  3
AcMeServices
 90
    32768
280
     1
281
     0
  0
CLASS
  1
ACADGREFMODULE
  2
AcAdGrefModule
  3
AdGrefServices
 90
    32768
280
     1
281
     0
  0
CLASS
  1
AMIMASTER
  2
AmiMaster
  3
AmiServices
 90
    32768
280
     1
281
     0
  0
CLASS
  1
ACASGREFMASTER
  2
AcAsGrefMaster
  3
AutoSurfResolverServices
 90
    32768
280
     1
281
     0
  0
CLASS
  1
MAPIAMMOUDLE
  2
MApiAmModule
  3
MApiAmServices
 90
    32768
280
     1
281
     0
  0
CLASS
  1
AMDTDMMENUSTATE
  2
AmdtDmMenuState
  3
AcMechDwgViewMgmt
 90
    32768
280
     1
281
     0
  0
CLASS
  1
AMDTADMENUSTATE
  2
AmdtAdMenuState
  3
DesignerServices
 90
    32768
280
     1
281
     0
  0
CLASS
  1
ADAPPL
  2
AcAdAppl
  3
DesignerServices
 90
    32768
280
     1
281
     0
  0
CLASS
  1
DEPMGR
  2
AcAdDepMgr
  3
DesignerServices
 90
    32768
280
     1
281
     0
  0
CLASS
  1
PARAMMGR
  2
AcAdParamMgr
  3
DesignerServices
 90
    32768
280
     1
281
     0
  0
CLASS
  1
PARAMSCOPE
  2
AcAdParamScope
  3
DesignerServices
 90
    32768
280
     1
281
     0
  0
CLASS
  1
NAMEDAPPL
  2
AcAdNamedAppl
  3
DesignerServices
 90
    32768
280
     1
281
     0
  0
CLASS
  1
ADHNTMPLT
  2
AdHoleNoteTemplateMgr
  3
DesignerServices
 90
    32768
280
     1
281
     0
  0
CLASS
  1
AM_HNTEMPLATE_MGR_NAME
  2
AdHoleNoteTemplateMgrName
  3
DesignerServices
 90
    32768
280
     1
281
     0
  0
CLASS
  1
AMDTAMMENUSTATE
  2
AmdtAmMenuState
  3
DesignerAssemblies
 90
    32768
280
     1
281
     0
  0
CLASS
  1
ACAMPROJECT
  2
AcAmProject
  3
DesignerAssemblies
 90
    32768
280
     1
281
     0
  0
CLASS
  1
ACAMGRCOMPDEF
  2
AcAmGrCompDef
  3
DesignerAssemblies
 90
    32768
280
     1
281
     0
  0
CLASS
  1
ACCMCONTEXT
  2
AcCmContext
  3
DesignerAssemblies
 90
    32768
280
     1
281
     0
  0
CLASS
  1
ACAMCOMPDEF
  2
AcAmCompDef
  3
DesignerAssemblies
 90
    32768
280
     1
281
     0
  0
CLASS
  1
ACAMCOMPDEFMGR
  2
AcAmCompDefMgr
  3
DesignerAssemblies
 90
    32768
280
     1
281
     0
  0
CLASS
  1
AMCONTEXTMGR
  2
AcAmContextMgr
  3
DesignerAssemblies
 90
    32768
280
     1
281
     0
  0
CLASS
  1
ACAMCONTEXTMODELER
  2
AcAmContextModeler
  3
DesignerAssemblies
 90
    32768
280
     1
281
     0
  0
CLASS
  1
MAPIADMODULE
  2
MApiAdModule
  3
MApiAdServices
 90
    32768
280
     1
281
     0
  0
CLASS
  1
ACMDATADICTIONARY
  2
AcmDataDictionary
  3
"AcmSymBB|Product Description: AutoCAD Mechanical 2000|Company: Autodesk"
 90
    32768
280
     1
281
     0
  0
CLASS
  1
ACMDATAENTRYBLOCK
  2
AcmDataEntryBlock
  3
"AcmSymBB|Product Description: AutoCAD Mechanical 2000|Company: Autodesk"
 90
    32768
280
     1
281
     0
  0
CLASS
  1
AMDTBROWSERDBTAB
  2
AmdtBrowserDbTab
  3
McadcomServices
 90
    32768
280
     1
281
     0
  0
CLASS
  1
CBROWSERAPPOBJECT
  2
CBrowserAppObject
  3
McadcomServices
 90
    32768
280
     1
281
     0
  0
CLASS
  1
DM_PLACEHOLDER
  2
AcDmSelsetPlaceholder
  3
AcMechDwgViewMgmt
 90
    32768
280
     1
281
     0
  0
CLASS
  1
CATALOGSTATE
  2
AcAmCatalogState
  3
DesignerAssemblies
 90
    32768
280
     1
281
     0
  0
CLASS
  1
ACAMGRCOMPDEFSET
  2
AcAmGrCompDefSet
  3
DesignerAssemblies
 90
    32768
280
     1
281
     0
  0
CLASS
  1
AMGOBJPROPCFG
  2
AmgObjPropCfg
  3
"AmgLay|Product Description: AutoCAD Mechanical 2000|Company: Autodesk"
 90
    32769
280
     1
281
     0
  0
CLASS
  1
LAYER_INDEX
  2
AcDbLayerIndex
  3
AutoCAD 2000
 90
    32768
280
     0
281
     0
  0
CLASS
  1
IDBUFFER
  2
AcDbIdBuffer
  3
AutoCAD 2000
 90
    32768
280
     0
281
     0
  0
CLASS
  1
ACRFATTGENMGR
  2
AcRfAttGeneralMgr
  3
AcAttribServices
 90
    32768
280
     1
281
     0
  0
CLASS
  1
PLOTSETTINGS
  2
AcDbPlotSettings
  3
AutoCAD 2000
 90
    32768
280
     0
281
     0
  0
CLASS
  1
LONG_TRANSACTION
  2
AcDbLongTransaction
  3
AutoCAD 2000
 90
    32768
280
     0
281
     0
  0
CLASS
  1
LWPOLYLINE
  2
AcDbPolyline
  3
AutoCAD 2000
 90
    32768
280
     0
281
     1
  0
CLASS
  1
HATCH
  2
AcDbHatch
  3
AutoCAD 2000
 90
    32768
280
     0
281
     1
  0
CLASS
  1
XRECORD
  2
AcDbXrecord
  3
AutoCAD 2000
 90
    32768
280
     0
281
     0
  0
ENDSEC
  0
SECTION
  2
TABLES
  0
TABLE
  2
VPORT
  5
1B
330
0
100
AcDbSymbolTable
 70
     2
  0
VPORT
  5
71DFF
330
1B
100
AcDbSymbolTableRecord
100
AcDbViewportTableRecord
  2
*Active
 70
     0
 10
0.0
 20
0.0
 11
1.0
 21
1.0
 12
470.7114023743526
 22
266.9702079605525
 13
0.0
 23
0.0
 14
1.0
 24
1.0
 15
0.0
 25
0.0
 16
0.0
 26
0.0
 36
1.0
 17
-64.46234487877643
 27
33.0238264231553
 37
6.148717398612387
 40
128.1767833306831
 41
1.413068844807467
 42
50.0
 43
-6.148717398612387
 44
-6.148717398612387
 50
0.0
 51
0.0
 71
     0
 72
 20000
 73
     1
 74
     1
 75
     0
 76
     0
 77
     0
 78
     2
281
     0
 65
     1
110
0.0
120
0.0
130
0.0
111
1.0
121
0.0
131
0.0
112
0.0
122
1.0
132
0.0
 79
     0
146
0.0
  0
ENDTAB
  0
TABLE
  2
LTYPE
  5
16
330
0
100
AcDbSymbolTable
 70
     2
  0
LTYPE
  5
17
330
16
100
AcDbSymbolTableRecord
100
AcDbLinetypeTableRecord
  2
BYBLOCK
 70
     0
  3

 72
    65
 73
     0
 40
0.0
  0
LTYPE
  5
18
330
16
100
AcDbSymbolTableRecord
100
AcDbLinetypeTableRecord
  2
BYLAYER
 70
     0
  3

 72
    65
 73
     0
 40
0.0
  0
LTYPE
  5
9
330
16
100
AcDbSymbolTableRecord
100
AcDbLinetypeTableRecord
  2
CONTINUOUS
 70
     0
  3
Solid line
 72
    65
 73
     0
 40
0.0
  0
LTYPE
  5
1BC6
330
16
100
AcDbSymbolTableRecord
100
AcDbLinetypeTableRecord
  2
HIDDEN
 70
     0
  3
Hidden __ __ __ __ __ __ __ __ __ __ __ __ __ _
 72
    65
 73
     2
 40
0.375
 49
0.25
 74
     0
 49
-0.125
 74
     0
  0
ENDTAB
  0
TABLE
  2
LAYER
  5
11
330
0
100
AcDbSymbolTable
 70
     4
  0
LAYER
  5
5
330
11
100
AcDbSymbolTableRecord
100
AcDbLayerTableRecord
  2
0
 70
     0
 62
     7
  6
CONTINUOUS
370
    -3
390
6
  0
LAYER
  5
24
330
11
100
AcDbSymbolTableRecord
100
AcDbLayerTableRecord
  2
A1
 70
     0
 62
     7
  6
CONTINUOUS
370
    -3
390
6
  0
LAYER
  5
D2
330
11
100
AcDbSymbolTableRecord
100
AcDbLayerTableRecord
  2
DEFPOINTS
 70
     0
 62
     7
  6
CONTINUOUS
290
     0
370
    -3
390
6
  0
LAYER
  5
71D43
330
11
100
AcDbSymbolTableRecord
100
AcDbLayerTableRecord
  2
LINEWORK
 70
     0
 62
    41
  6
CONTINUOUS
370
    -3
390
6
  0
ENDTAB
  0
TABLE
  2
STYLE
  5
12
330
0
100
AcDbSymbolTable
 70
     3
  0
STYLE
  5
13
330
12
100
AcDbSymbolTableRecord
100
AcDbTextStyleTableRecord
  2
STANDARD
 70
     0
 40
0.0
 41
1.0
 50
0.0
 71
     0
 42
12.0
  3
unvr55w.ttf
  4

1001
ACAD
1000
Univers
1071
       34
  0
STYLE
  5
71D44
330
12
100
AcDbSymbolTableRecord
100
AcDbTextStyleTableRecord
  2
ROMANC
 70
     0
 40
0.0
 41
1.0
 50
0.0
 71
     0
 42
0.5
  3
TIMESBD.TTF
  4

1001
ACAD
1000
Times New Roman
1071
 33554450
  0
STYLE
  5
71D45
330
12
100
AcDbSymbolTableRecord
100
AcDbTextStyleTableRecord
  2
barcoder
 70
     0
 40
0.0
 41
1.0
 50
0.0
 71
     0
 42
4.5625
  3
cw_barcd.ttf
  4

1001
ACAD
1000
Barcoder
1071
 33554434
  0
ENDTAB
  0
TABLE
  2
VIEW
  5
19
330
0
100
AcDbSymbolTable
 70
     0
  0
ENDTAB
  0
TABLE
  2
UCS
  5
1A
330
0
100
AcDbSymbolTable
 70
     0
  0
ENDTAB
  0
TABLE
  2
APPID
  5
1D
330
0
100
AcDbSymbolTable
 70
    13
  0
APPID
  5
14
330
1D
100
AcDbSymbolTableRecord
100
AcDbRegAppTableRecord
  2
ACAD
 70
     0
  0
APPID
  5
1BD0
330
1D
100
AcDbSymbolTableRecord
100
AcDbRegAppTableRecord
  2
GENIUS_GENDIM_13
 70
     0
  0
APPID
  5
1BD1
330
1D
100
AcDbSymbolTableRecord
100
AcDbRegAppTableRecord
  2
GENIUS_GENDTOL_13
 70
     0
  0
APPID
  5
1BD2
330
1D
100
AcDbSymbolTableRecord
100
AcDbRegAppTableRecord
  2
GENIUS_GE3DTOL_13
 70
     0
  0
APPID
  5
1BD3
330
1D
100
AcDbSymbolTableRecord
100
AcDbRegAppTableRecord
  2
MCAD_NO_VIS
 70
     0
  0
APPID
  5
1BD4
330
1D
100
AcDbSymbolTableRecord
100
AcDbRegAppTableRecord
  2
ACAD_TEMP_GRAPHIC
 70
     0
  0
APPID
  5
1BD5
330
1D
100
AcDbSymbolTableRecord
100
AcDbRegAppTableRecord
  2
AD_DRAW
 70
     0
  0
APPID
  5
1BD6
330
1D
100
AcDbSymbolTableRecord
100
AcDbRegAppTableRecord
  2
ACATTRIBSERVICES
 70
     0
  0
APPID
  5
1BD7
330
1D
100
AcDbSymbolTableRecord
100
AcDbRegAppTableRecord
  2
ASURF_PCURVE_APPNAME
 70
     0
  0
APPID
  5
1BD8
330
1D
100
AcDbSymbolTableRecord
100
AcDbRegAppTableRecord
  2
DESIGNERASSEMBLIES
 70
     0
  0
APPID
  5
1BD9
330
1D
100
AcDbSymbolTableRecord
100
AcDbRegAppTableRecord
  2
ACADM_DIM_EDIT
 70
     0
  0
APPID
  5
93F1
330
1D
100
AcDbSymbolTableRecord
100
AcDbRegAppTableRecord
  2
AVE_MATERIAL
 70
     0
  0
APPID
  5
71D3A
330
1D
100
AcDbSymbolTableRecord
100
AcDbRegAppTableRecord
  2
DCO15
 70
     0
  0
ENDTAB
  0
TABLE
  2
DIMSTYLE
  5
1E
330
0
100
AcDbSymbolTable
 70
     1
100
AcDbDimStyleTable
 71
     0
  0
DIMSTYLE
105
1F
102
{ACAD_REACTORS
330
71839
330
71847
330
71855
330
71871
330
7187F
330
71972
330
71CE6
102
}
330
1E
100
AcDbSymbolTableRecord
100
AcDbDimStyleTableRecord
  2
STANDARD
 70
     0
  3
"
 41
0.5
 42
1.0
 43
0.0625
 44
0.25
 73
     0
 74
     0
 77
     3
140
1.0
141
0.0
146
0.125
147
0.125
171
     0
274
     0
276
     2
277
     5
285
     2
286
     2
289
     0
340
13
  0
ENDTAB
  0
TABLE
  2
BLOCK_RECORD
  5
1
330
0
100
AcDbSymbolTable
 70
     9
  0
BLOCK_RECORD
  5
2
102
{ACAD_XDICTIONARY
360
3
102
}
330
1
100
AcDbSymbolTableRecord
100
AcDbBlockTableRecord
  2
*MODEL_SPACE
340
B
  0
BLOCK_RECORD
  5
D
102
{ACAD_XDICTIONARY
360
71DAD
102
}
330
1
100
AcDbSymbolTableRecord
100
AcDbBlockTableRecord
  2
*PAPER_SPACE
340
10
  0
BLOCK_RECORD
  5
712FC
330
1
100
AcDbSymbolTableRecord
100
AcDbBlockTableRecord
  2
PROFILE LOGO
340
0
102
{BLKREFS
331
7182F
331
71832
102
}
  0
BLOCK_RECORD
  5
7183A
330
1
100
AcDbSymbolTableRecord
100
AcDbBlockTableRecord
  2
*D1
340
0
  0
BLOCK_RECORD
  5
71848
330
1
100
AcDbSymbolTableRecord
100
AcDbBlockTableRecord
  2
*D2
340
0
  0
BLOCK_RECORD
  5
71856
330
1
100
AcDbSymbolTableRecord
100
AcDbBlockTableRecord
  2
*D3
340
0
  0
BLOCK_RECORD
  5
71872
330
1
100
AcDbSymbolTableRecord
100
AcDbBlockTableRecord
  2
*D4
340
0
  0
BLOCK_RECORD
  5
71880
330
1
100
AcDbSymbolTableRecord
100
AcDbBlockTableRecord
  2
*D5
340
0
  0
BLOCK_RECORD
  5
71973
330
1
100
AcDbSymbolTableRecord
100
AcDbBlockTableRecord
  2
*D6
340
0
  0
BLOCK_RECORD
  5
71CE7
330
1
100
AcDbSymbolTableRecord
100
AcDbBlockTableRecord
  2
*D7
340
0
  0
BLOCK_RECORD
  5
71D46
330
1
100
AcDbSymbolTableRecord
100
AcDbBlockTableRecord
  2
TSFORMB
340
0
102
{BLKREFS
331
71D74
102
}
  0
ENDTAB
  0
ENDSEC
  0
SECTION
  2
BLOCKS
  0
BLOCK
  5
4
330
2
100
AcDbEntity
  8
0
100
AcDbBlockBegin
  2
*MODEL_SPACE
 70
     2
 10
0.0
 20
0.0
 30
0.0
  3
*MODEL_SPACE
  1

  0
ENDBLK
  5
A
330
2
100
AcDbEntity
  8
0
100
AcDbBlockEnd
  0
BLOCK
  5
E
330
D
100
AcDbEntity
 67
     1
  8
0
100
AcDbBlockBegin
  2
*PAPER_SPACE
 70
     0
 10
0.0
 20
0.0
 30
0.0
  3
*PAPER_SPACE
  1

  0
ENDBLK
  5
F
330
D
100
AcDbEntity
 67
     1
  8
0
100
AcDbBlockEnd
  0
BLOCK
  5
71315
330
712FC
100
AcDbEntity
  8
0
 62
     7
100
AcDbBlockBegin
  2
PROFILE LOGO
 70
     2
 10
0.0
 20
0.0
 30
0.0
  3
PROFILE LOGO
  1

  0
LINE
  5
712FD
330
712FC
100
AcDbEntity
  8
0
 62
    22
100
AcDbLine
 10
0.7459516636765642
 20
-0.415894330395318
 30
0.0
 11
0.74595166367655
 21
-1.12746688439163
 31
0.0
  0
LINE
  5
712FE
330
712FC
100
AcDbEntity
  8
0
 62
    22
100
AcDbLine
 10
0.5841942848079072
 20
-0.415894330395318
 30
0.0
 11
0.5841942848079072
 21
-1.12746688439163
 31
0.0
  0
HATCH
  5
712FF
330
712FC
100
AcDbEntity
  8
0
 62
    22
100
AcDbHatch
 10
0.0
 20
0.0
 30
0.0
210
0.0
220
0.0
230
1.0
  2
LINE
 70
     0
 71
     0
 91
        1
 92
       33
 93
       38
 72
     1
 10
1.115683196411978
 20
-0.1706330859717084
 11
0.2177636962628071
 21
-0.1706330859717084
 72
     1
 10
0.2177636962628213
 20
-0.1706330859717084
 11
0.2078601968792952
 21
-0.4246889457533243
 72
     1
 10
0.2078601968792952
 20
-0.4246889457533243
 11
0.2375709173007294
 21
-0.4246889457533243
 72
     1
 10
0.2375709173007294
 20
-0.4246889457533243
 11
0.2441732502230991
 21
-0.3817964654080939
 72
     1
 10
0.2441732502230991
 20
-0.3817964654080939
 11
0.254076749606611
 21
-0.3422032805409501
 72
     1
 10
0.2540767496066252
 20
-0.3422032805409501
 11
0.2738837483736916
 21
-0.3092090964125091
 72
     1
 10
0.2738837483736916
 20
-0.3092090964125091
 11
0.2969919136019428
 21
-0.2861130719066693
 72
     1
 10
0.296991913601957
 20
-0.2861130719066764
 11
0.3267026340234338
 21
-0.2663164794731259
 72
     1
 10
0.3267026340234196
 20
-0.2663164794731259
 11
0.356413132174012
 21
-0.2498193191118219
 72
     1
 10
0.356413132174012
 20
-0.2498193191118148
 11
0.3828224638634481
 21
-0.243220591561446
 72
     1
 10
0.3828224638634623
 20
-0.243220591561446
 11
0.4092320178237401
 21
-0.243220591561446
 72
     1
 10
0.4092320178237401
 20
-0.243220591561446
 11
0.4719541805861525
 21
-0.2465198870395469
 72
     1
 10
0.4719541805861525
 20
-0.2465198870395469
 11
0.514869566852326
 21
-0.2729153436176332
 72
     1
 10
0.514869566852326
 20
-0.2729153436176332
 11
0.5742905631535394
 21
-0.3389038484686964
 72
     1
 10
0.5742905631535394
 20
-0.3389038484687106
 11
0.5907966177302626
 21
-0.3916947616248691
 72
     1
 10
0.5907966177302768
 20
-0.3916947616248691
 11
0.5907966177302768
 21
-1.157161773041991
 72
     1
 10
0.5907966177302768
 20
-1.157161773041984
 11
0.5643870637699991
 21
-1.203353685459461
 72
     1
 10
0.5643870637699849
 20
-1.203353685459468
 11
0.4983637345463876
 21
-1.226449709965308
 72
     1
 10
0.4983637345464019
 20
-1.226449709965301
 11
0.4389425159743326
 21
-1.226449709965301
 72
     1
 10
0.4389425159743326
 20
-1.226449709965301
 11
0.4323401830519913
 21
-1.249545734471119
 72
     1
 10
0.4323401830520055
 20
-1.249545734471134
 11
0.8945045989712809
 21
-1.249545734471134
 72
     1
 10
0.8945045989712667
 20
-1.249545734471134
 11
0.8945045989712667
 21
-1.226449709965315
 72
     1
 10
0.8945045989712667
 20
-1.226449709965301
 11
0.8152763816321311
 21
-1.226449709965301
 72
     1
 10
0.8152763816321311
 20
-1.226449709965301
 11
0.7525539965988913
 21
-1.186856661692324
 72
     1
 10
0.7525539965988913
 20
-1.186856661692324
 11
0.7426504972153794
 21
-1.140664612680659
 72
     1
 10
0.7426504972153652
 20
-1.140664612680673
 11
0.7393493307541803
 21
-0.394994193697137
 72
     1
 10
0.7393493307541803
 20
-0.394994193697137
 11
0.7558551630600619
 21
-0.3389038484687106
 72
     1
 10
0.7558551630600761
 20
-0.3389038484687106
 11
0.7987705493262496
 21
-0.2828136398344298
 72
     1
 10
0.7987705493262496
 20
-0.2828136398344227
 11
0.8614929343594894
 21
-0.2498193191118148
 72
     1
 10
0.8614929343594894
 20
-0.2498193191118148
 11
0.9374197629665985
 21
-0.2399211594891923
 72
     1
 10
0.9374197629665985
 20
-0.2399211594891923
 11
1.010045647383407
 21
-0.2663164794731117
 72
     1
 10
1.010045647383407
 20
-0.2663164794731259
 11
1.056262200110722
 21
-0.3092090964125234
 72
     1
 10
1.056262200110722
 20
-0.3092090964125091
 11
1.085972698261343
 21
-0.361999872974522
 72
     1
 10
1.085972698261358
 20
-0.3619998729745291
 11
1.092575031183727
 21
-0.4246889457533243
 72
     1
 10
1.092575031183727
 20
-0.4246889457533243
 11
1.115683196411993
 21
-0.4246889457533243
 72
     1
 10
1.115683196411978
 20
-0.4246889457533243
 11
1.109080863489609
 21
-0.17723195011623
 72
     1
 10
1.109080863489609
 20
-0.17723195011623
 11
1.109080863489609
 21
-0.1739325180439621
 72
     1
 10
1.109080863489609
 20
-0.1739325180439621
 11
1.105779697028424
 21
-0.1739325180439621
 97
        0
 75
     0
 76
     1
 52
0.0
 41
0.078125
 77
     0
 78
     1
 53
0.0
 43
-28.182772630023
 44
-32.9923404580304
 45
0.0
 46
0.009765625
 79
     0
 98
        1
 10
-28.182772630023
 20
-32.9923404580304
  0
LWPOLYLINE
  5
71300
330
712FC
100
AcDbEntity
  8
0
 62
    22
100
AcDbPolyline
 90
        4
 70
     1
 43
0.0
 10
0.0262955969727301
 20
-0.0287577800528069
 10
1.307151517972869
 20
-0.0287577800528069
 10
1.307151517972869
 20
-1.731261997456265
 10
0.0262955969727301
 20
-1.731261997456265
  0
LINE
  5
71301
330
712FC
100
AcDbEntity
  8
0
 62
    22
100
AcDbLine
 10
0.0262955969727443
 20
-1.4112176328236
 30
0.0
 11
1.307151517972869
 21
-1.4112176328236
 31
0.0
  0
ATTDEF
  5
71302
330
712FC
100
AcDbEntity
  8
A1
 62
    22
100
AcDbText
 10
0.6781304052809105
 20
-1.678298248906529
 30
0.0
 40
0.2126953125
  1

 72
     1
 11
0.6781304052809105
 21
-1.678298248906529
 31
0.0
100
AcDbAttributeDefinition
  3
ADD STONE MARKER
  2
XXXX
 70
     0
  0
LINE
  5
71303
330
712FC
100
AcDbEntity
  8
0
 62
    22
100
AcDbLine
 10
0.7464576960363587
 20
-1.129021462591367
 30
0.0
 11
0.74595166367655
 21
-1.12746688439163
 31
0.0
  0
ARC
  5
71304
330
712FC
100
AcDbEntity
  8
0
 62
    22
100
AcDbCircle
 10
0.8421255873066684
 20
-1.127299146756172
 30
0.0
 40
0.0956833935014068
100
AcDbArc
 50
181.0313885659746
 51
269.7936990713142
  0
LINE
  5
71305
330
712FC
100
AcDbEntity
  8
0
 62
    22
100
AcDbLine
 10
0.9011069318936506
 20
-1.22315027789304
 30
0.0
 11
0.841781067510368
 21
-1.22315027789304
 31
0.0
  0
LINE
  5
71306
330
712FC
100
AcDbEntity
  8
0
 62
    22
100
AcDbLine
 10
0.9011069318936506
 20
-1.256144598615648
 30
0.0
 11
0.9011069318936506
 21
-1.22315027789304
 31
0.0
  0
ARC
  5
71307
330
712FC
100
AcDbEntity
  8
0
 62
    22
100
AcDbCircle
 10
0.4880203611777887
 20
-1.127299146756172
 30
0.0
 40
0.0956833935014068
100
AcDbArc
 50
270.2063009286848
 51
358.9686114340253
  0
LINE
  5
71308
330
712FC
100
AcDbEntity
  8
0
 62
    22
100
AcDbLine
 10
0.4290390165908207
 20
-1.256144598615648
 30
0.0
 11
0.4290390165908207
 21
-1.22315027789304
 31
0.0
  0
LINE
  5
71309
330
712FC
100
AcDbEntity
  8
0
 62
    22
100
AcDbLine
 10
0.4290390165908207
 20
-1.22315027789304
 30
0.0
 11
0.4883648809740891
 21
-1.22315027789304
 31
0.0
  0
LINE
  5
7130A
330
712FC
100
AcDbEntity
  8
0
 62
    22
100
AcDbLine
 10
0.5836882524480984
 20
-1.129021462591367
 30
0.0
 11
0.5841942848079072
 21
-1.12746688439163
 31
0.0
  0
LINE
  5
7130B
330
712FC
100
AcDbEntity
  8
0
 62
    22
100
AcDbLine
 10
0.4290390165908207
 20
-1.256144598615648
 30
0.0
 11
0.9011069318936506
 21
-1.256144598615648
 31
0.0
  0
LINE
  5
7130C
330
712FC
100
AcDbEntity
  8
0
 62
    22
100
AcDbLine
 10
1.085512597630156
 20
-0.415894330395318
 30
0.0
 11
1.085512597630156
 21
-0.4280723832374847
 31
0.0
  0
ARC
  5
7130D
330
712FC
100
AcDbEntity
  8
0
 62
    22
100
AcDbCircle
 10
0.9138550451562537
 20
-0.4147906495365632
 30
0.0
 40
0.1716611005230106
100
AcDbArc
 50
359.6316189828552
 51
90.00081606717127
  0
ARC
  5
7130E
330
712FC
100
AcDbEntity
  8
0
 62
    22
100
AcDbCircle
 10
0.9180888683309831
 20
-0.4147906495365632
 30
0.0
 40
0.1716611005230106
100
AcDbArc
 50
89.99918393282873
 51
180.3683810171443
  0
LINE
  5
7130F
330
712FC
100
AcDbEntity
  8
0
 62
    22
100
AcDbLine
 10
0.2078601968792952
 20
-0.427988377825578
 30
0.0
 11
0.2441732502230991
 21
-0.427988377825578
 31
0.0
  0
LINE
  5
71310
330
712FC
100
AcDbEntity
  8
0
 62
    22
100
AcDbLine
 10
0.2446333508543006
 20
-0.415894330395318
 30
0.0
 11
0.2446333508543006
 21
-0.4280723832374847
 31
0.0
  0
ARC
  5
71311
330
712FC
100
AcDbEntity
  8
0
 62
    22
100
AcDbCircle
 10
0.4162909033282176
 20
-0.4147906495365632
 30
0.0
 40
0.1716611005230106
100
AcDbArc
 50
89.99918393282873
 51
180.3683810171443
  0
LINE
  5
71312
330
712FC
100
AcDbEntity
  8
0
 62
    22
100
AcDbLine
 10
0.2144627520724782
 20
-0.1706330859717156
 30
0.0
 11
0.2078601968792952
 21
-0.427988377825578
 31
0.0
  0
ARC
  5
71313
330
712FC
100
AcDbEntity
  8
0
 62
    22
100
AcDbCircle
 10
0.4120570801534882
 20
-0.4147906495365632
 30
0.0
 40
0.1716611005230106
100
AcDbArc
 50
359.6316189828552
 51
90.00081606717127
  0
LWPOLYLINE
  5
71314
330
712FC
100
AcDbEntity
  8
0
 62
    22
100
AcDbPolyline
 90
        4
 70
     0
 43
0.0
 10
0.224366029185191
 20
-0.1706330859717084
 10
1.115683196411978
 20
-0.1706330859717084
 10
1.122285751605161
 20
-0.427988377825578
 10
1.085972698261358
 20
-0.427988377825578
  0
ENDBLK
  5
71316
330
712FC
100
AcDbEntity
  8
0
 62
     7
100
AcDbBlockEnd
  0
BLOCK
  5
71845
330
7183A
100
AcDbEntity
  8
0
 62
     7
100
AcDbBlockBegin
  2
*D1
 70
     1
 10
0.0
 20
0.0
 30
0.0
  3
*D1
  1

  0
LINE
  5
71DB3
330
7183A
100
AcDbEntity
  8
A1
 62
     0
100
AcDbLine
 10
402.7849978831686
 20
299.5268856746029
 30
0.0
 11
422.1046569277167
 21
299.5268856746029
 31
0.0
  0
LINE
  5
71DB4
330
7183A
100
AcDbEntity
  8
A1
 62
     0
100
AcDbLine
 10
403.0708429830774
 20
314.0893856746061
 30
0.0
 11
422.1046569277167
 21
314.0893856746061
 31
0.0
  0
LINE
  5
71DB5
330
7183A
100
AcDbEntity
  8
A1
 62
     0
100
AcDbLine
 10
421.3546569277168
 20
301.0268856746029
 30
0.0
 11
421.3546569277168
 21
304.1774467891787
 31
0.0
  0
LINE
  5
71DB6
330
7183A
100
AcDbEntity
  8
A1
 62
     0
100
AcDbLine
 10
421.3546569277168
 20
312.5893856746061
 30
0.0
 11
421.3546569277168
 21
310.4474680506953
 31
0.0
  0
MTEXT
  5
71DB7
330
7183A
100
AcDbEntity
  8
A1
 62
     0
100
AcDbMText
 10
421.3546569277168
 20
307.3124574199371
 30
0.0
 40
3.0
 41
0.0
 71
     5
 72
     1
  1
\A1;14 9/16"
 73
     1
 44
1.0
  0
SOLID
  5
71DB8
330
7183A
100
AcDbEntity
  8
A1
 62
     0
100
AcDbTrace
 10
421.1046569277168
 20
301.0268856746029
 30
0.0
 11
421.6046569277168
 21
301.0268856746029
 31
0.0
 12
421.3546569277168
 22
299.5268856746029
 32
0.0
 13
421.3546569277168
 23
299.5268856746029
 33
0.0
  0
SOLID
  5
71DB9
330
7183A
100
AcDbEntity
  8
A1
 62
     0
100
AcDbTrace
 10
421.1046569277168
 20
312.5893856746061
 30
0.0
 11
421.6046569277168
 21
312.5893856746061
 31
0.0
 12
421.3546569277168
 22
314.0893856746061
 32
0.0
 13
421.3546569277168
 23
314.0893856746061
 33
0.0
  0
POINT
  5
71DBA
330
7183A
100
AcDbEntity
  8
DEFPOINTS
 62
     0
100
AcDbPoint
 10
399.7849978831686
 20
299.5268856746029
 30
0.0
  0
POINT
  5
71DBB
330
7183A
100
AcDbEntity
  8
DEFPOINTS
 62
     0
100
AcDbPoint
 10
400.0708429830774
 20
314.0893856746061
 30
0.0
  0
POINT
  5
71DBC
330
7183A
100
AcDbEntity
  8
DEFPOINTS
 62
     0
100
AcDbPoint
 10
421.3546569277168
 20
314.0893856746061
 30
0.0
  0
ENDBLK
  5
71846
330
7183A
100
AcDbEntity
  8
0
 62
     7
100
AcDbBlockEnd
  0
BLOCK
  5
71853
330
71848
100
AcDbEntity
  8
0
 62
     7
100
AcDbBlockBegin
  2
*D2
 70
     1
 10
0.0
 20
0.0
 30
0.0
  3
*D2
  1

  0
LINE
  5
71DBD
330
71848
100
AcDbEntity
  8
A1
 62
     0
100
AcDbLine
 10
403.0708429830774
 20
314.4643856746059
 30
0.0
 11
421.9456033516467
 21
314.4643856746059
 31
0.0
  0
LINE
  5
71DBE
330
71848
100
AcDbEntity
  8
A1
 62
     0
100
AcDbLine
 10
402.7849978831686
 20
329.0268856746093
 30
0.0
 11
421.9456033516467
 21
329.0268856746093
 31
0.0
  0
LINE
  5
71DBF
330
71848
100
AcDbEntity
  8
A1
 62
     0
100
AcDbLine
 10
421.1956033516467
 20
315.9643856746059
 30
0.0
 11
421.1956033516467
 21
317.6917205078985
 31
0.0
  0
LINE
  5
71DC0
330
71848
100
AcDbEntity
  8
A1
 62
     0
100
AcDbLine
 10
421.1956033516467
 20
327.5268856746093
 30
0.0
 11
421.1956033516467
 21
323.9617417694151
 31
0.0
  0
MTEXT
  5
71DC1
330
71848
100
AcDbEntity
  8
A1
 62
     0
100
AcDbMText
 10
421.1956033516467
 20
320.8267311386569
 30
0.0
 40
3.0
 41
0.0
 71
     5
 72
     1
  1
\A1;14 9/16"
 73
     1
 44
1.0
  0
SOLID
  5
71DC2
330
71848
100
AcDbEntity
  8
A1
 62
     0
100
AcDbTrace
 10
420.9456033516467
 20
315.9643856746059
 30
0.0
 11
421.4456033516468
 21
315.9643856746059
 31
0.0
 12
421.1956033516467
 22
314.4643856746059
 32
0.0
 13
421.1956033516467
 23
314.4643856746059
 33
0.0
  0
SOLID
  5
71DC3
330
71848
100
AcDbEntity
  8
A1
 62
     0
100
AcDbTrace
 10
420.9456033516467
 20
327.5268856746093
 30
0.0
 11
421.4456033516468
 21
327.5268856746093
 31
0.0
 12
421.1956033516467
 22
329.0268856746093
 32
0.0
 13
421.1956033516467
 23
329.0268856746093
 33
0.0
  0
POINT
  5
71DC4
330
71848
100
AcDbEntity
  8
DEFPOINTS
 62
     0
100
AcDbPoint
 10
400.0708429830774
 20
314.4643856746059
 30
0.0
  0
POINT
  5
71DC5
330
71848
100
AcDbEntity
  8
DEFPOINTS
 62
     0
100
AcDbPoint
 10
399.7849978831686
 20
329.0268856746093
 30
0.0
  0
POINT
  5
71DC6
330
71848
100
AcDbEntity
  8
DEFPOINTS
 62
     0
100
AcDbPoint
 10
421.1956033516467
 20
329.0268856746093
 30
0.0
  0
ENDBLK
  5
71854
330
71848
100
AcDbEntity
  8
0
 62
     7
100
AcDbBlockEnd
  0
BLOCK
  5
71861
330
71856
100
AcDbEntity
  8
0
 62
     7
100
AcDbBlockBegin
  2
*D3
 70
     1
 10
0.0
 20
0.0
 30
0.0
  3
*D3
  1

  0
LINE
  5
71DC7
330
71856
100
AcDbEntity
  8
A1
 62
     0
100
AcDbLine
 10
402.7849978831683
 20
299.5268856746032
 30
0.0
 11
437.3737837897874
 21
299.5268856746032
 31
0.0
  0
LINE
  5
71DC8
330
71856
100
AcDbEntity
  8
A1
 62
     0
100
AcDbLine
 10
402.7849978831683
 20
329.0268856746078
 30
0.0
 11
437.3737837897874
 21
329.0268856746078
 31
0.0
  0
LINE
  5
71DC9
330
71856
100
AcDbEntity
  8
A1
 62
     0
100
AcDbLine
 10
436.6237837897874
 20
301.0268856746032
 30
0.0
 11
436.6237837897874
 21
311.3320623941863
 31
0.0
  0
LINE
  5
71DCA
330
71856
100
AcDbEntity
  8
A1
 62
     0
100
AcDbLine
 10
436.6237837897874
 20
327.5268856746078
 30
0.0
 11
436.6237837897874
 21
317.6020836557029
 31
0.0
  0
MTEXT
  5
71DCB
330
71856
100
AcDbEntity
  8
A1
 62
     0
100
AcDbMText
 10
436.6237837897874
 20
314.4670730249447
 30
0.0
 40
3.0
 41
0.0
 71
     5
 72
     1
  1
\A1;29 1/2"
 73
     1
 44
1.0
  0
SOLID
  5
71DCC
330
71856
100
AcDbEntity
  8
A1
 62
     0
100
AcDbTrace
 10
436.3737837897875
 20
301.0268856746032
 30
0.0
 11
436.8737837897874
 21
301.0268856746032
 31
0.0
 12
436.6237837897874
 22
299.5268856746032
 32
0.0
 13
436.6237837897874
 23
299.5268856746032
 33
0.0
  0
SOLID
  5
71DCD
330
71856
100
AcDbEntity
  8
A1
 62
     0
100
AcDbTrace
 10
436.3737837897875
 20
327.5268856746078
 30
0.0
 11
436.8737837897874
 21
327.5268856746078
 31
0.0
 12
436.6237837897874
 22
329.0268856746078
 32
0.0
 13
436.6237837897874
 23
329.0268856746078
 33
0.0
  0
POINT
  5
71DCE
330
71856
100
AcDbEntity
  8
DEFPOINTS
 62
     0
100
AcDbPoint
 10
399.7849978831683
 20
299.5268856746032
 30
0.0
  0
POINT
  5
71DCF
330
71856
100
AcDbEntity
  8
DEFPOINTS
 62
     0
100
AcDbPoint
 10
399.7849978831683
 20
329.0268856746078
 30
0.0
  0
POINT
  5
71DD0
330
71856
100
AcDbEntity
  8
DEFPOINTS
 62
     0
100
AcDbPoint
 10
436.6237837897874
 20
329.0268856746078
 30
0.0
  0
ENDBLK
  5
71862
330
71856
100
AcDbEntity
  8
0
 62
     7
100
AcDbBlockEnd
  0
BLOCK
  5
7187D
330
71872
100
AcDbEntity
  8
0
 62
     7
100
AcDbBlockBegin
  2
*D4
 70
     1
 10
0.0
 20
0.0
 30
0.0
  3
*D4
  1

  0
LINE
  5
71DD1
330
71872
100
AcDbEntity
  8
A1
 62
     0
100
AcDbLine
 10
403.3205317891011
 20
284.6584238601262
 30
0.0
 11
403.3205317891011
 21
294.1420258716085
 31
0.0
  0
LINE
  5
71DD2
330
71872
100
AcDbEntity
  8
A1
 62
     0
100
AcDbLine
 10
373.8242114454643
 20
284.6584238601262
 30
0.0
 11
373.8242114454643
 21
294.1420258716085
 31
0.0
  0
LINE
  5
71DD3
330
71872
100
AcDbEntity
  8
A1
 62
     0
100
AcDbLine
 10
401.8205317891012
 20
293.3920258716085
 30
0.0
 11
398.590468987182
 21
293.3920258716085
 31
0.0
  0
LINE
  5
71DD4
330
71872
100
AcDbEntity
  8
A1
 62
     0
100
AcDbLine
 10
375.3242114454643
 20
293.3920258716085
 30
0.0
 11
379.2361103762678
 21
293.3920258716085
 31
0.0
  0
MTEXT
  5
71DD5
330
71872
100
AcDbEntity
  8
A1
 62
     0
100
AcDbMText
 10
388.9132896817249
 20
293.3920258716085
 30
0.0
 40
3.0
 41
0.0
 71
     5
 72
     1
  1
\A1;29 1/2"
 73
     1
 44
1.0
  0
SOLID
  5
71DD6
330
71872
100
AcDbEntity
  8
A1
 62
     0
100
AcDbTrace
 10
401.8205317891012
 20
293.6420258716085
 30
0.0
 11
401.8205317891012
 21
293.1420258716085
 31
0.0
 12
403.3205317891011
 22
293.3920258716085
 32
0.0
 13
403.3205317891011
 23
293.3920258716085
 33
0.0
  0
SOLID
  5
71DD7
330
71872
100
AcDbEntity
  8
A1
 62
     0
100
AcDbTrace
 10
375.3242114454643
 20
293.6420258716085
 30
0.0
 11
375.3242114454643
 21
293.1420258716085
 31
0.0
 12
373.8242114454643
 22
293.3920258716085
 32
0.0
 13
373.8242114454643
 23
293.3920258716085
 33
0.0
  0
POINT
  5
71DD8
330
71872
100
AcDbEntity
  8
DEFPOINTS
 62
     0
100
AcDbPoint
 10
403.3205317891011
 20
281.6584238601262
 30
0.0
  0
POINT
  5
71DD9
330
71872
100
AcDbEntity
  8
DEFPOINTS
 62
     0
100
AcDbPoint
 10
373.8242114454643
 20
281.6584238601262
 30
0.0
  0
POINT
  5
71DDA
330
71872
100
AcDbEntity
  8
DEFPOINTS
 62
     0
100
AcDbPoint
 10
373.8242114454643
 20
293.3920258716085
 30
0.0
  0
ENDBLK
  5
7187E
330
71872
100
AcDbEntity
  8
0
 62
     7
100
AcDbBlockEnd
  0
BLOCK
  5
7188B
330
71880
100
AcDbEntity
  8
0
 62
     7
100
AcDbBlockBegin
  2
*D5
 70
     1
 10
0.0
 20
0.0
 30
0.0
  3
*D5
  1

  0
LINE
  5
71DDB
330
71880
100
AcDbEntity
  8
A1
 62
     0
100
AcDbLine
 10
400.9594357715214
 20
270.2368224616306
 30
0.0
 11
415.9071017397369
 21
270.2368224616306
 31
0.0
  0
LINE
  5
71DDC
330
71880
100
AcDbEntity
  8
A1
 62
     0
100
AcDbLine
 10
406.3205317891012
 20
281.6584238601262
 30
0.0
 11
415.9071017397369
 21
281.6584238601262
 31
0.0
  0
LINE
  5
71DDD
330
71880
100
AcDbEntity
  8
A1
 62
     0
100
AcDbLine
 10
415.1571017397369
 20
271.7368224616306
 30
0.0
 11
415.1571017397369
 21
272.7679552767541
 31
0.0
  0
LINE
  5
71DDE
330
71880
100
AcDbEntity
  8
A1
 62
     0
100
AcDbLine
 10
415.1571017397369
 20
280.1584238601262
 30
0.0
 11
415.1571017397369
 21
279.0379765382707
 31
0.0
  0
MTEXT
  5
71DDF
330
71880
100
AcDbEntity
  8
A1
 62
     0
100
AcDbMText
 10
415.1571017397369
 20
275.9029659075125
 30
0.0
 40
3.0
 41
0.0
 71
     5
 72
     1
  1
\A1;11 7/16"
 73
     1
 44
1.0
  0
SOLID
  5
71DE0
330
71880
100
AcDbEntity
  8
A1
 62
     0
100
AcDbTrace
 10
414.9071017397369
 20
271.7368224616306
 30
0.0
 11
415.4071017397369
 21
271.7368224616306
 31
0.0
 12
415.1571017397369
 22
270.2368224616306
 32
0.0
 13
415.1571017397369
 23
270.2368224616306
 33
0.0
  0
SOLID
  5
71DE1
330
71880
100
AcDbEntity
  8
A1
 62
     0
100
AcDbTrace
 10
414.9071017397369
 20
280.1584238601262
 30
0.0
 11
415.4071017397369
 21
280.1584238601262
 31
0.0
 12
415.1571017397369
 22
281.6584238601262
 32
0.0
 13
415.1571017397369
 23
281.6584238601262
 33
0.0
  0
POINT
  5
71DE2
330
71880
100
AcDbEntity
  8
DEFPOINTS
 62
     0
100
AcDbPoint
 10
397.9594357715214
 20
270.2368224616306
 30
0.0
  0
POINT
  5
71DE3
330
71880
100
AcDbEntity
  8
DEFPOINTS
 62
     0
100
AcDbPoint
 10
403.3205317891011
 20
281.6584238601262
 30
0.0
  0
POINT
  5
71DE4
330
71880
100
AcDbEntity
  8
DEFPOINTS
 62
     0
100
AcDbPoint
 10
415.1571017397369
 20
281.6584238601262
 30
0.0
  0
ENDBLK
  5
7188C
330
71880
100
AcDbEntity
  8
0
 62
     7
100
AcDbBlockEnd
  0
BLOCK
  5
7197A
330
71973
100
AcDbEntity
  8
0
 62
     7
100
AcDbBlockBegin
  2
*D6
 70
     1
 10
0.0
 20
0.0
 30
0.0
  3
*D6
  1

  0
LINE
  5
71DE5
330
71973
100
AcDbEntity
  8
A1
 62
     0
100
AcDbLine
 10
369.2754347801815
 20
298.6595179848298
 30
0.0
 11
370.7754347801815
 21
298.6595179848298
 31
0.0
  0
LINE
  5
71DE6
330
71973
100
AcDbEntity
  8
A1
 62
     0
100
AcDbLine
 10
370.7754347801815
 20
298.6595179848298
 30
0.0
 11
379.9285913419574
 21
306.6916986266883
 31
0.0
  0
MTEXT
  5
71DE7
330
71973
100
AcDbEntity
  8
A1
 62
     0
100
AcDbMText
 10
362.3962710665033
 20
298.6595179848299
 30
0.0
 40
3.0
 41
0.0
 71
     5
 72
     1
  1
\A1;R10"
 73
     1
 44
1.0
  0
SOLID
  5
71DE8
330
71973
100
AcDbEntity
  8
A1
 62
     0
100
AcDbTrace
 10
379.7636959713505
 20
306.8796068935432
 30
0.0
 11
380.0934867125643
 21
306.5037903598335
 31
0.0
 12
381.0560409430868
 22
307.6810708503298
 32
0.0
 13
381.0560409430868
 23
307.6810708503298
 33
0.0
  0
POINT
  5
71DE9
330
71973
100
AcDbEntity
  8
DEFPOINTS
 62
     0
100
AcDbPoint
 10
381.0560409430868
 20
307.6810708503298
 30
0.0
  0
POINT
  5
71DEA
330
71973
100
AcDbEntity
  8
DEFPOINTS
 62
     0
100
AcDbPoint
 10
388.5723716172825
 20
314.276885674606
 30
0.0
  0
ENDBLK
  5
7197B
330
71973
100
AcDbEntity
  8
0
 62
     7
100
AcDbBlockEnd
  0
BLOCK
  5
71CF4
330
71CE7
100
AcDbEntity
  8
0
 62
     7
100
AcDbBlockBegin
  2
*D7
 70
     1
 10
0.0
 20
0.0
 30
0.0
  3
*D7
  1

  0
LINE
  5
71DEB
330
71CE7
100
AcDbEntity
  8
A1
 62
     0
100
AcDbLine
 10
369.8246078397455
 20
273.6189913727751
 30
0.0
 11
356.6769848502303
 21
273.6189913727751
 31
0.0
  0
LINE
  5
71DEC
330
71CE7
100
AcDbEntity
  8
A1
 62
     0
100
AcDbLine
 10
370.8242114454643
 20
281.6584238601262
 30
0.0
 11
356.6769848502303
 21
281.6584238601262
 31
0.0
  0
LINE
  5
71DED
330
71CE7
100
AcDbEntity
  8
A1
 62
     0
100
AcDbLine
 10
357.4269848502303
 20
272.1189913727751
 30
0.0
 11
357.4269848502303
 21
270.618991372775
 31
0.0
  0
LINE
  5
71DEE
330
71CE7
100
AcDbEntity
  8
A1
 62
     0
100
AcDbLine
 10
357.4269848502303
 20
283.1584238601262
 30
0.0
 11
357.4269848502303
 21
284.6584238601262
 31
0.0
  0
LINE
  5
71DEF
330
71CE7
100
AcDbEntity
  8
A1
 62
     0
100
AcDbLine
 10
358.9269848502303
 20
264.8679259280253
 30
0.0
 11
357.4269848502303
 21
264.8679259280253
 31
0.0
  0
LINE
  5
71DF0
330
71CE7
100
AcDbEntity
  8
A1
 62
     0
100
AcDbLine
 10
357.4269848502303
 20
264.8679259280253
 30
0.0
 11
357.4269848502303
 21
270.618991372775
 31
0.0
  0
MTEXT
  5
71DF1
330
71CE7
100
AcDbEntity
  8
A1
 62
     0
100
AcDbMText
 10
368.6658225539864
 20
264.8679259280254
 30
0.0
 40
3.0
 41
0.0
 71
     5
 72
     1
  1
\A1;8 1/16"
 73
     1
 44
1.0
  0
SOLID
  5
71DF2
330
71CE7
100
AcDbEntity
  8
A1
 62
     0
100
AcDbTrace
 10
357.1769848502303
 20
272.1189913727751
 30
0.0
 11
357.6769848502303
 21
272.1189913727751
 31
0.0
 12
357.4269848502303
 22
273.6189913727751
 32
0.0
 13
357.4269848502303
 23
273.6189913727751
 33
0.0
  0
SOLID
  5
71DF3
330
71CE7
100
AcDbEntity
  8
A1
 62
     0
100
AcDbTrace
 10
357.1769848502303
 20
283.1584238601262
 30
0.0
 11
357.6769848502303
 21
283.1584238601262
 31
0.0
 12
357.4269848502303
 22
281.6584238601262
 32
0.0
 13
357.4269848502303
 23
281.6584238601262
 33
0.0
  0
POINT
  5
71DF4
330
71CE7
100
AcDbEntity
  8
DEFPOINTS
 62
     0
100
AcDbPoint
 10
372.8246078397455
 20
273.6189913727751
 30
0.0
  0
POINT
  5
71DF5
330
71CE7
100
AcDbEntity
  8
DEFPOINTS
 62
     0
100
AcDbPoint
 10
373.8242114454643
 20
281.6584238601262
 30
0.0
  0
POINT
  5
71DF6
330
71CE7
100
AcDbEntity
  8
DEFPOINTS
 62
     0
100
AcDbPoint
 10
357.4269848502303
 20
281.6584238601262
 30
0.0
  0
ENDBLK
  5
71CF5
330
71CE7
100
AcDbEntity
  8
0
 62
     7
100
AcDbBlockEnd
  0
BLOCK
  5
71D72
330
71D46
100
AcDbEntity
  8
0
 62
     7
100
AcDbBlockBegin
  2
TSFORMB
 70
     2
 10
0.0
 20
0.0
 30
0.0
  3
TSFORMB
  1

  0
LINE
  5
71D47
330
71D46
100
AcDbEntity
  8
0
100
AcDbLine
 10
105.9925392881563
 20
78.84810849484797
 30
0.0
 11
105.9925392881563
 21
70.31072004936999
 31
0.0
  0
LINE
  5
71D48
330
71D46
100
AcDbEntity
  8
0
100
AcDbLine
 10
105.9925392881563
 20
0.0
 30
0.0
 11
105.9925392881563
 21
78.84810849484797
 31
0.0
  0
LINE
  5
71D49
330
71D46
100
AcDbEntity
  8
0
100
AcDbLine
 10
0.0
 20
0.0
 30
0.0
 11
105.9925392881563
 21
0.0
 31
0.0
  0
LINE
  5
71D4A
330
71D46
100
AcDbEntity
  8
0
100
AcDbLine
 10
0.0
 20
78.84810849484797
 30
0.0
 11
0.0
 21
0.0
 31
0.0
  0
LINE
  5
71D4B
330
71D46
100
AcDbEntity
  8
0
100
AcDbLine
 10
56.87404547169354
 20
0.0
 30
0.0
 11
56.87404547169354
 21
12.46470592426129
 31
0.0
  0
TEXT
  5
71D4C
330
71D46
100
AcDbEntity
  8
0
 62
     7
100
AcDbText
 10
39.28098221173831
 20
10.97304845086642
 30
0.0
 40
0.8085000000000002
  1
LEGEND
100
AcDbText
  0
TEXT
  5
71D4D
330
71D46
100
AcDbEntity
  8
0
 62
     7
100
AcDbText
 10
38.18320344075362
 20
3.401999220949562
 30
0.0
 40
0.8400000000000002
  1
CATEGORY
 72
     1
 11
41.47652732452399
 21
3.401999220949562
 31
0.0
100
AcDbText
  0
LINE
  5
71D4E
330
71D46
100
AcDbEntity
  8
0
 62
     7
100
AcDbLine
 10
26.78791925899645
 20
8.549200111339303
 30
0.0
 11
29.32320076794366
 21
8.549200111339303
 31
0.0
  0
TEXT
  5
71D4F
330
71D46
100
AcDbEntity
  8
0
 62
     7
100
AcDbText
 10
30.56536100380196
 20
8.165961840384341
 30
0.0
 40
1.05
  1
- Unfinished Side
100
AcDbText
  0
LINE
  5
71D50
330
71D46
100
AcDbEntity
  8
0
100
AcDbLine
 10
25.9704997615305
 20
0.0
 30
0.0
 11
25.9704997615305
 21
12.46470592426129
 31
0.0
  0
ATTDEF
  5
71D51
330
71D46
100
AcDbEntity
  8
A1
 62
     1
100
AcDbText
 10
41.26016333205519
 20
0.916484150045278
 30
0.0
 40
1.025589599999999
  1

 72
     1
 11
41.26016333205519
 21
0.916484150045278
 31
0.0
100
AcDbAttributeDefinition
  3
ADD CATEGORY NAMES
  2
XXXXXX
 70
     0
  0
ATTDEF
  5
71D52
330
71D46
100
AcDbEntity
  8
A1
 62
     1
100
AcDbText
 10
21.55372231158242
 20
1.875018704105684
 30
0.0
 40
0.8400000000000002
  1

 72
     2
 11
21.55372231158242
 21
1.875018704105684
 31
0.0
100
AcDbAttributeDefinition
  3
ADD BARCODE TEXT
  2
XXXXXX
 70
     0
  0
LINE
  5
71D53
330
71D46
100
AcDbEntity
  8
0
 62
     7
100
AcDbLine
 10
25.9704997615305
 20
12.46470592426129
 30
0.0
 11
0.0
 21
12.46470592426129
 31
0.0
  0
ATTDEF
  5
71D54
330
71D46
100
AcDbEntity
  8
A1
 62
     1
100
AcDbText
 10
12.85191920549937
 20
3.11796280247222
 30
0.0
 40
6.132000000000001
  1

  7
barcoder
 72
     1
 11
12.85191920549937
 21
3.11796280247222
 31
0.0
100
AcDbAttributeDefinition
  3
ADD BARCODE NUMBER
  2
BARCODE
 70
     0
  0
LINE
  5
71D55
330
71D46
100
AcDbEntity
  8
0
 62
     7
100
AcDbLine
 10
56.87404547169354
 20
10.31505184057846
 30
0.0
 11
25.9704997615305
 21
10.31505184057846
 31
0.0
  0
LINE
  5
71D56
330
71D46
100
AcDbEntity
  8
0
 62
     7
100
AcDbLine
 10
56.87404547169354
 20
2.864660228904256
 30
0.0
 11
25.9704997615305
 21
2.864660228904256
 31
0.0
  0
LINE
  5
71D57
330
71D46
100
AcDbEntity
  8
0
 62
     7
100
AcDbLine
 10
56.87404547169354
 20
4.753491724833224
 30
0.0
 11
25.9704997615305
 21
4.753491724833224
 31
0.0
  0
LINE
  5
71D58
330
71D46
100
AcDbEntity
  8
0
100
AcDbLine
 10
92.45878286761296
 20
70.31072004936999
 30
0.0
 11
92.45878286761296
 21
78.84810849484797
 31
0.0
  0
ATTDEF
  5
71D59
330
71D46
100
AcDbEntity
  8
A1
 62
     1
100
AcDbText
 10
99.20289126219257
 20
73.40001633244828
 30
0.0
 40
2.079
  1

 72
     1
 11
99.20289126219257
 21
73.40001633244828
 31
0.0
100
AcDbAttributeDefinition
  3
ADD PAGE NUMBER
  2
TS00XX
 70
     0
  0
LINE
  5
71D5A
330
71D46
100
AcDbEntity
  8
0
100
AcDbLine
 10
105.9925392881563
 20
70.31072004936999
 30
0.0
 11
92.45878286761296
 21
70.31072004936999
 31
0.0
  0
LINE
  5
71D5B
330
71D46
100
AcDbEntity
  8
0
100
AcDbLine
 10
105.9925392881563
 20
78.84810849484797
 30
0.0
 11
0.0
 21
78.84810849484797
 31
0.0
  0
TEXT
  5
71D5C
330
71D46
100
AcDbEntity
  8
0
 62
     7
100
AcDbText
 10
101.0916707105178
 20
4.784832420392319
 30
0.0
 40
0.8459472656250001
  1
1:1
100
AcDbText
  0
ARC
  5
71D5D
330
71D46
100
AcDbEntity
  8
0
 62
     7
100
AcDbCircle
 10
92.02173719823599
 20
7.854684255185304
 30
0.0
 40
0.5838368232859321
100
AcDbArc
 50
297.5553548372056
 51
304.8408806463489
  0
LINE
  5
71D5E
330
71D46
100
AcDbEntity
  8
0
 62
     7
100
AcDbLine
 10
96.44018670993672
 20
6.648784575743377
 30
0.0
 11
95.62662822118033
 21
6.648784575743377
 31
0.0
  0
ARC
  5
71D5F
330
71D46
100
AcDbEntity
  8
0
 62
     7
100
AcDbCircle
 10
92.02173719823599
 20
7.854684255185304
 30
0.0
 40
0.5838368232859408
100
AcDbArc
 50
304.8408806463489
 51
297.5553548372056
  0
TEXT
  5
71D60
330
71D46
100
AcDbEntity
  8
0
 62
     7
100
AcDbText
 10
91.5997577365548
 20
7.487990433787842
 30
0.0
 40
0.7875000000000002
  1
R
  7
ROMANC
 72
     1
 11
92.02565639984959
 21
7.487990433787842
 31
0.0
100
AcDbText
  0
LINE
  5
71D61
330
71D46
100
AcDbEntity
  8
0
100
AcDbLine
 10
96.44018670993649
 20
0.0
 30
0.0
 11
96.44018670993695
 21
12.46470592426129
 31
0.0
  0
TEXT
  5
71D62
330
71D46
100
AcDbEntity
  8
0
100
AcDbText
 10
57.83820509574335
 20
4.931128255646488
 30
0.0
 40
1.111564440985976
  1
ARCHITECTURAL CONCRETE CO., INC.
 41
1.25
 72
     4
 11
76.69038922088157
 21
5.404193065577089
 31
0.0
100
AcDbText
  0
TEXT
  5
71D63
330
71D46
100
AcDbEntity
  8
0
100
AcDbText
 10
64.01730751652124
 20
0.6790765005606179
 30
0.0
 40
0.6552430415498756
  1
PHONE: 1-800-789-4841  FAX : 770-463-2635
 41
1.1875
 72
     4
 11
76.73327742292065
 21
1.005769257279496
 31
0.0
100
AcDbText
  0
TEXT
  5
71D64
330
71D46
100
AcDbEntity
  8
0
 62
     7
100
AcDbText
 10
61.23651428794109
 20
7.899354841769707
 30
0.0
 40
3.572100000000002
  1
TannerStone
  7
ROMANC
 72
     1
 11
75.92109734429948
 21
7.899354841769707
 31
0.0
100
AcDbText
  0
TEXT
  5
71D65
330
71D46
100
AcDbEntity
  8
0
100
AcDbText
 10
61.57240842020546
 20
1.964543484004154
 30
0.0
 40
0.6552430415498756
  1
http://TannerStone.com ~ Email:Sales@TannerStone.com 
 41
1.1875
 72
     4
 11
77.08342119362362
 21
2.259193880788984
 31
0.0
100
AcDbText
  0
TEXT
  5
71D66
330
71D46
100
AcDbEntity
  8
0
100
AcDbText
 10
59.98363509556096
 20
3.260563711198551
 30
0.0
 40
0.74899296216962
  1
101 JOHNSTON CIRCLE, PALMETTO, GEORGIA 30268
 41
1.1875
 72
     4
 11
76.85158629384147
 21
3.579323650094977
 31
0.0
100
AcDbText
  0
LINE
  5
71D67
330
71D46
100
AcDbEntity
  8
0
100
AcDbLine
 10
56.87404547169354
 20
6.648784575743377
 30
0.0
 11
105.9925392881563
 21
6.648784575743377
 31
0.0
  0
LINE
  5
71D68
330
71D46
100
AcDbEntity
  8
0
 62
     7
100
AcDbLine
 10
96.44018670993682
 20
9.556745250002336
 30
0.0
 11
105.9925392881563
 21
9.556745250002336
 31
0.0
  0
TEXT
  5
71D69
330
71D46
100
AcDbEntity
  8
0
 62
     7
100
AcDbText
 10
96.66995560986686
 20
8.813345575893606
 30
0.0
 40
0.5414062500000001
  1
LBS/LINEAR FEET:
100
AcDbText
  0
LINE
  5
71D6A
330
71D46
100
AcDbEntity
  8
LINEWORK
 62
     7
100
AcDbLine
 10
96.40991550469017
 20
3.757904136908962
 30
0.0
 11
105.9622680829099
 21
3.757904136909189
 31
0.0
  0
TEXT
  5
71D6B
330
71D46
100
AcDbEntity
  8
0
 62
     7
100
AcDbText
 10
98.85330873086445
 20
1.524519923848686
 30
0.0
 40
0.8459472656250001
  1
1-1-2000
100
AcDbText
  0
TEXT
  5
71D6C
330
71D46
100
AcDbEntity
  8
0
 62
     7
100
AcDbText
 10
96.68542089784603
 20
5.927566558083469
 30
0.0
 40
0.5414062500000001
  1
SCALE:
100
AcDbText
  0
TEXT
  5
71D6D
330
71D46
100
AcDbEntity
  8
0
 62
     7
100
AcDbText
 10
96.74158717246577
 20
2.97910930546476
 30
0.0
 40
0.5414062500000001
  1
DATE:
100
AcDbText
  0
TEXT
  5
71D6E
330
71D46
100
AcDbEntity
  8
0
 62
     7
100
AcDbText
 10
96.70022651293084
 20
11.66518473255649
 30
0.0
 40
0.5414062500000001
  1
PROFILE AREA:
100
AcDbText
  0
ATTDEF
  5
71D6F
330
71D46
100
AcDbEntity
  8
A1
 62
     1
100
AcDbText
 10
101.1759733039033
 20
10.07900441527107
 30
0.0
 40
0.9450000000000002
  1

 72
     1
 11
101.1759733039033
 21
10.07900441527107
 31
0.0
100
AcDbAttributeDefinition
  3
ADD PROFILE AREA
  2
XXXXX
 70
     0
  0
ATTDEF
  5
71D70
330
71D46
100
AcDbEntity
  8
A1
 62
     1
100
AcDbText
 10
101.1418062311347
 20
7.21953861551384
 30
0.0
 40
0.9450000000000002
  1

 72
     1
 11
101.1418062311347
 21
7.21953861551384
 31
0.0
100
AcDbAttributeDefinition
  3
ADD #/LF
  2
XXXXX
 70
     0
  0
LINE
  5
71D71
330
71D46
100
AcDbEntity
  8
0
100
AcDbLine
 10
25.9704997615305
 20
12.46470592426129
 30
0.0
 11
105.9925392881563
 21
12.46470592426129
 31
0.0
  0
ENDBLK
  5
71D73
330
71D46
100
AcDbEntity
  8
0
 62
     7
100
AcDbBlockEnd
  0
ENDSEC
  0
SECTION
  2
ENTITIES
  0
ARC
  5
715CA
330
2
100
AcDbEntity
  8
0
  6
Continuous
100
AcDbCircle
 10
388.5723716172827
 20
314.2768856746061
 30
0.0
 40
10.74999999999999
100
AcDbArc
 50
165.0038162809745
 51
178.9256411771451
  0
ARC
  5
715CB
330
2
100
AcDbEntity
  8
0
  6
Continuous
100
AcDbCircle
 10
388.5723716172827
 20
314.2768856746061
 30
0.0
 40
11.5
100
AcDbArc
 50
158.5549027051904
 51
179.0657882882116
  0
ARC
  5
715CC
330
2
100
AcDbEntity
  8
0
  6
Continuous
100
AcDbCircle
 10
388.5723716172827
 20
314.2768856746061
 30
0.0
 40
10.74999999999999
100
AcDbArc
 50
75.00381628097454
 51
104.9961837190254
  0
ARC
  5
715CD
330
2
100
AcDbEntity
  8
0
  6
Continuous
100
AcDbCircle
 10
388.5723716172827
 20
314.2768856746061
 30
0.0
 40
11.5
100
AcDbArc
 50
68.55490270519348
 51
111.4450972948065
  0
ARC
  5
715CE
330
2
100
AcDbEntity
  8
0
  6
Continuous
100
AcDbCircle
 10
388.5723716172827
 20
314.2768856746061
 30
0.0
 40
10.74999999999999
100
AcDbArc
 50
345.0038162809744
 51
358.9256411771451
  0
ARC
  5
715CF
330
2
100
AcDbEntity
  8
0
  6
Continuous
100
AcDbCircle
 10
388.5723716172827
 20
314.2768856746061
 30
0.0
 40
11.5
100
AcDbArc
 50
338.5549027051904
 51
359.0657882882116
  0
ARC
  5
715D0
330
2
100
AcDbEntity
  8
0
  6
Continuous
100
AcDbCircle
 10
388.5723716172827
 20
314.2768856746061
 30
0.0
 40
10.74999999999999
100
AcDbArc
 50
255.0038162809745
 51
284.9961837190255
  0
ARC
  5
715D1
330
2
100
AcDbEntity
  8
0
  6
Continuous
100
AcDbCircle
 10
388.5723716172827
 20
314.2768856746061
 30
0.0
 40
11.5
100
AcDbArc
 50
248.5549027051934
 51
291.4450972948065
  0
ARC
  5
715D2
330
2
100
AcDbEntity
  8
0
  6
Continuous
100
AcDbCircle
 10
388.5723716172827
 20
314.2768856746061
 30
0.0
 40
11.5
100
AcDbArc
 50
0.9342117117883507
 51
21.44509729480955
  0
ARC
  5
715D3
330
2
100
AcDbEntity
  8
0
  6
Continuous
100
AcDbCircle
 10
388.5723716172827
 20
314.2768856746061
 30
0.0
 40
10.74999999999999
100
AcDbArc
 50
1.074358822854847
 51
14.99618371902547
  0
ARC
  5
715D4
330
2
100
AcDbEntity
  8
0
  6
Continuous
100
AcDbCircle
 10
388.5723716172827
 20
314.2768856746061
 30
0.0
 40
11.5
100
AcDbArc
 50
180.9342117117883
 51
201.4450972948095
  0
ARC
  5
715D5
330
2
100
AcDbEntity
  8
0
  6
Continuous
100
AcDbCircle
 10
388.5723716172827
 20
314.2768856746061
 30
0.0
 40
10.74999999999999
100
AcDbArc
 50
181.0743588228548
 51
194.9961837190254
  0
ARC
  5
715D6
330
2
100
AcDbEntity
  8
0
100
AcDbCircle
 10
362.4939082031886
 20
314.2768856746063
 30
0.0
 40
15.93916782968405
100
AcDbArc
 50
0.6740130072131808
 51
44.70556342334781
  0
ARC
  5
715D7
330
2
100
AcDbEntity
  8
0
100
AcDbCircle
 10
362.4939082031886
 20
314.2768856746063
 30
0.0
 40
15.93916782968405
100
AcDbArc
 50
315.2944365766521
 51
359.3259869927835
  0
ARC
  5
715D8
330
2
100
AcDbEntity
  8
0
100
AcDbCircle
 10
414.6508350313768
 20
314.2768856746063
 30
0.0
 40
15.93916782968405
100
AcDbArc
 50
135.2944365766499
 51
179.3259869927867
  0
ARC
  5
715D9
330
2
100
AcDbEntity
  8
0
100
AcDbCircle
 10
414.6508350313768
 20
314.2768856746063
 30
0.0
 40
15.93916782968405
100
AcDbArc
 50
180.6740130072164
 51
224.7055634233501
  0
ARC
  5
715DA
330
2
100
AcDbEntity
  8
0
100
AcDbCircle
 10
388.5723716172825
 20
340.3553490887002
 30
0.0
 40
15.93916782968405
100
AcDbArc
 50
225.2944365766498
 51
314.7055634233478
  0
ARC
  5
715DB
330
2
100
AcDbEntity
  8
0
100
AcDbCircle
 10
388.5723716172825
 20
288.198422260512
 30
0.0
 40
15.93916782968405
100
AcDbArc
 50
45.29443657665218
 51
134.7055634233478
  0
LINE
  5
715DC
330
2
100
AcDbEntity
  8
0
100
AcDbLine
 10
400.0708429830773
 20
314.4643856746061
 30
0.0
 11
377.073900251488
 21
314.4643856746061
 31
0.0
  0
LINE
  5
715DD
330
2
100
AcDbEntity
  8
0
100
AcDbLine
 10
400.0708429830773
 20
314.0893856746061
 30
0.0
 11
377.073900251488
 21
314.0893856746061
 31
0.0
  0
LINE
  5
715DE
330
2
100
AcDbEntity
  8
0
100
AcDbLine
 10
373.8223716172811
 20
325.4895119404939
 30
0.0
 11
377.3597453513963
 21
329.0268856746091
 31
0.0
  0
LINE
  5
715DF
330
2
100
AcDbEntity
  8
0
100
AcDbLine
 10
403.3205317891007
 20
325.4913517686764
 30
0.0
 11
399.7849978831646
 21
329.0268856746115
 31
0.0
  0
LINE
  5
715E0
330
2
100
AcDbEntity
  8
0
100
AcDbLine
 10
403.3223716172866
 20
303.0642594087216
 30
0.0
 11
399.7849978831683
 21
299.5268856746032
 31
0.0
  0
LINE
  5
715E1
330
2
100
AcDbEntity
  8
0
100
AcDbLine
 10
373.8223716172811
 20
303.0642594087189
 30
0.0
 11
377.3597453513967
 21
299.5268856746032
 31
0.0
  0
ARC
  5
715E2
330
2
100
AcDbEntity
  8
0
  6
HIDDEN
100
AcDbCircle
 10
388.5723716172827
 20
314.2768856746061
 30
0.0
 40
10.0
100
AcDbArc
 50
1.074358822854847
 51
178.9256411771451
  0
ARC
  5
715E3
330
2
100
AcDbEntity
  8
0
  6
HIDDEN
100
AcDbCircle
 10
388.5723716172827
 20
314.2768856746061
 30
0.0
 40
10.0
100
AcDbArc
 50
181.0743588228548
 51
358.9256411771451
  0
INSERT
  5
7182F
330
2
100
AcDbEntity
  8
A1
 62
     7
100
AcDbBlockReference
 66
     1
  2
PROFILE LOGO
 10
379.8417180076342
 20
313.1951416444224
 30
0.0
  0
ATTRIB
  5
71830
330
7182F
100
AcDbEntity
  8
A1
 62
    22
100
AcDbText
 10
380.1327459589817
 20
311.5168433955159
 30
0.0
 40
0.2126953125
  1
0096
 72
     1
 11
380.5198484129151
 21
311.5168433955159
 31
0.0
100
AcDbAttribute
  2
XXXX
 70
     0
  0
SEQEND
  5
71831
330
7182F
100
AcDbEntity
  8
A1
 62
     7
  0
INSERT
  5
71832
330
2
100
AcDbEntity
  8
A1
 62
     7
100
AcDbBlockReference
 66
     1
  2
PROFILE LOGO
 10
379.8417180076342
 20
317.0109366943149
 30
0.0
  0
ATTRIB
  5
71833
330
71832
100
AcDbEntity
  8
A1
 62
    22
100
AcDbText
 10
380.1327459589817
 20
315.3326384454083
 30
0.0
 40
0.2126953125
  1
0096
 72
     1
 11
380.5198484129151
 21
315.3326384454083
 31
0.0
100
AcDbAttribute
  2
XXXX
 70
     0
  0
SEQEND
  5
71834
330
71832
100
AcDbEntity
  8
A1
 62
     7
  0
DIMENSION
  5
71839
330
2
100
AcDbEntity
  8
A1
 62
     7
100
AcDbDimension
  2
*D1
 10
421.3546569277168
 20
314.0893856746061
 30
0.0
 11
421.3546569277168
 21
307.3124574199371
 31
0.0
 70
   160
 71
     5
 42
-1.0
  3
STANDARD
100
AcDbAlignedDimension
 13
399.7849978831686
 23
299.5268856746029
 33
0.0
 14
400.0708429830774
 24
314.0893856746061
 34
0.0
 50
90.0
100
AcDbRotatedDimension
1001
ACAD
1000
DSTYLE
1002
{
1070
    40
1040
3.0
1070
    73
1070
     1
1070
    74
1070
     1
1070
    77
1070
     0
1070
   147
1040
0.5
1070
   279
1070
     1
1070
   288
1070
     1
1070
   289
1070
     3
1002
}
  0
DIMENSION
  5
71847
330
2
100
AcDbEntity
  8
A1
 62
     7
100
AcDbDimension
  2
*D2
 10
421.1956033516467
 20
329.0268856746093
 30
0.0
 11
421.1956033516467
 21
320.8267311386569
 31
0.0
 70
   160
 71
     5
 42
-1.0
  3
STANDARD
100
AcDbAlignedDimension
 13
400.0708429830774
 23
314.4643856746059
 33
0.0
 14
399.7849978831686
 24
329.0268856746093
 34
0.0
 50
90.0
100
AcDbRotatedDimension
1001
ACAD
1000
DSTYLE
1002
{
1070
    40
1040
3.0
1070
    73
1070
     1
1070
    74
1070
     1
1070
    77
1070
     0
1070
   147
1040
0.5
1070
   279
1070
     1
1070
   288
1070
     1
1070
   289
1070
     3
1002
}
  0
DIMENSION
  5
71855
330
2
100
AcDbEntity
  8
A1
 62
     7
100
AcDbDimension
  2
*D3
 10
436.6237837897874
 20
329.0268856746078
 30
0.0
 11
436.6237837897874
 21
314.4670730249447
 31
0.0
 70
   160
 71
     5
 42
-1.0
  3
STANDARD
100
AcDbAlignedDimension
 13
399.7849978831683
 23
299.5268856746032
 33
0.0
 14
399.7849978831683
 24
329.0268856746078
 34
0.0
 50
90.0
100
AcDbRotatedDimension
1001
ACAD
1000
DSTYLE
1002
{
1070
    40
1040
3.0
1070
    73
1070
     1
1070
    74
1070
     1
1070
    77
1070
     0
1070
   147
1040
0.5
1070
   279
1070
     1
1070
   288
1070
     1
1070
   289
1070
     3
1002
}
  0
DIMENSION
  5
71871
330
2
100
AcDbEntity
  8
A1
 62
     7
100
AcDbDimension
  2
*D4
 10
373.8242114454643
 20
293.3920258716085
 30
0.0
 11
388.9132896817249
 21
293.3920258716085
 31
0.0
 70
   160
 71
     5
 42
-1.0
  3
STANDARD
100
AcDbAlignedDimension
 13
403.3205317891011
 23
281.6584238601262
 33
0.0
 14
373.8242114454643
 24
281.6584238601262
 34
0.0
100
AcDbRotatedDimension
1001
ACAD
1000
DSTYLE
1002
{
1070
    40
1040
3.0
1070
    73
1070
     1
1070
    74
1070
     1
1070
    77
1070
     0
1070
   147
1040
0.5
1070
   279
1070
     1
1070
   288
1070
     1
1070
   289
1070
     3
1002
}
  0
DIMENSION
  5
7187F
330
2
100
AcDbEntity
  8
A1
 62
     7
100
AcDbDimension
  2
*D5
 10
415.1571017397369
 20
281.6584238601262
 30
0.0
 11
415.1571017397369
 21
275.9029659075125
 31
0.0
 70
   160
 71
     5
 42
-1.0
  3
STANDARD
100
AcDbAlignedDimension
 13
397.9594357715214
 23
270.2368224616306
 33
0.0
 14
403.3205317891011
 24
281.6584238601262
 34
0.0
 50
90.0
100
AcDbRotatedDimension
1001
ACAD
1000
DSTYLE
1002
{
1070
    40
1040
3.0
1070
    73
1070
     1
1070
    74
1070
     1
1070
    77
1070
     0
1070
   147
1040
0.5
1070
   279
1070
     1
1070
   288
1070
     1
1070
   289
1070
     3
1002
}
  0
SOLID
  5
71929
330
2
100
AcDbEntity
  8
A1
 62
     1
100
AcDbTrace
 10
401.0431417240579
 20
329.9513054133698
 30
0.0
 11
400.6753221417091
 21
330.3093834299414
 31
0.0
 12
399.7849978831686
 22
329.0268856746093
 32
0.0
 13
399.7849978831686
 23
329.0268856746093
 33
0.0
  0
LINE
  5
7192A
330
2
100
AcDbEntity
  8
A1
 62
     1
100
AcDbLine
 10
400.8592319328835
 20
330.1303444216556
 30
0.0
 11
413.4899041819172
 21
343.1046359905828
 31
0.0
  0
ATTDEF
  5
7192B
330
2
100
AcDbEntity
  8
A1
 62
     1
100
AcDbText
 10
432.9212804727077
 20
344.2835647401825
 30
0.0
 40
3.08
  1

100
AcDbAttributeDefinition
  3
ADD LINK NUMBER (WMF)
  2
TS0096
 70
     0
  0
MTEXT
  5
7192C
330
2
100
AcDbEntity
  8
0
 62
     1
100
AcDbMText
 10
433.0408846681108
 20
341.9819570548369
 30
0.0
 40
3.08
 41
0.0
 71
     1
 72
     1
  1
TannerStone
 73
     1
 44
1.0
1001
ACAD
1000
MTEXTBEGIN
1070
    73
1070
     1
1070
    44
1040
1.0
1070
    74
1070
     0
1000
MTEXTEND
  0
MTEXT
  5
7192D
330
2
100
AcDbEntity
  8
0
 62
     1
100
AcDbMText
 10
433.2803312827439
 20
337.3091040505472
 30
0.0
 40
2.275118999999999
 41
0.0
 71
     1
 72
     1
  1
1-800-789-4841
 73
     1
 44
1.0
1001
ACAD
1000
MTEXTBEGIN
1070
    73
1070
     1
1070
    44
1040
1.0
1070
    74
1070
     0
1000
MTEXTEND
  0
LINE
  5
7192E
330
2
100
AcDbEntity
  8
0
 62
     1
100
AcDbLine
 10
413.4899041819172
 20
343.1046359905828
 30
0.0
 11
459.4726311824167
 21
343.1046359905828
 31
0.0
  0
LINE
  5
7192F
330
2
100
AcDbEntity
  8
0
 62
     1
100
AcDbLine
 10
431.4218429975483
 20
333.9022811311139
 30
0.0
 11
431.4218429975483
 21
347.9299987206183
 31
0.0
  0
DIMENSION
  5
71972
330
2
100
AcDbEntity
  8
A1
 62
     7
100
AcDbDimension
  2
*D6
 10
388.5723716172825
 20
314.276885674606
 30
0.0
 11
370.7754347801815
 21
298.6595179848299
 31
0.0
 70
   164
 71
     5
 42
-1.0
  3
STANDARD
100
AcDbRadialDimension
 15
381.0560409430868
 25
307.6810708503298
 35
0.0
 40
0.0
1001
ACAD
1000
DSTYLE
1002
{
1070
    40
1040
3.0
1070
    73
1070
     1
1070
    74
1070
     1
1070
    77
1070
     0
1070
   147
1040
0.5
1070
   279
1070
     1
1070
   288
1070
     1
1070
   289
1070
     3
1002
}
  0
ARC
  5
71A89
330
2
100
AcDbEntity
  8
0
100
AcDbCircle
 10
397.6866386858138
 20
274.5039693895789
 30
0.0
 40
5.498916794952975
100
AcDbArc
 50
340.328038154908
 51
41.99168800627394
  0
ARC
  5
71A8A
330
2
100
AcDbEntity
  8
0
100
AcDbCircle
 10
397.6135984830981
 20
274.4575180536903
 30
0.0
 40
4.867126116248314
100
AcDbArc
 50
354.1920715254514
 51
36.06627788340085
  0
ARC
  5
71A8B
330
2
100
AcDbEntity
  8
0
100
AcDbCircle
 10
399.7353484010719
 20
273.9823933772901
 30
0.0
 40
3.400000000000005
100
AcDbArc
 50
263.0664634443773
 51
336.9805333524283
  0
ARC
  5
71A8C
330
2
100
AcDbEntity
  8
0
100
AcDbCircle
 10
399.8060568250363
 20
274.0059542199595
 30
0.0
 40
2.650000000000005
100
AcDbArc
 50
287.0921260617459
 51
359.11436743598
  0
ARC
  5
71A8D
330
2
100
AcDbEntity
  8
0
100
AcDbCircle
 10
377.4093948334933
 20
273.9823933772901
 30
0.0
 40
3.400000000000005
100
AcDbArc
 50
203.0194666475717
 51
276.9335365556226
  0
ARC
  5
71A8E
330
2
100
AcDbEntity
  8
0
100
AcDbCircle
 10
377.338686409529
 20
274.0059542199595
 30
0.0
 40
2.650000000000005
100
AcDbArc
 50
180.88563256402
 51
252.907873938254
  0
ARC
  5
71A8F
330
2
100
AcDbEntity
  8
0
100
AcDbCircle
 10
379.5311447514671
 20
274.4575180536903
 30
0.0
 40
4.867126116248314
100
AcDbArc
 50
143.9337221165991
 51
185.8079284745485
  0
ARC
  5
71A90
330
2
100
AcDbEntity
  8
0
100
AcDbCircle
 10
379.4581045487515
 20
274.5039693895789
 30
0.0
 40
5.498916794952975
100
AcDbArc
 50
138.008311993726
 51
199.6719618450918
  0
ARC
  5
71AB5
330
2
100
AcDbEntity
  8
0
100
AcDbCircle
 10
395.1079867595859
 20
265.8093076507739
 30
0.0
 40
13.23617280817915
100
AcDbArc
 50
76.10982589910458
 51
112.7132992014659
  0
LINE
  5
71AB6
330
2
100
AcDbEntity
  8
0
100
AcDbLine
 10
389.2170530923229
 20
278.6584238601262
 30
0.0
 11
391.9304903793296
 21
278.6584238601262
 31
0.0
  0
ARC
  5
71AB7
330
2
100
AcDbEntity
  8
0
100
AcDbCircle
 10
382.0367564749798
 20
265.8093076507739
 30
0.0
 40
13.23617280817915
100
AcDbArc
 50
67.28670079853408
 51
103.8901741008954
  0
ARC
  5
71AB8
330
2
100
AcDbEntity
  8
0
100
AcDbCircle
 10
387.1554944661092
 20
277.1184008895122
 30
0.0
 40
1.722775932110297
100
AcDbArc
 50
53.37805909957124
 51
85.57991431429618
  0
ARC
  5
71AB9
330
2
100
AcDbEntity
  8
0
100
AcDbCircle
 10
389.9892487684563
 20
277.1184008895122
 30
0.0
 40
1.722775932110297
100
AcDbArc
 50
134.7699216165479
 51
145.329641254682
  0
LWPOLYLINE
  5
71B3E
330
2
100
AcDbEntity
  8
0
100
AcDbPolyline
 90
        3
 70
     0
 43
0.0
 10
394.5246045431094
 20
274.9609258967641
 42
0.0116435772011067
 10
394.5660456693357
 20
275.1026938779351
 42
0.0653695812413085
 10
394.7046632612526
 20
276.1584238599878
 42
0.0653695812413085
  0
LWPOLYLINE
  5
71B3F
330
2
100
AcDbEntity
  8
0
100
AcDbPolyline
 90
        3
 70
     0
 43
0.0
 10
382.4400799733128
 20
276.1584238601266
 42
0.0653695812515778
 10
382.5786975652366
 20
275.1026938779107
 42
0.0116435771992007
 10
382.6201386914566
 20
274.9609258967633
 42
0.0052253367739482
  0
LWPOLYLINE
  5
71B40
330
2
100
AcDbEntity
  8
0
100
AcDbPolyline
 90
        4
 70
     0
 43
0.0
 10
382.9400799733129
 20
276.1584238601264
 42
0.0653695812514822
 10
383.0617499862725
 20
275.2317688891693
 42
0.0781113884000662
 10
383.3978067688511
 20
274.4731665659352
 42
0.0503327057308638
 10
383.6489609082508
 20
274.1584238601262
 42
0.088253841952902
  0
LWPOLYLINE
  5
71B41
330
2
100
AcDbEntity
  8
0
100
AcDbPolyline
 90
        4
 70
     0
 43
0.0
 10
393.4957823263147
 20
274.1584238601262
 42
0.0503327057313393
 10
393.7469364657166
 20
274.4731665659386
 42
0.0781113884005877
 10
394.0829932482964
 20
275.231768889181
 42
0.0653695812418921
 10
394.2046632612526
 20
276.1584238600046
 42
0.0653695812418921
  0
LWPOLYLINE
  5
71B42
330
2
100
AcDbEntity
  8
0
100
AcDbPolyline
 90
        5
 70
     0
 43
0.0
 10
388.759871617283
 20
274.1792925836119
 42
0.0875003368158957
 10
389.033118582542
 20
274.2936115001551
 42
0.1071769626828323
 10
389.4846735431396
 20
274.7442102977531
 42
0.0781113883982299
 10
389.7578389398107
 20
275.3608439004194
 42
0.0653695812426113
 10
389.8625613738084
 20
276.158423860013
 42
0.0653695812518615
  0
LWPOLYLINE
  5
71B43
330
2
100
AcDbEntity
  8
0
100
AcDbPolyline
 90
        5
 70
     0
 43
0.0
 10
387.282181860757
 20
276.1584238601262
 42
0.06536958125194
 10
387.3869042947548
 20
275.360843900421
 42
0.0781113883986933
 10
387.6600696914259
 20
274.7442102977531
 42
0.1071769626830234
 10
388.111624652024
 20
274.293611500155
 42
0.0875003368160564
 10
388.3848716172832
 20
274.1792925836118
 42
0.1436764452606096
  0
LWPOLYLINE
  5
71B44
330
2
100
AcDbEntity
  8
0
100
AcDbPolyline
 90
        4
 70
     0
 43
0.0
 10
393.1182558296544
 20
274.1584238601262
 42
0.0882538419538021
 10
393.5368559481511
 20
274.6086884318474
 42
0.0781113883998096
 10
393.8414670377768
 20
275.2963063948045
 42
0.065369581242205
 10
393.9546632612526
 20
276.158423860013
 42
0.0653695812513122
  0
LWPOLYLINE
  5
71B45
330
2
100
AcDbEntity
  8
0
100
AcDbPolyline
 90
        4
 70
     0
 43
0.0
 10
383.1900799733129
 20
276.1584238601262
 42
0.0653695812522393
 10
383.3032761967932
 20
275.296306394788
 42
0.0781113883982921
 10
383.6078872864144
 20
274.6086884318474
 42
0.0882538419538931
 10
384.0264874049111
 20
274.1584238601262
 42
0.1436764452604363
  0
LWPOLYLINE
  5
71B46
330
2
100
AcDbEntity
  8
0
100
AcDbPolyline
 90
        9
 70
     0
 43
0.0
 10
383.4400799733129
 20
276.1584238601262
 42
0.06536958125194
 10
383.5448024073106
 20
275.360843900421
 42
0.0781113883986933
 10
383.8179678039817
 20
274.7442102977531
 42
0.1071769626830234
 10
384.2695227645798
 20
274.293611500155
 42
0.1436764452606297
 10
384.7302697298386
 20
274.1584238601262
 42
0.1436764452606096
 10
385.1910166950978
 20
274.2936115001551
 42
0.1071769626828323
 10
385.6425716556953
 20
274.7442102977531
 42
0.0781113883982299
 10
385.9157370523665
 20
275.3608439004194
 42
0.0653695812426113
 10
386.0204594863643
 20
276.158423860013
 42
0.0653695812518615
  0
LWPOLYLINE
  5
71B47
330
2
100
AcDbEntity
  8
0
100
AcDbPolyline
 90
        4
 70
     0
 43
0.0
 10
385.434052054766
 20
274.1584238601262
 42
0.0882538419538021
 10
385.8526521732627
 20
274.6086884318474
 42
0.0781113883998096
 10
386.1572632628885
 20
275.2963063948045
 42
0.065369581242205
 10
386.2704594863643
 20
276.158423860013
 42
0.0653695812513122
  0
LWPOLYLINE
  5
71B48
330
2
100
AcDbEntity
  8
0
100
AcDbPolyline
 90
        4
 70
     0
 43
0.0
 10
387.032181860757
 20
276.1584238601262
 42
0.0653695812522393
 10
387.1453780842374
 20
275.296306394788
 42
0.0781113883982921
 10
387.4499891738586
 20
274.6086884318474
 42
0.0882538419538931
 10
387.8685892923553
 20
274.1584238601262
 42
0.1436764452604363
  0
LWPOLYLINE
  5
71B49
330
2
100
AcDbEntity
  8
0
100
AcDbPolyline
 90
        4
 70
     0
 43
0.0
 10
389.2761539422102
 20
274.1584238601262
 42
0.0882538419538021
 10
389.6947540607069
 20
274.6086884318474
 42
0.0781113883998096
 10
389.9993651503326
 20
275.2963063948045
 42
0.065369581242205
 10
390.1125613738085
 20
276.158423860013
 42
0.0653695812513122
  0
LWPOLYLINE
  5
71B4A
330
2
100
AcDbEntity
  8
0
100
AcDbPolyline
 90
        4
 70
     0
 43
0.0
 10
390.8742837482012
 20
276.1584238601262
 42
0.0653695812522393
 10
390.9874799716816
 20
275.296306394788
 42
0.0781113883982921
 10
391.2920910613028
 20
274.6086884318474
 42
0.0882538419538931
 10
391.7106911797994
 20
274.1584238601262
 42
0.1436764452604363
  0
LWPOLYLINE
  5
71B4B
330
2
100
AcDbEntity
  8
0
100
AcDbPolyline
 90
        9
 70
     0
 43
0.0
 10
391.1242837482012
 20
276.1584238601262
 42
0.06536958125194
 10
391.2290061821989
 20
275.360843900421
 42
0.0781113883986933
 10
391.5021715788701
 20
274.7442102977531
 42
0.1071769626830234
 10
391.9537265394682
 20
274.293611500155
 42
0.1436764452606297
 10
392.4144735047269
 20
274.1584238601262
 42
0.1436764452606096
 10
392.8752204699861
 20
274.2936115001551
 42
0.1071769626828323
 10
393.3267754305838
 20
274.7442102977531
 42
0.0781113883982299
 10
393.5999408272549
 20
275.3608439004194
 42
0.0653695812426113
 10
393.7046632612526
 20
276.158423860013
 42
0.0653695812518615
  0
ARC
  5
71B4C
330
2
100
AcDbEntity
  8
0
100
AcDbCircle
 10
397.5705317891012
 20
274.4689913727751
 30
0.0
 40
4.25
100
AcDbArc
 50
49.3420183002701
 51
80.31543418715049
  0
ARC
  5
71B4D
330
2
100
AcDbEntity
  8
0
100
AcDbCircle
 10
401.0665590424438
 20
277.908895295734
 30
0.0
 40
0.7583268277384514
100
AcDbArc
 50
196.5334903382134
 51
81.26367679081331
  0
ARC
  5
71B4E
330
2
100
AcDbEntity
  8
0
100
AcDbCircle
 10
379.5742114454643
 20
274.4689913727751
 30
0.0
 40
4.25
100
AcDbArc
 50
140.269236204485
 51
270.0
  0
ARC
  5
71B4F
330
2
100
AcDbEntity
  8
0
100
AcDbCircle
 10
376.0781841921219
 20
277.908895295734
 30
0.0
 40
0.7583268277384514
100
AcDbArc
 50
98.7363232091867
 51
343.4665096617866
  0
LINE
  5
71B50
330
2
100
AcDbEntity
  8
0
100
AcDbLine
 10
400.0349978831685
 20
281.6584238601262
 30
0.0
 11
400.0349978831685
 21
280.6584238601262
 31
0.0
  0
LINE
  5
71B51
330
2
100
AcDbEntity
  8
0
100
AcDbLine
 10
391.7944054649566
 20
280.6584238601262
 30
0.0
 11
403.3205317891016
 21
280.6584238601262
 31
0.0
  0
LINE
  5
71B52
330
2
100
AcDbEntity
  8
0
100
AcDbLine
 10
391.8746819700617
 20
280.5334238601263
 30
0.0
 11
403.2411047231656
 21
280.5334238601263
 31
0.0
  0
LINE
  5
71B53
330
2
100
AcDbEntity
  8
0
100
AcDbLine
 10
392.571983166638
 20
279.6584238601262
 30
0.0
 11
402.6851152616116
 21
279.6584238601262
 31
0.0
  0
LINE
  5
71B54
330
2
100
AcDbEntity
  8
0
100
AcDbLine
 10
392.5586837643821
 20
279.5334238601262
 30
0.0
 11
402.5492656255436
 21
279.5334238601262
 31
0.0
  0
ARC
  5
71B55
330
2
100
AcDbEntity
  8
0
100
AcDbCircle
 10
394.8187758686141
 20
262.7839440508724
 30
0.0
 40
15.49887606546596
100
AcDbArc
 50
77.60823418121565
 51
107.4141150030044
  0
LINE
  5
71B56
330
2
100
AcDbEntity
  8
0
100
AcDbLine
 10
403.3205317891011
 20
281.6584238601262
 30
0.0
 11
403.3205317891011
 21
280.6584238601262
 31
0.0
  0
LINE
  5
71B57
330
2
100
AcDbEntity
  8
0
100
AcDbLine
 10
403.3205317891011
 20
280.6584238601262
 30
0.0
 11
402.6851152616112
 21
279.6584238601262
 31
0.0
  0
LINE
  5
71B58
330
2
100
AcDbEntity
  8
0
100
AcDbLine
 10
402.6851152616112
 20
279.6584238601262
 30
0.0
 11
401.5983181730653
 21
278.6584238601262
 31
0.0
  0
LINE
  5
71B59
330
2
100
AcDbEntity
  8
0
100
AcDbLine
 10
400.0349978831683
 20
280.6584238601262
 30
0.0
 11
399.4527704677055
 21
279.6584238601262
 31
0.0
  0
LINE
  5
71B5A
330
2
100
AcDbEntity
  8
0
100
AcDbLine
 10
399.4527704677055
 20
279.6584238601262
 30
0.0
 11
398.9680225208454
 21
278.6584238601262
 31
0.0
  0
ARC
  5
71B5B
330
2
100
AcDbEntity
  8
0
100
AcDbCircle
 10
397.5705317891012
 20
274.4689913727751
 30
0.0
 40
4.25
100
AcDbArc
 50
270.0
 51
39.73076379551493
  0
ARC
  5
71B5C
330
2
100
AcDbEntity
  8
0
100
AcDbCircle
 10
397.5705317891012
 20
273.6189913727751
 30
0.0
 40
3.400000000000005
100
AcDbArc
 50
180.0
 51
270.0
  0
ARC
  5
71B5D
330
2
100
AcDbEntity
  8
0
100
AcDbCircle
 10
396.8905317891011
 20
273.6189913727751
 30
0.0
 40
2.720000000000027
100
AcDbArc
 50
90.0
 51
180.0
  0
ARC
  5
71B5E
330
2
100
AcDbEntity
  8
0
100
AcDbCircle
 10
396.8905317891011
 20
274.1629913727752
 30
0.0
 40
2.176000000000016
100
AcDbArc
 50
0.0
 51
90.0
  0
ARC
  5
71B5F
330
2
100
AcDbEntity
  8
0
100
AcDbCircle
 10
397.325731789101
 20
274.1629913727752
 30
0.0
 40
1.740800000000035
100
AcDbArc
 50
269.999999999987
 51
0.0
  0
ARC
  5
71B60
330
2
100
AcDbEntity
  8
0
100
AcDbCircle
 10
397.325731789101
 20
273.8148313727752
 30
0.0
 40
1.392640000000028
100
AcDbArc
 50
180.0
 51
269.999999999987
  0
ARC
  5
71B61
330
2
100
AcDbEntity
  8
0
100
AcDbCircle
 10
397.0472037891009
 20
273.8148313727752
 30
0.0
 40
1.114111999999977
100
AcDbArc
 50
90.0
 51
180.0
  0
ARC
  5
71B62
330
2
100
AcDbEntity
  8
0
100
AcDbCircle
 10
397.0472037891283
 20
274.0376537727751
 30
0.0
 40
0.8912895999999932
100
AcDbArc
 50
284.2857761922175
 51
89.99999999297815
  0
ARC
  5
71B63
330
2
100
AcDbEntity
  8
0
100
AcDbCircle
 10
397.5705317891012
 20
274.4689913727751
 30
0.0
 40
3.5
100
AcDbArc
 50
270.0
 51
80.31543418715049
  0
ARC
  5
71B64
330
2
100
AcDbEntity
  8
0
100
AcDbCircle
 10
397.5705317891012
 20
273.6189913727751
 30
0.0
 40
2.650000000000005
100
AcDbArc
 50
180.0
 51
270.0
  0
ARC
  5
71B65
330
2
100
AcDbEntity
  8
0
100
AcDbCircle
 10
396.8905317891011
 20
273.6189913727751
 30
0.0
 40
1.970000000000027
100
AcDbArc
 50
90.0
 51
180.0
  0
ARC
  5
71B66
330
2
100
AcDbEntity
  8
0
100
AcDbCircle
 10
396.8905317891011
 20
274.1629913727752
 30
0.0
 40
1.426000000000016
100
AcDbArc
 50
0.0
 51
90.0
  0
ARC
  5
71B67
330
2
100
AcDbEntity
  8
0
100
AcDbCircle
 10
397.325731789101
 20
274.1629913727752
 30
0.0
 40
0.9908000000000356
100
AcDbArc
 50
266.609615741342
 51
0.0
  0
LINE
  5
71B68
330
2
100
AcDbEntity
  8
0
100
AcDbLine
 10
398.285483139843
 20
278.6584238601262
 30
0.0
 11
401.5983181730653
 21
278.6584238601262
 31
0.0
  0
ARC
  5
71B69
330
2
100
AcDbEntity
  8
0
100
AcDbCircle
 10
400.0540567482259
 20
273.6189913727751
 30
0.0
 40
2.650000000000005
100
AcDbArc
 50
268.4598958431825
 51
270.0
  0
ARC
  5
71B6A
330
2
100
AcDbEntity
  8
0
100
AcDbCircle
 10
389.0859612365399
 20
278.1687203883981
 30
0.0
 40
0.3548811294285526
100
AcDbArc
 50
332.9915659603703
 51
219.7934716621916
  0
ARC
  5
71B6B
330
2
100
AcDbEntity
  8
0
100
AcDbCircle
 10
389.6921554721954
 20
278.4052205574841
 30
0.0
 40
0.4921814493414697
100
AcDbArc
 50
233.8963927732115
 51
308.305087243926
  0
ARC
  5
71B6C
330
2
100
AcDbEntity
  8
0
100
AcDbCircle
 10
389.8676102494613
 20
279.13023741392
 30
0.0
 40
1.588862975513103
100
AcDbArc
 50
228.4271706310641
 51
281.3512866403254
  0
ARC
  5
71B6D
330
2
100
AcDbEntity
  8
0
100
AcDbCircle
 10
391.7686396071022
 20
279.6286672204876
 30
0.0
 40
0.2363976105616185
100
AcDbArc
 50
278.3169898332756
 51
148.2741731075841
  0
ARC
  5
71B6E
330
2
100
AcDbEntity
  8
0
100
AcDbCircle
 10
392.1484352994852
 20
279.6402798314039
 30
0.0
 40
0.4239363177974402
100
AcDbArc
 50
215.3909950657471
 51
117.0782732536721
  0
ARC
  5
71B6F
330
2
100
AcDbEntity
  8
0
100
AcDbCircle
 10
391.1488570664379
 20
280.1555676365643
 30
0.0
 40
0.8182891398548056
100
AcDbArc
 50
350.3036915117384
 51
123.3592698880171
  0
ARC
  5
71B70
330
2
100
AcDbEntity
  8
0
100
AcDbCircle
 10
390.2670707612429
 20
280.8260847637905
 30
0.0
 40
0.4320137726459997
100
AcDbArc
 50
1.71773044448218
 51
161.8820584194593
  0
ARC
  5
71B71
330
2
100
AcDbEntity
  8
0
100
AcDbCircle
 10
389.2292384717105
 20
280.5757339958071
 30
0.0
 40
0.7358117741381491
100
AcDbArc
 50
31.52148654438586
 51
153.2158410685783
  0
ARC
  5
71B72
330
2
100
AcDbEntity
  8
0
100
AcDbCircle
 10
391.1267285357754
 20
280.0660773766159
 30
0.0
 40
0.8834638467032618
100
AcDbArc
 50
118.9648855061663
 51
178.5835826400362
  0
ARC
  5
71B73
330
2
100
AcDbEntity
  8
0
100
AcDbCircle
 10
389.6708519673924
 20
281.2374587628454
 30
0.0
 40
2.40856940407212
100
AcDbArc
 50
274.4200856857037
 51
321.9511623046909
  0
ARC
  5
71B74
330
2
100
AcDbEntity
  8
0
100
AcDbCircle
 10
389.9892487684563
 20
277.1184008895122
 30
0.0
 40
1.722775932110297
100
AcDbArc
 50
94.42008568570381
 51
126.6219409004287
  0
ARC
  5
71B75
330
2
100
AcDbEntity
  8
0
100
AcDbCircle
 10
390.4334083989027
 20
280.5955188565227
 30
0.0
 40
0.6826492174689822
100
AcDbArc
 50
147.6865174828013
 51
216.8053138556404
  0
LINE
  5
71B76
330
2
100
AcDbEntity
  8
0
100
AcDbLine
 10
380.8012027802659
 20
276.2834238601262
 30
0.0
 11
396.3435404541629
 21
276.2834238601262
 31
0.0
  0
LINE
  5
71B77
330
2
100
AcDbEntity
  8
0
100
AcDbLine
 10
382.9424535687538
 20
274.0334238601263
 30
0.0
 11
394.2022896657837
 21
274.0334238601263
 31
0.0
  0
LWPOLYLINE
  5
71B78
330
2
100
AcDbEntity
  8
0
100
AcDbPolyline
 90
        4
 70
     0
 43
0.0
 10
386.1443709773369
 20
274.1584238601262
 42
0.0244585549507346
 10
386.2728132083951
 20
274.3376447000321
 42
0.0781113884006593
 10
386.6403156839263
 20
275.1672313835537
 42
0.0028359598854748
 10
386.6513206735607
 20
275.2093736024268
 42
0.0653695812510214
  0
LWPOLYLINE
  5
71B79
330
2
100
AcDbEntity
  8
0
100
AcDbPolyline
 90
        4
 70
     0
 43
0.0
 10
386.6513206735607
 20
275.2093736024268
 42
0.0028359598863486
 10
386.6623256631986
 20
275.1672313835406
 42
0.0781113884000565
 10
387.0298281387285
 20
274.3376447000288
 42
0.0244585549503438
 10
387.1582703697848
 20
274.1584238601262
 42
0.0882538419529021
  0
LWPOLYLINE
  5
71B7A
330
2
100
AcDbEntity
  8
0
100
AcDbPolyline
 90
        4
 70
     0
 43
0.0
 10
390.4934225610048
 20
275.2093736024268
 42
0.0028359598863486
 10
390.5044275506428
 20
275.1672313835406
 42
0.0781113884000565
 10
390.8719300261726
 20
274.3376447000288
 42
0.0244585549503438
 10
391.000372257229
 20
274.1584238601262
 42
0.0882538419529021
  0
LWPOLYLINE
  5
71B7B
330
2
100
AcDbEntity
  8
0
100
AcDbPolyline
 90
        4
 70
     0
 43
0.0
 10
389.9864728647811
 20
274.1584238601262
 42
0.0244585549507346
 10
390.1149150958393
 20
274.3376447000321
 42
0.0781113884006593
 10
390.4824175713705
 20
275.1672313835537
 42
0.0028359598854748
 10
390.4934225610048
 20
275.2093736024268
 42
0.0653695812510214
  0
LINE
  5
71B7C
330
2
100
AcDbEntity
  8
0
100
AcDbLine
 10
382.920184549528
 20
274.1584238601262
 30
0.0
 11
394.2245586850095
 21
274.1584238601262
 31
0.0
  0
LINE
  5
71B7D
330
2
100
AcDbEntity
  8
0
100
AcDbLine
 10
381.2287280652232
 20
276.1584238601262
 30
0.0
 11
395.9160151692657
 21
276.1584238601262
 31
0.0
  0
ARC
  5
71B7E
330
2
100
AcDbEntity
  8
0
100
AcDbCircle
 10
386.7113348356628
 20
280.5955188565227
 30
0.0
 40
0.6826492174689822
100
AcDbArc
 50
323.1946861443596
 51
32.31348251719871
  0
LINE
  5
71B7F
330
2
100
AcDbEntity
  8
0
100
AcDbLine
 10
384.5860594701838
 20
279.5334238601262
 30
0.0
 11
374.5954776090223
 21
279.5334238601262
 31
0.0
  0
LINE
  5
71B80
330
2
100
AcDbEntity
  8
0
100
AcDbLine
 10
384.572760067928
 20
279.6584238601262
 30
0.0
 11
374.4596279729543
 21
279.6584238601262
 31
0.0
  0
LINE
  5
71B81
330
2
100
AcDbEntity
  8
0
100
AcDbLine
 10
385.2700612645043
 20
280.5334238601263
 30
0.0
 11
373.9036385114003
 21
280.5334238601263
 31
0.0
  0
LINE
  5
71B82
330
2
100
AcDbEntity
  8
0
100
AcDbLine
 10
385.3503377696093
 20
280.6584238601262
 30
0.0
 11
373.8242114454643
 21
280.6584238601262
 31
0.0
  0
ARC
  5
71B83
330
2
100
AcDbEntity
  8
0
100
AcDbCircle
 10
387.1554944661092
 20
277.1184008895122
 30
0.0
 40
1.722775932110297
100
AcDbArc
 50
34.6703587453179
 51
45.23007838345203
  0
ARC
  5
71B84
330
2
100
AcDbEntity
  8
0
100
AcDbCircle
 10
387.4738912671731
 20
281.2374587628454
 30
0.0
 40
2.40856940407212
100
AcDbArc
 50
218.048837695309
 51
265.5799143142962
  0
ARC
  5
71B85
330
2
100
AcDbEntity
  8
0
100
AcDbCircle
 10
386.0180146987901
 20
280.0660773766159
 30
0.0
 40
0.8834638467032618
100
AcDbArc
 50
1.41641735996373
 51
61.03511449383371
  0
ARC
  5
71B86
330
2
100
AcDbEntity
  8
0
100
AcDbCircle
 10
387.9155047628549
 20
280.5757339958071
 30
0.0
 40
0.7358117741381491
100
AcDbArc
 50
26.7841589314216
 51
148.4785134556141
  0
ARC
  5
71B87
330
2
100
AcDbEntity
  8
0
100
AcDbCircle
 10
386.8776724733226
 20
280.8260847637905
 30
0.0
 40
0.4320137726459997
100
AcDbArc
 50
18.11794158054065
 51
178.2822695555178
  0
ARC
  5
71B88
330
2
100
AcDbEntity
  8
0
100
AcDbCircle
 10
385.9958861681276
 20
280.1555676365643
 30
0.0
 40
0.8182891398548056
100
AcDbArc
 50
56.6407301119829
 51
189.6963084882615
  0
ARC
  5
71B89
330
2
100
AcDbEntity
  8
0
100
AcDbCircle
 10
384.9963079350803
 20
279.6402798314039
 30
0.0
 40
0.4239363177974402
100
AcDbArc
 50
62.92172674632786
 51
324.6090049342528
  0
ARC
  5
71B8A
330
2
100
AcDbEntity
  8
0
100
AcDbCircle
 10
385.3761036274633
 20
279.6286672204876
 30
0.0
 40
0.2363976105616185
100
AcDbArc
 50
31.7258268924131
 51
261.6830101667244
  0
LINE
  5
71B8B
330
2
100
AcDbEntity
  8
0
100
AcDbLine
 10
378.8592600947225
 20
278.6584238601262
 30
0.0
 11
375.5464250615001
 21
278.6584238601262
 31
0.0
  0
ARC
  5
71B8C
330
2
100
AcDbEntity
  8
0
100
AcDbCircle
 10
387.2771329851042
 20
279.13023741392
 30
0.0
 40
1.588862975513103
100
AcDbArc
 50
258.6487133596745
 51
311.5728293689357
  0
ARC
  5
71B8D
330
2
100
AcDbEntity
  8
0
100
AcDbCircle
 10
379.8190114454645
 20
274.1629913727752
 30
0.0
 40
0.9908000000000356
100
AcDbArc
 50
180.0
 51
273.390384258658
  0
ARC
  5
71B8E
330
2
100
AcDbEntity
  8
0
100
AcDbCircle
 10
380.2542114454644
 20
274.1629913727752
 30
0.0
 40
1.426000000000016
100
AcDbArc
 50
90.0
 51
180.0
  0
ARC
  5
71B8F
330
2
100
AcDbEntity
  8
0
100
AcDbCircle
 10
380.2542114454644
 20
273.6189913727751
 30
0.0
 40
1.970000000000027
100
AcDbArc
 50
0.0
 51
90.0
  0
ARC
  5
71B90
330
2
100
AcDbEntity
  8
0
100
AcDbCircle
 10
379.5742114454643
 20
273.6189913727751
 30
0.0
 40
2.650000000000005
100
AcDbArc
 50
270.0
 51
0.0
  0
ARC
  5
71B91
330
2
100
AcDbEntity
  8
0
100
AcDbCircle
 10
379.5742114454643
 20
274.4689913727751
 30
0.0
 40
3.5
100
AcDbArc
 50
99.6845658128495
 51
270.0
  0
ARC
  5
71B92
330
2
100
AcDbEntity
  8
0
100
AcDbCircle
 10
382.3259673659519
 20
262.7839440508724
 30
0.0
 40
15.49887606546596
100
AcDbArc
 50
72.58588499699552
 51
102.3917658187843
  0
ARC
  5
71B93
330
2
100
AcDbEntity
  8
0
100
AcDbCircle
 10
387.4525877623701
 20
278.4052205574841
 30
0.0
 40
0.4921814493414697
100
AcDbArc
 50
231.6949127560739
 51
306.1036072267884
  0
ARC
  5
71B94
330
2
100
AcDbEntity
  8
0
100
AcDbCircle
 10
388.0587819980256
 20
278.1687203883981
 30
0.0
 40
0.3548811294285526
100
AcDbArc
 50
320.2065283378082
 51
207.0084340396296
  0
ARC
  5
71B95
330
2
100
AcDbEntity
  8
0
100
AcDbCircle
 10
380.0975394454372
 20
274.0376537727751
 30
0.0
 40
0.8912895999999932
100
AcDbArc
 50
90.00000000702184
 51
255.7142238077823
  0
ARC
  5
71B96
330
2
100
AcDbEntity
  8
0
100
AcDbCircle
 10
380.0975394454646
 20
273.8148313727752
 30
0.0
 40
1.114111999999977
100
AcDbArc
 50
0.0
 51
90.0
  0
ARC
  5
71B97
330
2
100
AcDbEntity
  8
0
100
AcDbCircle
 10
379.8190114454645
 20
273.8148313727752
 30
0.0
 40
1.392640000000028
100
AcDbArc
 50
270.000000000013
 51
0.0
  0
ARC
  5
71B98
330
2
100
AcDbEntity
  8
0
100
AcDbCircle
 10
379.8190114454645
 20
274.1629913727752
 30
0.0
 40
1.740800000000035
100
AcDbArc
 50
180.0
 51
270.000000000013
  0
ARC
  5
71B99
330
2
100
AcDbEntity
  8
0
100
AcDbCircle
 10
380.2542114454644
 20
274.1629913727752
 30
0.0
 40
2.176000000000016
100
AcDbArc
 50
90.0
 51
180.0
  0
ARC
  5
71B9A
330
2
100
AcDbEntity
  8
0
100
AcDbCircle
 10
380.2542114454644
 20
273.6189913727751
 30
0.0
 40
2.720000000000027
100
AcDbArc
 50
0.0
 51
90.0
  0
ARC
  5
71B9B
330
2
100
AcDbEntity
  8
0
100
AcDbCircle
 10
379.5742114454643
 20
273.6189913727751
 30
0.0
 40
3.400000000000005
100
AcDbArc
 50
270.0
 51
0.0
  0
ARC
  5
71B9C
330
2
100
AcDbEntity
  8
0
100
AcDbCircle
 10
379.5742114454643
 20
274.4689913727751
 30
0.0
 40
4.25
100
AcDbArc
 50
99.6845658128495
 51
130.6579816997299
  0
LINE
  5
71B9D
330
2
100
AcDbEntity
  8
0
100
AcDbLine
 10
377.6919727668599
 20
279.6584238601262
 30
0.0
 11
378.1767207137201
 21
278.6584238601262
 31
0.0
  0
LINE
  5
71B9E
330
2
100
AcDbEntity
  8
0
100
AcDbLine
 10
377.1097453513972
 20
280.6584238601262
 30
0.0
 11
377.6919727668599
 21
279.6584238601262
 31
0.0
  0
LINE
  5
71B9F
330
2
100
AcDbEntity
  8
0
100
AcDbLine
 10
377.1097453513972
 20
281.6584238601262
 30
0.0
 11
377.1097453513972
 21
280.6584238601262
 31
0.0
  0
LINE
  5
71BA0
330
2
100
AcDbEntity
  8
0
100
AcDbLine
 10
374.4596279729543
 20
279.6584238601262
 30
0.0
 11
375.5464250615001
 21
278.6584238601262
 31
0.0
  0
LINE
  5
71BA1
330
2
100
AcDbEntity
  8
0
100
AcDbLine
 10
373.8242114454643
 20
280.6584238601262
 30
0.0
 11
374.4596279729543
 21
279.6584238601262
 31
0.0
  0
LINE
  5
71BA2
330
2
100
AcDbEntity
  8
0
100
AcDbLine
 10
387.9276901422428
 20
278.6584238601262
 30
0.0
 11
385.2142528552361
 21
278.6584238601262
 31
0.0
  0
LINE
  5
71BA3
330
2
100
AcDbEntity
  8
0
100
AcDbLine
 10
403.3205317891011
 20
281.6584238601262
 30
0.0
 11
373.8242114454643
 21
281.6584238601262
 31
0.0
  0
LINE
  5
71BA4
330
2
100
AcDbEntity
  8
0
100
AcDbLine
 10
377.1097453513972
 20
281.6584238601262
 30
0.0
 11
377.1097453513972
 21
280.6584238601262
 31
0.0
  0
LINE
  5
71BA5
330
2
100
AcDbEntity
  8
0
100
AcDbLine
 10
373.8242114454643
 20
281.6584238601262
 30
0.0
 11
373.8242114454643
 21
280.6584238601262
 31
0.0
  0
LINE
  5
71BA6
330
2
100
AcDbEntity
  8
0
100
AcDbLine
 10
382.9424535687538
 20
273.9084238601262
 30
0.0
 11
394.1859747393394
 21
273.9084238601262
 31
0.0
  0
DIMENSION
  5
71CE6
330
2
100
AcDbEntity
  8
A1
 62
     7
100
AcDbDimension
  2
*D7
 10
357.4269848502303
 20
281.6584238601262
 30
0.0
 11
357.4269848502303
 21
264.8679259280254
 31
0.0
 70
   160
 71
     5
 42
-1.0
  3
STANDARD
100
AcDbAlignedDimension
 13
372.8246078397455
 23
273.6189913727751
 33
0.0
 14
373.8242114454643
 24
281.6584238601262
 34
0.0
 50
90.0
100
AcDbRotatedDimension
1001
ACAD
1000
DSTYLE
1002
{
1070
    40
1040
3.0
1070
    73
1070
     1
1070
    74
1070
     1
1070
    77
1070
     0
1070
   147
1040
0.5
1070
   279
1070
     1
1070
   288
1070
     1
1070
   289
1070
     3
1002
}
  0
INSERT
  5
71D74
330
2
100
AcDbEntity
  8
A1
 62
     7
100
AcDbBlockReference
 66
     1
  2
TSFORMB
 10
322.7698678120308
 20
236.4203444445809
 30
0.0
 41
1.575
 42
1.575
 43
1.575
  0
ATTRIB
  5
71D75
330
71D74
100
AcDbEntity
  8
A1
 62
     1
100
AcDbText
 10
377.4234361736322
 20
237.8638069809022
 30
0.0
 40
1.615303619999999
  1
COLUMN CAPITAL
 72
     1
 11
387.7546250600177
 21
237.8638069809022
 31
0.0
100
AcDbAttribute
  2
XXXXXX
 70
     0
  0
ATTRIB
  5
71D76
330
71D74
100
AcDbEntity
  8
A1
 62
     1
100
AcDbText
 10
349.4578266611359
 20
239.3734989035473
 30
0.0
 40
1.323
  1
TS0096
 72
     2
 11
356.716980452773
 21
239.3734989035473
 31
0.0
100
AcDbAttribute
  2
XXXXXX
 70
     0
  0
ATTRIB
  5
71D77
330
71D74
100
AcDbEntity
  8
A1
 62
     1
100
AcDbText
 10
333.4744643106923
 20
241.3311358584746
 30
0.0
 40
9.657900000000001
  1
TS0096
  7
barcoder
 72
     1
 11
343.0116405606923
 21
241.3311358584746
 31
0.0
100
AcDbAttribute
  2
BARCODE
 70
     0
  0
ATTRIB
  5
71D78
330
71D74
100
AcDbEntity
  8
A1
 62
     1
100
AcDbText
 10
470.031218732833
 20
352.0253701681869
 30
0.0
 40
3.274425
  1
TS0096
 72
     1
 11
479.014421549984
 21
352.0253701681869
 31
0.0
100
AcDbAttribute
  2
TS00XX
 70
     0
  0
ATTRIB
  5
71D79
330
71D74
100
AcDbEntity
  8
A1
 62
     1
100
AcDbText
 10
477.8673407461887
 20
252.2947763986328
 30
0.0
 40
1.488375
  1
286.18"
 72
     1
 11
482.1220257656785
 21
252.2947763986328
 31
0.0
100
AcDbAttribute
  2
XXXXX
 70
     0
  0
ATTRIB
  5
71D7A
330
71D74
100
AcDbEntity
  8
A1
 62
     1
100
AcDbText
 10
478.3245961306747
 20
247.7911177640152
 30
0.0
 40
1.488375
  1
258.35
 72
     1
 11
482.068212626068
 21
247.7911177640152
 31
0.0
100
AcDbAttribute
  2
XXXXX
 70
     0
  0
SEQEND
  5
71D7B
330
71D74
100
AcDbEntity
  8
A1
 62
     7
  0
ENDSEC
  0
SECTION
  2
OBJECTS
  0
DICTIONARY
  5
8
330
0
100
AcDbDictionary
281
     1
  3
ACAD_GROUP
350
21
  3
ACAD_LAYOUT
350
C
  3
ACAD_MLINESTYLE
350
22
  3
ACAD_PLOTSETTINGS
350
23
  3
ACAD_PLOTSTYLENAME
350
7
  3
ASE_INDEX_DICTIONARY
350
71D39
  3
DWGPROPS
350
71DFE
  0
DICTIONARY
  5
3
330
2
100
AcDbDictionary
280
     1
281
     1
  3
ACAD_LAYOUTSELFREF
360
71DAA
  0
DICTIONARY
  5
71DAD
330
D
100
AcDbDictionary
280
     1
281
     1
  3
ACAD_LAYOUTSELFREF
360
71DAE
  0
DICTIONARY
  5
21
102
{ACAD_REACTORS
330
8
102
}
330
8
100
AcDbDictionary
281
     1
  0
DICTIONARY
  5
C
102
{ACAD_REACTORS
330
8
102
}
330
8
100
AcDbDictionary
281
     1
  3
Layout1
350
10
  3
Model
350
B
  0
DICTIONARY
  5
22
102
{ACAD_REACTORS
330
8
102
}
330
8
100
AcDbDictionary
281
     1
  3
STANDARD
350
25
  0
DICTIONARY
  5
23
102
{ACAD_REACTORS
330
8
102
}
330
8
100
AcDbDictionary
281
     1
  0
ACDBDICTIONARYWDFLT
  5
7
102
{ACAD_REACTORS
330
8
102
}
330
8
100
AcDbDictionary
281
     1
  3
Normal
350
6
100
AcDbDictionaryWithDefault
340
6
  0
DICTIONARY
  5
71D39
102
{ACAD_REACTORS
330
8
102
}
330
8
100
AcDbDictionary
281
     1
  3
ASEBlockHierarchyIndexRecord
350
71D3B
1001
DCO15
1040
1365243444.359999
  0
XRECORD
  5
71DFE
102
{ACAD_REACTORS
330
8
102
}
330
8
100
AcDbXrecord
280
     1
  1
DWGPROPS COOKIE
  2

  3

  4

  6

  7

  8
catalog
  9

300
=
301
=
302
=
303
=
304
=
305
=
306
=
307
=
308
=
309
=
 40
1.984863310185185
 41
2451085.66483831
 42
2451660.532835069
  1

 90
        0
  0
XRECORD
  5
71DAA
102
{ACAD_REACTORS
330
3
102
}
330
3
100
AcDbXrecord
280
     1
340
2
  0
XRECORD
  5
71DAE
102
{ACAD_REACTORS
330
71DAD
102
}
330
71DAD
100
AcDbXrecord
280
     1
340
D
  0
LAYOUT
  5
10
102
{ACAD_REACTORS
330
C
102
}
330
C
100
AcDbPlotSettings
  1

  2
None
  4

  6

 40
0.0
 41
0.0
 42
0.0
 43
0.0
 44
0.0
 45
0.0
 46
0.0
 47
0.0
 48
0.0
 49
0.0
140
0.0
141
0.0
142
1.0
143
1.0
 70
   688
 72
     0
 73
     0
 74
     5
  7

 75
    16
147
1.0
148
0.0
149
0.0
100
AcDbLayout
  1
Layout1
 70
     1
 71
     1
 10
0.0
 20
0.0
 11
12.0
 21
9.0
 12
0.0
 22
0.0
 32
0.0
 14
1.000000000000000E+20
 24
1.000000000000000E+20
 34
1.000000000000000E+20
 15
-1.000000000000000E+20
 25
-1.000000000000000E+20
 35
-1.000000000000000E+20
146
0.0
 13
0.0
 23
0.0
 33
0.0
 16
1.0
 26
0.0
 36
0.0
 17
0.0
 27
1.0
 37
0.0
 76
     0
330
D
  0
LAYOUT
  5
B
102
{ACAD_REACTORS
330
C
102
}
330
C
100
AcDbPlotSettings
  1

  2
HP LaserJet 5.pc3
  4
Letter
  6

 40
7.143749713897705
 41
6.381738662719726
 42
7.14373779296875
 43
6.381744384765625
 44
215.8999938964843
 45
279.3999938964843
 46
0.0
 47
0.0
 48
102.934876613363
 49
-10.03275235899575
140
166.0256738086942
141
36.90064555460422
142
1.0
143
16.53197924454786
 70
 11952
 72
     0
 73
     1
 74
     1
  7

 75
     0
147
0.0604888250346548
148
-8012.152298934635
149
-5960.162807270227
100
AcDbLayout
  1
Model
 70
     1
 71
     0
 10
0.0
 20
0.0
 11
12.0
 21
9.0
 12
0.0
 22
0.0
 32
0.0
 14
0.0
 24
0.0
 34
0.0
 15
0.0
 25
0.0
 35
0.0
146
0.0
 13
0.0
 23
0.0
 33
0.0
 16
1.0
 26
0.0
 36
0.0
 17
0.0
 27
1.0
 37
0.0
 76
     0
330
2
  0
MLINESTYLE
  5
25
102
{ACAD_REACTORS
330
22
102
}
330
22
100
AcDbMlineStyle
  2
STANDARD
 70
     0
  3

 62
   256
 51
90.0
 52
90.0
 71
     2
 49
0.5
 62
   256
  6
BYLAYER
 49
-0.5
 62
   256
  6
BYLAYER
  0
ACDBPLACEHOLDER
  5
6
102
{ACAD_REACTORS
330
7
102
}
330
7
  0
XRECORD
  5
71D3B
102
{ACAD_REACTORS
330
71D39
102
}
330
71D39
100
AcDbXrecord
280
     1
330
7182F
330
71832
330
0
  0
ENDSEC
  0
EOF
