  0
SECTION
  2
HEADER
  9
$ACADVER
  1
AC1015
  9
$ACADMAINTVER
 70
     6
  9
$DWGCODEPAGE
  3
ANSI_1252
  9
$INSBASE
 10
0.0
 20
0.0
 30
0.0
  9
$EXTMIN
 10
379.9780762507452
 20
332.6055496625179
 30
0.0
  9
$EXTMAX
 10
437.2140474663496
 20
375.1835282497358
 30
0.0
  9
$LIMMIN
 10
0.0
 20
0.0
  9
$LIMMAX
 10
12.0
 20
9.0
  9
$ORTHOMODE
 70
     0
  9
$REGENMODE
 70
     1
  9
$FILLMODE
 70
     1
  9
$QTEXTMODE
 70
     0
  9
$MIRRTEXT
 70
     0
  9
$LTSCALE
 40
1.0
  9
$ATTMODE
 70
     2
  9
$TEXTSIZE
 40
1.0
  9
$TRACEWID
 40
0.05
  9
$TEXTSTYLE
  7
STANDARD
  9
$CLAYER
  8
A1
  9
$CELTYPE
  6
BYLAYER
  9
$CECOLOR
 62
     7
  9
$CELTSCALE
 40
1.0
  9
$DISPSILH
 70
     0
  9
$DIMSCALE
 40
1.0
  9
$DIMASZ
 40
0.5
  9
$DIMEXO
 40
1.0
  9
$DIMDLI
 40
0.0625
  9
$DIMRND
 40
0.0
  9
$DIMDLE
 40
0.0
  9
$DIMEXE
 40
0.25
  9
$DIMTP
 40
0.0
  9
$DIMTM
 40
0.0
  9
$DIMTXT
 40
1.0
  9
$DIMCEN
 40
0.0
  9
$DIMTSZ
 40
0.0
  9
$DIMTOL
 70
     0
  9
$DIMLIM
 70
     0
  9
$DIMTIH
 70
     1
  9
$DIMTOH
 70
     1
  9
$DIMSE1
 70
     0
  9
$DIMSE2
 70
     0
  9
$DIMTAD
 70
     0
  9
$DIMZIN
 70
     0
  9
$DIMBLK
  1

  9
$DIMASO
 70
     1
  9
$DIMSHO
 70
     1
  9
$DIMPOST
  1
"
  9
$DIMAPOST
  1

  9
$DIMALT
 70
     0
  9
$DIMALTD
 70
     0
  9
$DIMALTF
 40
25.4
  9
$DIMLFAC
 40
1.0
  9
$DIMTOFL
 70
     0
  9
$DIMTVP
 40
0.0
  9
$DIMTIX
 70
     0
  9
$DIMSOXD
 70
     0
  9
$DIMSAH
 70
     0
  9
$DIMBLK1
  1

  9
$DIMBLK2
  1

  9
$DIMSTYLE
  2
STANDARD
  9
$DIMCLRD
 70
     0
  9
$DIMCLRE
 70
     0
  9
$DIMCLRT
 70
     0
  9
$DIMTFAC
 40
0.125
  9
$DIMGAP
 40
0.5
  9
$DIMJUST
 70
     0
  9
$DIMSD1
 70
     0
  9
$DIMSD2
 70
     0
  9
$DIMTOLJ
 70
     1
  9
$DIMTZIN
 70
     0
  9
$DIMALTZ
 70
     2
  9
$DIMALTTZ
 70
     2
  9
$DIMUPT
 70
     1
  9
$DIMDEC
 70
     4
  9
$DIMTDEC
 70
     4
  9
$DIMALTU
 70
     2
  9
$DIMALTTD
 70
     0
  9
$DIMTXSTY
  7
STANDARD
  9
$DIMAUNIT
 70
     0
  9
$DIMADEC
 70
     0
  9
$DIMALTRND
 40
0.0
  9
$DIMAZIN
 70
     0
  9
$DIMDSEP
 70
    46
  9
$DIMATFIT
 70
     1
  9
$DIMFRAC
 70
     2
  9
$DIMLDRBLK
  1

  9
$DIMLUNIT
 70
     5
  9
$DIMLWD
 70
    -2
  9
$DIMLWE
 70
    -2
  9
$DIMTMOVE
 70
     1
  9
$LUNITS
 70
     5
  9
$LUPREC
 70
     4
  9
$SKETCHINC
 40
0.1
  9
$FILLETRAD
 40
0.0
  9
$AUNITS
 70
     0
  9
$AUPREC
 70
     1
  9
$MENU
  1
acad
  9
$ELEVATION
 40
0.0
  9
$PELEVATION
 40
0.0
  9
$THICKNESS
 40
0.0
  9
$LIMCHECK
 70
     0
  9
$CHAMFERA
 40
0.75
  9
$CHAMFERB
 40
0.75
  9
$CHAMFERC
 40
0.0
  9
$CHAMFERD
 40
0.0
  9
$SKPOLY
 70
     0
  9
$TDCREATE
 40
2451085.664838310
  9
$TDUCREATE
 40
2451085.831504977
  9
$TDUPDATE
 40
2451660.541670833
  9
$TDUUPDATE
 40
2451660.708337500
  9
$TDINDWG
 40
2.2381596065
  9
$TDUSRTIMER
 40
2.2381596065
  9
$USRTIMER
 70
     1
  9
$ANGBASE
 50
0.0
  9
$ANGDIR
 70
     0
  9
$PDMODE
 70
     0
  9
$PDSIZE
 40
0.0
  9
$PLINEWID
 40
0.0
  9
$SPLFRAME
 70
     0
  9
$SPLINETYPE
 70
     6
  9
$SPLINESEGS
 70
     8
  9
$HANDSEED
  5
8EF88
  9
$SURFTAB1
 70
     6
  9
$SURFTAB2
 70
     6
  9
$SURFTYPE
 70
     6
  9
$SURFU
 70
     6
  9
$SURFV
 70
     6
  9
$UCSBASE
  2

  9
$UCSNAME
  2

  9
$UCSORG
 10
0.0
 20
0.0
 30
0.0
  9
$UCSXDIR
 10
1.0
 20
0.0
 30
0.0
  9
$UCSYDIR
 10
0.0
 20
1.0
 30
0.0
  9
$UCSORTHOREF
  2

  9
$UCSORTHOVIEW
 70
     0
  9
$UCSORGTOP
 10
0.0
 20
0.0
 30
0.0
  9
$UCSORGBOTTOM
 10
0.0
 20
0.0
 30
0.0
  9
$UCSORGLEFT
 10
0.0
 20
0.0
 30
0.0
  9
$UCSORGRIGHT
 10
0.0
 20
0.0
 30
0.0
  9
$UCSORGFRONT
 10
0.0
 20
0.0
 30
0.0
  9
$UCSORGBACK
 10
0.0
 20
0.0
 30
0.0
  9
$PUCSBASE
  2

  9
$PUCSNAME
  2

  9
$PUCSORG
 10
0.0
 20
0.0
 30
0.0
  9
$PUCSXDIR
 10
1.0
 20
0.0
 30
0.0
  9
$PUCSYDIR
 10
0.0
 20
1.0
 30
0.0
  9
$PUCSORTHOREF
  2

  9
$PUCSORTHOVIEW
 70
     0
  9
$PUCSORGTOP
 10
0.0
 20
0.0
 30
0.0
  9
$PUCSORGBOTTOM
 10
0.0
 20
0.0
 30
0.0
  9
$PUCSORGLEFT
 10
0.0
 20
0.0
 30
0.0
  9
$PUCSORGRIGHT
 10
0.0
 20
0.0
 30
0.0
  9
$PUCSORGFRONT
 10
0.0
 20
0.0
 30
0.0
  9
$PUCSORGBACK
 10
0.0
 20
0.0
 30
0.0
  9
$USERI1
 70
     0
  9
$USERI2
 70
     0
  9
$USERI3
 70
     0
  9
$USERI4
 70
     0
  9
$USERI5
 70
     0
  9
$USERR1
 40
0.0
  9
$USERR2
 40
0.0
  9
$USERR3
 40
0.0
  9
$USERR4
 40
0.0
  9
$USERR5
 40
0.0
  9
$WORLDVIEW
 70
     1
  9
$SHADEDGE
 70
     1
  9
$SHADEDIF
 70
    70
  9
$TILEMODE
 70
     1
  9
$MAXACTVP
 70
    16
  9
$PINSBASE
 10
0.0
 20
0.0
 30
0.0
  9
$PLIMCHECK
 70
     0
  9
$PEXTMIN
 10
1.000000000000000E+20
 20
1.000000000000000E+20
 30
1.000000000000000E+20
  9
$PEXTMAX
 10
-1.000000000000000E+20
 20
-1.000000000000000E+20
 30
-1.000000000000000E+20
  9
$PLIMMIN
 10
0.0
 20
0.0
  9
$PLIMMAX
 10
12.0
 20
9.0
  9
$UNITMODE
 70
     0
  9
$VISRETAIN
 70
     0
  9
$PLINEGEN
 70
     0
  9
$PSLTSCALE
 70
     1
  9
$TREEDEPTH
 70
  3020
  9
$CMLSTYLE
  2
STANDARD
  9
$CMLJUST
 70
     0
  9
$CMLSCALE
 40
1.0
  9
$PROXYGRAPHICS
 70
     1
  9
$MEASUREMENT
 70
     0
  9
$CELWEIGHT
370
    -1
  9
$ENDCAPS
280
     0
  9
$JOINSTYLE
280
     0
  9
$LWDISPLAY
290
     0
  9
$INSUNITS
 70
     0
  9
$HYPERLINKBASE
  1

  9
$STYLESHEET
  1

  9
$XEDIT
290
     1
  9
$CEPSNTYPE
380
     0
  9
$PSTYLEMODE
290
     1
  9
$FINGERPRINTGUID
  2

  9
$VERSIONGUID
  2
{383C3566-0C7A-11D4-8DA4-00A0C981A35F}
  9
$EXTNAMES
290
     1
  9
$PSVPSCALE
 40
0.0
  9
$OLESTARTUP
290
     0
  0
ENDSEC
  0
SECTION
  2
CLASSES
  0
CLASS
  1
DICTIONARYVAR
  2
AcDbDictionaryVar
  3
AutoCAD 2000
 90
    32768
280
     0
281
     0
  0
CLASS
  1
LWPOLYLINE
  2
AcDbPolyline
  3
AutoCAD 2000
 90
    32768
280
     0
281
     1
  0
CLASS
  1
RASTERVARIABLES
  2
AcDbRasterVariables
  3
ISM
 90
    32768
280
     0
281
     0
  0
CLASS
  1
ACDBDICTIONARYWDFLT
  2
AcDbDictionaryWithDefault
  3
AutoCAD 2000
 90
        0
280
     0
281
     0
  0
CLASS
  1
ACDBPLACEHOLDER
  2
AcDbPlaceHolder
  3
AutoCAD 2000
 90
        0
280
     0
281
     0
  0
CLASS
  1
LAYOUT
  2
AcDbLayout
  3
AutoCAD 2000
 90
        0
280
     0
281
     0
  0
CLASS
  1
ACME_DOCUMENT
  2
AcMeDbDoc
  3
AcMeServices
 90
    32768
280
     1
281
     0
  0
CLASS
  1
ACMESCOPE
  2
AcMeScope
  3
AcMeServices
 90
    32768
280
     1
281
     0
  0
CLASS
  1
ACMECOMMANDHISTORY
  2
AcMeCommandHistory
  3
AcMeServices
 90
    32768
280
     1
281
     0
  0
CLASS
  1
ACIMSYSVARMAN
  2
AcImSysVarManager
  3
AcMeServices
 90
    32768
280
     1
281
     0
  0
CLASS
  1
ACIMREALSYSVAR
  2
AcImRealSysVar
  3
AcMeServices
 90
    32768
280
     1
281
     0
  0
CLASS
  1
ACIMINTSYSVAR
  2
AcImIntSysVar
  3
AcMeServices
 90
    32768
280
     1
281
     0
  0
CLASS
  1
ACMEDRAWINGMAN
  2
AcMeDrawingMan
  3
AcMeServices
 90
    32768
280
     1
281
     0
  0
CLASS
  1
ACMEVIEW
  2
AcMeView
  3
AcMeServices
 90
    32768
280
     1
281
     0
  0
CLASS
  1
ACDBENTITYCACHE
  2
AcMeEntityCache
  3
AcMeServices
 90
    32768
280
     1
281
     0
  0
CLASS
  1
GSMANAGER
  2
AcMeGSManager
  3
AcMeServices
 90
    32768
280
     1
281
     0
  0
CLASS
  1
AmdtInternalReactor
  2
AmdtInternalReactor
  3
AcMeServices
 90
    32768
280
     1
281
     0
  0
CLASS
  1
ACMESTATEMGR
  2
AcMeStateMgr
  3
AcMeServices
 90
    32768
280
     1
281
     0
  0
CLASS
  1
ACGREFMASTER
  2
AcGrefMaster
  3
AcAttribServices
 90
    32768
280
     1
281
     0
  0
CLASS
  1
AM_DRAWING_MGR
  2
AcDmDwgMgr
  3
AcMechDwgViewMgmt
 90
    32768
280
     1
281
     0
  0
CLASS
  1
AM_DWG_DOCUMENT
  2
AcDmDwgDocument
  3
AcMechDwgViewMgmt
 90
    32768
280
     1
281
     0
  0
CLASS
  1
AM_DWG_SHEET
  2
AcDmSheet
  3
AcMechDwgViewMgmt
 90
    32768
280
     1
281
     0
  0
CLASS
  1
AM_VIEWDIMPARMAP
  2
AcDmViewDimParMap
  3
AcMechDwgViewMgmt
 90
    32768
280
     1
281
     0
  0
CLASS
  1
AM_DWGMGR_NAME
  2
AcDmDwgMgrName
  3
AcMechDwgViewMgmt
 90
    32768
280
     1
281
     0
  0
CLASS
  1
ACME_DATABASE
  2
AcMeDbDatabase
  3
AcMeServices
 90
    32768
280
     1
281
     0
  0
CLASS
  1
ACRFINSADJUSTERMGR
  2
AcRfInsAdjusterMgr
  3
AcMeServices
 90
    32768
280
     1
281
     0
  0
CLASS
  1
ACGREFMASTER
  2
AcGrefacadMaster
  3
AcGrefServices
 90
    32768
280
     1
281
     0
  0
CLASS
  1
AMDTMENUSTATEMGR
  2
AmdtMenuStateMgr
  3
McadcomServices
 90
    32768
280
     1
281
     0
  0
CLASS
  1
AMDTMCOMMENUSTATE
  2
AmdtMcomMenuState
  3
McadcomServices
 90
    32768
280
     1
281
     0
  0
CLASS
  1
ASAPP
  2
AcAsAppObject
  3
AutoSurfServices
 90
    32768
280
     1
281
     0
  0
CLASS
  1
IM_STATIC_MAN
  2
AcImStaticVarManager
  3
AcMeServices
 90
    32768
280
     1
281
     0
  0
CLASS
  1
ACIMSTRSYSVAR
  2
AcImStrSysVar
  3
AcMeServices
 90
    32768
280
     1
281
     0
  0
CLASS
  1
ACIMDBLSTATICVAR
  2
AcImDblStaticVar
  3
AcMeServices
 90
    32768
280
     1
281
     0
  0
CLASS
  1
ACIMSTRSTATICVAR
  2
AcImStrStaticVar
  3
AcMeServices
 90
    32768
280
     1
281
     0
  0
CLASS
  1
ACIMINTSTATICVAR
  2
AcImIntStaticVar
  3
AcMeServices
 90
    32768
280
     1
281
     0
  0
CLASS
  1
ACADGREFMODULE
  2
AcAdGrefModule
  3
AdGrefServices
 90
    32768
280
     1
281
     0
  0
CLASS
  1
AMIMASTER
  2
AmiMaster
  3
AmiServices
 90
    32768
280
     1
281
     0
  0
CLASS
  1
ACASGREFMASTER
  2
AcAsGrefMaster
  3
AutoSurfResolverServices
 90
    32768
280
     1
281
     0
  0
CLASS
  1
MAPIAMMOUDLE
  2
MApiAmModule
  3
MApiAmServices
 90
    32768
280
     1
281
     0
  0
CLASS
  1
AMDTDMMENUSTATE
  2
AmdtDmMenuState
  3
AcMechDwgViewMgmt
 90
    32768
280
     1
281
     0
  0
CLASS
  1
AMDTADMENUSTATE
  2
AmdtAdMenuState
  3
DesignerServices
 90
    32768
280
     1
281
     0
  0
CLASS
  1
ADAPPL
  2
AcAdAppl
  3
DesignerServices
 90
    32768
280
     1
281
     0
  0
CLASS
  1
DEPMGR
  2
AcAdDepMgr
  3
DesignerServices
 90
    32768
280
     1
281
     0
  0
CLASS
  1
PARAMMGR
  2
AcAdParamMgr
  3
DesignerServices
 90
    32768
280
     1
281
     0
  0
CLASS
  1
PARAMSCOPE
  2
AcAdParamScope
  3
DesignerServices
 90
    32768
280
     1
281
     0
  0
CLASS
  1
NAMEDAPPL
  2
AcAdNamedAppl
  3
DesignerServices
 90
    32768
280
     1
281
     0
  0
CLASS
  1
ADHNTMPLT
  2
AdHoleNoteTemplateMgr
  3
DesignerServices
 90
    32768
280
     1
281
     0
  0
CLASS
  1
AM_HNTEMPLATE_MGR_NAME
  2
AdHoleNoteTemplateMgrName
  3
DesignerServices
 90
    32768
280
     1
281
     0
  0
CLASS
  1
AMDTAMMENUSTATE
  2
AmdtAmMenuState
  3
DesignerAssemblies
 90
    32768
280
     1
281
     0
  0
CLASS
  1
ACAMPROJECT
  2
AcAmProject
  3
DesignerAssemblies
 90
    32768
280
     1
281
     0
  0
CLASS
  1
ACAMGRCOMPDEF
  2
AcAmGrCompDef
  3
DesignerAssemblies
 90
    32768
280
     1
281
     0
  0
CLASS
  1
ACCMCONTEXT
  2
AcCmContext
  3
DesignerAssemblies
 90
    32768
280
     1
281
     0
  0
CLASS
  1
ACAMCOMPDEF
  2
AcAmCompDef
  3
DesignerAssemblies
 90
    32768
280
     1
281
     0
  0
CLASS
  1
ACAMCOMPDEFMGR
  2
AcAmCompDefMgr
  3
DesignerAssemblies
 90
    32768
280
     1
281
     0
  0
CLASS
  1
AMCONTEXTMGR
  2
AcAmContextMgr
  3
DesignerAssemblies
 90
    32768
280
     1
281
     0
  0
CLASS
  1
ACAMCONTEXTMODELER
  2
AcAmContextModeler
  3
DesignerAssemblies
 90
    32768
280
     1
281
     0
  0
CLASS
  1
MAPIADMODULE
  2
MApiAdModule
  3
MApiAdServices
 90
    32768
280
     1
281
     0
  0
CLASS
  1
ACMDATADICTIONARY
  2
AcmDataDictionary
  3
"AcmSymBB|Product Description: AutoCAD Mechanical 2000|Company: Autodesk"
 90
    32768
280
     1
281
     0
  0
CLASS
  1
ACMDATAENTRYBLOCK
  2
AcmDataEntryBlock
  3
"AcmSymBB|Product Description: AutoCAD Mechanical 2000|Company: Autodesk"
 90
    32768
280
     1
281
     0
  0
CLASS
  1
AMDTBROWSERDBTAB
  2
AmdtBrowserDbTab
  3
McadcomServices
 90
    32768
280
     1
281
     0
  0
CLASS
  1
CBROWSERAPPOBJECT
  2
CBrowserAppObject
  3
McadcomServices
 90
    32768
280
     1
281
     0
  0
CLASS
  1
DM_PLACEHOLDER
  2
AcDmSelsetPlaceholder
  3
AcMechDwgViewMgmt
 90
    32768
280
     1
281
     0
  0
CLASS
  1
CATALOGSTATE
  2
AcAmCatalogState
  3
DesignerAssemblies
 90
    32768
280
     1
281
     0
  0
CLASS
  1
ACAMGRCOMPDEFSET
  2
AcAmGrCompDefSet
  3
DesignerAssemblies
 90
    32768
280
     1
281
     0
  0
CLASS
  1
AMGOBJPROPCFG
  2
AmgObjPropCfg
  3
"AmgLay|Product Description: AutoCAD Mechanical 2000|Company: Autodesk"
 90
    32769
280
     1
281
     0
  0
CLASS
  1
LAYER_INDEX
  2
AcDbLayerIndex
  3
AutoCAD 2000
 90
    32768
280
     0
281
     0
  0
CLASS
  1
IDBUFFER
  2
AcDbIdBuffer
  3
AutoCAD 2000
 90
    32768
280
     0
281
     0
  0
CLASS
  1
ACRFATTGENMGR
  2
AcRfAttGeneralMgr
  3
AcAttribServices
 90
    32768
280
     1
281
     0
  0
CLASS
  1
PLOTSETTINGS
  2
AcDbPlotSettings
  3
AutoCAD 2000
 90
        0
280
     0
281
     0
  0
CLASS
  1
LONG_TRANSACTION
  2
AcDbLongTransaction
  3
AutoCAD 2000
 90
    32768
280
     0
281
     0
  0
CLASS
  1
LWPOLYLINE
  2
AcDbPolyline
  3
AutoCAD 2000
 90
    32768
280
     0
281
     1
  0
CLASS
  1
HATCH
  2
AcDbHatch
  3
AutoCAD 2000
 90
    32768
280
     0
281
     1
  0
CLASS
  1
XRECORD
  2
AcDbXrecord
  3
AutoCAD 2000
 90
    32768
280
     0
281
     0
  0
ENDSEC
  0
SECTION
  2
TABLES
  0
TABLE
  2
VPORT
  5
1B
330
0
100
AcDbSymbolTable
 70
     2
  0
VPORT
  5
8EF87
330
1B
100
AcDbSymbolTableRecord
100
AcDbViewportTableRecord
  2
*Active
 70
     0
 10
0.0
 20
0.0
 11
1.0
 21
1.0
 12
473.0559590683774
 22
320.8685763461744
 13
0.0
 23
0.0
 14
1.0
 24
1.0
 15
0.0
 25
0.0
 16
0.0
 26
0.0
 36
1.0
 17
-64.46234487877643
 27
33.0238264231553
 37
6.148717398612387
 40
42.9288460327807
 41
1.413068844807467
 42
50.0
 43
-6.148717398612387
 44
-6.148717398612387
 50
0.0
 51
0.0
 71
     0
 72
 20000
 73
     1
 74
     1
 75
     0
 76
     0
 77
     0
 78
     2
281
     0
 65
     1
110
0.0
120
0.0
130
0.0
111
1.0
121
0.0
131
0.0
112
0.0
122
1.0
132
0.0
 79
     0
146
0.0
  0
ENDTAB
  0
TABLE
  2
LTYPE
  5
16
330
0
100
AcDbSymbolTable
 70
     1
  0
LTYPE
  5
17
330
16
100
AcDbSymbolTableRecord
100
AcDbLinetypeTableRecord
  2
BYBLOCK
 70
     0
  3

 72
    65
 73
     0
 40
0.0
  0
LTYPE
  5
18
330
16
100
AcDbSymbolTableRecord
100
AcDbLinetypeTableRecord
  2
BYLAYER
 70
     0
  3

 72
    65
 73
     0
 40
0.0
  0
LTYPE
  5
9
330
16
100
AcDbSymbolTableRecord
100
AcDbLinetypeTableRecord
  2
CONTINUOUS
 70
     0
  3
Solid line
 72
    65
 73
     0
 40
0.0
  0
ENDTAB
  0
TABLE
  2
LAYER
  5
11
330
0
100
AcDbSymbolTable
 70
     4
  0
LAYER
  5
5
330
11
100
AcDbSymbolTableRecord
100
AcDbLayerTableRecord
  2
0
 70
     0
 62
     7
  6
CONTINUOUS
370
    -3
390
6
  0
LAYER
  5
24
330
11
100
AcDbSymbolTableRecord
100
AcDbLayerTableRecord
  2
A1
 70
     0
 62
     7
  6
CONTINUOUS
370
    -3
390
6
  0
LAYER
  5
8BB86
330
11
100
AcDbSymbolTableRecord
100
AcDbLayerTableRecord
  2
Defpoints
 70
     0
 62
     7
  6
CONTINUOUS
290
     0
370
    -3
390
6
  0
LAYER
  5
8EEAF
330
11
100
AcDbSymbolTableRecord
100
AcDbLayerTableRecord
  2
LINEWORK
 70
     0
 62
    41
  6
CONTINUOUS
370
    -3
390
6
  0
ENDTAB
  0
TABLE
  2
STYLE
  5
12
330
0
100
AcDbSymbolTable
 70
     3
  0
STYLE
  5
13
330
12
100
AcDbSymbolTableRecord
100
AcDbTextStyleTableRecord
  2
STANDARD
 70
     0
 40
0.0
 41
1.0
 50
0.0
 71
     0
 42
1.0
  3
unvr55w.ttf
  4

1001
ACAD
1000
Univers
1071
       34
  0
STYLE
  5
8EEB0
330
12
100
AcDbSymbolTableRecord
100
AcDbTextStyleTableRecord
  2
ROMANC
 70
     0
 40
0.0
 41
1.0
 50
0.0
 71
     0
 42
0.5
  3
TIMESBD.TTF
  4

1001
ACAD
1000
Times New Roman
1071
 33554450
  0
STYLE
  5
8EEB1
330
12
100
AcDbSymbolTableRecord
100
AcDbTextStyleTableRecord
  2
barcoder
 70
     0
 40
0.0
 41
1.0
 50
0.0
 71
     0
 42
4.5625
  3
cw_barcd.ttf
  4

1001
ACAD
1000
Barcoder
1071
 33554434
  0
ENDTAB
  0
TABLE
  2
VIEW
  5
19
330
0
100
AcDbSymbolTable
 70
     0
  0
ENDTAB
  0
TABLE
  2
UCS
  5
1A
330
0
100
AcDbSymbolTable
 70
     0
  0
ENDTAB
  0
TABLE
  2
APPID
  5
1D
330
0
100
AcDbSymbolTable
 70
    17
  0
APPID
  5
14
330
1D
100
AcDbSymbolTableRecord
100
AcDbRegAppTableRecord
  2
ACAD
 70
     0
  0
APPID
  5
1BD0
330
1D
100
AcDbSymbolTableRecord
100
AcDbRegAppTableRecord
  2
GENIUS_GENDIM_13
 70
     0
  0
APPID
  5
1BD1
330
1D
100
AcDbSymbolTableRecord
100
AcDbRegAppTableRecord
  2
GENIUS_GENDTOL_13
 70
     0
  0
APPID
  5
1BD2
330
1D
100
AcDbSymbolTableRecord
100
AcDbRegAppTableRecord
  2
GENIUS_GE3DTOL_13
 70
     0
  0
APPID
  5
1BD3
330
1D
100
AcDbSymbolTableRecord
100
AcDbRegAppTableRecord
  2
MCAD_NO_VIS
 70
     0
  0
APPID
  5
1BD4
330
1D
100
AcDbSymbolTableRecord
100
AcDbRegAppTableRecord
  2
ACAD_TEMP_GRAPHIC
 70
     0
  0
APPID
  5
1BD5
330
1D
100
AcDbSymbolTableRecord
100
AcDbRegAppTableRecord
  2
AD_DRAW
 70
     0
  0
APPID
  5
1BD6
330
1D
100
AcDbSymbolTableRecord
100
AcDbRegAppTableRecord
  2
ACATTRIBSERVICES
 70
     0
  0
APPID
  5
1BD7
330
1D
100
AcDbSymbolTableRecord
100
AcDbRegAppTableRecord
  2
ASURF_PCURVE_APPNAME
 70
     0
  0
APPID
  5
1BD8
330
1D
100
AcDbSymbolTableRecord
100
AcDbRegAppTableRecord
  2
DESIGNERASSEMBLIES
 70
     0
  0
APPID
  5
1BD9
330
1D
100
AcDbSymbolTableRecord
100
AcDbRegAppTableRecord
  2
ACADM_DIM_EDIT
 70
     0
  0
APPID
  5
93F1
330
1D
100
AcDbSymbolTableRecord
100
AcDbRegAppTableRecord
  2
AVE_MATERIAL
 70
     0
  0
APPID
  5
7C0E8
330
1D
100
AcDbSymbolTableRecord
100
AcDbRegAppTableRecord
  2
AVE_RENDER
 70
     0
  0
APPID
  5
7C0E9
330
1D
100
AcDbSymbolTableRecord
100
AcDbRegAppTableRecord
  2
AVE_ENTITY_MATERIAL
 70
     0
  0
APPID
  5
7C0EA
330
1D
100
AcDbSymbolTableRecord
100
AcDbRegAppTableRecord
  2
AVE_FINISH
 70
     0
  0
APPID
  5
7C0EB
330
1D
100
AcDbSymbolTableRecord
100
AcDbRegAppTableRecord
  2
AVE_GLOBAL
 70
     0
  0
APPID
  5
7C0EC
330
1D
100
AcDbSymbolTableRecord
100
AcDbRegAppTableRecord
  2
DCO15
 70
     0
  0
ENDTAB
  0
TABLE
  2
DIMSTYLE
  5
1E
330
0
100
AcDbSymbolTable
 70
     1
100
AcDbDimStyleTable
 71
     0
  0
DIMSTYLE
105
1F
102
{ACAD_REACTORS
330
8ED7C
330
8ED8A
330
8ED98
330
8EDA6
330
8EDB4
330
8EDC2
330
8EDD6
330
8EDE4
330
8EDF4
102
}
330
1E
100
AcDbSymbolTableRecord
100
AcDbDimStyleTableRecord
  2
STANDARD
 70
     0
  3
"
 41
0.5
 42
1.0
 43
0.0625
 44
0.25
 73
     0
 74
     0
 77
     3
140
1.0
141
0.0
146
0.125
147
0.125
171
     0
274
     0
276
     2
277
     5
285
     2
286
     2
289
     0
340
13
  0
ENDTAB
  0
TABLE
  2
BLOCK_RECORD
  5
1
330
0
100
AcDbSymbolTable
 70
    18
  0
BLOCK_RECORD
  5
2
102
{ACAD_XDICTIONARY
360
3
102
}
330
1
100
AcDbSymbolTableRecord
100
AcDbBlockTableRecord
  2
*MODEL_SPACE
340
B
  0
BLOCK_RECORD
  5
D
102
{ACAD_XDICTIONARY
360
8EF1D
102
}
330
1
100
AcDbSymbolTableRecord
100
AcDbBlockTableRecord
  2
*PAPER_SPACE
340
10
  0
BLOCK_RECORD
  5
7BB3B
330
1
100
AcDbSymbolTableRecord
100
AcDbBlockTableRecord
  2
*U0
340
0
102
{BLKREFS
331
7C12C
102
}
  0
BLOCK_RECORD
  5
7BB3E
330
1
100
AcDbSymbolTableRecord
100
AcDbBlockTableRecord
  2
*U1
340
0
102
{BLKREFS
331
7C12F
102
}
  0
BLOCK_RECORD
  5
7BB41
330
1
100
AcDbSymbolTableRecord
100
AcDbBlockTableRecord
  2
*U2
340
0
102
{BLKREFS
331
7C130
102
}
  0
BLOCK_RECORD
  5
7BB44
330
1
100
AcDbSymbolTableRecord
100
AcDbBlockTableRecord
  2
*U3
340
0
102
{BLKREFS
331
7C131
102
}
  0
BLOCK_RECORD
  5
8A998
330
1
100
AcDbSymbolTableRecord
100
AcDbBlockTableRecord
  2
*U4
340
0
102
{BLKREFS
331
8AB84
102
}
  0
BLOCK_RECORD
  5
8B050
330
1
100
AcDbSymbolTableRecord
100
AcDbBlockTableRecord
  2
*U5
340
0
102
{BLKREFS
331
8B751
102
}
  0
BLOCK_RECORD
  5
8BB67
330
1
100
AcDbSymbolTableRecord
100
AcDbBlockTableRecord
  2
PROFILE LOGO
340
0
102
{BLKREFS
331
8EE02
331
8EE05
102
}
  0
BLOCK_RECORD
  5
8BC8D
330
1
100
AcDbSymbolTableRecord
100
AcDbBlockTableRecord
  2
*U7
340
0
102
{BLKREFS
331
8BDA9
102
}
  0
BLOCK_RECORD
  5
8ED7D
330
1
100
AcDbSymbolTableRecord
100
AcDbBlockTableRecord
  2
*D8
340
0
  0
BLOCK_RECORD
  5
8ED8B
330
1
100
AcDbSymbolTableRecord
100
AcDbBlockTableRecord
  2
*D9
340
0
  0
BLOCK_RECORD
  5
8ED99
330
1
100
AcDbSymbolTableRecord
100
AcDbBlockTableRecord
  2
*D10
340
0
  0
BLOCK_RECORD
  5
8EDA7
330
1
100
AcDbSymbolTableRecord
100
AcDbBlockTableRecord
  2
*D11
340
0
  0
BLOCK_RECORD
  5
8EDB5
330
1
100
AcDbSymbolTableRecord
100
AcDbBlockTableRecord
  2
*D12
340
0
  0
BLOCK_RECORD
  5
8EDC3
330
1
100
AcDbSymbolTableRecord
100
AcDbBlockTableRecord
  2
*D13
340
0
  0
BLOCK_RECORD
  5
8EDD7
330
1
100
AcDbSymbolTableRecord
100
AcDbBlockTableRecord
  2
*D14
340
0
  0
BLOCK_RECORD
  5
8EDE5
330
1
100
AcDbSymbolTableRecord
100
AcDbBlockTableRecord
  2
*D15
340
0
  0
BLOCK_RECORD
  5
8EDF5
330
1
100
AcDbSymbolTableRecord
100
AcDbBlockTableRecord
  2
*D16
340
0
  0
BLOCK_RECORD
  5
8EEB2
330
1
100
AcDbSymbolTableRecord
100
AcDbBlockTableRecord
  2
TSFORMB
340
0
102
{BLKREFS
331
8EEE0
102
}
  0
ENDTAB
  0
ENDSEC
  0
SECTION
  2
BLOCKS
  0
BLOCK
  5
4
330
2
100
AcDbEntity
  8
0
100
AcDbBlockBegin
  2
*MODEL_SPACE
 70
     2
 10
0.0
 20
0.0
 30
0.0
  3
*MODEL_SPACE
  1

  0
ENDBLK
  5
A
330
2
100
AcDbEntity
  8
0
100
AcDbBlockEnd
  0
BLOCK
  5
E
330
D
100
AcDbEntity
 67
     1
  8
0
100
AcDbBlockBegin
  2
*PAPER_SPACE
 70
     0
 10
0.0
 20
0.0
 30
0.0
  3
*PAPER_SPACE
  1

  0
ENDBLK
  5
F
330
D
100
AcDbEntity
 67
     1
  8
0
100
AcDbBlockEnd
  0
BLOCK
  5
7BB3C
330
7BB3B
100
AcDbEntity
  8
0
100
AcDbBlockBegin
  2
*U0
 70
     1
 10
0.0
 20
0.0
 30
0.0
  3
*U0
  1

  0
ENDBLK
  5
7BB3D
330
7BB3B
100
AcDbEntity
  8
0
100
AcDbBlockEnd
  0
BLOCK
  5
7BB3F
330
7BB3E
100
AcDbEntity
  8
0
100
AcDbBlockBegin
  2
*U1
 70
     1
 10
0.0
 20
0.0
 30
0.0
  3
*U1
  1

  0
ENDBLK
  5
7BB40
330
7BB3E
100
AcDbEntity
  8
0
100
AcDbBlockEnd
  0
BLOCK
  5
7BB42
330
7BB41
100
AcDbEntity
  8
0
100
AcDbBlockBegin
  2
*U2
 70
     1
 10
0.0
 20
0.0
 30
0.0
  3
*U2
  1

  0
ENDBLK
  5
7BB43
330
7BB41
100
AcDbEntity
  8
0
100
AcDbBlockEnd
  0
BLOCK
  5
7BB45
330
7BB44
100
AcDbEntity
  8
0
100
AcDbBlockBegin
  2
*U3
 70
     1
 10
0.0
 20
0.0
 30
0.0
  3
*U3
  1

  0
ENDBLK
  5
7BB46
330
7BB44
100
AcDbEntity
  8
0
100
AcDbBlockEnd
  0
BLOCK
  5
8A999
330
8A998
100
AcDbEntity
  8
0
100
AcDbBlockBegin
  2
*U4
 70
     1
 10
0.0
 20
0.0
 30
0.0
  3
*U4
  1

  0
ENDBLK
  5
8A99A
330
8A998
100
AcDbEntity
  8
0
100
AcDbBlockEnd
  0
BLOCK
  5
8B051
330
8B050
100
AcDbEntity
  8
0
100
AcDbBlockBegin
  2
*U5
 70
     1
 10
0.0
 20
0.0
 30
0.0
  3
*U5
  1

  0
ENDBLK
  5
8B052
330
8B050
100
AcDbEntity
  8
0
100
AcDbBlockEnd
  0
BLOCK
  5
8BB80
330
8BB67
100
AcDbEntity
  8
0
 62
     7
100
AcDbBlockBegin
  2
PROFILE LOGO
 70
     2
 10
0.0
 20
0.0
 30
0.0
  3
PROFILE LOGO
  1

  0
LINE
  5
8BB68
330
8BB67
100
AcDbEntity
  8
0
 62
    22
100
AcDbLine
 10
0.7459516636765642
 20
-0.415894330395318
 30
0.0
 11
0.74595166367655
 21
-1.12746688439163
 31
0.0
  0
LINE
  5
8BB69
330
8BB67
100
AcDbEntity
  8
0
 62
    22
100
AcDbLine
 10
0.5841942848079072
 20
-0.415894330395318
 30
0.0
 11
0.5841942848079072
 21
-1.12746688439163
 31
0.0
  0
HATCH
  5
8BB6A
330
8BB67
100
AcDbEntity
  8
0
 62
    22
100
AcDbHatch
 10
0.0
 20
0.0
 30
0.0
210
0.0
220
0.0
230
1.0
  2
LINE
 70
     0
 71
     0
 91
        1
 92
       33
 93
       38
 72
     1
 10
1.115683196411978
 20
-0.1706330859717084
 11
0.2177636962628071
 21
-0.1706330859717084
 72
     1
 10
0.2177636962628213
 20
-0.1706330859717084
 11
0.2078601968792952
 21
-0.4246889457533243
 72
     1
 10
0.2078601968792952
 20
-0.4246889457533243
 11
0.2375709173007294
 21
-0.4246889457533243
 72
     1
 10
0.2375709173007294
 20
-0.4246889457533243
 11
0.2441732502230991
 21
-0.3817964654080939
 72
     1
 10
0.2441732502230991
 20
-0.3817964654080939
 11
0.254076749606611
 21
-0.3422032805409501
 72
     1
 10
0.2540767496066252
 20
-0.3422032805409501
 11
0.2738837483736916
 21
-0.3092090964125091
 72
     1
 10
0.2738837483736916
 20
-0.3092090964125091
 11
0.2969919136019428
 21
-0.2861130719066693
 72
     1
 10
0.296991913601957
 20
-0.2861130719066764
 11
0.3267026340234338
 21
-0.2663164794731259
 72
     1
 10
0.3267026340234196
 20
-0.2663164794731259
 11
0.356413132174012
 21
-0.2498193191118219
 72
     1
 10
0.356413132174012
 20
-0.2498193191118148
 11
0.3828224638634481
 21
-0.243220591561446
 72
     1
 10
0.3828224638634623
 20
-0.243220591561446
 11
0.4092320178237401
 21
-0.243220591561446
 72
     1
 10
0.4092320178237401
 20
-0.243220591561446
 11
0.4719541805861525
 21
-0.2465198870395469
 72
     1
 10
0.4719541805861525
 20
-0.2465198870395469
 11
0.514869566852326
 21
-0.2729153436176332
 72
     1
 10
0.514869566852326
 20
-0.2729153436176332
 11
0.5742905631535394
 21
-0.3389038484686964
 72
     1
 10
0.5742905631535394
 20
-0.3389038484687106
 11
0.5907966177302626
 21
-0.3916947616248691
 72
     1
 10
0.5907966177302768
 20
-0.3916947616248691
 11
0.5907966177302768
 21
-1.157161773041991
 72
     1
 10
0.5907966177302768
 20
-1.157161773041984
 11
0.5643870637699991
 21
-1.203353685459461
 72
     1
 10
0.5643870637699849
 20
-1.203353685459468
 11
0.4983637345463876
 21
-1.226449709965308
 72
     1
 10
0.4983637345464019
 20
-1.226449709965301
 11
0.4389425159743326
 21
-1.226449709965301
 72
     1
 10
0.4389425159743326
 20
-1.226449709965301
 11
0.4323401830519913
 21
-1.249545734471119
 72
     1
 10
0.4323401830520055
 20
-1.249545734471134
 11
0.8945045989712809
 21
-1.249545734471134
 72
     1
 10
0.8945045989712667
 20
-1.249545734471134
 11
0.8945045989712667
 21
-1.226449709965315
 72
     1
 10
0.8945045989712667
 20
-1.226449709965301
 11
0.8152763816321311
 21
-1.226449709965301
 72
     1
 10
0.8152763816321311
 20
-1.226449709965301
 11
0.7525539965988913
 21
-1.186856661692324
 72
     1
 10
0.7525539965988913
 20
-1.186856661692324
 11
0.7426504972153794
 21
-1.140664612680659
 72
     1
 10
0.7426504972153652
 20
-1.140664612680673
 11
0.7393493307541803
 21
-0.394994193697137
 72
     1
 10
0.7393493307541803
 20
-0.394994193697137
 11
0.7558551630600619
 21
-0.3389038484687106
 72
     1
 10
0.7558551630600761
 20
-0.3389038484687106
 11
0.7987705493262496
 21
-0.2828136398344298
 72
     1
 10
0.7987705493262496
 20
-0.2828136398344227
 11
0.8614929343594894
 21
-0.2498193191118148
 72
     1
 10
0.8614929343594894
 20
-0.2498193191118148
 11
0.9374197629665985
 21
-0.2399211594891923
 72
     1
 10
0.9374197629665985
 20
-0.2399211594891923
 11
1.010045647383407
 21
-0.2663164794731117
 72
     1
 10
1.010045647383407
 20
-0.2663164794731259
 11
1.056262200110722
 21
-0.3092090964125234
 72
     1
 10
1.056262200110722
 20
-0.3092090964125091
 11
1.085972698261343
 21
-0.361999872974522
 72
     1
 10
1.085972698261358
 20
-0.3619998729745291
 11
1.092575031183727
 21
-0.4246889457533243
 72
     1
 10
1.092575031183727
 20
-0.4246889457533243
 11
1.115683196411993
 21
-0.4246889457533243
 72
     1
 10
1.115683196411978
 20
-0.4246889457533243
 11
1.109080863489609
 21
-0.17723195011623
 72
     1
 10
1.109080863489609
 20
-0.17723195011623
 11
1.109080863489609
 21
-0.1739325180439621
 72
     1
 10
1.109080863489609
 20
-0.1739325180439621
 11
1.105779697028424
 21
-0.1739325180439621
 97
        0
 75
     0
 76
     1
 52
0.0
 41
0.078125
 77
     0
 78
     1
 53
0.0
 43
-28.182772630023
 44
-32.9923404580304
 45
0.0
 46
0.009765625
 79
     0
 98
        1
 10
-28.182772630023
 20
-32.9923404580304
  0
LWPOLYLINE
  5
8BB6B
330
8BB67
100
AcDbEntity
  8
0
 62
    22
100
AcDbPolyline
 90
        4
 70
     1
 43
0.0
 10
0.0262955969727301
 20
-0.0287577800528069
 10
1.307151517972869
 20
-0.0287577800528069
 10
1.307151517972869
 20
-1.731261997456265
 10
0.0262955969727301
 20
-1.731261997456265
  0
LINE
  5
8BB6C
330
8BB67
100
AcDbEntity
  8
0
 62
    22
100
AcDbLine
 10
0.0262955969727443
 20
-1.4112176328236
 30
0.0
 11
1.307151517972869
 21
-1.4112176328236
 31
0.0
  0
ATTDEF
  5
8BB6D
330
8BB67
100
AcDbEntity
  8
A1
 62
    22
100
AcDbText
 10
0.6781304052809105
 20
-1.678298248906529
 30
0.0
 40
0.2126953125
  1

 72
     1
 11
0.6781304052809105
 21
-1.678298248906529
 31
0.0
100
AcDbAttributeDefinition
  3
ADD STONE MARKER
  2
XXXX
 70
     0
  0
LINE
  5
8BB6E
330
8BB67
100
AcDbEntity
  8
0
 62
    22
100
AcDbLine
 10
0.7464576960363587
 20
-1.129021462591367
 30
0.0
 11
0.74595166367655
 21
-1.12746688439163
 31
0.0
  0
ARC
  5
8BB6F
330
8BB67
100
AcDbEntity
  8
0
 62
    22
100
AcDbCircle
 10
0.8421255873066684
 20
-1.127299146756172
 30
0.0
 40
0.0956833935014068
100
AcDbArc
 50
181.0313885659746
 51
269.7936990713142
  0
LINE
  5
8BB70
330
8BB67
100
AcDbEntity
  8
0
 62
    22
100
AcDbLine
 10
0.9011069318936506
 20
-1.22315027789304
 30
0.0
 11
0.841781067510368
 21
-1.22315027789304
 31
0.0
  0
LINE
  5
8BB71
330
8BB67
100
AcDbEntity
  8
0
 62
    22
100
AcDbLine
 10
0.9011069318936506
 20
-1.256144598615648
 30
0.0
 11
0.9011069318936506
 21
-1.22315027789304
 31
0.0
  0
ARC
  5
8BB72
330
8BB67
100
AcDbEntity
  8
0
 62
    22
100
AcDbCircle
 10
0.4880203611777887
 20
-1.127299146756172
 30
0.0
 40
0.0956833935014068
100
AcDbArc
 50
270.2063009286848
 51
358.9686114340253
  0
LINE
  5
8BB73
330
8BB67
100
AcDbEntity
  8
0
 62
    22
100
AcDbLine
 10
0.4290390165908207
 20
-1.256144598615648
 30
0.0
 11
0.4290390165908207
 21
-1.22315027789304
 31
0.0
  0
LINE
  5
8BB74
330
8BB67
100
AcDbEntity
  8
0
 62
    22
100
AcDbLine
 10
0.4290390165908207
 20
-1.22315027789304
 30
0.0
 11
0.4883648809740891
 21
-1.22315027789304
 31
0.0
  0
LINE
  5
8BB75
330
8BB67
100
AcDbEntity
  8
0
 62
    22
100
AcDbLine
 10
0.5836882524480984
 20
-1.129021462591367
 30
0.0
 11
0.5841942848079072
 21
-1.12746688439163
 31
0.0
  0
LINE
  5
8BB76
330
8BB67
100
AcDbEntity
  8
0
 62
    22
100
AcDbLine
 10
0.4290390165908207
 20
-1.256144598615648
 30
0.0
 11
0.9011069318936506
 21
-1.256144598615648
 31
0.0
  0
LINE
  5
8BB77
330
8BB67
100
AcDbEntity
  8
0
 62
    22
100
AcDbLine
 10
1.085512597630156
 20
-0.415894330395318
 30
0.0
 11
1.085512597630156
 21
-0.4280723832374847
 31
0.0
  0
ARC
  5
8BB78
330
8BB67
100
AcDbEntity
  8
0
 62
    22
100
AcDbCircle
 10
0.9138550451562537
 20
-0.4147906495365632
 30
0.0
 40
0.1716611005230106
100
AcDbArc
 50
359.6316189828552
 51
90.00081606717127
  0
ARC
  5
8BB79
330
8BB67
100
AcDbEntity
  8
0
 62
    22
100
AcDbCircle
 10
0.9180888683309831
 20
-0.4147906495365632
 30
0.0
 40
0.1716611005230106
100
AcDbArc
 50
89.99918393282873
 51
180.3683810171443
  0
LINE
  5
8BB7A
330
8BB67
100
AcDbEntity
  8
0
 62
    22
100
AcDbLine
 10
0.2078601968792952
 20
-0.427988377825578
 30
0.0
 11
0.2441732502230991
 21
-0.427988377825578
 31
0.0
  0
LINE
  5
8BB7B
330
8BB67
100
AcDbEntity
  8
0
 62
    22
100
AcDbLine
 10
0.2446333508543006
 20
-0.415894330395318
 30
0.0
 11
0.2446333508543006
 21
-0.4280723832374847
 31
0.0
  0
ARC
  5
8BB7C
330
8BB67
100
AcDbEntity
  8
0
 62
    22
100
AcDbCircle
 10
0.4162909033282176
 20
-0.4147906495365632
 30
0.0
 40
0.1716611005230106
100
AcDbArc
 50
89.99918393282873
 51
180.3683810171443
  0
LINE
  5
8BB7D
330
8BB67
100
AcDbEntity
  8
0
 62
    22
100
AcDbLine
 10
0.2144627520724782
 20
-0.1706330859717156
 30
0.0
 11
0.2078601968792952
 21
-0.427988377825578
 31
0.0
  0
ARC
  5
8BB7E
330
8BB67
100
AcDbEntity
  8
0
 62
    22
100
AcDbCircle
 10
0.4120570801534882
 20
-0.4147906495365632
 30
0.0
 40
0.1716611005230106
100
AcDbArc
 50
359.6316189828552
 51
90.00081606717127
  0
LWPOLYLINE
  5
8BB7F
330
8BB67
100
AcDbEntity
  8
0
 62
    22
100
AcDbPolyline
 90
        4
 70
     0
 43
0.0
 10
0.224366029185191
 20
-0.1706330859717084
 10
1.115683196411978
 20
-0.1706330859717084
 10
1.122285751605161
 20
-0.427988377825578
 10
1.085972698261358
 20
-0.427988377825578
  0
ENDBLK
  5
8BB81
330
8BB67
100
AcDbEntity
  8
0
 62
     7
100
AcDbBlockEnd
  0
BLOCK
  5
8BC8E
330
8BC8D
100
AcDbEntity
  8
0
100
AcDbBlockBegin
  2
*U7
 70
     1
 10
0.0
 20
0.0
 30
0.0
  3
*U7
  1

  0
ENDBLK
  5
8BC8F
330
8BC8D
100
AcDbEntity
  8
0
100
AcDbBlockEnd
  0
BLOCK
  5
8ED88
330
8ED7D
100
AcDbEntity
  8
0
 62
     7
100
AcDbBlockBegin
  2
*D8
 70
     1
 10
0.0
 20
0.0
 30
0.0
  3
*D8
  1

  0
LINE
  5
8EF23
330
8ED7D
100
AcDbEntity
  8
A1
 62
     0
100
AcDbLine
 10
404.7562425684839
 20
346.4278056640693
 30
0.0
 11
404.7562425684839
 21
342.7561585635095
 31
0.0
  0
LINE
  5
8EF24
330
8ED7D
100
AcDbEntity
  8
A1
 62
     0
100
AcDbLine
 10
411.7562425684839
 20
346.4278056640693
 30
0.0
 11
411.7562425684839
 21
342.7561585635095
 31
0.0
  0
LINE
  5
8EF25
330
8ED7D
100
AcDbEntity
  8
A1
 62
     0
100
AcDbLine
 10
405.2562425684839
 20
343.0061585635095
 30
0.0
 11
407.0506582182437
 21
343.0061585635095
 31
0.0
  0
LINE
  5
8EF26
330
8ED7D
100
AcDbEntity
  8
A1
 62
     0
100
AcDbLine
 10
411.2562425684839
 20
343.0061585635095
 30
0.0
 11
409.813946666153
 21
343.0061585635095
 31
0.0
  0
MTEXT
  5
8EF27
330
8ED7D
100
AcDbEntity
  8
A1
 62
     0
100
AcDbMText
 10
408.4323024421983
 20
343.0061585635095
 30
0.0
 40
1.0
 41
0.0
 71
     5
 72
     1
  1
\A1;7"
 73
     1
 44
1.0
  0
SOLID
  5
8EF28
330
8ED7D
100
AcDbEntity
  8
A1
 62
     0
100
AcDbTrace
 10
405.2562425684839
 20
343.0894918968428
 30
0.0
 11
405.2562425684839
 21
342.9228252301762
 31
0.0
 12
404.7562425684839
 22
343.0061585635095
 32
0.0
 13
404.7562425684839
 23
343.0061585635095
 33
0.0
  0
SOLID
  5
8EF29
330
8ED7D
100
AcDbEntity
  8
A1
 62
     0
100
AcDbTrace
 10
411.2562425684839
 20
343.0894918968428
 30
0.0
 11
411.2562425684839
 21
342.9228252301762
 31
0.0
 12
411.7562425684839
 22
343.0061585635095
 32
0.0
 13
411.7562425684839
 23
343.0061585635095
 33
0.0
  0
POINT
  5
8EF2A
330
8ED7D
100
AcDbEntity
  8
Defpoints
 62
     0
100
AcDbPoint
 10
404.7562425684839
 20
347.4278056640693
 30
0.0
  0
POINT
  5
8EF2B
330
8ED7D
100
AcDbEntity
  8
Defpoints
 62
     0
100
AcDbPoint
 10
411.7562425684839
 20
347.4278056640693
 30
0.0
  0
POINT
  5
8EF2C
330
8ED7D
100
AcDbEntity
  8
Defpoints
 62
     0
100
AcDbPoint
 10
411.7562425684839
 20
343.0061585635095
 30
0.0
  0
ENDBLK
  5
8ED89
330
8ED7D
100
AcDbEntity
  8
0
 62
     7
100
AcDbBlockEnd
  0
BLOCK
  5
8ED96
330
8ED8B
100
AcDbEntity
  8
0
 62
     7
100
AcDbBlockBegin
  2
*D9
 70
     1
 10
0.0
 20
0.0
 30
0.0
  3
*D9
  1

  0
LINE
  5
8EF2D
330
8ED8B
100
AcDbEntity
  8
A1
 62
     0
100
AcDbLine
 10
406.256242568484
 20
346.4278056640693
 30
0.0
 11
406.256242568484
 21
344.4338075334066
 31
0.0
  0
LINE
  5
8EF2E
330
8ED8B
100
AcDbEntity
  8
A1
 62
     0
100
AcDbLine
 10
410.256242568484
 20
346.4278056640693
 30
0.0
 11
410.256242568484
 21
344.4338075334066
 31
0.0
  0
LINE
  5
8EF2F
330
8ED8B
100
AcDbEntity
  8
A1
 62
     0
100
AcDbLine
 10
405.756242568484
 20
344.6838075334066
 30
0.0
 11
405.2562425684839
 21
344.6838075334066
 31
0.0
  0
LINE
  5
8EF30
330
8ED8B
100
AcDbEntity
  8
A1
 62
     0
100
AcDbLine
 10
410.7562425684839
 20
344.6838075334066
 30
0.0
 11
411.2562425684839
 21
344.6838075334066
 31
0.0
  0
MTEXT
  5
8EF31
330
8ED8B
100
AcDbEntity
  8
A1
 62
     0
100
AcDbMText
 10
408.4901738544795
 20
344.6838075334066
 30
0.0
 40
1.0
 41
0.0
 71
     5
 72
     1
  1
\A1;4"
 73
     1
 44
1.0
  0
SOLID
  5
8EF32
330
8ED8B
100
AcDbEntity
  8
A1
 62
     0
100
AcDbTrace
 10
405.756242568484
 20
344.7671408667399
 30
0.0
 11
405.756242568484
 21
344.6004742000732
 31
0.0
 12
406.256242568484
 22
344.6838075334066
 32
0.0
 13
406.256242568484
 23
344.6838075334066
 33
0.0
  0
SOLID
  5
8EF33
330
8ED8B
100
AcDbEntity
  8
A1
 62
     0
100
AcDbTrace
 10
410.7562425684839
 20
344.7671408667399
 30
0.0
 11
410.7562425684839
 21
344.6004742000732
 31
0.0
 12
410.256242568484
 22
344.6838075334066
 32
0.0
 13
410.256242568484
 23
344.6838075334066
 33
0.0
  0
POINT
  5
8EF34
330
8ED8B
100
AcDbEntity
  8
Defpoints
 62
     0
100
AcDbPoint
 10
406.256242568484
 20
347.4278056640693
 30
0.0
  0
POINT
  5
8EF35
330
8ED8B
100
AcDbEntity
  8
Defpoints
 62
     0
100
AcDbPoint
 10
410.256242568484
 20
347.4278056640693
 30
0.0
  0
POINT
  5
8EF36
330
8ED8B
100
AcDbEntity
  8
Defpoints
 62
     0
100
AcDbPoint
 10
410.256242568484
 20
344.6838075334066
 30
0.0
  0
ENDBLK
  5
8ED97
330
8ED8B
100
AcDbEntity
  8
0
 62
     7
100
AcDbBlockEnd
  0
BLOCK
  5
8EDA4
330
8ED99
100
AcDbEntity
  8
0
 62
     7
100
AcDbBlockBegin
  2
*D10
 70
     1
 10
0.0
 20
0.0
 30
0.0
  3
*D10
  1

  0
LINE
  5
8EF37
330
8ED99
100
AcDbEntity
  8
A1
 62
     0
100
AcDbLine
 10
412.2562425684839
 20
361.4278056640693
 30
0.0
 11
412.2562425684839
 21
363.6193355077617
 31
0.0
  0
LINE
  5
8EF38
330
8ED99
100
AcDbEntity
  8
A1
 62
     0
100
AcDbLine
 10
404.2562425684839
 20
361.4278056640693
 30
0.0
 11
404.2562425684839
 21
363.6193355077617
 31
0.0
  0
LINE
  5
8EF39
330
8ED99
100
AcDbEntity
  8
A1
 62
     0
100
AcDbLine
 10
411.7562425684839
 20
363.3693355077618
 30
0.0
 11
409.9474089232832
 21
363.3693355077618
 31
0.0
  0
LINE
  5
8EF3A
330
8ED99
100
AcDbEntity
  8
A1
 62
     0
100
AcDbLine
 10
404.7562425684839
 20
363.3693355077618
 30
0.0
 11
407.1486846142825
 21
363.3693355077618
 31
0.0
  0
MTEXT
  5
8EF3B
330
8ED99
100
AcDbEntity
  8
A1
 62
     0
100
AcDbMText
 10
408.5480467687828
 20
363.3693355077618
 30
0.0
 40
1.0
 41
0.0
 71
     5
 72
     1
  1
\A1;8"
 73
     1
 44
1.0
  0
SOLID
  5
8EF3C
330
8ED99
100
AcDbEntity
  8
A1
 62
     0
100
AcDbTrace
 10
411.7562425684839
 20
363.4526688410951
 30
0.0
 11
411.7562425684839
 21
363.2860021744284
 31
0.0
 12
412.2562425684839
 22
363.3693355077618
 32
0.0
 13
412.2562425684839
 23
363.3693355077618
 33
0.0
  0
SOLID
  5
8EF3D
330
8ED99
100
AcDbEntity
  8
A1
 62
     0
100
AcDbTrace
 10
404.7562425684839
 20
363.4526688410951
 30
0.0
 11
404.7562425684839
 21
363.2860021744284
 31
0.0
 12
404.2562425684839
 22
363.3693355077618
 32
0.0
 13
404.2562425684839
 23
363.3693355077618
 33
0.0
  0
POINT
  5
8EF3E
330
8ED99
100
AcDbEntity
  8
Defpoints
 62
     0
100
AcDbPoint
 10
412.2562425684839
 20
360.4278056640692
 30
0.0
  0
POINT
  5
8EF3F
330
8ED99
100
AcDbEntity
  8
Defpoints
 62
     0
100
AcDbPoint
 10
404.2562425684839
 20
360.4278056640692
 30
0.0
  0
POINT
  5
8EF40
330
8ED99
100
AcDbEntity
  8
Defpoints
 62
     0
100
AcDbPoint
 10
404.2562425684839
 20
363.3693355077618
 30
0.0
  0
ENDBLK
  5
8EDA5
330
8ED99
100
AcDbEntity
  8
0
 62
     7
100
AcDbBlockEnd
  0
BLOCK
  5
8EDB2
330
8EDA7
100
AcDbEntity
  8
0
 62
     7
100
AcDbBlockBegin
  2
*D11
 70
     1
 10
0.0
 20
0.0
 30
0.0
  3
*D11
  1

  0
LINE
  5
8EF41
330
8EDA7
100
AcDbEntity
  8
A1
 62
     0
100
AcDbLine
 10
414.5062425684839
 20
358.8028056640693
 30
0.0
 11
414.5062425684839
 21
365.7019334172879
 31
0.0
  0
LINE
  5
8EF42
330
8EDA7
100
AcDbEntity
  8
A1
 62
     0
100
AcDbLine
 10
402.0062425684839
 20
358.8028056640693
 30
0.0
 11
402.0062425684839
 21
365.7019334172879
 31
0.0
  0
LINE
  5
8EF43
330
8EDA7
100
AcDbEntity
  8
A1
 62
     0
100
AcDbLine
 10
414.0062425684839
 20
365.4519334172879
 30
0.0
 11
411.461134926845
 21
365.4519334172879
 31
0.0
  0
LINE
  5
8EF44
330
8EDA7
100
AcDbEntity
  8
A1
 62
     0
100
AcDbLine
 10
402.5062425684839
 20
365.4519334172879
 30
0.0
 11
405.171978300339
 21
365.4519334172879
 31
0.0
  0
MTEXT
  5
8EF45
330
8EDA7
100
AcDbEntity
  8
A1
 62
     0
100
AcDbMText
 10
408.316556613592
 20
365.4519334172879
 30
0.0
 40
1.0
 41
0.0
 71
     5
 72
     1
  1
\A1;12 1/2"
 73
     1
 44
1.0
  0
SOLID
  5
8EF46
330
8EDA7
100
AcDbEntity
  8
A1
 62
     0
100
AcDbTrace
 10
414.0062425684839
 20
365.5352667506212
 30
0.0
 11
414.0062425684839
 21
365.3686000839546
 31
0.0
 12
414.5062425684839
 22
365.4519334172879
 32
0.0
 13
414.5062425684839
 23
365.4519334172879
 33
0.0
  0
SOLID
  5
8EF47
330
8EDA7
100
AcDbEntity
  8
A1
 62
     0
100
AcDbTrace
 10
402.5062425684839
 20
365.5352667506212
 30
0.0
 11
402.5062425684839
 21
365.3686000839546
 31
0.0
 12
402.0062425684839
 22
365.4519334172879
 32
0.0
 13
402.0062425684839
 23
365.4519334172879
 33
0.0
  0
POINT
  5
8EF48
330
8EDA7
100
AcDbEntity
  8
Defpoints
 62
     0
100
AcDbPoint
 10
414.5062425684839
 20
357.8028056640693
 30
0.0
  0
POINT
  5
8EF49
330
8EDA7
100
AcDbEntity
  8
Defpoints
 62
     0
100
AcDbPoint
 10
402.0062425684839
 20
357.8028056640693
 30
0.0
  0
POINT
  5
8EF4A
330
8EDA7
100
AcDbEntity
  8
Defpoints
 62
     0
100
AcDbPoint
 10
402.0062425684839
 20
365.4519334172879
 30
0.0
  0
ENDBLK
  5
8EDB3
330
8EDA7
100
AcDbEntity
  8
0
 62
     7
100
AcDbBlockEnd
  0
BLOCK
  5
8EDC0
330
8EDB5
100
AcDbEntity
  8
0
 62
     7
100
AcDbBlockBegin
  2
*D12
 70
     1
 10
0.0
 20
0.0
 30
0.0
  3
*D12
  1

  0
LINE
  5
8EF4B
330
8EDB5
100
AcDbEntity
  8
A1
 62
     0
100
AcDbLine
 10
412.7562425684839
 20
347.4278056640693
 30
0.0
 11
417.768280894788
 21
347.4278056640693
 31
0.0
  0
LINE
  5
8EF4C
330
8EDB5
100
AcDbEntity
  8
A1
 62
     0
100
AcDbLine
 10
415.5062425684839
 20
357.8028056640693
 30
0.0
 11
417.768280894788
 21
357.8028056640693
 31
0.0
  0
LINE
  5
8EF4D
330
8EDB5
100
AcDbEntity
  8
A1
 62
     0
100
AcDbLine
 10
417.5182808947879
 20
347.9278056640692
 30
0.0
 11
417.5182808947879
 21
351.6799449232189
 31
0.0
  0
LINE
  5
8EF4E
330
8EDB5
100
AcDbEntity
  8
A1
 62
     0
100
AcDbLine
 10
417.5182808947879
 20
357.3028056640692
 30
0.0
 11
417.5182808947879
 21
353.7699520103911
 31
0.0
  0
MTEXT
  5
8EF4F
330
8EDB5
100
AcDbEntity
  8
A1
 62
     0
100
AcDbMText
 10
417.5182808947879
 20
352.7249484668051
 30
0.0
 40
1.0
 41
0.0
 71
     5
 72
     1
  1
\A1;10 3/8"
 73
     1
 44
1.0
  0
SOLID
  5
8EF50
330
8EDB5
100
AcDbEntity
  8
A1
 62
     0
100
AcDbTrace
 10
417.4349475614547
 20
347.9278056640692
 30
0.0
 11
417.6016142281213
 21
347.9278056640692
 31
0.0
 12
417.5182808947879
 22
347.4278056640693
 32
0.0
 13
417.5182808947879
 23
347.4278056640693
 33
0.0
  0
SOLID
  5
8EF51
330
8EDB5
100
AcDbEntity
  8
A1
 62
     0
100
AcDbTrace
 10
417.4349475614547
 20
357.3028056640692
 30
0.0
 11
417.6016142281213
 21
357.3028056640692
 31
0.0
 12
417.5182808947879
 22
357.8028056640693
 32
0.0
 13
417.5182808947879
 23
357.8028056640693
 33
0.0
  0
POINT
  5
8EF52
330
8EDB5
100
AcDbEntity
  8
Defpoints
 62
     0
100
AcDbPoint
 10
411.7562425684839
 20
347.4278056640693
 30
0.0
  0
POINT
  5
8EF53
330
8EDB5
100
AcDbEntity
  8
Defpoints
 62
     0
100
AcDbPoint
 10
414.5062425684839
 20
357.8028056640693
 30
0.0
  0
POINT
  5
8EF54
330
8EDB5
100
AcDbEntity
  8
Defpoints
 62
     0
100
AcDbPoint
 10
417.5182808947879
 20
357.8028056640693
 30
0.0
  0
ENDBLK
  5
8EDC1
330
8EDB5
100
AcDbEntity
  8
0
 62
     7
100
AcDbBlockEnd
  0
BLOCK
  5
8EDD0
330
8EDC3
100
AcDbEntity
  8
0
 62
     7
100
AcDbBlockBegin
  2
*D13
 70
     1
 10
0.0
 20
0.0
 30
0.0
  3
*D13
  1

  0
LINE
  5
8EF55
330
8EDC3
100
AcDbEntity
  8
A1
 62
     0
100
AcDbLine
 10
415.5062425684839
 20
357.8028056640693
 30
0.0
 11
417.768280894788
 21
357.8028056640693
 31
0.0
  0
LINE
  5
8EF56
330
8EDC3
100
AcDbEntity
  8
A1
 62
     0
100
AcDbLine
 10
413.2562425684839
 20
360.4278056640692
 30
0.0
 11
417.768280894788
 21
360.4278056640692
 31
0.0
  0
LINE
  5
8EF57
330
8EDC3
100
AcDbEntity
  8
A1
 62
     0
100
AcDbLine
 10
417.5182808947879
 20
357.3028056640692
 30
0.0
 11
417.5182808947879
 21
356.8028056640693
 31
0.0
  0
LINE
  5
8EF58
330
8EDC3
100
AcDbEntity
  8
A1
 62
     0
100
AcDbLine
 10
417.5182808947879
 20
360.9278056640693
 30
0.0
 11
417.5182808947879
 21
361.4278056640693
 31
0.0
  0
LINE
  5
8EF59
330
8EDC3
100
AcDbEntity
  8
A1
 62
     0
100
AcDbLine
 10
418.018280894788
 20
363.3693355077617
 30
0.0
 11
417.5182808947879
 21
363.3693355077617
 31
0.0
  0
LINE
  5
8EF5A
330
8EDC3
100
AcDbEntity
  8
A1
 62
     0
100
AcDbLine
 10
417.5182808947879
 20
363.3693355077617
 30
0.0
 11
417.5182808947879
 21
361.4278056640693
 31
0.0
  0
MTEXT
  5
8EF5B
330
8EDC3
100
AcDbEntity
  8
A1
 62
     0
100
AcDbMText
 10
420.7890108735264
 20
363.3693355077618
 30
0.0
 40
1.0
 41
0.0
 71
     5
 72
     1
  1
\A1;2 5/8"
 73
     1
 44
1.0
  0
SOLID
  5
8EF5C
330
8EDC3
100
AcDbEntity
  8
A1
 62
     0
100
AcDbTrace
 10
417.4349475614547
 20
357.3028056640692
 30
0.0
 11
417.6016142281213
 21
357.3028056640692
 31
0.0
 12
417.5182808947879
 22
357.8028056640693
 32
0.0
 13
417.5182808947879
 23
357.8028056640693
 33
0.0
  0
SOLID
  5
8EF5D
330
8EDC3
100
AcDbEntity
  8
A1
 62
     0
100
AcDbTrace
 10
417.4349475614547
 20
360.9278056640693
 30
0.0
 11
417.6016142281213
 21
360.9278056640693
 31
0.0
 12
417.5182808947879
 22
360.4278056640692
 32
0.0
 13
417.5182808947879
 23
360.4278056640692
 33
0.0
  0
POINT
  5
8EF5E
330
8EDC3
100
AcDbEntity
  8
Defpoints
 62
     0
100
AcDbPoint
 10
414.5062425684839
 20
357.8028056640693
 30
0.0
  0
POINT
  5
8EF5F
330
8EDC3
100
AcDbEntity
  8
Defpoints
 62
     0
100
AcDbPoint
 10
412.2562425684839
 20
360.4278056640692
 30
0.0
  0
POINT
  5
8EF60
330
8EDC3
100
AcDbEntity
  8
Defpoints
 62
     0
100
AcDbPoint
 10
417.5182808947879
 20
360.4278056640692
 30
0.0
  0
ENDBLK
  5
8EDD1
330
8EDC3
100
AcDbEntity
  8
0
 62
     7
100
AcDbBlockEnd
  0
BLOCK
  5
8EDE2
330
8EDD7
100
AcDbEntity
  8
0
 62
     7
100
AcDbBlockBegin
  2
*D14
 70
     1
 10
0.0
 20
0.0
 30
0.0
  3
*D14
  1

  0
LINE
  5
8EF61
330
8EDD7
100
AcDbEntity
  8
A1
 62
     0
100
AcDbLine
 10
390.631222604823
 20
360.4278056640692
 30
0.0
 11
387.3482110053583
 21
360.4278056640692
 31
0.0
  0
LINE
  5
8EF62
330
8EDD7
100
AcDbEntity
  8
A1
 62
     0
100
AcDbLine
 10
390.631222604823
 20
347.4278056640693
 30
0.0
 11
387.3482110053583
 21
347.4278056640693
 31
0.0
  0
LINE
  5
8EF63
330
8EDD7
100
AcDbEntity
  8
A1
 62
     0
100
AcDbLine
 10
387.5982110053583
 20
359.9278056640693
 30
0.0
 11
387.5982110053583
 21
354.9007281980891
 31
0.0
  0
LINE
  5
8EF64
330
8EDD7
100
AcDbEntity
  8
A1
 62
     0
100
AcDbLine
 10
387.5982110053583
 20
347.9278056640692
 30
0.0
 11
387.5982110053583
 21
352.8631661853322
 31
0.0
  0
MTEXT
  5
8EF65
330
8EDD7
100
AcDbEntity
  8
A1
 62
     0
100
AcDbMText
 10
387.5982110053583
 20
353.8819471917107
 30
0.0
 40
1.0
 41
0.0
 71
     5
 72
     1
  1
\A1;13"
 73
     1
 44
1.0
  0
SOLID
  5
8EF66
330
8EDD7
100
AcDbEntity
  8
A1
 62
     0
100
AcDbTrace
 10
387.514877672025
 20
359.9278056640693
 30
0.0
 11
387.6815443386916
 21
359.9278056640693
 31
0.0
 12
387.5982110053583
 22
360.4278056640692
 32
0.0
 13
387.5982110053583
 23
360.4278056640692
 33
0.0
  0
SOLID
  5
8EF67
330
8EDD7
100
AcDbEntity
  8
A1
 62
     0
100
AcDbTrace
 10
387.514877672025
 20
347.9278056640692
 30
0.0
 11
387.6815443386916
 21
347.9278056640692
 31
0.0
 12
387.5982110053583
 22
347.4278056640693
 32
0.0
 13
387.5982110053583
 23
347.4278056640693
 33
0.0
  0
POINT
  5
8EF68
330
8EDD7
100
AcDbEntity
  8
Defpoints
 62
     0
100
AcDbPoint
 10
391.631222604823
 20
360.4278056640692
 30
0.0
  0
POINT
  5
8EF69
330
8EDD7
100
AcDbEntity
  8
Defpoints
 62
     0
100
AcDbPoint
 10
391.631222604823
 20
347.4278056640693
 30
0.0
  0
POINT
  5
8EF6A
330
8EDD7
100
AcDbEntity
  8
Defpoints
 62
     0
100
AcDbPoint
 10
387.5982110053583
 20
347.4278056640693
 30
0.0
  0
ENDBLK
  5
8EDE3
330
8EDD7
100
AcDbEntity
  8
0
 62
     7
100
AcDbBlockEnd
  0
BLOCK
  5
8EDF2
330
8EDE5
100
AcDbEntity
  8
0
 62
     7
100
AcDbBlockBegin
  2
*D15
 70
     1
 10
0.0
 20
0.0
 30
0.0
  3
*D15
  1

  0
LINE
  5
8EF6B
330
8EDE5
100
AcDbEntity
  8
A1
 62
     0
100
AcDbLine
 10
394.631222604823
 20
361.4278056640693
 30
0.0
 11
394.631222604823
 21
364.3135351520971
 31
0.0
  0
LINE
  5
8EF6C
330
8EDE5
100
AcDbEntity
  8
A1
 62
     0
100
AcDbLine
 10
391.631222604823
 20
361.4278056640693
 30
0.0
 11
391.631222604823
 21
364.3135351520971
 31
0.0
  0
LINE
  5
8EF6D
330
8EDE5
100
AcDbEntity
  8
A1
 62
     0
100
AcDbLine
 10
395.131222604823
 20
364.0635351520971
 30
0.0
 11
395.6312226048229
 21
364.0635351520971
 31
0.0
  0
LINE
  5
8EF6E
330
8EDE5
100
AcDbEntity
  8
A1
 62
     0
100
AcDbLine
 10
391.1312226048229
 20
364.0635351520971
 30
0.0
 11
390.631222604823
 21
364.0635351520971
 31
0.0
  0
LINE
  5
8EF6F
330
8EDE5
100
AcDbEntity
  8
A1
 62
     0
100
AcDbLine
 10
389.3426829919903
 20
364.0635351520971
 30
0.0
 11
391.631222604823
 21
364.0635351520971
 31
0.0
  0
MTEXT
  5
8EF70
330
8EDE5
100
AcDbEntity
  8
A1
 62
     0
100
AcDbMText
 10
387.9454469891555
 20
364.0635351520971
 30
0.0
 40
1.0
 41
0.0
 71
     5
 72
     1
  1
\A1;3"
 73
     1
 44
1.0
  0
LINE
  5
8EF71
330
8EDE5
100
AcDbEntity
  8
A1
 62
     0
100
AcDbLine
 10
394.631222604823
 20
364.0635351520971
 30
0.0
 11
391.631222604823
 21
364.0635351520971
 31
0.0
  0
SOLID
  5
8EF72
330
8EDE5
100
AcDbEntity
  8
A1
 62
     0
100
AcDbTrace
 10
395.131222604823
 20
364.1468684854304
 30
0.0
 11
395.131222604823
 21
363.9802018187638
 31
0.0
 12
394.631222604823
 22
364.0635351520971
 32
0.0
 13
394.631222604823
 23
364.0635351520971
 33
0.0
  0
SOLID
  5
8EF73
330
8EDE5
100
AcDbEntity
  8
A1
 62
     0
100
AcDbTrace
 10
391.1312226048229
 20
364.1468684854304
 30
0.0
 11
391.1312226048229
 21
363.9802018187638
 31
0.0
 12
391.631222604823
 22
364.0635351520971
 32
0.0
 13
391.631222604823
 23
364.0635351520971
 33
0.0
  0
POINT
  5
8EF74
330
8EDE5
100
AcDbEntity
  8
Defpoints
 62
     0
100
AcDbPoint
 10
394.631222604823
 20
360.4278056640692
 30
0.0
  0
POINT
  5
8EF75
330
8EDE5
100
AcDbEntity
  8
Defpoints
 62
     0
100
AcDbPoint
 10
391.631222604823
 20
360.4278056640692
 30
0.0
  0
POINT
  5
8EF76
330
8EDE5
100
AcDbEntity
  8
Defpoints
 62
     0
100
AcDbPoint
 10
391.631222604823
 20
364.0635351520971
 30
0.0
  0
ENDBLK
  5
8EDF3
330
8EDE5
100
AcDbEntity
  8
0
 62
     7
100
AcDbBlockEnd
  0
BLOCK
  5
8EE00
330
8EDF5
100
AcDbEntity
  8
0
 62
     7
100
AcDbBlockBegin
  2
*D16
 70
     1
 10
0.0
 20
0.0
 30
0.0
  3
*D16
  1

  0
LINE
  5
8EF77
330
8EDF5
100
AcDbEntity
  8
A1
 62
     0
100
AcDbLine
 10
395.381222604823
 20
347.1778056640693
 30
0.0
 11
395.381222604823
 21
342.871858845392
 31
0.0
  0
LINE
  5
8EF78
330
8EDF5
100
AcDbEntity
  8
A1
 62
     0
100
AcDbLine
 10
391.631222604823
 20
346.4278056640693
 30
0.0
 11
391.631222604823
 21
342.871858845392
 31
0.0
  0
LINE
  5
8EF79
330
8EDF5
100
AcDbEntity
  8
A1
 62
     0
100
AcDbLine
 10
395.8812226048229
 20
343.121858845392
 30
0.0
 11
396.381222604823
 21
343.121858845392
 31
0.0
  0
LINE
  5
8EF7A
330
8EDF5
100
AcDbEntity
  8
A1
 62
     0
100
AcDbLine
 10
391.1312226048229
 20
343.121858845392
 30
0.0
 11
390.631222604823
 21
343.121858845392
 31
0.0
  0
MTEXT
  5
8EF7B
330
8EDF5
100
AcDbEntity
  8
A1
 62
     0
100
AcDbMText
 10
388.1769356423242
 20
343.121858845392
 30
0.0
 40
1.0
 41
0.0
 71
     5
 72
     1
  1
\A1;3 3/4"
 73
     1
 44
1.0
  0
SOLID
  5
8EF7C
330
8EDF5
100
AcDbEntity
  8
A1
 62
     0
100
AcDbTrace
 10
395.8812226048229
 20
343.2051921787253
 30
0.0
 11
395.8812226048229
 21
343.0385255120587
 31
0.0
 12
395.381222604823
 22
343.121858845392
 32
0.0
 13
395.381222604823
 23
343.121858845392
 33
0.0
  0
SOLID
  5
8EF7D
330
8EDF5
100
AcDbEntity
  8
A1
 62
     0
100
AcDbTrace
 10
391.1312226048229
 20
343.2051921787253
 30
0.0
 11
391.1312226048229
 21
343.0385255120587
 31
0.0
 12
391.631222604823
 22
343.121858845392
 32
0.0
 13
391.631222604823
 23
343.121858845392
 33
0.0
  0
POINT
  5
8EF7E
330
8EDF5
100
AcDbEntity
  8
Defpoints
 62
     0
100
AcDbPoint
 10
395.381222604823
 20
348.1778056640692
 30
0.0
  0
POINT
  5
8EF7F
330
8EDF5
100
AcDbEntity
  8
Defpoints
 62
     0
100
AcDbPoint
 10
391.631222604823
 20
347.4278056640693
 30
0.0
  0
POINT
  5
8EF80
330
8EDF5
100
AcDbEntity
  8
Defpoints
 62
     0
100
AcDbPoint
 10
391.631222604823
 20
343.121858845392
 30
0.0
  0
ENDBLK
  5
8EE01
330
8EDF5
100
AcDbEntity
  8
0
 62
     7
100
AcDbBlockEnd
  0
BLOCK
  5
8EEDE
330
8EEB2
100
AcDbEntity
  8
0
 62
     7
100
AcDbBlockBegin
  2
TSFORMB
 70
     2
 10
0.0
 20
0.0
 30
0.0
  3
TSFORMB
  1

  0
LINE
  5
8EEB3
330
8EEB2
100
AcDbEntity
  8
0
100
AcDbLine
 10
105.9925392881563
 20
78.84810849484797
 30
0.0
 11
105.9925392881563
 21
70.31072004936999
 31
0.0
  0
LINE
  5
8EEB4
330
8EEB2
100
AcDbEntity
  8
0
100
AcDbLine
 10
105.9925392881563
 20
0.0
 30
0.0
 11
105.9925392881563
 21
78.84810849484797
 31
0.0
  0
LINE
  5
8EEB5
330
8EEB2
100
AcDbEntity
  8
0
100
AcDbLine
 10
0.0
 20
0.0
 30
0.0
 11
105.9925392881563
 21
0.0
 31
0.0
  0
LINE
  5
8EEB6
330
8EEB2
100
AcDbEntity
  8
0
100
AcDbLine
 10
0.0
 20
78.84810849484797
 30
0.0
 11
0.0
 21
0.0
 31
0.0
  0
LINE
  5
8EEB7
330
8EEB2
100
AcDbEntity
  8
0
100
AcDbLine
 10
56.87404547169354
 20
0.0
 30
0.0
 11
56.87404547169354
 21
12.46470592426129
 31
0.0
  0
TEXT
  5
8EEB8
330
8EEB2
100
AcDbEntity
  8
0
 62
     7
100
AcDbText
 10
39.28098221173831
 20
10.97304845086642
 30
0.0
 40
0.8085000000000002
  1
LEGEND
100
AcDbText
  0
TEXT
  5
8EEB9
330
8EEB2
100
AcDbEntity
  8
0
 62
     7
100
AcDbText
 10
38.18320344075362
 20
3.401999220949562
 30
0.0
 40
0.8400000000000002
  1
CATEGORY
 72
     1
 11
41.47652732452399
 21
3.401999220949562
 31
0.0
100
AcDbText
  0
LINE
  5
8EEBA
330
8EEB2
100
AcDbEntity
  8
0
 62
     7
100
AcDbLine
 10
26.78791925899645
 20
8.549200111339303
 30
0.0
 11
29.32320076794366
 21
8.549200111339303
 31
0.0
  0
TEXT
  5
8EEBB
330
8EEB2
100
AcDbEntity
  8
0
 62
     7
100
AcDbText
 10
30.56536100380196
 20
8.165961840384341
 30
0.0
 40
1.05
  1
- Unfinished Side
100
AcDbText
  0
LINE
  5
8EEBC
330
8EEB2
100
AcDbEntity
  8
0
100
AcDbLine
 10
25.9704997615305
 20
0.0
 30
0.0
 11
25.9704997615305
 21
12.46470592426129
 31
0.0
  0
ATTDEF
  5
8EEBD
330
8EEB2
100
AcDbEntity
  8
A1
 62
     1
100
AcDbText
 10
41.26016333205519
 20
0.916484150045278
 30
0.0
 40
1.025589599999999
  1

 72
     1
 11
41.26016333205519
 21
0.916484150045278
 31
0.0
100
AcDbAttributeDefinition
  3
ADD CATEGORY NAMES
  2
XXXXXX
 70
     0
  0
ATTDEF
  5
8EEBE
330
8EEB2
100
AcDbEntity
  8
A1
 62
     1
100
AcDbText
 10
21.55372231158242
 20
1.875018704105684
 30
0.0
 40
0.8400000000000002
  1

 72
     2
 11
21.55372231158242
 21
1.875018704105684
 31
0.0
100
AcDbAttributeDefinition
  3
ADD BARCODE TEXT
  2
XXXXXX
 70
     0
  0
LINE
  5
8EEBF
330
8EEB2
100
AcDbEntity
  8
0
 62
     7
100
AcDbLine
 10
25.9704997615305
 20
12.46470592426129
 30
0.0
 11
0.0
 21
12.46470592426129
 31
0.0
  0
ATTDEF
  5
8EEC0
330
8EEB2
100
AcDbEntity
  8
A1
 62
     1
100
AcDbText
 10
12.85191920549937
 20
3.11796280247222
 30
0.0
 40
6.132000000000001
  1

  7
barcoder
 72
     1
 11
12.85191920549937
 21
3.11796280247222
 31
0.0
100
AcDbAttributeDefinition
  3
ADD BARCODE NUMBER
  2
BARCODE
 70
     0
  0
LINE
  5
8EEC1
330
8EEB2
100
AcDbEntity
  8
0
 62
     7
100
AcDbLine
 10
56.87404547169354
 20
10.31505184057846
 30
0.0
 11
25.9704997615305
 21
10.31505184057846
 31
0.0
  0
LINE
  5
8EEC2
330
8EEB2
100
AcDbEntity
  8
0
 62
     7
100
AcDbLine
 10
56.87404547169354
 20
2.864660228904256
 30
0.0
 11
25.9704997615305
 21
2.864660228904256
 31
0.0
  0
LINE
  5
8EEC3
330
8EEB2
100
AcDbEntity
  8
0
 62
     7
100
AcDbLine
 10
56.87404547169354
 20
4.753491724833224
 30
0.0
 11
25.9704997615305
 21
4.753491724833224
 31
0.0
  0
LINE
  5
8EEC4
330
8EEB2
100
AcDbEntity
  8
0
100
AcDbLine
 10
92.45878286761296
 20
70.31072004936999
 30
0.0
 11
92.45878286761296
 21
78.84810849484797
 31
0.0
  0
ATTDEF
  5
8EEC5
330
8EEB2
100
AcDbEntity
  8
A1
 62
     1
100
AcDbText
 10
99.20289126219257
 20
73.40001633244828
 30
0.0
 40
2.079
  1

 72
     1
 11
99.20289126219257
 21
73.40001633244828
 31
0.0
100
AcDbAttributeDefinition
  3
ADD PAGE NUMBER
  2
TS00XX
 70
     0
  0
LINE
  5
8EEC6
330
8EEB2
100
AcDbEntity
  8
0
100
AcDbLine
 10
105.9925392881563
 20
70.31072004936999
 30
0.0
 11
92.45878286761296
 21
70.31072004936999
 31
0.0
  0
LINE
  5
8EEC7
330
8EEB2
100
AcDbEntity
  8
0
100
AcDbLine
 10
105.9925392881563
 20
78.84810849484797
 30
0.0
 11
0.0
 21
78.84810849484797
 31
0.0
  0
TEXT
  5
8EEC8
330
8EEB2
100
AcDbEntity
  8
0
 62
     7
100
AcDbText
 10
101.0916707105178
 20
4.784832420392319
 30
0.0
 40
0.8459472656250001
  1
1:1
100
AcDbText
  0
ARC
  5
8EEC9
330
8EEB2
100
AcDbEntity
  8
0
 62
     7
100
AcDbCircle
 10
92.02173719823599
 20
7.854684255185304
 30
0.0
 40
0.5838368232859321
100
AcDbArc
 50
297.5553548372056
 51
304.8408806463489
  0
LINE
  5
8EECA
330
8EEB2
100
AcDbEntity
  8
0
 62
     7
100
AcDbLine
 10
96.44018670993672
 20
6.648784575743377
 30
0.0
 11
95.62662822118033
 21
6.648784575743377
 31
0.0
  0
ARC
  5
8EECB
330
8EEB2
100
AcDbEntity
  8
0
 62
     7
100
AcDbCircle
 10
92.02173719823599
 20
7.854684255185304
 30
0.0
 40
0.5838368232859408
100
AcDbArc
 50
304.8408806463489
 51
297.5553548372056
  0
TEXT
  5
8EECC
330
8EEB2
100
AcDbEntity
  8
0
 62
     7
100
AcDbText
 10
91.5997577365548
 20
7.487990433787842
 30
0.0
 40
0.7875000000000002
  1
R
  7
ROMANC
 72
     1
 11
92.02565639984959
 21
7.487990433787842
 31
0.0
100
AcDbText
  0
LINE
  5
8EECD
330
8EEB2
100
AcDbEntity
  8
0
100
AcDbLine
 10
96.44018670993649
 20
0.0
 30
0.0
 11
96.44018670993695
 21
12.46470592426129
 31
0.0
  0
TEXT
  5
8EECE
330
8EEB2
100
AcDbEntity
  8
0
100
AcDbText
 10
57.83820509574335
 20
4.931128255646488
 30
0.0
 40
1.111564440985976
  1
ARCHITECTURAL CONCRETE CO., INC.
 41
1.25
 72
     4
 11
76.69038922088157
 21
5.404193065577089
 31
0.0
100
AcDbText
  0
TEXT
  5
8EECF
330
8EEB2
100
AcDbEntity
  8
0
100
AcDbText
 10
64.01730751652124
 20
0.6790765005606179
 30
0.0
 40
0.6552430415498756
  1
PHONE: 1-800-789-4841  FAX : 770-463-2635
 41
1.1875
 72
     4
 11
76.73327742292065
 21
1.005769257279496
 31
0.0
100
AcDbText
  0
TEXT
  5
8EED0
330
8EEB2
100
AcDbEntity
  8
0
 62
     7
100
AcDbText
 10
61.23651428794109
 20
7.899354841769707
 30
0.0
 40
3.572100000000002
  1
TannerStone
  7
ROMANC
 72
     1
 11
75.92109734429948
 21
7.899354841769707
 31
0.0
100
AcDbText
  0
TEXT
  5
8EED1
330
8EEB2
100
AcDbEntity
  8
0
100
AcDbText
 10
61.57240842020546
 20
1.964543484004154
 30
0.0
 40
0.6552430415498756
  1
http://TannerStone.com ~ Email:Sales@TannerStone.com 
 41
1.1875
 72
     4
 11
77.08342119362362
 21
2.259193880788984
 31
0.0
100
AcDbText
  0
TEXT
  5
8EED2
330
8EEB2
100
AcDbEntity
  8
0
100
AcDbText
 10
59.98363509556096
 20
3.260563711198551
 30
0.0
 40
0.74899296216962
  1
101 JOHNSTON CIRCLE, PALMETTO, GEORGIA 30268
 41
1.1875
 72
     4
 11
76.85158629384147
 21
3.579323650094977
 31
0.0
100
AcDbText
  0
LINE
  5
8EED3
330
8EEB2
100
AcDbEntity
  8
0
100
AcDbLine
 10
56.87404547169354
 20
6.648784575743377
 30
0.0
 11
105.9925392881563
 21
6.648784575743377
 31
0.0
  0
LINE
  5
8EED4
330
8EEB2
100
AcDbEntity
  8
0
 62
     7
100
AcDbLine
 10
96.44018670993682
 20
9.556745250002336
 30
0.0
 11
105.9925392881563
 21
9.556745250002336
 31
0.0
  0
TEXT
  5
8EED5
330
8EEB2
100
AcDbEntity
  8
0
 62
     7
100
AcDbText
 10
96.66995560986686
 20
8.813345575893606
 30
0.0
 40
0.5414062500000001
  1
LBS/LINEAR FEET:
100
AcDbText
  0
LINE
  5
8EED6
330
8EEB2
100
AcDbEntity
  8
LINEWORK
 62
     7
100
AcDbLine
 10
96.40991550469017
 20
3.757904136908962
 30
0.0
 11
105.9622680829099
 21
3.757904136909189
 31
0.0
  0
TEXT
  5
8EED7
330
8EEB2
100
AcDbEntity
  8
0
 62
     7
100
AcDbText
 10
98.85330873086445
 20
1.524519923848686
 30
0.0
 40
0.8459472656250001
  1
1-1-2000
100
AcDbText
  0
TEXT
  5
8EED8
330
8EEB2
100
AcDbEntity
  8
0
 62
     7
100
AcDbText
 10
96.68542089784603
 20
5.927566558083469
 30
0.0
 40
0.5414062500000001
  1
SCALE:
100
AcDbText
  0
TEXT
  5
8EED9
330
8EEB2
100
AcDbEntity
  8
0
 62
     7
100
AcDbText
 10
96.74158717246577
 20
2.97910930546476
 30
0.0
 40
0.5414062500000001
  1
DATE:
100
AcDbText
  0
TEXT
  5
8EEDA
330
8EEB2
100
AcDbEntity
  8
0
 62
     7
100
AcDbText
 10
96.70022651293084
 20
11.66518473255649
 30
0.0
 40
0.5414062500000001
  1
PROFILE AREA:
100
AcDbText
  0
ATTDEF
  5
8EEDB
330
8EEB2
100
AcDbEntity
  8
A1
 62
     1
100
AcDbText
 10
101.1759733039033
 20
10.07900441527107
 30
0.0
 40
0.9450000000000002
  1

 72
     1
 11
101.1759733039033
 21
10.07900441527107
 31
0.0
100
AcDbAttributeDefinition
  3
ADD PROFILE AREA
  2
XXXXX
 70
     0
  0
ATTDEF
  5
8EEDC
330
8EEB2
100
AcDbEntity
  8
A1
 62
     1
100
AcDbText
 10
101.1418062311347
 20
7.21953861551384
 30
0.0
 40
0.9450000000000002
  1

 72
     1
 11
101.1418062311347
 21
7.21953861551384
 31
0.0
100
AcDbAttributeDefinition
  3
ADD #/LF
  2
XXXXX
 70
     0
  0
LINE
  5
8EEDD
330
8EEB2
100
AcDbEntity
  8
0
100
AcDbLine
 10
25.9704997615305
 20
12.46470592426129
 30
0.0
 11
105.9925392881563
 21
12.46470592426129
 31
0.0
  0
ENDBLK
  5
8EEDF
330
8EEB2
100
AcDbEntity
  8
0
 62
     7
100
AcDbBlockEnd
  0
ENDSEC
  0
SECTION
  2
ENTITIES
  0
INSERT
  5
7C12C
330
2
100
AcDbEntity
  8
0
100
AcDbBlockReference
  2
*U0
 10
496.8557196716146
 20
396.3907964545663
 30
0.0
  0
INSERT
  5
7C12F
330
2
100
AcDbEntity
  8
0
100
AcDbBlockReference
  2
*U1
 10
496.5432141166417
 20
402.9502409247067
 30
0.0
  0
INSERT
  5
7C130
330
2
100
AcDbEntity
  8
0
100
AcDbBlockReference
  2
*U2
 10
497.1057244269991
 20
399.0145740457534
 30
0.0
  0
INSERT
  5
7C131
330
2
100
AcDbEntity
  8
0
100
AcDbBlockReference
  2
*U3
 10
498.1057434485376
 20
385.7082723500777
 30
0.0
  0
INSERT
  5
8AB84
330
2
100
AcDbEntity
  8
0
100
AcDbBlockReference
  2
*U4
 10
-269.9762742725946
 20
510.3024601907236
 30
0.0
  0
INSERT
  5
8B751
330
2
100
AcDbEntity
  8
0
100
AcDbBlockReference
  2
*U5
 10
-256.2597366547767
 20
515.6249495228784
 30
0.0
  0
INSERT
  5
8BDA9
330
2
100
AcDbEntity
  8
0
100
AcDbBlockReference
  2
*U7
 10
-257.9943222346918
 20
509.7192604450555
 30
0.0
  0
DIMENSION
  5
8ED7C
330
2
100
AcDbEntity
  8
A1
 62
     7
100
AcDbDimension
  2
*D8
 10
411.7562425684839
 20
343.0061585635095
 30
0.0
 11
408.4323024421983
 21
343.0061585635095
 31
0.0
 70
   161
 71
     5
 42
-1.0
  3
STANDARD
100
AcDbAlignedDimension
 13
404.7562425684839
 23
347.4278056640693
 33
0.0
 14
411.7562425684839
 24
347.4278056640693
 34
0.0
1001
ACAD
1000
DSTYLE
1002
{
1070
    73
1070
     1
1070
    74
1070
     1
1070
    77
1070
     0
1070
   147
1040
0.5
1070
   279
1070
     1
1070
   288
1070
     1
1070
   289
1070
     3
1002
}
  0
DIMENSION
  5
8ED8A
330
2
100
AcDbEntity
  8
A1
 62
     7
100
AcDbDimension
  2
*D9
 10
410.256242568484
 20
344.6838075334066
 30
0.0
 11
408.4901738544795
 21
344.6838075334066
 31
0.0
 70
   161
 71
     5
 42
-1.0
  3
STANDARD
100
AcDbAlignedDimension
 13
406.256242568484
 23
347.4278056640693
 33
0.0
 14
410.256242568484
 24
347.4278056640693
 34
0.0
1001
ACAD
1000
DSTYLE
1002
{
1070
    73
1070
     1
1070
    74
1070
     1
1070
    77
1070
     0
1070
   147
1040
0.5
1070
   279
1070
     1
1070
   288
1070
     1
1070
   289
1070
     3
1002
}
  0
DIMENSION
  5
8ED98
330
2
100
AcDbEntity
  8
A1
 62
     7
100
AcDbDimension
  2
*D10
 10
404.2562425684839
 20
363.3693355077618
 30
0.0
 11
408.5480467687828
 21
363.3693355077618
 31
0.0
 70
   161
 71
     5
 42
-1.0
  3
STANDARD
100
AcDbAlignedDimension
 13
412.2562425684839
 23
360.4278056640692
 33
0.0
 14
404.2562425684839
 24
360.4278056640692
 34
0.0
1001
ACAD
1000
DSTYLE
1002
{
1070
    73
1070
     1
1070
    74
1070
     1
1070
    77
1070
     0
1070
   147
1040
0.5
1070
   279
1070
     1
1070
   288
1070
     1
1070
   289
1070
     3
1002
}
  0
DIMENSION
  5
8EDA6
330
2
100
AcDbEntity
  8
A1
 62
     7
100
AcDbDimension
  2
*D11
 10
402.0062425684839
 20
365.4519334172879
 30
0.0
 11
408.316556613592
 21
365.4519334172879
 31
0.0
 70
   161
 71
     5
 42
-1.0
  3
STANDARD
100
AcDbAlignedDimension
 13
414.5062425684839
 23
357.8028056640693
 33
0.0
 14
402.0062425684839
 24
357.8028056640693
 34
0.0
1001
ACAD
1000
DSTYLE
1002
{
1070
    73
1070
     1
1070
    74
1070
     1
1070
    77
1070
     0
1070
   147
1040
0.5
1070
   279
1070
     1
1070
   288
1070
     1
1070
   289
1070
     3
1002
}
  0
DIMENSION
  5
8EDB4
330
2
100
AcDbEntity
  8
A1
 62
     7
100
AcDbDimension
  2
*D12
 10
417.5182808947879
 20
357.8028056640693
 30
0.0
 11
417.5182808947879
 21
352.7249484668051
 31
0.0
 70
   160
 71
     5
 42
-1.0
  3
STANDARD
100
AcDbAlignedDimension
 13
411.7562425684839
 23
347.4278056640693
 33
0.0
 14
414.5062425684839
 24
357.8028056640693
 34
0.0
 50
90.0
100
AcDbRotatedDimension
1001
ACAD
1000
DSTYLE
1002
{
1070
    73
1070
     1
1070
    74
1070
     1
1070
    77
1070
     0
1070
   147
1040
0.5
1070
   279
1070
     1
1070
   288
1070
     1
1070
   289
1070
     3
1002
}
  0
DIMENSION
  5
8EDC2
330
2
100
AcDbEntity
  8
A1
 62
     7
100
AcDbDimension
  2
*D13
 10
417.5182808947879
 20
360.4278056640692
 30
0.0
 11
417.5182808947879
 21
363.3693355077618
 31
0.0
 70
   160
 71
     5
 42
-1.0
  3
STANDARD
100
AcDbAlignedDimension
 13
414.5062425684839
 23
357.8028056640693
 33
0.0
 14
412.2562425684839
 24
360.4278056640692
 34
0.0
 50
90.0
100
AcDbRotatedDimension
1001
ACAD
1000
DSTYLE
1002
{
1070
    73
1070
     1
1070
    74
1070
     1
1070
    77
1070
     0
1070
   147
1040
0.5
1070
   279
1070
     1
1070
   288
1070
     1
1070
   289
1070
     3
1002
}
  0
DIMENSION
  5
8EDD6
330
2
100
AcDbEntity
  8
A1
 62
     7
100
AcDbDimension
  2
*D14
 10
387.5982110053583
 20
347.4278056640693
 30
0.0
 11
387.5982110053583
 21
353.8819471917107
 31
0.0
 70
   161
 71
     5
 42
-1.0
  3
STANDARD
100
AcDbAlignedDimension
 13
391.631222604823
 23
360.4278056640692
 33
0.0
 14
391.631222604823
 24
347.4278056640693
 34
0.0
1001
ACAD
1000
DSTYLE
1002
{
1070
    73
1070
     1
1070
    74
1070
     1
1070
    77
1070
     0
1070
   147
1040
0.5
1070
   279
1070
     1
1070
   288
1070
     1
1070
   289
1070
     3
1002
}
  0
DIMENSION
  5
8EDE4
330
2
100
AcDbEntity
  8
A1
 62
     7
100
AcDbDimension
  2
*D15
 10
391.631222604823
 20
364.0635351520971
 30
0.0
 11
387.9454469891555
 21
364.0635351520971
 31
0.0
 70
   161
 71
     5
 42
-1.0
  3
STANDARD
100
AcDbAlignedDimension
 13
394.631222604823
 23
360.4278056640692
 33
0.0
 14
391.631222604823
 24
360.4278056640692
 34
0.0
1001
ACAD
1000
DSTYLE
1002
{
1070
    73
1070
     1
1070
    74
1070
     1
1070
    77
1070
     0
1070
   147
1040
0.5
1070
   279
1070
     1
1070
   288
1070
     1
1070
   289
1070
     3
1002
}
  0
DIMENSION
  5
8EDF4
330
2
100
AcDbEntity
  8
A1
 62
     7
100
AcDbDimension
  2
*D16
 10
391.631222604823
 20
343.121858845392
 30
0.0
 11
388.1769356423242
 21
343.121858845392
 31
0.0
 70
   160
 71
     5
 42
-1.0
  3
STANDARD
100
AcDbAlignedDimension
 13
395.381222604823
 23
348.1778056640692
 33
0.0
 14
391.631222604823
 24
347.4278056640693
 34
0.0
100
AcDbRotatedDimension
1001
ACAD
1000
DSTYLE
1002
{
1070
    73
1070
     1
1070
    74
1070
     1
1070
    77
1070
     0
1070
   147
1040
0.5
1070
   279
1070
     1
1070
   288
1070
     1
1070
   289
1070
     3
1002
}
  0
INSERT
  5
8EE02
330
2
100
AcDbEntity
  8
A1
 62
     7
100
AcDbBlockReference
 66
     1
  2
PROFILE LOGO
 10
405.7122964982564
 20
359.4355402524744
 30
0.0
  0
ATTRIB
  5
8EE03
330
8EE02
100
AcDbEntity
  8
A1
 62
    22
100
AcDbText
 10
406.0033244496039
 20
357.7572420035679
 30
0.0
 40
0.2126953125
  1
0140
 72
     1
 11
406.3904269035373
 21
357.7572420035679
 31
0.0
100
AcDbAttribute
  2
XXXX
 70
     0
  0
SEQEND
  5
8EE04
330
8EE02
100
AcDbEntity
  8
A1
 62
     7
  0
INSERT
  5
8EE05
330
2
100
AcDbEntity
  8
A1
 62
     7
100
AcDbBlockReference
 66
     1
  2
PROFILE LOGO
 10
391.8807751213329
 20
360.2454391552124
 30
0.0
  0
ATTRIB
  5
8EE06
330
8EE05
100
AcDbEntity
  8
A1
 62
    22
100
AcDbText
 10
392.1718030726804
 20
358.5671409063059
 30
0.0
 40
0.2126953125
  1
0140
 72
     1
 11
392.5589055266137
 21
358.5671409063059
 31
0.0
100
AcDbAttribute
  2
XXXX
 70
     0
  0
SEQEND
  5
8EE07
330
8EE05
100
AcDbEntity
  8
A1
 62
     7
  0
LWPOLYLINE
  5
8EE08
330
2
100
AcDbEntity
  8
0
100
AcDbPolyline
 90
       10
 70
     0
 43
0.12
 10
404.2562425684839
 20
360.4278056640692
 10
405.1304510168281
 20
359.6778056640693
 10
406.8996817860589
 20
348.1778056640692
 10
406.256242568484
 20
347.4278056640693
 10
404.2562425684839
 20
360.4278056640692
 10
412.2562425684839
 20
360.4278056640692
 10
410.256242568484
 20
347.4278056640693
 10
409.6128033509089
 20
348.1778056640692
 10
411.3820341201398
 20
359.6778056640693
 10
412.2562425684839
 20
360.4278056640692
  0
LWPOLYLINE
  5
8EE0A
330
2
100
AcDbEntity
  8
0
100
AcDbPolyline
 90
        6
 70
     0
 43
0.12
 10
411.8523964146379
 20
357.8028056640693
 10
414.5062425684839
 20
357.8028056640693
 10
411.7562425684839
 20
347.4278056640693
 10
404.7562425684839
 20
347.4278056640693
 10
402.0062425684839
 20
357.8028056640693
 10
404.6600887223301
 20
357.8028056640693
  0
LWPOLYLINE
  5
8EE0B
330
2
100
AcDbEntity
  8
0
100
AcDbPolyline
 90
        2
 70
     0
 43
0.12
 10
406.8996817860589
 20
348.1778056640692
 10
409.6128033509089
 20
348.1778056640692
  0
LWPOLYLINE
  5
8EE0C
330
2
100
AcDbEntity
  8
0
100
AcDbPolyline
 90
        2
 70
     0
 43
0.12
 10
405.1304510168281
 20
359.6778056640693
 10
411.3820341201398
 20
359.6778056640693
  0
LINE
  5
8EE14
330
2
100
AcDbEntity
  8
0
100
AcDbLine
 10
391.6312226048229
 20
347.4278056640693
 30
0.0
 11
391.631222604823
 21
360.4278056640692
 31
0.0
  0
LWPOLYLINE
  5
8EE2D
330
2
100
AcDbEntity
  8
0
100
AcDbPolyline
 90
        6
 70
     0
 43
0.12
 10
394.631222604823
 20
360.4278056640692
 10
395.381222604823
 20
359.6778056640693
 10
395.381222604823
 20
348.1778056640692
 10
394.631222604823
 20
347.4278056640693
 10
394.631222604823
 20
360.4278056640692
 10
391.631222604823
 20
360.4278056640692
  0
LWPOLYLINE
  5
8EE2F
330
2
100
AcDbEntity
  8
0
100
AcDbPolyline
 90
        2
 70
     0
 43
0.12
 10
391.631222604823
 20
347.4278056640693
 10
394.631222604823
 20
347.4278056640693
  0
LWPOLYLINE
  5
8EE30
330
2
100
AcDbEntity
  8
0
100
AcDbPolyline
 90
        2
 70
     0
 43
0.12
 10
394.631222604823
 20
357.8028056640693
 10
391.631222604823
 20
357.8028056640693
  0
SOLID
  5
8EE34
330
2
100
AcDbEntity
  8
A1
 62
     1
100
AcDbTrace
 10
412.664730828513
 20
360.7279419428876
 30
0.0
 11
412.5453088861919
 21
360.8442010391771
 31
0.0
 12
412.2562425684839
 22
360.4278056640692
 32
0.0
 13
412.2562425684839
 23
360.4278056640692
 33
0.0
  0
LINE
  5
8EE35
330
2
100
AcDbEntity
  8
A1
 62
     1
100
AcDbLine
 10
412.6050198573524
 20
360.7860714910323
 30
0.0
 11
414.0887849279569
 21
362.3102026113918
 31
0.0
  0
ATTDEF
  5
8EE36
330
2
100
AcDbEntity
  8
A1
 62
     1
100
AcDbText
 10
425.2647758767759
 20
368.0914031986145
 30
0.0
 40
1.0
  1

100
AcDbAttributeDefinition
  3
ADD LINK NUMBER (WMF)
  2
TS0140
 70
     0
  0
MTEXT
  5
8EE37
330
2
100
AcDbEntity
  8
0
 62
     1
100
AcDbMText
 10
425.3036084077509
 20
367.3441279760997
 30
0.0
 40
1.0
 41
0.0
 71
     1
 72
     1
  1
TannerStone
 73
     1
 44
1.0
1001
ACAD
1000
MTEXTBEGIN
1070
    73
1070
     1
1070
    44
1040
1.0
1070
    74
1070
     0
1000
MTEXTEND
  0
MTEXT
  5
8EE38
330
2
100
AcDbEntity
  8
0
 62
     1
100
AcDbMText
 10
425.3813508150993
 20
365.8269679097719
 30
0.0
 40
0.7386749999999999
 41
0.0
 71
     1
 72
     1
  1
1-800-789-4841
 73
     1
 44
1.0
1001
ACAD
1000
MTEXTBEGIN
1070
    73
1070
     1
1070
    44
1040
1.0
1070
    74
1070
     0
1000
MTEXTEND
  0
LINE
  5
8EE39
330
2
100
AcDbEntity
  8
0
 62
     1
100
AcDbLine
 10
419.3442409760378
 20
367.7086341240691
 30
0.0
 11
433.885344289019
 21
367.7086341240691
 31
0.0
  0
LINE
  5
8EE3A
330
2
100
AcDbEntity
  8
0
 62
     1
100
AcDbLine
 10
424.7779455276981
 20
364.7208565722936
 30
0.0
 11
424.7779455276981
 21
369.2753103351197
 31
0.0
  0
LINE
  5
8EE3D
330
2
100
AcDbEntity
  8
A1
 62
     1
100
AcDbLine
 10
415.0464620886586
 20
363.2939335218979
 30
0.0
 11
419.3442409760378
 21
367.7086341240691
 31
0.0
  0
INSERT
  5
8EEE0
330
2
100
AcDbEntity
  8
A1
 62
     7
100
AcDbBlockReference
 66
     1
  2
TSFORMB
 10
379.9780762507452
 20
332.6055496625179
 30
0.0
 41
0.5400000000000001
 42
0.5400000000000001
 43
0.5400000000000001
  0
ATTRIB
  5
8EEE1
330
8EEE0
100
AcDbEntity
  8
A1
 62
     1
100
AcDbText
 10
400.163396105766
 20
333.1004511035424
 30
0.0
 40
0.553818384
  1
KEYSTONE
 72
     1
 11
402.2585644500551
 21
333.1004511035424
 31
0.0
100
AcDbAttribute
  2
XXXXXX
 70
     0
  0
ATTRIB
  5
8EEE2
330
8EEE0
100
AcDbEntity
  8
A1
 62
     1
100
AcDbText
 10
388.9096311607999
 20
333.618059762735
 30
0.0
 40
0.4536000000000002
  1
TS0140\
 72
     2
 11
391.6170862989998
 21
333.618059762735
 31
0.0
100
AcDbAttribute
  2
XXXXXX
 70
     0
  0
ATTRIB
  5
8EEE3
330
8EEE0
100
AcDbEntity
  8
A1
 62
     1
100
AcDbText
 10
383.648223621715
 20
334.2892495758529
 30
0.0
 40
3.31128
  1
TS0104
  7
barcoder
 72
     1
 11
386.9181126217149
 21
334.2892495758529
 31
0.0
100
AcDbAttribute
  2
BARCODE
 70
     0
  0
ATTRIB
  5
8EEE4
330
8EEE0
100
AcDbEntity
  8
A1
 62
     1
100
AcDbText
 10
430.4676822807346
 20
372.24155848204
 30
0.0
 40
1.12266
  1
TS0140
 72
     1
 11
433.5476375323292
 21
372.24155848204
 31
0.0
100
AcDbAttribute
  2
TS00XX
 70
     0
  0
ATTRIB
  5
8EEE5
330
8EEE0
100
AcDbEntity
  8
A1
 62
     1
100
AcDbText
 10
433.3706244074965
 20
338.0482120467643
 30
0.0
 40
0.5103000000000002
  1
48.00"
 72
     1
 11
434.613101834853
 21
338.0482120467643
 31
0.0
100
AcDbAttribute
  2
XXXXX
 70
     0
  0
ATTRIB
  5
8EEE6
330
8EEE0
100
AcDbEntity
  8
A1
 62
     1
100
AcDbText
 10
433.5221536354021
 20
336.5041005148954
 30
0.0
 40
0.5103000000000002
  1
43.33
 72
     1
 11
434.594651615558
 21
336.5041005148954
 31
0.0
100
AcDbAttribute
  2
XXXXX
 70
     0
  0
SEQEND
  5
8EEE7
330
8EEE0
100
AcDbEntity
  8
A1
 62
     7
  0
ENDSEC
  0
SECTION
  2
OBJECTS
  0
DICTIONARY
  5
8
330
0
100
AcDbDictionary
281
     1
  3
ACAD_GROUP
350
21
  3
ACAD_LAYOUT
350
C
  3
ACAD_MLINESTYLE
350
22
  3
ACAD_PLOTSETTINGS
350
23
  3
ACAD_PLOTSTYLENAME
350
7
  3
ASE_INDEX_DICTIONARY
350
7C1BE
  3
DWGPROPS
350
8EF86
  0
DICTIONARY
  5
3
330
2
100
AcDbDictionary
280
     1
281
     1
  3
ACAD_LAYOUTSELFREF
360
8EF1A
  0
DICTIONARY
  5
8EF1D
330
D
100
AcDbDictionary
280
     1
281
     1
  3
ACAD_LAYOUTSELFREF
360
8EF1E
  0
DICTIONARY
  5
21
102
{ACAD_REACTORS
330
8
102
}
330
8
100
AcDbDictionary
281
     1
  0
DICTIONARY
  5
C
102
{ACAD_REACTORS
330
8
102
}
330
8
100
AcDbDictionary
281
     1
  3
Layout1
350
10
  3
Model
350
B
  0
DICTIONARY
  5
22
102
{ACAD_REACTORS
330
8
102
}
330
8
100
AcDbDictionary
281
     1
  3
STANDARD
350
25
  0
DICTIONARY
  5
23
102
{ACAD_REACTORS
330
8
102
}
330
8
100
AcDbDictionary
281
     1
  3
EXOT1
350
7C0ED
  0
ACDBDICTIONARYWDFLT
  5
7
102
{ACAD_REACTORS
330
8
102
}
330
8
100
AcDbDictionary
281
     1
  3
Normal
350
6
100
AcDbDictionaryWithDefault
340
6
  0
DICTIONARY
  5
7C1BE
102
{ACAD_REACTORS
330
8
102
}
330
8
100
AcDbDictionary
281
     1
  3
ASEBlockHierarchyIndexRecord
350
7C1BF
1001
DCO15
1040
1362396966.08
  0
XRECORD
  5
8EF86
102
{ACAD_REACTORS
330
8
102
}
330
8
100
AcDbXrecord
280
     1
  1
DWGPROPS COOKIE
  2

  3

  4

  6

  7

  8
catalog
  9

300
=
301
=
302
=
303
=
304
=
305
=
306
=
307
=
308
=
309
=
 40
2.238156481481481
 41
2451085.66483831
 42
2451660.541670833
  1

 90
        0
  0
XRECORD
  5
8EF1A
102
{ACAD_REACTORS
330
3
102
}
330
3
100
AcDbXrecord
280
     1
340
2
  0
XRECORD
  5
8EF1E
102
{ACAD_REACTORS
330
8EF1D
102
}
330
8EF1D
100
AcDbXrecord
280
     1
340
D
  0
LAYOUT
  5
10
102
{ACAD_REACTORS
330
C
102
}
330
C
100
AcDbPlotSettings
  1

  2
None
  4

  6

 40
0.0
 41
0.0
 42
0.0
 43
0.0
 44
0.0
 45
0.0
 46
0.0
 47
0.0
 48
0.0
 49
0.0
140
0.0
141
0.0
142
1.0
143
1.0
 70
   688
 72
     0
 73
     0
 74
     5
  7

 75
    16
147
1.0
148
0.0
149
0.0
100
AcDbLayout
  1
Layout1
 70
     1
 71
     1
 10
0.0
 20
0.0
 11
12.0
 21
9.0
 12
0.0
 22
0.0
 32
0.0
 14
1.000000000000000E+20
 24
1.000000000000000E+20
 34
1.000000000000000E+20
 15
-1.000000000000000E+20
 25
-1.000000000000000E+20
 35
-1.000000000000000E+20
146
0.0
 13
0.0
 23
0.0
 33
0.0
 16
1.0
 26
0.0
 36
0.0
 17
0.0
 27
1.0
 37
0.0
 76
     0
330
D
  0
LAYOUT
  5
B
102
{ACAD_REACTORS
330
C
102
}
330
C
100
AcDbPlotSettings
  1

  2
HP LaserJet 5.pc3
  4
Letter
  6

 40
7.143749713897705
 41
6.381738662719726
 42
7.14373779296875
 43
6.381744384765625
 44
215.8999938964843
 45
279.3999938964843
 46
0.0
 47
0.0
 48
102.934876613363
 49
-10.03275235899575
140
166.0256738086942
141
36.90064555460422
142
1.0
143
24.042521315592
 70
 11952
 72
     0
 73
     1
 74
     1
  7

 75
     0
147
0.0415929754984342
148
0.3115670784461372
149
0.2547471904138888
100
AcDbLayout
  1
Model
 70
     1
 71
     0
 10
0.0
 20
0.0
 11
12.0
 21
9.0
 12
0.0
 22
0.0
 32
0.0
 14
0.0
 24
0.0
 34
0.0
 15
0.0
 25
0.0
 35
0.0
146
0.0
 13
0.0
 23
0.0
 33
0.0
 16
1.0
 26
0.0
 36
0.0
 17
0.0
 27
1.0
 37
0.0
 76
     0
330
2
  0
MLINESTYLE
  5
25
102
{ACAD_REACTORS
330
22
102
}
330
22
100
AcDbMlineStyle
  2
STANDARD
 70
     0
  3

 62
   256
 51
90.0
 52
90.0
 71
     2
 49
0.5
 62
   256
  6
BYLAYER
 49
-0.5
 62
   256
  6
BYLAYER
  0
PLOTSETTINGS
  5
7C0ED
102
{ACAD_REACTORS
330
23
102
}
330
23
100
AcDbPlotSettings
  1
EXOT1
  2
none_device
  4
Letter_(8.50_x_11.00_Inches)
  6

 40
6.349999904632568
 41
6.349999904632568
 42
6.350006103515625
 43
6.350006103515625
 44
215.8999938964843
 45
279.3999938964843
 46
0.0
 47
0.0
 48
103.0850064956629
 49
-9.683547388295792
140
103.9154412227691
141
-9.137474670122287
142
1.0
143
6.008830949410951
 70
  1712
 72
     0
 73
     1
 74
     1
  7

 75
     0
147
0.1664217230305057
148
0.0244351407155108
149
0.0181773607759482
  0
ACDBPLACEHOLDER
  5
6
102
{ACAD_REACTORS
330
7
102
}
330
7
  0
XRECORD
  5
7C1BF
102
{ACAD_REACTORS
330
7C1BE
102
}
330
7C1BE
100
AcDbXrecord
280
     1
330
8AB84
330
0
330
7C12C
330
7C12F
330
7C130
330
7C131
330
8BDA9
330
8B751
330
8EE02
330
8EE05
330
0
330
0
330
0
330
0
330
0
330
0
330
0
330
0
330
0
330
0
330
0
330
0
330
0
330
0
330
0
330
0
330
0
330
0
330
0
330
0
330
0
330
0
330
0
330
0
330
0
330
0
330
0
330
0
330
0
  0
ENDSEC
  0
EOF
