  0
SECTION
  2
HEADER
  9
$ACADVER
  1
AC1015
  9
$ACADMAINTVER
 70
     6
  9
$DWGCODEPAGE
  3
ANSI_1252
  9
$INSBASE
 10
0.0
 20
0.0
 30
0.0
  9
$EXTMIN
 10
22.97992814090445
 20
19.15554715628049
 30
0.0
  9
$EXTMAX
 10
79.73893292971215
 20
61.37870925527157
 30
0.0
  9
$LIMMIN
 10
0.0
 20
0.0
  9
$LIMMAX
 10
12.0
 20
9.0
  9
$ORTHOMODE
 70
     0
  9
$REGENMODE
 70
     1
  9
$FILLMODE
 70
     1
  9
$QTEXTMODE
 70
     0
  9
$MIRRTEXT
 70
     0
  9
$LTSCALE
 40
1.0
  9
$ATTMODE
 70
     2
  9
$TEXTSIZE
 40
1.0
  9
$TRACEWID
 40
0.05
  9
$TEXTSTYLE
  7
STANDARD
  9
$CLAYER
  8
A1
  9
$CELTYPE
  6
BYLAYER
  9
$CECOLOR
 62
     7
  9
$CELTSCALE
 40
1.0
  9
$DISPSILH
 70
     0
  9
$DIMSCALE
 40
1.0
  9
$DIMASZ
 40
0.5
  9
$DIMEXO
 40
1.0
  9
$DIMDLI
 40
0.0625
  9
$DIMRND
 40
0.0
  9
$DIMDLE
 40
0.0
  9
$DIMEXE
 40
0.25
  9
$DIMTP
 40
0.0
  9
$DIMTM
 40
0.0
  9
$DIMTXT
 40
1.0
  9
$DIMCEN
 40
0.0
  9
$DIMTSZ
 40
0.0
  9
$DIMTOL
 70
     0
  9
$DIMLIM
 70
     0
  9
$DIMTIH
 70
     1
  9
$DIMTOH
 70
     1
  9
$DIMSE1
 70
     0
  9
$DIMSE2
 70
     0
  9
$DIMTAD
 70
     0
  9
$DIMZIN
 70
     0
  9
$DIMBLK
  1

  9
$DIMASO
 70
     1
  9
$DIMSHO
 70
     1
  9
$DIMPOST
  1
"
  9
$DIMAPOST
  1

  9
$DIMALT
 70
     0
  9
$DIMALTD
 70
     0
  9
$DIMALTF
 40
25.4
  9
$DIMLFAC
 40
1.0
  9
$DIMTOFL
 70
     0
  9
$DIMTVP
 40
0.0
  9
$DIMTIX
 70
     0
  9
$DIMSOXD
 70
     0
  9
$DIMSAH
 70
     0
  9
$DIMBLK1
  1

  9
$DIMBLK2
  1

  9
$DIMSTYLE
  2
STANDARD
  9
$DIMCLRD
 70
     0
  9
$DIMCLRE
 70
     0
  9
$DIMCLRT
 70
     0
  9
$DIMTFAC
 40
0.125
  9
$DIMGAP
 40
0.5
  9
$DIMJUST
 70
     0
  9
$DIMSD1
 70
     0
  9
$DIMSD2
 70
     0
  9
$DIMTOLJ
 70
     1
  9
$DIMTZIN
 70
     0
  9
$DIMALTZ
 70
     2
  9
$DIMALTTZ
 70
     2
  9
$DIMUPT
 70
     1
  9
$DIMDEC
 70
     4
  9
$DIMTDEC
 70
     4
  9
$DIMALTU
 70
     2
  9
$DIMALTTD
 70
     0
  9
$DIMTXSTY
  7
STANDARD
  9
$DIMAUNIT
 70
     0
  9
$DIMADEC
 70
     0
  9
$DIMALTRND
 40
0.0
  9
$DIMAZIN
 70
     0
  9
$DIMDSEP
 70
    46
  9
$DIMATFIT
 70
     1
  9
$DIMFRAC
 70
     2
  9
$DIMLDRBLK
  1

  9
$DIMLUNIT
 70
     5
  9
$DIMLWD
 70
    -2
  9
$DIMLWE
 70
    -2
  9
$DIMTMOVE
 70
     1
  9
$LUNITS
 70
     5
  9
$LUPREC
 70
     4
  9
$SKETCHINC
 40
0.1
  9
$FILLETRAD
 40
0.0
  9
$AUNITS
 70
     0
  9
$AUPREC
 70
     1
  9
$MENU
  1
acad
  9
$ELEVATION
 40
0.0
  9
$PELEVATION
 40
0.0
  9
$THICKNESS
 40
0.0
  9
$LIMCHECK
 70
     0
  9
$CHAMFERA
 40
0.75
  9
$CHAMFERB
 40
0.75
  9
$CHAMFERC
 40
0.0
  9
$CHAMFERD
 40
0.0
  9
$SKPOLY
 70
     0
  9
$TDCREATE
 40
2451085.664838310
  9
$TDUCREATE
 40
2451085.831504977
  9
$TDUPDATE
 40
2451660.671801620
  9
$TDUUPDATE
 40
2451660.838468287
  9
$TDINDWG
 40
2.7462947917
  9
$TDUSRTIMER
 40
2.7462947917
  9
$USRTIMER
 70
     1
  9
$ANGBASE
 50
0.0
  9
$ANGDIR
 70
     0
  9
$PDMODE
 70
     0
  9
$PDSIZE
 40
0.0
  9
$PLINEWID
 40
0.0
  9
$SPLFRAME
 70
     0
  9
$SPLINETYPE
 70
     6
  9
$SPLINESEGS
 70
     8
  9
$HANDSEED
  5
688
  9
$SURFTAB1
 70
     6
  9
$SURFTAB2
 70
     6
  9
$SURFTYPE
 70
     6
  9
$SURFU
 70
     6
  9
$SURFV
 70
     6
  9
$UCSBASE
  2

  9
$UCSNAME
  2

  9
$UCSORG
 10
0.0
 20
0.0
 30
0.0
  9
$UCSXDIR
 10
1.0
 20
0.0
 30
0.0
  9
$UCSYDIR
 10
0.0
 20
1.0
 30
0.0
  9
$UCSORTHOREF
  2

  9
$UCSORTHOVIEW
 70
     0
  9
$UCSORGTOP
 10
0.0
 20
0.0
 30
0.0
  9
$UCSORGBOTTOM
 10
0.0
 20
0.0
 30
0.0
  9
$UCSORGLEFT
 10
0.0
 20
0.0
 30
0.0
  9
$UCSORGRIGHT
 10
0.0
 20
0.0
 30
0.0
  9
$UCSORGFRONT
 10
0.0
 20
0.0
 30
0.0
  9
$UCSORGBACK
 10
0.0
 20
0.0
 30
0.0
  9
$PUCSBASE
  2

  9
$PUCSNAME
  2

  9
$PUCSORG
 10
0.0
 20
0.0
 30
0.0
  9
$PUCSXDIR
 10
1.0
 20
0.0
 30
0.0
  9
$PUCSYDIR
 10
0.0
 20
1.0
 30
0.0
  9
$PUCSORTHOREF
  2

  9
$PUCSORTHOVIEW
 70
     0
  9
$PUCSORGTOP
 10
0.0
 20
0.0
 30
0.0
  9
$PUCSORGBOTTOM
 10
0.0
 20
0.0
 30
0.0
  9
$PUCSORGLEFT
 10
0.0
 20
0.0
 30
0.0
  9
$PUCSORGRIGHT
 10
0.0
 20
0.0
 30
0.0
  9
$PUCSORGFRONT
 10
0.0
 20
0.0
 30
0.0
  9
$PUCSORGBACK
 10
0.0
 20
0.0
 30
0.0
  9
$USERI1
 70
     0
  9
$USERI2
 70
     0
  9
$USERI3
 70
     0
  9
$USERI4
 70
     0
  9
$USERI5
 70
     0
  9
$USERR1
 40
0.0
  9
$USERR2
 40
0.0
  9
$USERR3
 40
0.0
  9
$USERR4
 40
0.0
  9
$USERR5
 40
0.0
  9
$WORLDVIEW
 70
     1
  9
$SHADEDGE
 70
     1
  9
$SHADEDIF
 70
    70
  9
$TILEMODE
 70
     1
  9
$MAXACTVP
 70
    16
  9
$PINSBASE
 10
0.0
 20
0.0
 30
0.0
  9
$PLIMCHECK
 70
     0
  9
$PEXTMIN
 10
1.000000000000000E+20
 20
1.000000000000000E+20
 30
1.000000000000000E+20
  9
$PEXTMAX
 10
-1.000000000000000E+20
 20
-1.000000000000000E+20
 30
-1.000000000000000E+20
  9
$PLIMMIN
 10
0.0
 20
0.0
  9
$PLIMMAX
 10
12.0
 20
9.0
  9
$UNITMODE
 70
     0
  9
$VISRETAIN
 70
     0
  9
$PLINEGEN
 70
     0
  9
$PSLTSCALE
 70
     1
  9
$TREEDEPTH
 70
  3020
  9
$CMLSTYLE
  2
STANDARD
  9
$CMLJUST
 70
     0
  9
$CMLSCALE
 40
1.0
  9
$PROXYGRAPHICS
 70
     1
  9
$MEASUREMENT
 70
     0
  9
$CELWEIGHT
370
    -1
  9
$ENDCAPS
280
     0
  9
$JOINSTYLE
280
     0
  9
$LWDISPLAY
290
     0
  9
$INSUNITS
 70
     0
  9
$HYPERLINKBASE
  1

  9
$STYLESHEET
  1

  9
$XEDIT
290
     1
  9
$CEPSNTYPE
380
     0
  9
$PSTYLEMODE
290
     1
  9
$FINGERPRINTGUID
  2

  9
$VERSIONGUID
  2
{A2FF0B2C-1436-11D4-8DA4-00A0C981A35F}
  9
$EXTNAMES
290
     1
  9
$PSVPSCALE
 40
0.0
  9
$OLESTARTUP
290
     0
  0
ENDSEC
  0
SECTION
  2
CLASSES
  0
CLASS
  1
DICTIONARYVAR
  2
AcDbDictionaryVar
  3
AutoCAD 2000
 90
    32768
280
     0
281
     0
  0
CLASS
  1
LWPOLYLINE
  2
AcDbPolyline
  3
AutoCAD 2000
 90
    32768
280
     0
281
     1
  0
CLASS
  1
RASTERVARIABLES
  2
AcDbRasterVariables
  3
ISM
 90
    32768
280
     0
281
     0
  0
CLASS
  1
ACDBDICTIONARYWDFLT
  2
AcDbDictionaryWithDefault
  3
AutoCAD 2000
 90
        0
280
     0
281
     0
  0
CLASS
  1
ACDBPLACEHOLDER
  2
AcDbPlaceHolder
  3
AutoCAD 2000
 90
        0
280
     0
281
     0
  0
CLASS
  1
LAYOUT
  2
AcDbLayout
  3
AutoCAD 2000
 90
        0
280
     0
281
     0
  0
CLASS
  1
ACME_DOCUMENT
  2
AcMeDbDoc
  3
AcMeServices
 90
    32768
280
     1
281
     0
  0
CLASS
  1
ACMESCOPE
  2
AcMeScope
  3
AcMeServices
 90
    32768
280
     1
281
     0
  0
CLASS
  1
ACMECOMMANDHISTORY
  2
AcMeCommandHistory
  3
AcMeServices
 90
    32768
280
     1
281
     0
  0
CLASS
  1
ACIMSYSVARMAN
  2
AcImSysVarManager
  3
AcMeServices
 90
    32768
280
     1
281
     0
  0
CLASS
  1
ACIMREALSYSVAR
  2
AcImRealSysVar
  3
AcMeServices
 90
    32768
280
     1
281
     0
  0
CLASS
  1
ACIMINTSYSVAR
  2
AcImIntSysVar
  3
AcMeServices
 90
    32768
280
     1
281
     0
  0
CLASS
  1
ACMEDRAWINGMAN
  2
AcMeDrawingMan
  3
AcMeServices
 90
    32768
280
     1
281
     0
  0
CLASS
  1
ACMEVIEW
  2
AcMeView
  3
AcMeServices
 90
    32768
280
     1
281
     0
  0
CLASS
  1
ACDBENTITYCACHE
  2
AcMeEntityCache
  3
AcMeServices
 90
    32768
280
     1
281
     0
  0
CLASS
  1
GSMANAGER
  2
AcMeGSManager
  3
AcMeServices
 90
    32768
280
     1
281
     0
  0
CLASS
  1
AmdtInternalReactor
  2
AmdtInternalReactor
  3
AcMeServices
 90
    32768
280
     1
281
     0
  0
CLASS
  1
ACMESTATEMGR
  2
AcMeStateMgr
  3
AcMeServices
 90
    32768
280
     1
281
     0
  0
CLASS
  1
ACGREFMASTER
  2
AcGrefMaster
  3
AcAttribServices
 90
    32768
280
     1
281
     0
  0
CLASS
  1
AM_DRAWING_MGR
  2
AcDmDwgMgr
  3
AcMechDwgViewMgmt
 90
    32768
280
     1
281
     0
  0
CLASS
  1
AM_DWG_DOCUMENT
  2
AcDmDwgDocument
  3
AcMechDwgViewMgmt
 90
    32768
280
     1
281
     0
  0
CLASS
  1
AM_DWG_SHEET
  2
AcDmSheet
  3
AcMechDwgViewMgmt
 90
    32768
280
     1
281
     0
  0
CLASS
  1
AM_VIEWDIMPARMAP
  2
AcDmViewDimParMap
  3
AcMechDwgViewMgmt
 90
    32768
280
     1
281
     0
  0
CLASS
  1
AM_DWGMGR_NAME
  2
AcDmDwgMgrName
  3
AcMechDwgViewMgmt
 90
    32768
280
     1
281
     0
  0
CLASS
  1
ACME_DATABASE
  2
AcMeDbDatabase
  3
AcMeServices
 90
    32768
280
     1
281
     0
  0
CLASS
  1
ACRFINSADJUSTERMGR
  2
AcRfInsAdjusterMgr
  3
AcMeServices
 90
    32768
280
     1
281
     0
  0
CLASS
  1
ACGREFMASTER
  2
AcGrefacadMaster
  3
AcGrefServices
 90
    32768
280
     1
281
     0
  0
CLASS
  1
AMDTMENUSTATEMGR
  2
AmdtMenuStateMgr
  3
McadcomServices
 90
    32768
280
     1
281
     0
  0
CLASS
  1
AMDTMCOMMENUSTATE
  2
AmdtMcomMenuState
  3
McadcomServices
 90
    32768
280
     1
281
     0
  0
CLASS
  1
ASAPP
  2
AcAsAppObject
  3
AutoSurfServices
 90
    32768
280
     1
281
     0
  0
CLASS
  1
IM_STATIC_MAN
  2
AcImStaticVarManager
  3
AcMeServices
 90
    32768
280
     1
281
     0
  0
CLASS
  1
ACIMSTRSYSVAR
  2
AcImStrSysVar
  3
AcMeServices
 90
    32768
280
     1
281
     0
  0
CLASS
  1
ACIMDBLSTATICVAR
  2
AcImDblStaticVar
  3
AcMeServices
 90
    32768
280
     1
281
     0
  0
CLASS
  1
ACIMSTRSTATICVAR
  2
AcImStrStaticVar
  3
AcMeServices
 90
    32768
280
     1
281
     0
  0
CLASS
  1
ACIMINTSTATICVAR
  2
AcImIntStaticVar
  3
AcMeServices
 90
    32768
280
     1
281
     0
  0
CLASS
  1
ACADGREFMODULE
  2
AcAdGrefModule
  3
AdGrefServices
 90
    32768
280
     1
281
     0
  0
CLASS
  1
AMIMASTER
  2
AmiMaster
  3
AmiServices
 90
    32768
280
     1
281
     0
  0
CLASS
  1
ACASGREFMASTER
  2
AcAsGrefMaster
  3
AutoSurfResolverServices
 90
    32768
280
     1
281
     0
  0
CLASS
  1
MAPIAMMOUDLE
  2
MApiAmModule
  3
MApiAmServices
 90
    32768
280
     1
281
     0
  0
CLASS
  1
AMDTDMMENUSTATE
  2
AmdtDmMenuState
  3
AcMechDwgViewMgmt
 90
    32768
280
     1
281
     0
  0
CLASS
  1
AMDTADMENUSTATE
  2
AmdtAdMenuState
  3
DesignerServices
 90
    32768
280
     1
281
     0
  0
CLASS
  1
ADAPPL
  2
AcAdAppl
  3
DesignerServices
 90
    32768
280
     1
281
     0
  0
CLASS
  1
DEPMGR
  2
AcAdDepMgr
  3
DesignerServices
 90
    32768
280
     1
281
     0
  0
CLASS
  1
PARAMMGR
  2
AcAdParamMgr
  3
DesignerServices
 90
    32768
280
     1
281
     0
  0
CLASS
  1
PARAMSCOPE
  2
AcAdParamScope
  3
DesignerServices
 90
    32768
280
     1
281
     0
  0
CLASS
  1
NAMEDAPPL
  2
AcAdNamedAppl
  3
DesignerServices
 90
    32768
280
     1
281
     0
  0
CLASS
  1
ADHNTMPLT
  2
AdHoleNoteTemplateMgr
  3
DesignerServices
 90
    32768
280
     1
281
     0
  0
CLASS
  1
AM_HNTEMPLATE_MGR_NAME
  2
AdHoleNoteTemplateMgrName
  3
DesignerServices
 90
    32768
280
     1
281
     0
  0
CLASS
  1
AMDTAMMENUSTATE
  2
AmdtAmMenuState
  3
DesignerAssemblies
 90
    32768
280
     1
281
     0
  0
CLASS
  1
ACAMPROJECT
  2
AcAmProject
  3
DesignerAssemblies
 90
    32768
280
     1
281
     0
  0
CLASS
  1
ACAMGRCOMPDEF
  2
AcAmGrCompDef
  3
DesignerAssemblies
 90
    32768
280
     1
281
     0
  0
CLASS
  1
ACCMCONTEXT
  2
AcCmContext
  3
DesignerAssemblies
 90
    32768
280
     1
281
     0
  0
CLASS
  1
ACAMCOMPDEF
  2
AcAmCompDef
  3
DesignerAssemblies
 90
    32768
280
     1
281
     0
  0
CLASS
  1
ACAMCOMPDEFMGR
  2
AcAmCompDefMgr
  3
DesignerAssemblies
 90
    32768
280
     1
281
     0
  0
CLASS
  1
AMCONTEXTMGR
  2
AcAmContextMgr
  3
DesignerAssemblies
 90
    32768
280
     1
281
     0
  0
CLASS
  1
ACAMCONTEXTMODELER
  2
AcAmContextModeler
  3
DesignerAssemblies
 90
    32768
280
     1
281
     0
  0
CLASS
  1
MAPIADMODULE
  2
MApiAdModule
  3
MApiAdServices
 90
    32768
280
     1
281
     0
  0
CLASS
  1
ACMDATADICTIONARY
  2
AcmDataDictionary
  3
"AcmSymBB|Product Description: AutoCAD Mechanical 2000|Company: Autodesk"
 90
    32768
280
     1
281
     0
  0
CLASS
  1
ACMDATAENTRYBLOCK
  2
AcmDataEntryBlock
  3
"AcmSymBB|Product Description: AutoCAD Mechanical 2000|Company: Autodesk"
 90
    32768
280
     1
281
     0
  0
CLASS
  1
AMDTBROWSERDBTAB
  2
AmdtBrowserDbTab
  3
McadcomServices
 90
    32768
280
     1
281
     0
  0
CLASS
  1
CBROWSERAPPOBJECT
  2
CBrowserAppObject
  3
McadcomServices
 90
    32768
280
     1
281
     0
  0
CLASS
  1
DM_PLACEHOLDER
  2
AcDmSelsetPlaceholder
  3
AcMechDwgViewMgmt
 90
    32768
280
     1
281
     0
  0
CLASS
  1
CATALOGSTATE
  2
AcAmCatalogState
  3
DesignerAssemblies
 90
    32768
280
     1
281
     0
  0
CLASS
  1
ACAMGRCOMPDEFSET
  2
AcAmGrCompDefSet
  3
DesignerAssemblies
 90
    32768
280
     1
281
     0
  0
CLASS
  1
AMGOBJPROPCFG
  2
AmgObjPropCfg
  3
"AmgLay|Product Description: AutoCAD Mechanical 2000|Company: Autodesk"
 90
    32769
280
     1
281
     0
  0
CLASS
  1
LAYER_INDEX
  2
AcDbLayerIndex
  3
AutoCAD 2000
 90
    32768
280
     0
281
     0
  0
CLASS
  1
IDBUFFER
  2
AcDbIdBuffer
  3
AutoCAD 2000
 90
    32768
280
     0
281
     0
  0
CLASS
  1
ACRFATTGENMGR
  2
AcRfAttGeneralMgr
  3
AcAttribServices
 90
    32768
280
     1
281
     0
  0
CLASS
  1
PLOTSETTINGS
  2
AcDbPlotSettings
  3
AutoCAD 2000
 90
    32768
280
     0
281
     0
  0
CLASS
  1
VBA_PROJECT
  2
AcDbVbaProject
  3
acadvba
 90
    32768
280
     0
281
     0
  0
CLASS
  1
LONG_TRANSACTION
  2
AcDbLongTransaction
  3
AutoCAD 2000
 90
    32768
280
     0
281
     0
  0
CLASS
  1
LWPOLYLINE
  2
AcDbPolyline
  3
AutoCAD 2000
 90
    32768
280
     0
281
     1
  0
CLASS
  1
HATCH
  2
AcDbHatch
  3
AutoCAD 2000
 90
    32768
280
     0
281
     1
  0
CLASS
  1
XRECORD
  2
AcDbXrecord
  3
AutoCAD 2000
 90
    32768
280
     0
281
     0
  0
CLASS
  1
LONG_TRANSACTION
  2
AcDbLongTransaction
  3
AutoCAD 2000
 90
    32768
280
     0
281
     0
  0
CLASS
  1
LWPOLYLINE
  2
AcDbPolyline
  3
AutoCAD 2000
 90
    32768
280
     0
281
     1
  0
CLASS
  1
HATCH
  2
AcDbHatch
  3
AutoCAD 2000
 90
    32768
280
     0
281
     1
  0
CLASS
  1
XRECORD
  2
AcDbXrecord
  3
AutoCAD 2000
 90
    32768
280
     0
281
     0
  0
CLASS
  1
LONG_TRANSACTION
  2
AcDbLongTransaction
  3
AutoCAD 2000
 90
    32768
280
     0
281
     0
  0
CLASS
  1
LWPOLYLINE
  2
AcDbPolyline
  3
AutoCAD 2000
 90
    32768
280
     0
281
     1
  0
CLASS
  1
HATCH
  2
AcDbHatch
  3
AutoCAD 2000
 90
    32768
280
     0
281
     1
  0
CLASS
  1
XRECORD
  2
AcDbXrecord
  3
AutoCAD 2000
 90
    32768
280
     0
281
     0
  0
ENDSEC
  0
SECTION
  2
TABLES
  0
TABLE
  2
VPORT
  5
1B
330
0
100
AcDbSymbolTable
 70
     2
  0
VPORT
  5
687
330
1B
100
AcDbSymbolTableRecord
100
AcDbViewportTableRecord
  2
*Active
 70
     0
 10
0.0
 20
0.0
 11
1.0
 21
1.0
 12
115.8251237905473
 22
7.242416667681666
 13
0.0
 23
0.0
 14
1.0
 24
1.0
 15
0.0
 25
0.0
 16
0.0
 26
0.0
 36
1.0
 17
-64.46234487877643
 27
33.0238264231553
 37
6.148717398612387
 40
42.53802639397109
 41
1.413068844807467
 42
50.0
 43
-6.148717398612387
 44
-6.148717398612387
 50
0.0
 51
0.0
 71
     0
 72
 20000
 73
     1
 74
     1
 75
     0
 76
     0
 77
     0
 78
     2
281
     0
 65
     1
110
0.0
120
0.0
130
0.0
111
1.0
121
0.0
131
0.0
112
0.0
122
1.0
132
0.0
 79
     0
146
0.0
  0
ENDTAB
  0
TABLE
  2
LTYPE
  5
16
330
0
100
AcDbSymbolTable
 70
     3
  0
LTYPE
  5
17
330
16
100
AcDbSymbolTableRecord
100
AcDbLinetypeTableRecord
  2
BYBLOCK
 70
     0
  3

 72
    65
 73
     0
 40
0.0
  0
LTYPE
  5
18
330
16
100
AcDbSymbolTableRecord
100
AcDbLinetypeTableRecord
  2
BYLAYER
 70
     0
  3

 72
    65
 73
     0
 40
0.0
  0
LTYPE
  5
9
330
16
100
AcDbSymbolTableRecord
100
AcDbLinetypeTableRecord
  2
CONTINUOUS
 70
     0
  3
Solid line
 72
    65
 73
     0
 40
0.0
  0
LTYPE
  5
3DA
330
16
100
AcDbSymbolTableRecord
100
AcDbLinetypeTableRecord
  2
CENTER
 70
     0
  3
Center ____ _ ____ _ ____ _ ____ _ ____ _ ____
 72
    65
 73
     4
 40
2.0
 49
1.25
 74
     0
 49
-0.25
 74
     0
 49
0.25
 74
     0
 49
-0.25
 74
     0
  0
LTYPE
  5
3DB
330
16
100
AcDbSymbolTableRecord
100
AcDbLinetypeTableRecord
  2
DASHED
 70
     0
  3
Dashed __ __ __ __ __ __ __ __ __ __ __ __ __ _
 72
    65
 73
     2
 40
0.75
 49
0.5
 74
     0
 49
-0.25
 74
     0
  0
ENDTAB
  0
TABLE
  2
LAYER
  5
11
330
0
100
AcDbSymbolTable
 70
    12
  0
LAYER
  5
5
330
11
100
AcDbSymbolTableRecord
100
AcDbLayerTableRecord
  2
0
 70
     0
 62
     7
  6
CONTINUOUS
370
    -3
390
6
  0
LAYER
  5
24
330
11
100
AcDbSymbolTableRecord
100
AcDbLayerTableRecord
  2
A1
 70
     0
 62
     7
  6
CONTINUOUS
370
    -3
390
6
  0
LAYER
  5
54
330
11
100
AcDbSymbolTableRecord
100
AcDbLayerTableRecord
  2
LINEWORK
 70
     0
 62
    41
  6
CONTINUOUS
370
    -3
390
6
  0
LAYER
  5
76
330
11
100
AcDbSymbolTableRecord
100
AcDbLayerTableRecord
  2
DEFPOINTS
 70
     0
 62
    -7
  6
CONTINUOUS
290
     0
370
    -3
390
6
  0
LAYER
  5
3DD
330
11
100
AcDbSymbolTableRecord
100
AcDbLayerTableRecord
  2
TAG
 70
     0
 62
     1
  6
CONTINUOUS
370
    -3
390
6
  0
LAYER
  5
3DE
330
11
100
AcDbSymbolTableRecord
100
AcDbLayerTableRecord
  2
DIM
 70
     0
 62
     7
  6
CONTINUOUS
370
    -3
390
6
  0
LAYER
  5
3DF
330
11
100
AcDbSymbolTableRecord
100
AcDbLayerTableRecord
  2
TOP-A
 70
     0
 62
     7
  6
CONTINUOUS
370
    -3
390
6
  0
LAYER
  5
3E1
330
11
100
AcDbSymbolTableRecord
100
AcDbLayerTableRecord
  2
ISOQUOIN
 70
     0
 62
    41
  6
CONTINUOUS
370
    -3
390
6
  0
LAYER
  5
3E3
330
11
100
AcDbSymbolTableRecord
100
AcDbLayerTableRecord
  2
TEXT
 70
     0
 62
     4
  6
CONTINUOUS
370
    -3
390
6
  0
LAYER
  5
3E4
330
11
100
AcDbSymbolTableRecord
100
AcDbLayerTableRecord
  2
ECONOMYBRICK
 70
     0
 62
     7
  6
CONTINUOUS
370
    -3
390
6
  0
LAYER
  5
3E5
330
11
100
AcDbSymbolTableRecord
100
AcDbLayerTableRecord
  2
BASEPLAT-A
 70
     0
 62
    41
  6
CONTINUOUS
370
    -3
390
6
  0
LAYER
  5
3E6
330
11
100
AcDbSymbolTableRecord
100
AcDbLayerTableRecord
  2
STEELREF
 70
     0
 62
     7
  6
CONTINUOUS
370
    -3
390
6
  0
ENDTAB
  0
TABLE
  2
STYLE
  5
12
330
0
100
AcDbSymbolTable
 70
     3
  0
STYLE
  5
13
330
12
100
AcDbSymbolTableRecord
100
AcDbTextStyleTableRecord
  2
STANDARD
 70
     0
 40
0.0
 41
1.0
 50
0.0
 71
     0
 42
1.0
  3
unvr55w.ttf
  4

1001
ACAD
1000
Univers
1071
       34
  0
STYLE
  5
49
330
12
100
AcDbSymbolTableRecord
100
AcDbTextStyleTableRecord
  2
ROMANC
 70
     0
 40
0.0
 41
1.0
 50
0.0
 71
     0
 42
0.5
  3
TIMESBD.TTF
  4

1001
ACAD
1000
Times New Roman
1071
 33554450
  0
STYLE
  5
2A
330
12
100
AcDbSymbolTableRecord
100
AcDbTextStyleTableRecord
  2
barcoder
 70
     0
 40
0.0
 41
1.0
 50
0.0
 71
     0
 42
4.5625
  3
cw_barcd.ttf
  4

1001
ACAD
1000
Barcoder
1071
 33554434
  0
ENDTAB
  0
TABLE
  2
VIEW
  5
19
330
0
100
AcDbSymbolTable
 70
     0
  0
ENDTAB
  0
TABLE
  2
UCS
  5
1A
330
0
100
AcDbSymbolTable
 70
     0
  0
ENDTAB
  0
TABLE
  2
APPID
  5
1D
330
0
100
AcDbSymbolTable
 70
     1
  0
APPID
  5
14
330
1D
100
AcDbSymbolTableRecord
100
AcDbRegAppTableRecord
  2
ACAD
 70
     0
  0
ENDTAB
  0
TABLE
  2
DIMSTYLE
  5
1E
330
0
100
AcDbSymbolTable
 70
     1
100
AcDbDimStyleTable
 71
     0
  0
DIMSTYLE
105
1F
102
{ACAD_REACTORS
330
4B8
330
4C8
330
4D6
330
4E4
102
}
330
1E
100
AcDbSymbolTableRecord
100
AcDbDimStyleTableRecord
  2
STANDARD
 70
     0
  3
"
 41
0.5
 42
1.0
 43
0.0625
 44
0.25
 73
     0
 74
     0
 77
     3
140
1.0
141
0.0
146
0.125
147
0.125
171
     0
274
     0
276
     2
277
     5
285
     2
286
     2
289
     0
340
13
  0
ENDTAB
  0
TABLE
  2
BLOCK_RECORD
  5
1
330
0
100
AcDbSymbolTable
 70
    11
  0
BLOCK_RECORD
  5
2
102
{ACAD_XDICTIONARY
360
3
102
}
330
1
100
AcDbSymbolTableRecord
100
AcDbBlockTableRecord
  2
*MODEL_SPACE
340
B
  0
BLOCK_RECORD
  5
D
102
{ACAD_XDICTIONARY
360
11B
102
}
330
1
100
AcDbSymbolTableRecord
100
AcDbBlockTableRecord
  2
*PAPER_SPACE
340
10
  0
BLOCK_RECORD
  5
AB
330
1
100
AcDbSymbolTableRecord
100
AcDbBlockTableRecord
  2
PROFILE LOGO
340
0
102
{BLKREFS
331
4F2
102
}
  0
BLOCK_RECORD
  5
61
330
1
100
AcDbSymbolTableRecord
100
AcDbBlockTableRecord
  2
LINK FLAG
340
0
102
{BLKREFS
331
12E
102
}
  0
BLOCK_RECORD
  5
2E
330
1
100
AcDbSymbolTableRecord
100
AcDbBlockTableRecord
  2
TSFORMB
340
0
102
{BLKREFS
331
126
102
}
  0
BLOCK_RECORD
  5
132
330
1
100
AcDbSymbolTableRecord
100
AcDbBlockTableRecord
  2
1TAG
340
0
  0
BLOCK_RECORD
  5
142
330
1
100
AcDbSymbolTableRecord
100
AcDbBlockTableRecord
  2
TB1
340
0
  0
BLOCK_RECORD
  5
4B9
330
1
100
AcDbSymbolTableRecord
100
AcDbBlockTableRecord
  2
*D5
340
0
  0
BLOCK_RECORD
  5
4C9
330
1
100
AcDbSymbolTableRecord
100
AcDbBlockTableRecord
  2
*D6
340
0
  0
BLOCK_RECORD
  5
4D7
330
1
100
AcDbSymbolTableRecord
100
AcDbBlockTableRecord
  2
*D7
340
0
  0
BLOCK_RECORD
  5
4E5
330
1
100
AcDbSymbolTableRecord
100
AcDbBlockTableRecord
  2
*D8
340
0
  0
ENDTAB
  0
ENDSEC
  0
SECTION
  2
BLOCKS
  0
BLOCK
  5
4
330
2
100
AcDbEntity
  8
0
100
AcDbBlockBegin
  2
*MODEL_SPACE
 70
     2
 10
0.0
 20
0.0
 30
0.0
  3
*MODEL_SPACE
  1

  0
ENDBLK
  5
A
330
2
100
AcDbEntity
  8
0
100
AcDbBlockEnd
  0
BLOCK
  5
E
330
D
100
AcDbEntity
 67
     1
  8
0
100
AcDbBlockBegin
  2
*PAPER_SPACE
 70
     0
 10
0.0
 20
0.0
 30
0.0
  3
*PAPER_SPACE
  1

  0
ENDBLK
  5
F
330
D
100
AcDbEntity
 67
     1
  8
0
100
AcDbBlockEnd
  0
BLOCK
  5
C4
330
AB
100
AcDbEntity
  8
0
 62
     7
100
AcDbBlockBegin
  2
PROFILE LOGO
 70
     2
 10
0.0
 20
0.0
 30
0.0
  3
PROFILE LOGO
  1

  0
LINE
  5
AC
330
AB
100
AcDbEntity
  8
0
 62
    22
100
AcDbLine
 10
0.7459516636765642
 20
-0.415894330395318
 30
0.0
 11
0.74595166367655
 21
-1.12746688439163
 31
0.0
  0
LINE
  5
AD
330
AB
100
AcDbEntity
  8
0
 62
    22
100
AcDbLine
 10
0.5841942848079072
 20
-0.415894330395318
 30
0.0
 11
0.5841942848079072
 21
-1.12746688439163
 31
0.0
  0
HATCH
  5
AE
330
AB
100
AcDbEntity
  8
0
 62
    22
100
AcDbHatch
 10
0.0
 20
0.0
 30
0.0
210
0.0
220
0.0
230
1.0
  2
LINE
 70
     0
 71
     0
 91
        1
 92
       33
 93
       38
 72
     1
 10
1.115683196411978
 20
-0.1706330859717084
 11
0.2177636962628071
 21
-0.1706330859717084
 72
     1
 10
0.2177636962628213
 20
-0.1706330859717084
 11
0.2078601968792952
 21
-0.4246889457533243
 72
     1
 10
0.2078601968792952
 20
-0.4246889457533243
 11
0.2375709173007294
 21
-0.4246889457533243
 72
     1
 10
0.2375709173007294
 20
-0.4246889457533243
 11
0.2441732502230991
 21
-0.3817964654080939
 72
     1
 10
0.2441732502230991
 20
-0.3817964654080939
 11
0.254076749606611
 21
-0.3422032805409501
 72
     1
 10
0.2540767496066252
 20
-0.3422032805409501
 11
0.2738837483736916
 21
-0.3092090964125091
 72
     1
 10
0.2738837483736916
 20
-0.3092090964125091
 11
0.2969919136019428
 21
-0.2861130719066693
 72
     1
 10
0.296991913601957
 20
-0.2861130719066764
 11
0.3267026340234338
 21
-0.2663164794731259
 72
     1
 10
0.3267026340234196
 20
-0.2663164794731259
 11
0.356413132174012
 21
-0.2498193191118219
 72
     1
 10
0.356413132174012
 20
-0.2498193191118148
 11
0.3828224638634481
 21
-0.243220591561446
 72
     1
 10
0.3828224638634623
 20
-0.243220591561446
 11
0.4092320178237401
 21
-0.243220591561446
 72
     1
 10
0.4092320178237401
 20
-0.243220591561446
 11
0.4719541805861525
 21
-0.2465198870395469
 72
     1
 10
0.4719541805861525
 20
-0.2465198870395469
 11
0.514869566852326
 21
-0.2729153436176332
 72
     1
 10
0.514869566852326
 20
-0.2729153436176332
 11
0.5742905631535394
 21
-0.3389038484686964
 72
     1
 10
0.5742905631535394
 20
-0.3389038484687106
 11
0.5907966177302626
 21
-0.3916947616248691
 72
     1
 10
0.5907966177302768
 20
-0.3916947616248691
 11
0.5907966177302768
 21
-1.157161773041991
 72
     1
 10
0.5907966177302768
 20
-1.157161773041984
 11
0.5643870637699991
 21
-1.203353685459461
 72
     1
 10
0.5643870637699849
 20
-1.203353685459468
 11
0.4983637345463876
 21
-1.226449709965308
 72
     1
 10
0.4983637345464019
 20
-1.226449709965301
 11
0.4389425159743326
 21
-1.226449709965301
 72
     1
 10
0.4389425159743326
 20
-1.226449709965301
 11
0.4323401830519913
 21
-1.249545734471119
 72
     1
 10
0.4323401830520055
 20
-1.249545734471134
 11
0.8945045989712809
 21
-1.249545734471134
 72
     1
 10
0.8945045989712667
 20
-1.249545734471134
 11
0.8945045989712667
 21
-1.226449709965315
 72
     1
 10
0.8945045989712667
 20
-1.226449709965301
 11
0.8152763816321311
 21
-1.226449709965301
 72
     1
 10
0.8152763816321311
 20
-1.226449709965301
 11
0.7525539965988913
 21
-1.186856661692324
 72
     1
 10
0.7525539965988913
 20
-1.186856661692324
 11
0.7426504972153794
 21
-1.140664612680659
 72
     1
 10
0.7426504972153652
 20
-1.140664612680673
 11
0.7393493307541803
 21
-0.394994193697137
 72
     1
 10
0.7393493307541803
 20
-0.394994193697137
 11
0.7558551630600619
 21
-0.3389038484687106
 72
     1
 10
0.7558551630600761
 20
-0.3389038484687106
 11
0.7987705493262496
 21
-0.2828136398344298
 72
     1
 10
0.7987705493262496
 20
-0.2828136398344227
 11
0.8614929343594894
 21
-0.2498193191118148
 72
     1
 10
0.8614929343594894
 20
-0.2498193191118148
 11
0.9374197629665985
 21
-0.2399211594891923
 72
     1
 10
0.9374197629665985
 20
-0.2399211594891923
 11
1.010045647383407
 21
-0.2663164794731117
 72
     1
 10
1.010045647383407
 20
-0.2663164794731259
 11
1.056262200110722
 21
-0.3092090964125234
 72
     1
 10
1.056262200110722
 20
-0.3092090964125091
 11
1.085972698261343
 21
-0.361999872974522
 72
     1
 10
1.085972698261358
 20
-0.3619998729745291
 11
1.092575031183727
 21
-0.4246889457533243
 72
     1
 10
1.092575031183727
 20
-0.4246889457533243
 11
1.115683196411993
 21
-0.4246889457533243
 72
     1
 10
1.115683196411978
 20
-0.4246889457533243
 11
1.109080863489609
 21
-0.17723195011623
 72
     1
 10
1.109080863489609
 20
-0.17723195011623
 11
1.109080863489609
 21
-0.1739325180439621
 72
     1
 10
1.109080863489609
 20
-0.1739325180439621
 11
1.105779697028424
 21
-0.1739325180439621
 97
        0
 75
     0
 76
     1
 52
0.0
 41
0.078125
 77
     0
 78
     1
 53
0.0
 43
-28.182772630023
 44
-32.9923404580304
 45
0.0
 46
0.009765625
 79
     0
 98
        1
 10
-28.182772630023
 20
-32.9923404580304
  0
LWPOLYLINE
  5
AF
330
AB
100
AcDbEntity
  8
0
 62
    22
100
AcDbPolyline
 90
        4
 70
     1
 43
0.0
 10
0.0262955969727301
 20
-0.0287577800528069
 10
1.307151517972869
 20
-0.0287577800528069
 10
1.307151517972869
 20
-1.731261997456265
 10
0.0262955969727301
 20
-1.731261997456265
  0
LINE
  5
B0
330
AB
100
AcDbEntity
  8
0
 62
    22
100
AcDbLine
 10
0.0262955969727443
 20
-1.4112176328236
 30
0.0
 11
1.307151517972869
 21
-1.4112176328236
 31
0.0
  0
ATTDEF
  5
B1
330
AB
100
AcDbEntity
  8
A1
 62
    22
100
AcDbText
 10
0.6781304052809105
 20
-1.678298248906529
 30
0.0
 40
0.2126953125
  1

 72
     1
 11
0.6781304052809105
 21
-1.678298248906529
 31
0.0
100
AcDbAttributeDefinition
  3
ADD STONE MARKER
  2
XXXX
 70
     0
  0
LINE
  5
B2
330
AB
100
AcDbEntity
  8
0
 62
    22
100
AcDbLine
 10
0.7464576960363587
 20
-1.129021462591367
 30
0.0
 11
0.74595166367655
 21
-1.12746688439163
 31
0.0
  0
ARC
  5
B3
330
AB
100
AcDbEntity
  8
0
 62
    22
100
AcDbCircle
 10
0.8421255873066684
 20
-1.127299146756172
 30
0.0
 40
0.0956833935014068
100
AcDbArc
 50
181.0313885659746
 51
269.7936990713142
  0
LINE
  5
B4
330
AB
100
AcDbEntity
  8
0
 62
    22
100
AcDbLine
 10
0.9011069318936506
 20
-1.22315027789304
 30
0.0
 11
0.841781067510368
 21
-1.22315027789304
 31
0.0
  0
LINE
  5
B5
330
AB
100
AcDbEntity
  8
0
 62
    22
100
AcDbLine
 10
0.9011069318936506
 20
-1.256144598615648
 30
0.0
 11
0.9011069318936506
 21
-1.22315027789304
 31
0.0
  0
ARC
  5
B6
330
AB
100
AcDbEntity
  8
0
 62
    22
100
AcDbCircle
 10
0.4880203611777887
 20
-1.127299146756172
 30
0.0
 40
0.0956833935014068
100
AcDbArc
 50
270.2063009286848
 51
358.9686114340253
  0
LINE
  5
B7
330
AB
100
AcDbEntity
  8
0
 62
    22
100
AcDbLine
 10
0.4290390165908207
 20
-1.256144598615648
 30
0.0
 11
0.4290390165908207
 21
-1.22315027789304
 31
0.0
  0
LINE
  5
B8
330
AB
100
AcDbEntity
  8
0
 62
    22
100
AcDbLine
 10
0.4290390165908207
 20
-1.22315027789304
 30
0.0
 11
0.4883648809740891
 21
-1.22315027789304
 31
0.0
  0
LINE
  5
B9
330
AB
100
AcDbEntity
  8
0
 62
    22
100
AcDbLine
 10
0.5836882524480984
 20
-1.129021462591367
 30
0.0
 11
0.5841942848079072
 21
-1.12746688439163
 31
0.0
  0
LINE
  5
BA
330
AB
100
AcDbEntity
  8
0
 62
    22
100
AcDbLine
 10
0.4290390165908207
 20
-1.256144598615648
 30
0.0
 11
0.9011069318936506
 21
-1.256144598615648
 31
0.0
  0
LINE
  5
BB
330
AB
100
AcDbEntity
  8
0
 62
    22
100
AcDbLine
 10
1.085512597630156
 20
-0.415894330395318
 30
0.0
 11
1.085512597630156
 21
-0.4280723832374847
 31
0.0
  0
ARC
  5
BC
330
AB
100
AcDbEntity
  8
0
 62
    22
100
AcDbCircle
 10
0.9138550451562537
 20
-0.4147906495365632
 30
0.0
 40
0.1716611005230106
100
AcDbArc
 50
359.6316189828552
 51
90.00081606717127
  0
ARC
  5
BD
330
AB
100
AcDbEntity
  8
0
 62
    22
100
AcDbCircle
 10
0.9180888683309831
 20
-0.4147906495365632
 30
0.0
 40
0.1716611005230106
100
AcDbArc
 50
89.99918393282873
 51
180.3683810171443
  0
LINE
  5
BE
330
AB
100
AcDbEntity
  8
0
 62
    22
100
AcDbLine
 10
0.2078601968792952
 20
-0.427988377825578
 30
0.0
 11
0.2441732502230991
 21
-0.427988377825578
 31
0.0
  0
LINE
  5
BF
330
AB
100
AcDbEntity
  8
0
 62
    22
100
AcDbLine
 10
0.2446333508543006
 20
-0.415894330395318
 30
0.0
 11
0.2446333508543006
 21
-0.4280723832374847
 31
0.0
  0
ARC
  5
C0
330
AB
100
AcDbEntity
  8
0
 62
    22
100
AcDbCircle
 10
0.4162909033282176
 20
-0.4147906495365632
 30
0.0
 40
0.1716611005230106
100
AcDbArc
 50
89.99918393282873
 51
180.3683810171443
  0
LINE
  5
C1
330
AB
100
AcDbEntity
  8
0
 62
    22
100
AcDbLine
 10
0.2144627520724782
 20
-0.1706330859717156
 30
0.0
 11
0.2078601968792952
 21
-0.427988377825578
 31
0.0
  0
ARC
  5
C2
330
AB
100
AcDbEntity
  8
0
 62
    22
100
AcDbCircle
 10
0.4120570801534882
 20
-0.4147906495365632
 30
0.0
 40
0.1716611005230106
100
AcDbArc
 50
359.6316189828552
 51
90.00081606717127
  0
LWPOLYLINE
  5
C3
330
AB
100
AcDbEntity
  8
0
 62
    22
100
AcDbPolyline
 90
        4
 70
     0
 43
0.0
 10
0.224366029185191
 20
-0.1706330859717084
 10
1.115683196411978
 20
-0.1706330859717084
 10
1.122285751605161
 20
-0.427988377825578
 10
1.085972698261358
 20
-0.427988377825578
  0
ENDBLK
  5
C5
330
AB
100
AcDbEntity
  8
0
 62
     7
100
AcDbBlockEnd
  0
BLOCK
  5
69
330
61
100
AcDbEntity
  8
0
 62
     7
100
AcDbBlockBegin
  2
LINK FLAG
 70
     2
 10
0.0
 20
0.0
 30
0.0
  3
LINK FLAG
  1

  0
SOLID
  5
62
330
61
100
AcDbEntity
  8
A1
 62
     1
100
AcDbTrace
 10
0.408488260029003
 20
0.3001362788183428
 30
0.0
 11
0.2890663177079773
 21
0.4163953751078396
 31
0.0
 12
0.0
 22
0.0
 32
0.0
 13
0.0
 23
0.0
 33
0.0
  0
LINE
  5
63
330
61
100
AcDbEntity
  8
A1
 62
     1
100
AcDbLine
 10
0.3487772888684901
 20
0.3582658269630912
 30
0.0
 11
4.449644902191081
 21
4.57069815453687
 31
0.0
  0
ATTDEF
  5
64
330
61
100
AcDbEntity
  8
A1
 62
     1
100
AcDbText
 10
10.75853330829194
 20
4.953467229082193
 30
0.0
 40
1.0
  1

100
AcDbAttributeDefinition
  3
ADD LINK NUMBER (WMF)
  2
XXXXXX
 70
     0
  0
MTEXT
  5
65
330
61
100
AcDbEntity
  8
0
 62
     1
100
AcDbMText
 10
10.79736583926697
 20
4.206192006567398
 30
0.0
 40
1.0
 41
0.0
 71
     1
 72
     1
  1
TannerStone
 73
     1
 44
1.0
1001
ACAD
1000
MTEXTBEGIN
1070
    73
1070
     1
1070
    44
1040
1.0
1070
    74
1070
     0
1000
MTEXTEND
1000
MTEXTBEGIN
1070
    73
1070
     1
1070
    44
1040
1.0
1070
    74
1070
     0
1000
MTEXTEND
1000
MTEXTBEGIN
1070
    73
1070
     1
1070
    44
1040
1.0
1070
    74
1070
     0
1000
MTEXTEND
  0
MTEXT
  5
66
330
61
100
AcDbEntity
  8
0
 62
     1
100
AcDbMText
 10
10.87510824661537
 20
2.68903194023958
 30
0.0
 40
0.7386749999999999
 41
0.0
 71
     1
 72
     1
  1
1-800-789-4841
 73
     1
 44
1.0
1001
ACAD
1000
MTEXTBEGIN
1070
    73
1070
     1
1070
    44
1040
1.0
1070
    74
1070
     0
1000
MTEXTEND
1000
MTEXTBEGIN
1070
    73
1070
     1
1070
    44
1040
1.0
1070
    74
1070
     0
1000
MTEXTEND
1000
MTEXTBEGIN
1070
    73
1070
     1
1070
    44
1040
1.0
1070
    74
1070
     0
1000
MTEXTEND
  0
LINE
  5
67
330
61
100
AcDbEntity
  8
0
 62
     1
100
AcDbLine
 10
4.449644902191081
 20
4.57069815453687
 30
0.0
 11
19.37910172053511
 21
4.57069815453687
 31
0.0
  0
LINE
  5
68
330
61
100
AcDbEntity
  8
0
 62
     1
100
AcDbLine
 10
10.27170295921419
 20
1.582920602761227
 30
0.0
 11
10.27170295921419
 21
6.137374365587334
 31
0.0
  0
ENDBLK
  5
6A
330
61
100
AcDbEntity
  8
0
 62
     7
100
AcDbBlockEnd
  0
BLOCK
  5
5C
330
2E
100
AcDbEntity
  8
0
 62
     7
100
AcDbBlockBegin
  2
TSFORMB
 70
     2
 10
0.0
 20
0.0
 30
0.0
  3
TSFORMB
  1

  0
LINE
  5
2F
330
2E
100
AcDbEntity
  8
0
100
AcDbLine
 10
105.9925392881563
 20
78.84810849484797
 30
0.0
 11
105.9925392881563
 21
70.31072004936999
 31
0.0
  0
LINE
  5
30
330
2E
100
AcDbEntity
  8
0
100
AcDbLine
 10
105.9925392881563
 20
0.0
 30
0.0
 11
105.9925392881563
 21
78.84810849484797
 31
0.0
  0
LINE
  5
31
330
2E
100
AcDbEntity
  8
0
100
AcDbLine
 10
0.0
 20
0.0
 30
0.0
 11
105.9925392881563
 21
0.0
 31
0.0
  0
LINE
  5
32
330
2E
100
AcDbEntity
  8
0
100
AcDbLine
 10
0.0
 20
78.84810849484797
 30
0.0
 11
0.0
 21
0.0
 31
0.0
  0
LINE
  5
33
330
2E
100
AcDbEntity
  8
0
100
AcDbLine
 10
56.87404547169354
 20
0.0
 30
0.0
 11
56.87404547169354
 21
12.46470592426129
 31
0.0
  0
TEXT
  5
34
330
2E
100
AcDbEntity
  8
0
 62
     7
100
AcDbText
 10
39.28098221173831
 20
10.97304845086642
 30
0.0
 40
0.8085000000000002
  1
LEGEND
100
AcDbText
  0
TEXT
  5
35
330
2E
100
AcDbEntity
  8
0
 62
     7
100
AcDbText
 10
38.18320344075362
 20
3.401999220949562
 30
0.0
 40
0.8400000000000002
  1
CATEGORY
 72
     1
 11
41.47652732452399
 21
3.401999220949562
 31
0.0
100
AcDbText
  0
LINE
  5
36
330
2E
100
AcDbEntity
  8
0
 62
     7
100
AcDbLine
 10
26.78791925899645
 20
8.549200111339303
 30
0.0
 11
29.32320076794366
 21
8.549200111339303
 31
0.0
  0
TEXT
  5
37
330
2E
100
AcDbEntity
  8
0
 62
     7
100
AcDbText
 10
30.56536100380196
 20
8.165961840384341
 30
0.0
 40
1.05
  1
- Unfinished Side
100
AcDbText
  0
LINE
  5
38
330
2E
100
AcDbEntity
  8
0
100
AcDbLine
 10
25.9704997615305
 20
0.0
 30
0.0
 11
25.9704997615305
 21
12.46470592426129
 31
0.0
  0
ATTDEF
  5
39
330
2E
100
AcDbEntity
  8
A1
 62
     1
100
AcDbText
 10
41.26016333205519
 20
0.916484150045278
 30
0.0
 40
1.025589599999999
  1

 72
     1
 11
41.26016333205519
 21
0.916484150045278
 31
0.0
100
AcDbAttributeDefinition
  3
ADD CATEGORY NAMES
  2
XXXXXX
 70
     0
  0
ATTDEF
  5
3A
330
2E
100
AcDbEntity
  8
A1
 62
     1
100
AcDbText
 10
21.55372231158242
 20
1.875018704105684
 30
0.0
 40
0.8400000000000002
  1

 72
     2
 11
21.55372231158242
 21
1.875018704105684
 31
0.0
100
AcDbAttributeDefinition
  3
ADD BARCODE TEXT
  2
XXXXXX
 70
     0
  0
LINE
  5
3B
330
2E
100
AcDbEntity
  8
0
 62
     7
100
AcDbLine
 10
25.9704997615305
 20
12.46470592426129
 30
0.0
 11
0.0
 21
12.46470592426129
 31
0.0
  0
ATTDEF
  5
3C
330
2E
100
AcDbEntity
  8
A1
 62
     1
100
AcDbText
 10
12.85191920549937
 20
3.11796280247222
 30
0.0
 40
6.132000000000001
  1

  7
barcoder
 72
     1
 11
12.85191920549937
 21
3.11796280247222
 31
0.0
100
AcDbAttributeDefinition
  3
ADD BARCODE NUMBER
  2
BARCODE
 70
     0
  0
LINE
  5
3D
330
2E
100
AcDbEntity
  8
0
 62
     7
100
AcDbLine
 10
56.87404547169354
 20
10.31505184057846
 30
0.0
 11
25.9704997615305
 21
10.31505184057846
 31
0.0
  0
LINE
  5
3E
330
2E
100
AcDbEntity
  8
0
 62
     7
100
AcDbLine
 10
56.87404547169354
 20
2.864660228904256
 30
0.0
 11
25.9704997615305
 21
2.864660228904256
 31
0.0
  0
LINE
  5
3F
330
2E
100
AcDbEntity
  8
0
 62
     7
100
AcDbLine
 10
56.87404547169354
 20
4.753491724833224
 30
0.0
 11
25.9704997615305
 21
4.753491724833224
 31
0.0
  0
LINE
  5
40
330
2E
100
AcDbEntity
  8
0
100
AcDbLine
 10
92.45878286761296
 20
70.31072004936999
 30
0.0
 11
92.45878286761296
 21
78.84810849484797
 31
0.0
  0
ATTDEF
  5
41
330
2E
100
AcDbEntity
  8
A1
 62
     1
100
AcDbText
 10
99.20289126219257
 20
73.40001633244828
 30
0.0
 40
2.079
  1

 72
     1
 11
99.20289126219257
 21
73.40001633244828
 31
0.0
100
AcDbAttributeDefinition
  3
ADD PAGE NUMBER
  2
TS00XX
 70
     0
  0
LINE
  5
42
330
2E
100
AcDbEntity
  8
0
100
AcDbLine
 10
105.9925392881563
 20
70.31072004936999
 30
0.0
 11
92.45878286761296
 21
70.31072004936999
 31
0.0
  0
LINE
  5
43
330
2E
100
AcDbEntity
  8
0
100
AcDbLine
 10
105.9925392881563
 20
78.84810849484797
 30
0.0
 11
0.0
 21
78.84810849484797
 31
0.0
  0
TEXT
  5
44
330
2E
100
AcDbEntity
  8
0
 62
     7
100
AcDbText
 10
101.0916707105178
 20
4.784832420392319
 30
0.0
 40
0.8459472656250001
  1
1:1
100
AcDbText
  0
ARC
  5
45
330
2E
100
AcDbEntity
  8
0
 62
     7
100
AcDbCircle
 10
92.02173719823599
 20
7.854684255185304
 30
0.0
 40
0.5838368232859321
100
AcDbArc
 50
297.5553548372056
 51
304.8408806463489
  0
LINE
  5
46
330
2E
100
AcDbEntity
  8
0
 62
     7
100
AcDbLine
 10
96.44018670993672
 20
6.648784575743377
 30
0.0
 11
95.62662822118033
 21
6.648784575743377
 31
0.0
  0
ARC
  5
47
330
2E
100
AcDbEntity
  8
0
 62
     7
100
AcDbCircle
 10
92.02173719823599
 20
7.854684255185304
 30
0.0
 40
0.5838368232859408
100
AcDbArc
 50
304.8408806463489
 51
297.5553548372056
  0
TEXT
  5
48
330
2E
100
AcDbEntity
  8
0
 62
     7
100
AcDbText
 10
91.5997577365548
 20
7.487990433787842
 30
0.0
 40
0.7875000000000002
  1
R
  7
ROMANC
 72
     1
 11
92.02565639984959
 21
7.487990433787842
 31
0.0
100
AcDbText
  0
LINE
  5
4A
330
2E
100
AcDbEntity
  8
0
100
AcDbLine
 10
96.44018670993649
 20
0.0
 30
0.0
 11
96.44018670993695
 21
12.46470592426129
 31
0.0
  0
TEXT
  5
4B
330
2E
100
AcDbEntity
  8
0
100
AcDbText
 10
57.83820509574335
 20
4.931128255646488
 30
0.0
 40
1.111564440985976
  1
ARCHITECTURAL CONCRETE CO., INC.
 41
1.25
 72
     4
 11
76.69038922088157
 21
5.404193065577089
 31
0.0
100
AcDbText
  0
TEXT
  5
4C
330
2E
100
AcDbEntity
  8
0
100
AcDbText
 10
64.01730751652124
 20
0.6790765005606179
 30
0.0
 40
0.6552430415498756
  1
PHONE: 1-800-789-4841  FAX : 770-463-2635
 41
1.1875
 72
     4
 11
76.73327742292065
 21
1.005769257279496
 31
0.0
100
AcDbText
  0
TEXT
  5
4D
330
2E
100
AcDbEntity
  8
0
 62
     7
100
AcDbText
 10
61.23651428794109
 20
7.899354841769707
 30
0.0
 40
3.572100000000002
  1
TannerStone
  7
ROMANC
 72
     1
 11
75.92109734429948
 21
7.899354841769707
 31
0.0
100
AcDbText
  0
TEXT
  5
4E
330
2E
100
AcDbEntity
  8
0
100
AcDbText
 10
61.57240842020546
 20
1.964543484004154
 30
0.0
 40
0.6552430415498756
  1
http://TannerStone.com ~ Email:Sales@TannerStone.com 
 41
1.1875
 72
     4
 11
77.08342119362362
 21
2.259193880788984
 31
0.0
100
AcDbText
  0
TEXT
  5
4F
330
2E
100
AcDbEntity
  8
0
100
AcDbText
 10
59.98363509556096
 20
3.260563711198551
 30
0.0
 40
0.74899296216962
  1
101 JOHNSTON CIRCLE, PALMETTO, GEORGIA 30268
 41
1.1875
 72
     4
 11
76.85158629384147
 21
3.579323650094977
 31
0.0
100
AcDbText
  0
LINE
  5
50
330
2E
100
AcDbEntity
  8
0
100
AcDbLine
 10
56.87404547169354
 20
6.648784575743377
 30
0.0
 11
105.9925392881563
 21
6.648784575743377
 31
0.0
  0
LINE
  5
51
330
2E
100
AcDbEntity
  8
0
 62
     7
100
AcDbLine
 10
96.44018670993682
 20
9.556745250002336
 30
0.0
 11
105.9925392881563
 21
9.556745250002336
 31
0.0
  0
TEXT
  5
52
330
2E
100
AcDbEntity
  8
0
 62
     7
100
AcDbText
 10
96.66995560986686
 20
8.813345575893606
 30
0.0
 40
0.5414062500000001
  1
LBS/LINEAR FEET:
100
AcDbText
  0
LINE
  5
53
330
2E
100
AcDbEntity
  8
LINEWORK
 62
     7
100
AcDbLine
 10
96.40991550469017
 20
3.757904136908962
 30
0.0
 11
105.9622680829099
 21
3.757904136909189
 31
0.0
  0
TEXT
  5
55
330
2E
100
AcDbEntity
  8
0
 62
     7
100
AcDbText
 10
98.85330873086445
 20
1.524519923848686
 30
0.0
 40
0.8459472656250001
  1
1-1-2000
100
AcDbText
  0
TEXT
  5
56
330
2E
100
AcDbEntity
  8
0
 62
     7
100
AcDbText
 10
96.68542089784603
 20
5.927566558083469
 30
0.0
 40
0.5414062500000001
  1
SCALE:
100
AcDbText
  0
TEXT
  5
57
330
2E
100
AcDbEntity
  8
0
 62
     7
100
AcDbText
 10
96.74158717246577
 20
2.97910930546476
 30
0.0
 40
0.5414062500000001
  1
DATE:
100
AcDbText
  0
TEXT
  5
58
330
2E
100
AcDbEntity
  8
0
 62
     7
100
AcDbText
 10
96.70022651293084
 20
11.66518473255649
 30
0.0
 40
0.5414062500000001
  1
PROFILE AREA:
100
AcDbText
  0
ATTDEF
  5
59
330
2E
100
AcDbEntity
  8
A1
 62
     1
100
AcDbText
 10
101.1759733039033
 20
10.07900441527107
 30
0.0
 40
0.9450000000000002
  1

 72
     1
 11
101.1759733039033
 21
10.07900441527107
 31
0.0
100
AcDbAttributeDefinition
  3
ADD PROFILE AREA
  2
XXXXX
 70
     0
  0
ATTDEF
  5
5A
330
2E
100
AcDbEntity
  8
A1
 62
     1
100
AcDbText
 10
101.1418062311347
 20
7.21953861551384
 30
0.0
 40
0.9450000000000002
  1

 72
     1
 11
101.1418062311347
 21
7.21953861551384
 31
0.0
100
AcDbAttributeDefinition
  3
ADD #/LF
  2
XXXXX
 70
     0
  0
LINE
  5
5B
330
2E
100
AcDbEntity
  8
0
100
AcDbLine
 10
25.9704997615305
 20
12.46470592426129
 30
0.0
 11
105.9925392881563
 21
12.46470592426129
 31
0.0
  0
ENDBLK
  5
5D
330
2E
100
AcDbEntity
  8
0
 62
     7
100
AcDbBlockEnd
  0
BLOCK
  5
136
330
132
100
AcDbEntity
  8
0
100
AcDbBlockBegin
  2
1TAG
 70
     2
 10
0.0
 20
0.0
 30
0.0
  3
1TAG
  1

  0
ATTDEF
  5
133
330
132
100
AcDbEntity
  8
TAG
100
AcDbText
 10
-0.0249711999480675
 20
3.469940758643338
 30
0.0
 40
1.0
  1
#
  7
ROMANC
100
AcDbAttributeDefinition
  3
ENTER:DWG#
  2
#
 70
     0
  0
ATTDEF
  5
134
330
132
100
AcDbEntity
  8
TAG
100
AcDbText
 10
-0.0249711999480675
 20
2.178164137202304
 30
0.0
 40
1.0
  1
DWG
  7
ROMANC
100
AcDbAttributeDefinition
  3
ENTER:DWGNAME
  2
NAME
 70
     0
  0
ATTDEF
  5
135
330
132
100
AcDbEntity
  8
TAG
100
AcDbText
 10
-0.0249711999480675
 20
0.8641154829538585
 30
0.0
 40
1.0
  1
AREA
  7
ROMANC
100
AcDbAttributeDefinition
  3
ENTER:AREA
  2
AREA
 70
     0
  0
ENDBLK
  5
137
330
132
100
AcDbEntity
  8
0
100
AcDbBlockEnd
  0
BLOCK
  5
16C
330
142
100
AcDbEntity
  8
0
100
AcDbBlockBegin
  2
TB1
 70
     2
 10
0.0
 20
0.0
 30
0.0
  3
TB1
  1

  0
LWPOLYLINE
  5
143
330
142
100
AcDbEntity
  8
0
100
AcDbPolyline
 90
        4
 70
     1
 43
0.0163934426229508
 10
-238.2809145401561
 20
151.2720291846783
 10
-227.5268161795003
 20
151.2720291846783
 10
-227.5268161795003
 20
159.2720291846783
 10
-238.2809145401561
 20
159.2720291846783
  0
LINE
  5
144
330
142
100
AcDbEntity
  8
0
100
AcDbLine
 10
-232.5104227368774
 20
151.2720291846783
 30
0.0
 11
-232.5104227368774
 21
152.5367094578976
 31
0.0
  0
LINE
  5
145
330
142
100
AcDbEntity
  8
0
100
AcDbLine
 10
-232.5104227368774
 20
152.5367094578976
 30
0.0
 11
-227.5268161795003
 21
152.5367094578976
 31
0.0
  0
LINE
  5
146
330
142
100
AcDbEntity
  8
0
100
AcDbLine
 10
-232.5104227368774
 20
152.0292635480106
 30
0.0
 11
-227.5268161795003
 21
152.0292635480106
 31
0.0
  0
LINE
  5
147
330
142
100
AcDbEntity
  8
0
100
AcDbLine
 10
-229.1440447883777
 20
151.2720291846783
 30
0.0
 11
-229.1440447883777
 21
151.6944382572632
 31
0.0
  0
LINE
  5
148
330
142
100
AcDbEntity
  8
0
100
AcDbLine
 10
-232.5104227368774
 20
151.6944382572632
 30
0.0
 11
-227.5268161795003
 21
151.6944382572632
 31
0.0
  0
LINE
  5
149
330
142
100
AcDbEntity
  8
0
100
AcDbLine
 10
-231.04568413264
 20
151.2720291846783
 30
0.0
 11
-231.04568413264
 21
151.6944382572632
 31
0.0
  0
TEXT
  5
14A
330
142
100
AcDbEntity
  8
0
100
AcDbText
 10
-229.0895956588963
 20
151.35758075411
 30
0.0
 40
0.0785508196721312
  1
NO.
 41
1.125
 72
     4
 11
-228.9754541086065
 21
151.3968561639461
 31
0.0
100
AcDbText
  0
TEXT
  5
14B
330
142
100
AcDbEntity
  8
0
100
AcDbText
 10
-229.0930948061219
 20
151.526452491175
 30
0.0
 40
0.0785508196721312
  1
BY:
 41
1.125
 72
     4
 11
-228.9892870587389
 21
151.5657279010111
 31
0.0
100
AcDbText
  0
TEXT
  5
14C
330
142
100
AcDbEntity
  8
0
100
AcDbText
 10
-232.4504734181477
 20
151.35758075411
 30
0.0
 40
0.0785508196721312
  1
DATE:
 41
1.125
 72
     4
 11
-232.2600809282266
 21
151.3968561639461
 31
0.0
100
AcDbText
  0
TEXT
  5
14D
330
142
100
AcDbEntity
  8
0
100
AcDbText
 10
-232.4525444998726
 20
151.524925072217
 30
0.0
 40
0.0785508196721312
  1
SCALE:
 41
1.125
 72
     4
 11
-232.2294283007463
 21
151.5642004820531
 31
0.0
100
AcDbText
  0
TEXT
  5
14E
330
142
100
AcDbEntity
  8
0
100
AcDbText
 10
-231.5509728316383
 20
152.1399664398339
 30
0.0
 40
0.0785508196721312
  1
P. O. BOX 786, PALMETTO, GEORGIA 30268
 41
1.1875
 72
     4
 11
-230.0879916504042
 21
152.1733964662074
 31
0.0
100
AcDbText
  0
TEXT
  5
14F
330
142
100
AcDbEntity
  8
0
100
AcDbText
 10
-231.6629271863457
 20
152.3362134764197
 30
0.0
 40
0.0983606557377049
  1
ARCHITECTURAL CONCRETE CO. INC.
 41
1.25
 72
     4
 11
-230.0243526374268
 21
152.3853938042886
 31
0.0
100
AcDbText
  0
ATTDEF
  5
150
330
142
100
AcDbEntity
  8
0
100
AcDbText
 10
-231.963780376327
 20
151.5245544356921
 30
0.0
 40
0.0785508196721312
  1

 41
1.125
100
AcDbAttributeDefinition
  3
Enter Drawing Scale...
  2
SCALE
 70
     0
  0
ATTDEF
  5
151
330
142
100
AcDbEntity
  8
0
100
AcDbText
 10
-231.963780376327
 20
151.3586698521019
 30
0.0
 40
0.0785508196721312
  1

 41
1.125
100
AcDbAttributeDefinition
  3
Enter Date...
  2
DATE
 70
     0
  0
ATTDEF
  5
152
330
142
100
AcDbEntity
  8
0
100
AcDbText
 10
-228.7360154187643
 20
151.3586698521019
 30
0.0
 40
0.0785508196721312
  1

 41
1.125
100
AcDbAttributeDefinition
  3
Enter Drawing Number...
  2
DWGNUMBER
 70
     0
  0
ATTDEF
  5
153
330
142
100
AcDbEntity
  8
0
100
AcDbText
 10
-228.7360154187643
 20
151.5260818546502
 30
0.0
 40
0.0785508196721312
  1

 41
1.125
100
AcDbAttributeDefinition
  3
Enter Name of Operator
  2
NAME
 70
     0
  0
ATTDEF
  5
154
330
142
100
AcDbEntity
  8
0
100
AcDbText
 10
-230.1343885601772
 20
151.5277668785349
 30
0.0
 40
0.0785508196721312
  1

 41
1.125
 72
     1
 11
-230.1343885601772
 21
151.5277668785349
 31
0.0
100
AcDbAttributeDefinition
  3
Enter First Line of dwg Title
  2
FIRSTTITLE
 70
     0
  0
ATTDEF
  5
155
330
142
100
AcDbEntity
  8
0
100
AcDbText
 10
-230.1241710271838
 20
151.8002998605681
 30
0.0
 40
0.1311475409836066
  1

 41
1.125
 72
     1
 11
-230.1241710271838
 21
151.8002998605681
 31
0.0
100
AcDbAttributeDefinition
  3
Enter Job or Project Title
  2
JOBTITLE
 70
     0
  0
ATTDEF
  5
156
330
142
100
AcDbEntity
  8
0
100
AcDbText
 10
-230.1343885601772
 20
151.359309226775
 30
0.0
 40
0.0785508196721312
  1

 41
1.125
 72
     1
 11
-230.1343885601772
 21
151.359309226775
 31
0.0
100
AcDbAttributeDefinition
  3
Enter Second Line of dwg Title
  2
SECONDTTITLE
 70
     0
  0
LINE
  5
157
330
142
100
AcDbEntity
  8
0
100
AcDbLine
 10
-232.5104227368774
 20
152.5367094578976
 30
0.0
 11
-238.2809145401561
 21
152.5367094578976
 31
0.0
  0
LINE
  5
158
330
142
100
AcDbEntity
  8
0
100
AcDbLine
 10
-232.5104227368774
 20
152.2867094578976
 30
0.0
 11
-238.2809145401561
 21
152.2867094578976
 31
0.0
  0
LINE
  5
159
330
142
100
AcDbEntity
  8
0
100
AcDbLine
 10
-232.5104227368774
 20
152.0367094578976
 30
0.0
 11
-238.2809145401561
 21
152.0367094578976
 31
0.0
  0
LINE
  5
15A
330
142
100
AcDbEntity
  8
0
100
AcDbLine
 10
-232.5104227368774
 20
151.7867094578976
 30
0.0
 11
-238.2809145401561
 21
151.7867094578976
 31
0.0
  0
LINE
  5
15B
330
142
100
AcDbEntity
  8
0
100
AcDbLine
 10
-232.5104227368774
 20
151.5367094578976
 30
0.0
 11
-238.2809145401561
 21
151.5367094578976
 31
0.0
  0
TEXT
  5
15C
330
142
100
AcDbEntity
  8
0
100
AcDbText
 10
-238.2290911203328
 20
152.5814083759238
 30
0.0
 40
0.0983606557377049
  1
MARK
 72
     4
 11
-238.0213556461312
 21
152.6305887037926
 31
0.0
100
AcDbText
  0
LINE
  5
15D
330
142
100
AcDbEntity
  8
0
100
AcDbLine
 10
-237.7809145401561
 20
152.5367094578976
 30
0.0
 11
-237.7809145401561
 21
151.2720291846783
 31
0.0
  0
LINE
  5
15E
330
142
100
AcDbEntity
  8
0
100
AcDbLine
 10
-236.7809145401561
 20
152.5367094578976
 30
0.0
 11
-236.7809145401561
 21
151.2720291846783
 31
0.0
  0
LINE
  5
15F
330
142
100
AcDbEntity
  8
0
100
AcDbLine
 10
-236.2809145401561
 20
152.5367094578976
 30
0.0
 11
-236.2809145401561
 21
151.2720291846783
 31
0.0
  0
LINE
  5
160
330
142
100
AcDbEntity
  8
0
100
AcDbLine
 10
-235.2809145401561
 20
152.5367094578976
 30
0.0
 11
-235.2809145401561
 21
151.2720291846783
 31
0.0
  0
LINE
  5
161
330
142
100
AcDbEntity
  8
0
100
AcDbLine
 10
-234.7809145401561
 20
152.5367094578976
 30
0.0
 11
-234.7809145401561
 21
151.2720291846783
 31
0.0
  0
LINE
  5
162
330
142
100
AcDbEntity
  8
0
100
AcDbLine
 10
-234.2809145401561
 20
152.5367094578976
 30
0.0
 11
-234.2809145401561
 21
151.2720291846783
 31
0.0
  0
LINE
  5
163
330
142
100
AcDbEntity
  8
0
100
AcDbLine
 10
-233.433551097951
 20
152.5367094578976
 30
0.0
 11
-233.433551097951
 21
151.2720291846783
 31
0.0
  0
TEXT
  5
164
330
142
100
AcDbEntity
  8
0
100
AcDbText
 10
-237.6002584513831
 20
152.5814083759238
 30
0.0
 40
0.0983606557377049
  1
LENGTH
 72
     4
 11
-237.3212446139699
 21
152.6305887037926
 31
0.0
100
AcDbText
  0
TEXT
  5
165
330
142
100
AcDbEntity
  8
0
100
AcDbText
 10
-236.67667714785
 20
152.5814083759238
 30
0.0
 40
0.0983606557377049
  1
QTY
 72
     4
 11
-236.5316457203076
 21
152.6305887037926
 31
0.0
100
AcDbText
  0
TEXT
  5
166
330
142
100
AcDbEntity
  8
0
100
AcDbText
 10
-236.1159126184511
 20
152.5814083759238
 30
0.0
 40
0.0983606557377049
  1
SECTION
 72
     4
 11
-235.8104787324733
 21
152.6305887037926
 31
0.0
100
AcDbText
  0
TEXT
  5
167
330
142
100
AcDbEntity
  8
0
100
AcDbText
 10
-235.0721541470449
 20
152.5814083759238
 30
0.0
 40
0.0983606557377049
  1
L
 72
     4
 11
-235.036671812693
 21
152.6305887037926
 31
0.0
100
AcDbText
  0
TEXT
  5
168
330
142
100
AcDbEntity
  8
0
100
AcDbText
 10
-234.5954470844289
 20
152.5814083759238
 30
0.0
 40
0.0983606557377049
  1
R
 72
     4
 11
-234.5519829675951
 21
152.6305887037926
 31
0.0
100
AcDbText
  0
TEXT
  5
169
330
142
100
AcDbEntity
  8
0
100
AcDbText
 10
-233.3176653869826
 20
152.5814083759238
 30
0.0
 40
0.0983606557377049
  1
INSERTS
 72
     4
 11
-233.0251626857243
 21
152.6305887037926
 31
0.0
100
AcDbText
  0
TEXT
  5
16A
330
142
100
AcDbEntity
  8
0
100
AcDbText
 10
-235.2207488346291
 20
152.7754397983696
 30
0.0
 40
0.0983606557377049
  1
FINISH ENDS
 72
     4
 11
-234.7824130420857
 21
152.8246201262385
 31
0.0
100
AcDbText
  0
TEXT
  5
16B
330
142
100
AcDbEntity
  8
0
100
AcDbText
 10
-234.0621094527122
 20
152.5814083759238
 30
0.0
 40
0.0983606557377049
  1
REINF.
 72
     4
 11
-233.8424884421512
 21
152.6305887037926
 31
0.0
100
AcDbText
  0
ENDBLK
  5
16D
330
142
100
AcDbEntity
  8
0
100
AcDbBlockEnd
  0
BLOCK
  5
4C6
330
4B9
100
AcDbEntity
  8
0
 62
     7
100
AcDbBlockBegin
  2
*D5
 70
     1
 10
0.0
 20
0.0
 30
0.0
  3
*D5
  1

  0
LINE
  5
659
330
4B9
100
AcDbEntity
  8
A1
 62
     0
100
AcDbLine
 10
56.52567016348908
 20
39.4219035763617
 30
0.0
 11
61.16157910577692
 21
39.4219035763617
 31
0.0
  0
LINE
  5
65A
330
4B9
100
AcDbEntity
  8
A1
 62
     0
100
AcDbLine
 10
56.52567016348908
 20
42.9219035763617
 30
0.0
 11
61.16157910577692
 21
42.9219035763617
 31
0.0
  0
LINE
  5
65B
330
4B9
100
AcDbEntity
  8
A1
 62
     0
100
AcDbLine
 10
60.91157910577692
 20
39.9219035763617
 30
0.0
 11
60.91157910577692
 21
42.4219035763617
 31
0.0
  0
LINE
  5
65C
330
4B9
100
AcDbEntity
  8
A1
 62
     0
100
AcDbLine
 10
61.41157910577693
 20
37.53599463407354
 30
0.0
 11
60.91157910577692
 21
37.53599463407354
 31
0.0
  0
LINE
  5
65D
330
4B9
100
AcDbEntity
  8
A1
 62
     0
100
AcDbLine
 10
60.91157910577692
 20
37.53599463407354
 30
0.0
 11
60.91157910577692
 21
39.4219035763617
 31
0.0
  0
MTEXT
  5
65E
330
4B9
100
AcDbEntity
  8
A1
 62
     0
100
AcDbMText
 10
64.20073573228293
 20
37.53599463407355
 30
0.0
 40
1.0
 41
0.0
 71
     5
 72
     1
  1
\A1;3 1/2"
 73
     1
 44
1.0
  0
SOLID
  5
65F
330
4B9
100
AcDbEntity
  8
A1
 62
     0
100
AcDbTrace
 10
60.82824577244359
 20
39.9219035763617
 30
0.0
 11
60.99491243911026
 21
39.9219035763617
 31
0.0
 12
60.91157910577692
 22
39.4219035763617
 32
0.0
 13
60.91157910577692
 23
39.4219035763617
 33
0.0
  0
SOLID
  5
660
330
4B9
100
AcDbEntity
  8
A1
 62
     0
100
AcDbTrace
 10
60.82824577244359
 20
42.4219035763617
 30
0.0
 11
60.99491243911026
 21
42.4219035763617
 31
0.0
 12
60.91157910577692
 22
42.9219035763617
 32
0.0
 13
60.91157910577692
 23
42.9219035763617
 33
0.0
  0
POINT
  5
661
330
4B9
100
AcDbEntity
  8
DEFPOINTS
 62
     0
100
AcDbPoint
 10
55.52567016348908
 20
39.4219035763617
 30
0.0
  0
POINT
  5
662
330
4B9
100
AcDbEntity
  8
DEFPOINTS
 62
     0
100
AcDbPoint
 10
55.52567016348908
 20
42.9219035763617
 30
0.0
  0
POINT
  5
663
330
4B9
100
AcDbEntity
  8
DEFPOINTS
 62
     0
100
AcDbPoint
 10
60.91157910577692
 20
42.9219035763617
 30
0.0
  0
ENDBLK
  5
4C7
330
4B9
100
AcDbEntity
  8
0
 62
     7
100
AcDbBlockEnd
  0
BLOCK
  5
4D4
330
4C9
100
AcDbEntity
  8
0
 62
     7
100
AcDbBlockBegin
  2
*D6
 70
     1
 10
0.0
 20
0.0
 30
0.0
  3
*D6
  1

  0
LINE
  5
664
330
4C9
100
AcDbEntity
  8
A1
 62
     0
100
AcDbLine
 10
42.27567016348911
 20
38.4219035763617
 30
0.0
 11
42.27567016348911
 21
35.21243679979369
 31
0.0
  0
LINE
  5
665
330
4C9
100
AcDbEntity
  8
A1
 62
     0
100
AcDbLine
 10
55.52567016348908
 20
38.4219035763617
 30
0.0
 11
55.52567016348908
 21
35.21243679979369
 31
0.0
  0
LINE
  5
666
330
4C9
100
AcDbEntity
  8
A1
 62
     0
100
AcDbLine
 10
42.77567016348911
 20
35.46243679979369
 30
0.0
 11
45.83195181774469
 21
35.46243679979369
 31
0.0
  0
LINE
  5
667
330
4C9
100
AcDbEntity
  8
A1
 62
     0
100
AcDbLine
 10
55.02567016348908
 20
35.46243679979369
 30
0.0
 11
52.12110844425072
 21
35.46243679979369
 31
0.0
  0
MTEXT
  5
668
330
4C9
100
AcDbEntity
  8
A1
 62
     0
100
AcDbMText
 10
48.9765301309977
 20
35.46243679979369
 30
0.0
 40
1.0
 41
0.0
 71
     5
 72
     1
  1
\A1;13 1/4"
 73
     1
 44
1.0
  0
SOLID
  5
669
330
4C9
100
AcDbEntity
  8
A1
 62
     0
100
AcDbTrace
 10
42.77567016348911
 20
35.54577013312703
 30
0.0
 11
42.77567016348911
 21
35.37910346646035
 31
0.0
 12
42.27567016348911
 22
35.46243679979369
 32
0.0
 13
42.27567016348911
 23
35.46243679979369
 33
0.0
  0
SOLID
  5
66A
330
4C9
100
AcDbEntity
  8
A1
 62
     0
100
AcDbTrace
 10
55.02567016348908
 20
35.54577013312703
 30
0.0
 11
55.02567016348908
 21
35.37910346646035
 31
0.0
 12
55.52567016348908
 22
35.46243679979369
 32
0.0
 13
55.52567016348908
 23
35.46243679979369
 33
0.0
  0
POINT
  5
66B
330
4C9
100
AcDbEntity
  8
DEFPOINTS
 62
     0
100
AcDbPoint
 10
42.27567016348911
 20
39.4219035763617
 30
0.0
  0
POINT
  5
66C
330
4C9
100
AcDbEntity
  8
DEFPOINTS
 62
     0
100
AcDbPoint
 10
55.52567016348908
 20
39.4219035763617
 30
0.0
  0
POINT
  5
66D
330
4C9
100
AcDbEntity
  8
DEFPOINTS
 62
     0
100
AcDbPoint
 10
55.52567016348908
 20
35.46243679979369
 30
0.0
  0
ENDBLK
  5
4D5
330
4C9
100
AcDbEntity
  8
0
 62
     7
100
AcDbBlockEnd
  0
BLOCK
  5
4E2
330
4D7
100
AcDbEntity
  8
0
 62
     7
100
AcDbBlockBegin
  2
*D7
 70
     1
 10
0.0
 20
0.0
 30
0.0
  3
*D7
  1

  0
LINE
  5
66E
330
4D7
100
AcDbEntity
  8
A1
 62
     0
100
AcDbLine
 10
42.77567016348911
 20
45.17190357636169
 30
0.0
 11
42.77567016348911
 21
47.93797795777152
 31
0.0
  0
LINE
  5
66F
330
4D7
100
AcDbEntity
  8
A1
 62
     0
100
AcDbLine
 10
55.02567016348911
 20
45.17190357636169
 30
0.0
 11
55.02567016348911
 21
47.93797795777152
 31
0.0
  0
LINE
  5
670
330
4D7
100
AcDbEntity
  8
A1
 62
     0
100
AcDbLine
 10
43.2756701634891
 20
47.68797795777152
 30
0.0
 11
45.88704054840534
 21
47.68797795777152
 31
0.0
  0
LINE
  5
671
330
4D7
100
AcDbEntity
  8
A1
 62
     0
100
AcDbLine
 10
54.52567016348911
 20
47.68797795777152
 30
0.0
 11
52.17619717491137
 21
47.68797795777152
 31
0.0
  0
MTEXT
  5
672
330
4D7
100
AcDbEntity
  8
A1
 62
     0
100
AcDbMText
 10
49.03161886165836
 20
47.68797795777152
 30
0.0
 40
1.0
 41
0.0
 71
     5
 72
     1
  1
\A1;12 1/4"
 73
     1
 44
1.0
  0
SOLID
  5
673
330
4D7
100
AcDbEntity
  8
A1
 62
     0
100
AcDbTrace
 10
43.2756701634891
 20
47.77131129110485
 30
0.0
 11
43.2756701634891
 21
47.60464462443819
 31
0.0
 12
42.77567016348911
 22
47.68797795777152
 32
0.0
 13
42.77567016348911
 23
47.68797795777152
 33
0.0
  0
SOLID
  5
674
330
4D7
100
AcDbEntity
  8
A1
 62
     0
100
AcDbTrace
 10
54.52567016348911
 20
47.77131129110485
 30
0.0
 11
54.52567016348911
 21
47.60464462443819
 31
0.0
 12
55.02567016348911
 22
47.68797795777152
 32
0.0
 13
55.02567016348911
 23
47.68797795777152
 33
0.0
  0
POINT
  5
675
330
4D7
100
AcDbEntity
  8
DEFPOINTS
 62
     0
100
AcDbPoint
 10
42.77567016348911
 20
44.1719035763617
 30
0.0
  0
POINT
  5
676
330
4D7
100
AcDbEntity
  8
DEFPOINTS
 62
     0
100
AcDbPoint
 10
55.02567016348911
 20
44.1719035763617
 30
0.0
  0
POINT
  5
677
330
4D7
100
AcDbEntity
  8
DEFPOINTS
 62
     0
100
AcDbPoint
 10
55.02567016348911
 20
47.68797795777152
 30
0.0
  0
ENDBLK
  5
4E3
330
4D7
100
AcDbEntity
  8
0
 62
     7
100
AcDbBlockEnd
  0
BLOCK
  5
4F0
330
4E5
100
AcDbEntity
  8
0
 62
     7
100
AcDbBlockBegin
  2
*D8
 70
     1
 10
0.0
 20
0.0
 30
0.0
  3
*D8
  1

  0
LINE
  5
678
330
4E5
100
AcDbEntity
  8
A1
 62
     0
100
AcDbLine
 10
41.27567016348911
 20
39.4219035763617
 30
0.0
 11
36.88244337348587
 21
39.4219035763617
 31
0.0
  0
LINE
  5
679
330
4E5
100
AcDbEntity
  8
A1
 62
     0
100
AcDbLine
 10
41.77567016348911
 20
44.1719035763617
 30
0.0
 11
36.88244337348587
 21
44.1719035763617
 31
0.0
  0
LINE
  5
67A
330
4E5
100
AcDbEntity
  8
A1
 62
     0
100
AcDbLine
 10
37.13244337348587
 20
39.9219035763617
 30
0.0
 11
37.13244337348587
 21
40.80555385628068
 31
0.0
  0
LINE
  5
67B
330
4E5
100
AcDbEntity
  8
A1
 62
     0
100
AcDbLine
 10
37.13244337348587
 20
43.6719035763617
 30
0.0
 11
37.13244337348587
 21
42.8955609434529
 31
0.0
  0
MTEXT
  5
67C
330
4E5
100
AcDbEntity
  8
A1
 62
     0
100
AcDbMText
 10
37.13244337348587
 20
41.8505573998668
 30
0.0
 40
1.0
 41
0.0
 71
     5
 72
     1
  1
\A1;4 3/4"
 73
     1
 44
1.0
  0
SOLID
  5
67D
330
4E5
100
AcDbEntity
  8
A1
 62
     0
100
AcDbTrace
 10
37.04911004015253
 20
39.9219035763617
 30
0.0
 11
37.2157767068192
 21
39.9219035763617
 31
0.0
 12
37.13244337348587
 22
39.4219035763617
 32
0.0
 13
37.13244337348587
 23
39.4219035763617
 33
0.0
  0
SOLID
  5
67E
330
4E5
100
AcDbEntity
  8
A1
 62
     0
100
AcDbTrace
 10
37.04911004015253
 20
43.6719035763617
 30
0.0
 11
37.2157767068192
 21
43.6719035763617
 31
0.0
 12
37.13244337348587
 22
44.1719035763617
 32
0.0
 13
37.13244337348587
 23
44.1719035763617
 33
0.0
  0
POINT
  5
67F
330
4E5
100
AcDbEntity
  8
DEFPOINTS
 62
     0
100
AcDbPoint
 10
42.27567016348911
 20
39.4219035763617
 30
0.0
  0
POINT
  5
680
330
4E5
100
AcDbEntity
  8
DEFPOINTS
 62
     0
100
AcDbPoint
 10
42.77567016348911
 20
44.1719035763617
 30
0.0
  0
POINT
  5
681
330
4E5
100
AcDbEntity
  8
DEFPOINTS
 62
     0
100
AcDbPoint
 10
37.13244337348587
 20
44.1719035763617
 30
0.0
  0
ENDBLK
  5
4F1
330
4E5
100
AcDbEntity
  8
0
 62
     7
100
AcDbBlockEnd
  0
ENDSEC
  0
SECTION
  2
ENTITIES
  0
INSERT
  5
126
330
2
100
AcDbEntity
  8
A1
 62
     7
100
AcDbBlockReference
 66
     1
  2
TSFORMB
 10
22.97992814090445
 20
19.15554715628049
 30
0.0
 41
0.5355
 42
0.5355
 43
0.5355
  0
ATTRIB
  5
127
330
126
100
AcDbEntity
  8
A1
 62
     1
100
AcDbText
 10
43.09882058668264
 20
19.64632441862974
 30
0.0
 40
0.5492032308
  1
PIER BASE
 72
     1
 11
45.07474560522
 21
19.64632441862974
 31
0.0
100
AcDbAttribute
  2
XXXXXX
 70
     0
  0
ATTRIB
  5
128
330
126
100
AcDbEntity
  8
A1
 62
     1
100
AcDbText
 10
32.01781029417853
 20
20.15961967232908
 30
0.0
 40
0.4498200000000001
  1
TS0242
 72
     2
 11
34.52194643875684
 21
20.15961967232908
 31
0.0
100
AcDbAttribute
  2
XXXXXX
 70
     0
  0
ATTRIB
  5
129
330
126
100
AcDbEntity
  8
A1
 62
     1
100
AcDbText
 10
26.61949095044937
 20
20.82521623700436
 30
0.0
 40
3.283686
  1
TS0242
  7
barcoder
 72
     1
 11
29.86213087544936
 21
20.82521623700436
 31
0.0
100
AcDbAttribute
  2
BARCODE
 70
     0
  0
ATTRIB
  5
12A
330
126
100
AcDbEntity
  8
A1
 62
     1
100
AcDbText
 10
73.00420793289291
 20
58.46125590230655
 30
0.0
 40
1.1133045
  1
TS0242
 72
     1
 11
76.10307641180857
 21
58.46125590230655
 31
0.0
100
AcDbAttribute
  2
TS00XX
 70
     0
  0
ATTRIB
  5
12B
330
126
100
AcDbEntity
  8
A1
 62
     1
100
AcDbText
 10
75.94564994755431
 20
24.55285402065815
 30
0.0
 40
0.5060475000000002
  1
61.93"
 72
     1
 11
77.15966184514468
 21
24.55285402065815
 31
0.0
100
AcDbAttribute
  2
XXXXX
 70
     0
  0
ATTRIB
  5
12C
330
126
100
AcDbEntity
  8
A1
 62
     1
100
AcDbText
 10
76.11223476020724
 20
23.02161008488815
 30
0.0
 40
0.5060475000000002
  1
55.90
 72
     1
 11
77.14136537767712
 21
23.02161008488815
 31
0.0
100
AcDbAttribute
  2
XXXXX
 70
     0
  0
SEQEND
  5
12D
330
126
100
AcDbEntity
  8
A1
 62
     7
  0
INSERT
  5
12E
330
2
100
AcDbEntity
  8
A1
 62
     7
100
AcDbBlockReference
 66
     1
  2
LINK FLAG
 10
56.0825504120384
 20
44.71338168561302
 30
0.0
 41
1.004062499999999
 42
1.004062499999999
 43
1.004062499999999
  0
ATTRIB
  5
12F
330
12E
100
AcDbEntity
  8
A1
 62
     1
100
AcDbText
 10
66.88479026189529
 20
49.68697237531335
 30
0.0
 40
1.004062499999999
  1
TS0242
100
AcDbAttribute
  2
XXXXXX
 70
     0
  0
SEQEND
  5
130
330
12E
100
AcDbEntity
  8
A1
 62
     7
  0
POINT
  5
457
330
2
100
AcDbEntity
  8
DEFPOINTS
  6
ByBlock
 62
     0
370
    50
100
AcDbPoint
 10
55.02567016348911
 20
44.1719035763617
 30
0.0
  0
POINT
  5
458
330
2
100
AcDbEntity
  8
DEFPOINTS
  6
ByBlock
 62
     0
370
    50
100
AcDbPoint
 10
42.77567016348911
 20
44.1719035763617
 30
0.0
  0
POINT
  5
46B
330
2
100
AcDbEntity
  8
DEFPOINTS
  6
ByBlock
 62
     0
370
    50
100
AcDbPoint
 10
42.27567016348911
 20
39.4219035763617
 30
0.0
  0
POINT
  5
46C
330
2
100
AcDbEntity
  8
DEFPOINTS
  6
ByBlock
 62
     0
100
AcDbPoint
 10
55.52567016348908
 20
39.4219035763617
 30
0.0
  0
POINT
  5
476
330
2
100
AcDbEntity
  8
DEFPOINTS
  6
ByBlock
 62
     0
370
    50
100
AcDbPoint
 10
55.02567016348911
 20
44.1719035763617
 30
0.0
  0
LINE
  5
4AF
330
2
100
AcDbEntity
  8
0
370
    50
100
AcDbLine
 10
55.02567016348911
 20
43.4219035763617
 30
0.0
 11
55.02567016348911
 21
44.1719035763617
 31
0.0
  0
LINE
  5
4B0
330
2
100
AcDbEntity
  8
0
370
    50
100
AcDbLine
 10
55.02567016348911
 20
44.1719035763617
 30
0.0
 11
42.77567016348911
 21
44.1719035763617
 31
0.0
  0
LINE
  5
4B1
330
2
100
AcDbEntity
  8
0
370
    50
100
AcDbLine
 10
42.77567016348911
 20
44.1719035763617
 30
0.0
 11
42.77567016348911
 21
43.4219035763617
 31
0.0
  0
LINE
  5
4B2
330
2
100
AcDbEntity
  8
0
370
    50
100
AcDbLine
 10
42.77567016348911
 20
43.4219035763617
 30
0.0
 11
42.27567016348911
 21
42.9219035763617
 31
0.0
  0
LINE
  5
4B3
330
2
100
AcDbEntity
  8
0
370
    50
100
AcDbLine
 10
42.27567016348911
 20
42.9219035763617
 30
0.0
 11
42.27567016348911
 21
39.4219035763617
 31
0.0
  0
LINE
  5
4B4
330
2
100
AcDbEntity
  8
0
370
    30
100
AcDbLine
 10
42.27567016348911
 20
39.4219035763617
 30
0.0
 11
55.52567016348908
 21
39.4219035763617
 31
0.0
  0
LINE
  5
4B5
330
2
100
AcDbEntity
  8
0
370
    50
100
AcDbLine
 10
55.52567016348908
 20
39.4219035763617
 30
0.0
 11
55.52567016348908
 21
42.9219035763617
 31
0.0
  0
LINE
  5
4B6
330
2
100
AcDbEntity
  8
0
370
    50
100
AcDbLine
 10
55.52567016348908
 20
42.9219035763617
 30
0.0
 11
55.02567016348911
 21
43.4219035763617
 31
0.0
  0
DIMENSION
  5
4B8
330
2
100
AcDbEntity
  8
A1
 62
     7
100
AcDbDimension
  2
*D5
 10
60.91157910577692
 20
42.9219035763617
 30
0.0
 11
60.91157910577692
 21
37.53599463407355
 31
0.0
 70
   160
 71
     5
 42
-1.0
  3
STANDARD
100
AcDbAlignedDimension
 13
55.52567016348908
 23
39.4219035763617
 33
0.0
 14
55.52567016348908
 24
42.9219035763617
 34
0.0
 50
90.0
100
AcDbRotatedDimension
1001
ACAD
1000
DSTYLE
1002
{
1070
   287
1070
     4
1070
    73
1070
     1
1070
    74
1070
     1
1070
    77
1070
     0
1070
   147
1040
0.5
1070
   279
1070
     1
1070
   288
1070
     1
1070
   289
1070
     3
1002
}
  0
DIMENSION
  5
4C8
330
2
100
AcDbEntity
  8
A1
 62
     7
100
AcDbDimension
  2
*D6
 10
55.52567016348908
 20
35.46243679979369
 30
0.0
 11
48.9765301309977
 21
35.46243679979369
 31
0.0
 70
   161
 71
     5
 42
-1.0
  3
STANDARD
100
AcDbAlignedDimension
 13
42.27567016348911
 23
39.4219035763617
 33
0.0
 14
55.52567016348908
 24
39.4219035763617
 34
0.0
1001
ACAD
1000
DSTYLE
1002
{
1070
   287
1070
     4
1070
    73
1070
     1
1070
    74
1070
     1
1070
    77
1070
     0
1070
   147
1040
0.5
1070
   279
1070
     1
1070
   288
1070
     1
1070
   289
1070
     3
1002
}
  0
DIMENSION
  5
4D6
330
2
100
AcDbEntity
  8
A1
 62
     7
100
AcDbDimension
  2
*D7
 10
55.02567016348911
 20
47.68797795777152
 30
0.0
 11
49.03161886165836
 21
47.68797795777152
 31
0.0
 70
   161
 71
     5
 42
-1.0
  3
STANDARD
100
AcDbAlignedDimension
 13
42.77567016348911
 23
44.1719035763617
 33
0.0
 14
55.02567016348911
 24
44.1719035763617
 34
0.0
1001
ACAD
1000
DSTYLE
1002
{
1070
   287
1070
     4
1070
    73
1070
     1
1070
    74
1070
     1
1070
    77
1070
     0
1070
   147
1040
0.5
1070
   279
1070
     1
1070
   288
1070
     1
1070
   289
1070
     3
1002
}
  0
DIMENSION
  5
4E4
330
2
100
AcDbEntity
  8
A1
 62
     7
100
AcDbDimension
  2
*D8
 10
37.13244337348587
 20
44.1719035763617
 30
0.0
 11
37.13244337348587
 21
41.8505573998668
 31
0.0
 70
   160
 71
     5
 42
-1.0
  3
STANDARD
100
AcDbAlignedDimension
 13
42.27567016348911
 23
39.4219035763617
 33
0.0
 14
42.77567016348911
 24
44.1719035763617
 34
0.0
 50
90.0
100
AcDbRotatedDimension
1001
ACAD
1000
DSTYLE
1002
{
1070
   287
1070
     4
1070
    73
1070
     1
1070
    74
1070
     1
1070
    77
1070
     0
1070
   147
1040
0.5
1070
   279
1070
     1
1070
   288
1070
     1
1070
   289
1070
     3
1002
}
  0
INSERT
  5
4F2
330
2
100
AcDbEntity
  8
A1
 62
     7
100
AcDbBlockReference
 66
     1
  2
PROFILE LOGO
 10
42.69640961110414
 20
41.57520747121577
 30
0.0
  0
ATTRIB
  5
4F3
330
4F2
100
AcDbEntity
  8
A1
 62
    22
100
AcDbText
 10
42.97892070550181
 20
39.89690922230924
 30
0.0
 40
0.2126953125
  1
0242
 72
     1
 11
43.37454001638505
 21
39.89690922230924
 31
0.0
100
AcDbAttribute
  2
XXXX
 70
     0
  0
SEQEND
  5
4F4
330
4F2
100
AcDbEntity
  8
A1
 62
     7
  0
ENDSEC
  0
SECTION
  2
OBJECTS
  0
DICTIONARY
  5
8
330
0
100
AcDbDictionary
281
     1
  3
ACAD_GROUP
350
21
  3
ACAD_LAYOUT
350
C
  3
ACAD_MLINESTYLE
350
22
  3
ACAD_PLOTSETTINGS
350
23
  3
ACAD_PLOTSTYLENAME
350
7
  3
DWGPROPS
350
ED
  0
DICTIONARY
  5
3
330
2
100
AcDbDictionary
280
     1
281
     1
  3
ACAD_LAYOUTSELFREF
360
651
  0
DICTIONARY
  5
11B
330
D
100
AcDbDictionary
280
     1
281
     1
  3
ACAD_LAYOUTSELFREF
360
654
  0
DICTIONARY
  5
21
102
{ACAD_REACTORS
330
8
102
}
330
8
100
AcDbDictionary
281
     1
  0
DICTIONARY
  5
C
102
{ACAD_REACTORS
330
8
102
}
330
8
100
AcDbDictionary
281
     1
  3
Layout1
350
10
  3
Model
350
B
  0
DICTIONARY
  5
22
102
{ACAD_REACTORS
330
8
102
}
330
8
100
AcDbDictionary
281
     1
  3
STANDARD
350
25
  0
DICTIONARY
  5
23
102
{ACAD_REACTORS
330
8
102
}
330
8
100
AcDbDictionary
281
     1
  0
ACDBDICTIONARYWDFLT
  5
7
102
{ACAD_REACTORS
330
8
102
}
330
8
100
AcDbDictionary
281
     1
  3
Normal
350
6
100
AcDbDictionaryWithDefault
340
6
  0
XRECORD
  5
ED
102
{ACAD_REACTORS
330
8
102
}
330
8
100
AcDbXrecord
280
     1
  1
DWGPROPS COOKIE
  2

  3

  4

  6

  7

  8
catalog
  9

300
=
301
=
302
=
303
=
304
=
305
=
306
=
307
=
308
=
309
=
 40
2.724662152777777
 41
2451085.66483831
 42
2451642.57590706
  1

 90
        0
  0
XRECORD
  5
651
102
{ACAD_REACTORS
330
3
102
}
330
3
100
AcDbXrecord
280
     1
340
2
  0
XRECORD
  5
654
102
{ACAD_REACTORS
330
11B
102
}
330
11B
100
AcDbXrecord
280
     1
340
D
  0
LAYOUT
  5
10
102
{ACAD_REACTORS
330
C
102
}
330
C
100
AcDbPlotSettings
  1

  2
None
  4

  6

 40
0.0
 41
0.0
 42
0.0
 43
0.0
 44
0.0
 45
0.0
 46
0.0
 47
0.0
 48
0.0
 49
0.0
140
0.0
141
0.0
142
1.0
143
1.0
 70
   688
 72
     0
 73
     0
 74
     5
  7

 75
    16
147
1.0
148
0.0
149
0.0
100
AcDbLayout
  1
Layout1
 70
     1
 71
     1
 10
0.0
 20
0.0
 11
12.0
 21
9.0
 12
0.0
 22
0.0
 32
0.0
 14
1.000000000000000E+20
 24
1.000000000000000E+20
 34
1.000000000000000E+20
 15
-1.000000000000000E+20
 25
-1.000000000000000E+20
 35
-1.000000000000000E+20
146
0.0
 13
0.0
 23
0.0
 33
0.0
 16
1.0
 26
0.0
 36
0.0
 17
0.0
 27
1.0
 37
0.0
 76
     0
330
D
  0
LAYOUT
  5
B
102
{ACAD_REACTORS
330
C
102
}
330
C
100
AcDbPlotSettings
  1

  2
HP LaserJet 5.pc3
  4
Letter
  6

 40
7.143749713897705
 41
6.381738662719726
 42
7.14373779296875
 43
6.381744384765625
 44
215.8999938964843
 45
279.3999938964843
 46
0.0
 47
0.0
 48
903.5994244722111
 49
659.4530296388366
140
956.5956941162893
141
698.8411381336845
142
1.0
143
5.048773719763568
 70
 11952
 72
     0
 73
     1
 74
     1
  7

 75
     0
147
0.1980678983661857
148
0.0410767380020374
149
0.9435792010150706
100
AcDbLayout
  1
Model
 70
     1
 71
     0
 10
0.0
 20
0.0
 11
12.0
 21
9.0
 12
0.0
 22
0.0
 32
0.0
 14
0.0
 24
0.0
 34
0.0
 15
0.0
 25
0.0
 35
0.0
146
0.0
 13
0.0
 23
0.0
 33
0.0
 16
1.0
 26
0.0
 36
0.0
 17
0.0
 27
1.0
 37
0.0
 76
     0
330
2
  0
MLINESTYLE
  5
25
102
{ACAD_REACTORS
330
22
102
}
330
22
100
AcDbMlineStyle
  2
STANDARD
 70
     0
  3

 62
   256
 51
90.0
 52
90.0
 71
     2
 49
0.5
 62
   256
  6
BYLAYER
 49
-0.5
 62
   256
  6
BYLAYER
  0
ACDBPLACEHOLDER
  5
6
102
{ACAD_REACTORS
330
7
102
}
330
7
  0
ENDSEC
  0
EOF
