  0
SECTION
  2
HEADER
  9
$ACADVER
  1
AC1015
  9
$ACADMAINTVER
 70
     6
  9
$DWGCODEPAGE
  3
ANSI_1252
  9
$INSBASE
 10
0.0
 20
0.0
 30
0.0
  9
$EXTMIN
 10
827.2104104790818
 20
622.7778577263575
 30
0.0
  9
$EXTMAX
 10
958.3761778481752
 20
720.3523919887317
 30
0.0
  9
$LIMMIN
 10
0.0
 20
0.0
  9
$LIMMAX
 10
12.0
 20
9.0
  9
$ORTHOMODE
 70
     0
  9
$REGENMODE
 70
     1
  9
$FILLMODE
 70
     1
  9
$QTEXTMODE
 70
     0
  9
$MIRRTEXT
 70
     0
  9
$LTSCALE
 40
1.0
  9
$ATTMODE
 70
     2
  9
$TEXTSIZE
 40
1.0
  9
$TRACEWID
 40
0.05
  9
$TEXTSTYLE
  7
STANDARD
  9
$CLAYER
  8
A1
  9
$CELTYPE
  6
BYLAYER
  9
$CECOLOR
 62
     7
  9
$CELTSCALE
 40
1.0
  9
$DISPSILH
 70
     0
  9
$DIMSCALE
 40
2.125
  9
$DIMASZ
 40
0.5
  9
$DIMEXO
 40
1.0
  9
$DIMDLI
 40
0.0625
  9
$DIMRND
 40
0.0
  9
$DIMDLE
 40
0.0
  9
$DIMEXE
 40
0.25
  9
$DIMTP
 40
0.0
  9
$DIMTM
 40
0.0
  9
$DIMTXT
 40
1.0
  9
$DIMCEN
 40
0.0
  9
$DIMTSZ
 40
0.0
  9
$DIMTOL
 70
     0
  9
$DIMLIM
 70
     0
  9
$DIMTIH
 70
     1
  9
$DIMTOH
 70
     1
  9
$DIMSE1
 70
     0
  9
$DIMSE2
 70
     0
  9
$DIMTAD
 70
     0
  9
$DIMZIN
 70
     0
  9
$DIMBLK
  1

  9
$DIMASO
 70
     1
  9
$DIMSHO
 70
     1
  9
$DIMPOST
  1
"
  9
$DIMAPOST
  1

  9
$DIMALT
 70
     0
  9
$DIMALTD
 70
     0
  9
$DIMALTF
 40
25.4
  9
$DIMLFAC
 40
1.0
  9
$DIMTOFL
 70
     0
  9
$DIMTVP
 40
0.0
  9
$DIMTIX
 70
     0
  9
$DIMSOXD
 70
     0
  9
$DIMSAH
 70
     0
  9
$DIMBLK1
  1

  9
$DIMBLK2
  1

  9
$DIMSTYLE
  2
STANDARD
  9
$DIMCLRD
 70
     0
  9
$DIMCLRE
 70
     0
  9
$DIMCLRT
 70
     0
  9
$DIMTFAC
 40
0.125
  9
$DIMGAP
 40
0.5
  9
$DIMJUST
 70
     0
  9
$DIMSD1
 70
     0
  9
$DIMSD2
 70
     0
  9
$DIMTOLJ
 70
     1
  9
$DIMTZIN
 70
     0
  9
$DIMALTZ
 70
     2
  9
$DIMALTTZ
 70
     2
  9
$DIMUPT
 70
     1
  9
$DIMDEC
 70
     4
  9
$DIMTDEC
 70
     4
  9
$DIMALTU
 70
     2
  9
$DIMALTTD
 70
     0
  9
$DIMTXSTY
  7
STANDARD
  9
$DIMAUNIT
 70
     0
  9
$DIMADEC
 70
     0
  9
$DIMALTRND
 40
0.0
  9
$DIMAZIN
 70
     0
  9
$DIMDSEP
 70
    46
  9
$DIMATFIT
 70
     1
  9
$DIMFRAC
 70
     2
  9
$DIMLDRBLK
  1

  9
$DIMLUNIT
 70
     5
  9
$DIMLWD
 70
    -2
  9
$DIMLWE
 70
    -2
  9
$DIMTMOVE
 70
     1
  9
$LUNITS
 70
     5
  9
$LUPREC
 70
     4
  9
$SKETCHINC
 40
0.1
  9
$FILLETRAD
 40
0.0
  9
$AUNITS
 70
     0
  9
$AUPREC
 70
     1
  9
$MENU
  1
acad
  9
$ELEVATION
 40
0.0
  9
$PELEVATION
 40
0.0
  9
$THICKNESS
 40
0.0
  9
$LIMCHECK
 70
     0
  9
$CHAMFERA
 40
0.75
  9
$CHAMFERB
 40
0.75
  9
$CHAMFERC
 40
0.0
  9
$CHAMFERD
 40
0.0
  9
$SKPOLY
 70
     0
  9
$TDCREATE
 40
2451085.664838310
  9
$TDUCREATE
 40
2451085.831504977
  9
$TDUPDATE
 40
2451660.694300115
  9
$TDUUPDATE
 40
2451660.860966782
  9
$TDINDWG
 40
2.6104311343
  9
$TDUSRTIMER
 40
2.6104311343
  9
$USRTIMER
 70
     1
  9
$ANGBASE
 50
0.0
  9
$ANGDIR
 70
     0
  9
$PDMODE
 70
     0
  9
$PDSIZE
 40
0.0
  9
$PLINEWID
 40
0.0
  9
$SPLFRAME
 70
     0
  9
$SPLINETYPE
 70
     6
  9
$SPLINESEGS
 70
     8
  9
$HANDSEED
  5
A68D8
  9
$SURFTAB1
 70
     6
  9
$SURFTAB2
 70
     6
  9
$SURFTYPE
 70
     6
  9
$SURFU
 70
     6
  9
$SURFV
 70
     6
  9
$UCSBASE
  2

  9
$UCSNAME
  2

  9
$UCSORG
 10
0.0
 20
0.0
 30
0.0
  9
$UCSXDIR
 10
1.0
 20
0.0
 30
0.0
  9
$UCSYDIR
 10
0.0
 20
1.0
 30
0.0
  9
$UCSORTHOREF
  2

  9
$UCSORTHOVIEW
 70
     0
  9
$UCSORGTOP
 10
0.0
 20
0.0
 30
0.0
  9
$UCSORGBOTTOM
 10
0.0
 20
0.0
 30
0.0
  9
$UCSORGLEFT
 10
0.0
 20
0.0
 30
0.0
  9
$UCSORGRIGHT
 10
0.0
 20
0.0
 30
0.0
  9
$UCSORGFRONT
 10
0.0
 20
0.0
 30
0.0
  9
$UCSORGBACK
 10
0.0
 20
0.0
 30
0.0
  9
$PUCSBASE
  2

  9
$PUCSNAME
  2

  9
$PUCSORG
 10
0.0
 20
0.0
 30
0.0
  9
$PUCSXDIR
 10
1.0
 20
0.0
 30
0.0
  9
$PUCSYDIR
 10
0.0
 20
1.0
 30
0.0
  9
$PUCSORTHOREF
  2

  9
$PUCSORTHOVIEW
 70
     0
  9
$PUCSORGTOP
 10
0.0
 20
0.0
 30
0.0
  9
$PUCSORGBOTTOM
 10
0.0
 20
0.0
 30
0.0
  9
$PUCSORGLEFT
 10
0.0
 20
0.0
 30
0.0
  9
$PUCSORGRIGHT
 10
0.0
 20
0.0
 30
0.0
  9
$PUCSORGFRONT
 10
0.0
 20
0.0
 30
0.0
  9
$PUCSORGBACK
 10
0.0
 20
0.0
 30
0.0
  9
$USERI1
 70
     0
  9
$USERI2
 70
     0
  9
$USERI3
 70
     0
  9
$USERI4
 70
     0
  9
$USERI5
 70
     0
  9
$USERR1
 40
0.0
  9
$USERR2
 40
0.0
  9
$USERR3
 40
0.0
  9
$USERR4
 40
0.0
  9
$USERR5
 40
0.0
  9
$WORLDVIEW
 70
     1
  9
$SHADEDGE
 70
     1
  9
$SHADEDIF
 70
    70
  9
$TILEMODE
 70
     1
  9
$MAXACTVP
 70
    16
  9
$PINSBASE
 10
0.0
 20
0.0
 30
0.0
  9
$PLIMCHECK
 70
     0
  9
$PEXTMIN
 10
1.000000000000000E+20
 20
1.000000000000000E+20
 30
1.000000000000000E+20
  9
$PEXTMAX
 10
-1.000000000000000E+20
 20
-1.000000000000000E+20
 30
-1.000000000000000E+20
  9
$PLIMMIN
 10
0.0
 20
0.0
  9
$PLIMMAX
 10
12.0
 20
9.0
  9
$UNITMODE
 70
     0
  9
$VISRETAIN
 70
     0
  9
$PLINEGEN
 70
     0
  9
$PSLTSCALE
 70
     1
  9
$TREEDEPTH
 70
  3020
  9
$CMLSTYLE
  2
STANDARD
  9
$CMLJUST
 70
     0
  9
$CMLSCALE
 40
1.0
  9
$PROXYGRAPHICS
 70
     1
  9
$MEASUREMENT
 70
     0
  9
$CELWEIGHT
370
    -1
  9
$ENDCAPS
280
     0
  9
$JOINSTYLE
280
     0
  9
$LWDISPLAY
290
     0
  9
$INSUNITS
 70
     0
  9
$HYPERLINKBASE
  1

  9
$STYLESHEET
  1

  9
$XEDIT
290
     1
  9
$CEPSNTYPE
380
     0
  9
$PSTYLEMODE
290
     1
  9
$FINGERPRINTGUID
  2

  9
$VERSIONGUID
  2
{F3AF03EA-110C-11D4-8DA4-00A0C981A35F}
  9
$EXTNAMES
290
     1
  9
$PSVPSCALE
 40
0.0
  9
$OLESTARTUP
290
     0
  0
ENDSEC
  0
SECTION
  2
CLASSES
  0
CLASS
  1
DICTIONARYVAR
  2
AcDbDictionaryVar
  3
AutoCAD 2000
 90
    32768
280
     0
281
     0
  0
CLASS
  1
LWPOLYLINE
  2
AcDbPolyline
  3
AutoCAD 2000
 90
    32768
280
     0
281
     1
  0
CLASS
  1
RASTERVARIABLES
  2
AcDbRasterVariables
  3
ISM
 90
    32768
280
     0
281
     0
  0
CLASS
  1
ACDBDICTIONARYWDFLT
  2
AcDbDictionaryWithDefault
  3
AutoCAD 2000
 90
        0
280
     0
281
     0
  0
CLASS
  1
ACDBPLACEHOLDER
  2
AcDbPlaceHolder
  3
AutoCAD 2000
 90
        0
280
     0
281
     0
  0
CLASS
  1
LAYOUT
  2
AcDbLayout
  3
AutoCAD 2000
 90
        0
280
     0
281
     0
  0
CLASS
  1
ACME_DOCUMENT
  2
AcMeDbDoc
  3
AcMeServices
 90
    32768
280
     1
281
     0
  0
CLASS
  1
ACMESCOPE
  2
AcMeScope
  3
AcMeServices
 90
    32768
280
     1
281
     0
  0
CLASS
  1
ACMECOMMANDHISTORY
  2
AcMeCommandHistory
  3
AcMeServices
 90
    32768
280
     1
281
     0
  0
CLASS
  1
ACIMSYSVARMAN
  2
AcImSysVarManager
  3
AcMeServices
 90
    32768
280
     1
281
     0
  0
CLASS
  1
ACIMREALSYSVAR
  2
AcImRealSysVar
  3
AcMeServices
 90
    32768
280
     1
281
     0
  0
CLASS
  1
ACIMINTSYSVAR
  2
AcImIntSysVar
  3
AcMeServices
 90
    32768
280
     1
281
     0
  0
CLASS
  1
ACMEDRAWINGMAN
  2
AcMeDrawingMan
  3
AcMeServices
 90
    32768
280
     1
281
     0
  0
CLASS
  1
ACMEVIEW
  2
AcMeView
  3
AcMeServices
 90
    32768
280
     1
281
     0
  0
CLASS
  1
ACDBENTITYCACHE
  2
AcMeEntityCache
  3
AcMeServices
 90
    32768
280
     1
281
     0
  0
CLASS
  1
GSMANAGER
  2
AcMeGSManager
  3
AcMeServices
 90
    32768
280
     1
281
     0
  0
CLASS
  1
AmdtInternalReactor
  2
AmdtInternalReactor
  3
AcMeServices
 90
    32768
280
     1
281
     0
  0
CLASS
  1
ACMESTATEMGR
  2
AcMeStateMgr
  3
AcMeServices
 90
    32768
280
     1
281
     0
  0
CLASS
  1
ACGREFMASTER
  2
AcGrefMaster
  3
AcAttribServices
 90
    32768
280
     1
281
     0
  0
CLASS
  1
AM_DRAWING_MGR
  2
AcDmDwgMgr
  3
AcMechDwgViewMgmt
 90
    32768
280
     1
281
     0
  0
CLASS
  1
AM_DWG_DOCUMENT
  2
AcDmDwgDocument
  3
AcMechDwgViewMgmt
 90
    32768
280
     1
281
     0
  0
CLASS
  1
AM_DWG_SHEET
  2
AcDmSheet
  3
AcMechDwgViewMgmt
 90
    32768
280
     1
281
     0
  0
CLASS
  1
AM_VIEWDIMPARMAP
  2
AcDmViewDimParMap
  3
AcMechDwgViewMgmt
 90
    32768
280
     1
281
     0
  0
CLASS
  1
AM_DWGMGR_NAME
  2
AcDmDwgMgrName
  3
AcMechDwgViewMgmt
 90
    32768
280
     1
281
     0
  0
CLASS
  1
ACME_DATABASE
  2
AcMeDbDatabase
  3
AcMeServices
 90
    32768
280
     1
281
     0
  0
CLASS
  1
ACRFINSADJUSTERMGR
  2
AcRfInsAdjusterMgr
  3
AcMeServices
 90
    32768
280
     1
281
     0
  0
CLASS
  1
ACGREFMASTER
  2
AcGrefacadMaster
  3
AcGrefServices
 90
    32768
280
     1
281
     0
  0
CLASS
  1
AMDTMENUSTATEMGR
  2
AmdtMenuStateMgr
  3
McadcomServices
 90
    32768
280
     1
281
     0
  0
CLASS
  1
AMDTMCOMMENUSTATE
  2
AmdtMcomMenuState
  3
McadcomServices
 90
    32768
280
     1
281
     0
  0
CLASS
  1
ASAPP
  2
AcAsAppObject
  3
AutoSurfServices
 90
    32768
280
     1
281
     0
  0
CLASS
  1
IM_STATIC_MAN
  2
AcImStaticVarManager
  3
AcMeServices
 90
    32768
280
     1
281
     0
  0
CLASS
  1
ACIMSTRSYSVAR
  2
AcImStrSysVar
  3
AcMeServices
 90
    32768
280
     1
281
     0
  0
CLASS
  1
ACIMDBLSTATICVAR
  2
AcImDblStaticVar
  3
AcMeServices
 90
    32768
280
     1
281
     0
  0
CLASS
  1
ACIMSTRSTATICVAR
  2
AcImStrStaticVar
  3
AcMeServices
 90
    32768
280
     1
281
     0
  0
CLASS
  1
ACIMINTSTATICVAR
  2
AcImIntStaticVar
  3
AcMeServices
 90
    32768
280
     1
281
     0
  0
CLASS
  1
ACADGREFMODULE
  2
AcAdGrefModule
  3
AdGrefServices
 90
    32768
280
     1
281
     0
  0
CLASS
  1
AMIMASTER
  2
AmiMaster
  3
AmiServices
 90
    32768
280
     1
281
     0
  0
CLASS
  1
ACASGREFMASTER
  2
AcAsGrefMaster
  3
AutoSurfResolverServices
 90
    32768
280
     1
281
     0
  0
CLASS
  1
MAPIAMMOUDLE
  2
MApiAmModule
  3
MApiAmServices
 90
    32768
280
     1
281
     0
  0
CLASS
  1
AMDTDMMENUSTATE
  2
AmdtDmMenuState
  3
AcMechDwgViewMgmt
 90
    32768
280
     1
281
     0
  0
CLASS
  1
AMDTADMENUSTATE
  2
AmdtAdMenuState
  3
DesignerServices
 90
    32768
280
     1
281
     0
  0
CLASS
  1
ADAPPL
  2
AcAdAppl
  3
DesignerServices
 90
    32768
280
     1
281
     0
  0
CLASS
  1
DEPMGR
  2
AcAdDepMgr
  3
DesignerServices
 90
    32768
280
     1
281
     0
  0
CLASS
  1
PARAMMGR
  2
AcAdParamMgr
  3
DesignerServices
 90
    32768
280
     1
281
     0
  0
CLASS
  1
PARAMSCOPE
  2
AcAdParamScope
  3
DesignerServices
 90
    32768
280
     1
281
     0
  0
CLASS
  1
NAMEDAPPL
  2
AcAdNamedAppl
  3
DesignerServices
 90
    32768
280
     1
281
     0
  0
CLASS
  1
ADHNTMPLT
  2
AdHoleNoteTemplateMgr
  3
DesignerServices
 90
    32768
280
     1
281
     0
  0
CLASS
  1
AM_HNTEMPLATE_MGR_NAME
  2
AdHoleNoteTemplateMgrName
  3
DesignerServices
 90
    32768
280
     1
281
     0
  0
CLASS
  1
AMDTAMMENUSTATE
  2
AmdtAmMenuState
  3
DesignerAssemblies
 90
    32768
280
     1
281
     0
  0
CLASS
  1
ACAMPROJECT
  2
AcAmProject
  3
DesignerAssemblies
 90
    32768
280
     1
281
     0
  0
CLASS
  1
ACAMGRCOMPDEF
  2
AcAmGrCompDef
  3
DesignerAssemblies
 90
    32768
280
     1
281
     0
  0
CLASS
  1
ACCMCONTEXT
  2
AcCmContext
  3
DesignerAssemblies
 90
    32768
280
     1
281
     0
  0
CLASS
  1
ACAMCOMPDEF
  2
AcAmCompDef
  3
DesignerAssemblies
 90
    32768
280
     1
281
     0
  0
CLASS
  1
ACAMCOMPDEFMGR
  2
AcAmCompDefMgr
  3
DesignerAssemblies
 90
    32768
280
     1
281
     0
  0
CLASS
  1
AMCONTEXTMGR
  2
AcAmContextMgr
  3
DesignerAssemblies
 90
    32768
280
     1
281
     0
  0
CLASS
  1
ACAMCONTEXTMODELER
  2
AcAmContextModeler
  3
DesignerAssemblies
 90
    32768
280
     1
281
     0
  0
CLASS
  1
MAPIADMODULE
  2
MApiAdModule
  3
MApiAdServices
 90
    32768
280
     1
281
     0
  0
CLASS
  1
ACMDATADICTIONARY
  2
AcmDataDictionary
  3
"AcmSymBB|Product Description: AutoCAD Mechanical 2000|Company: Autodesk"
 90
    32768
280
     1
281
     0
  0
CLASS
  1
ACMDATAENTRYBLOCK
  2
AcmDataEntryBlock
  3
"AcmSymBB|Product Description: AutoCAD Mechanical 2000|Company: Autodesk"
 90
    32768
280
     1
281
     0
  0
CLASS
  1
AMDTBROWSERDBTAB
  2
AmdtBrowserDbTab
  3
McadcomServices
 90
    32768
280
     1
281
     0
  0
CLASS
  1
CBROWSERAPPOBJECT
  2
CBrowserAppObject
  3
McadcomServices
 90
    32768
280
     1
281
     0
  0
CLASS
  1
DM_PLACEHOLDER
  2
AcDmSelsetPlaceholder
  3
AcMechDwgViewMgmt
 90
    32768
280
     1
281
     0
  0
CLASS
  1
CATALOGSTATE
  2
AcAmCatalogState
  3
DesignerAssemblies
 90
    32768
280
     1
281
     0
  0
CLASS
  1
ACAMGRCOMPDEFSET
  2
AcAmGrCompDefSet
  3
DesignerAssemblies
 90
    32768
280
     1
281
     0
  0
CLASS
  1
AMGOBJPROPCFG
  2
AmgObjPropCfg
  3
"AmgLay|Product Description: AutoCAD Mechanical 2000|Company: Autodesk"
 90
    32769
280
     1
281
     0
  0
CLASS
  1
LAYER_INDEX
  2
AcDbLayerIndex
  3
AutoCAD 2000
 90
    32768
280
     0
281
     0
  0
CLASS
  1
IDBUFFER
  2
AcDbIdBuffer
  3
AutoCAD 2000
 90
    32768
280
     0
281
     0
  0
CLASS
  1
ACRFATTGENMGR
  2
AcRfAttGeneralMgr
  3
AcAttribServices
 90
    32768
280
     1
281
     0
  0
CLASS
  1
PLOTSETTINGS
  2
AcDbPlotSettings
  3
AutoCAD 2000
 90
        0
280
     0
281
     0
  0
CLASS
  1
VBA_PROJECT
  2
AcDbVbaProject
  3
acadvba
 90
        0
280
     0
281
     0
  0
CLASS
  1
LONG_TRANSACTION
  2
AcDbLongTransaction
  3
AutoCAD 2000
 90
    32768
280
     0
281
     0
  0
CLASS
  1
LWPOLYLINE
  2
AcDbPolyline
  3
AutoCAD 2000
 90
    32768
280
     0
281
     1
  0
CLASS
  1
HATCH
  2
AcDbHatch
  3
AutoCAD 2000
 90
    32768
280
     0
281
     1
  0
CLASS
  1
XRECORD
  2
AcDbXrecord
  3
AutoCAD 2000
 90
    32768
280
     0
281
     0
  0
CLASS
  1
LONG_TRANSACTION
  2
AcDbLongTransaction
  3
AutoCAD 2000
 90
    32768
280
     0
281
     0
  0
CLASS
  1
LWPOLYLINE
  2
AcDbPolyline
  3
AutoCAD 2000
 90
    32768
280
     0
281
     1
  0
CLASS
  1
HATCH
  2
AcDbHatch
  3
AutoCAD 2000
 90
    32768
280
     0
281
     1
  0
CLASS
  1
XRECORD
  2
AcDbXrecord
  3
AutoCAD 2000
 90
    32768
280
     0
281
     0
  0
ENDSEC
  0
SECTION
  2
TABLES
  0
TABLE
  2
VPORT
  5
1B
330
0
100
AcDbSymbolTable
 70
     2
  0
VPORT
  5
A68D7
330
1B
100
AcDbSymbolTableRecord
100
AcDbViewportTableRecord
  2
*Active
 70
     0
 10
0.0
 20
0.0
 11
1.0
 21
1.0
 12
957.270335446989
 22
638.5601098010551
 13
0.0
 23
0.0
 14
1.0
 24
1.0
 15
0.0
 25
0.0
 16
0.0
 26
0.0
 36
1.0
 17
-64.46234487877643
 27
33.0238264231553
 37
6.148717398612387
 40
98.33514738353649
 41
1.413068844807468
 42
50.0
 43
-6.148717398612387
 44
-6.148717398612387
 50
0.0
 51
0.0
 71
     0
 72
 20000
 73
     1
 74
     1
 75
     0
 76
     0
 77
     0
 78
     2
281
     0
 65
     1
110
0.0
120
0.0
130
0.0
111
1.0
121
0.0
131
0.0
112
0.0
122
1.0
132
0.0
 79
     0
146
0.0
  0
ENDTAB
  0
TABLE
  2
LTYPE
  5
16
330
0
100
AcDbSymbolTable
 70
     1
  0
LTYPE
  5
17
330
16
100
AcDbSymbolTableRecord
100
AcDbLinetypeTableRecord
  2
BYBLOCK
 70
     0
  3

 72
    65
 73
     0
 40
0.0
  0
LTYPE
  5
18
330
16
100
AcDbSymbolTableRecord
100
AcDbLinetypeTableRecord
  2
BYLAYER
 70
     0
  3

 72
    65
 73
     0
 40
0.0
  0
LTYPE
  5
9
330
16
100
AcDbSymbolTableRecord
100
AcDbLinetypeTableRecord
  2
CONTINUOUS
 70
     0
  3
Solid line
 72
    65
 73
     0
 40
0.0
  0
ENDTAB
  0
TABLE
  2
LAYER
  5
11
330
0
100
AcDbSymbolTable
 70
     4
  0
LAYER
  5
5
330
11
100
AcDbSymbolTableRecord
100
AcDbLayerTableRecord
  2
0
 70
     0
 62
     7
  6
CONTINUOUS
370
    -3
390
6
  0
LAYER
  5
24
330
11
100
AcDbSymbolTableRecord
100
AcDbLayerTableRecord
  2
A1
 70
     0
 62
     7
  6
CONTINUOUS
370
    -3
390
6
  0
LAYER
  5
A56AA
330
11
100
AcDbSymbolTableRecord
100
AcDbLayerTableRecord
  2
LINEWORK
 70
     0
 62
    41
  6
CONTINUOUS
370
    -3
390
6
  0
LAYER
  5
A5A14
330
11
100
AcDbSymbolTableRecord
100
AcDbLayerTableRecord
  2
DEFPOINTS
 70
     0
 62
     7
  6
CONTINUOUS
290
     0
370
    -3
390
6
  0
ENDTAB
  0
TABLE
  2
STYLE
  5
12
330
0
100
AcDbSymbolTable
 70
     4
  0
STYLE
  5
13
330
12
100
AcDbSymbolTableRecord
100
AcDbTextStyleTableRecord
  2
STANDARD
 70
     0
 40
0.0
 41
1.0
 50
0.0
 71
     0
 42
1.0
  3
unvr55w.ttf
  4

1001
ACAD
1000
Univers
1071
       34
  0
STYLE
  5
A56AB
330
12
100
AcDbSymbolTableRecord
100
AcDbTextStyleTableRecord
  2
ROMANC
 70
     0
 40
0.0
 41
1.0
 50
0.0
 71
     0
 42
0.5
  3
TIMESBD.TTF
  4

1001
ACAD
1000
Times New Roman
1071
 33554450
  0
STYLE
  5
A56AC
330
12
100
AcDbSymbolTableRecord
100
AcDbTextStyleTableRecord
  2
barcoder
 70
     0
 40
0.0
 41
1.0
 50
0.0
 71
     0
 42
4.5625
  3
cw_barcd.ttf
  4

1001
ACAD
1000
Barcoder
1071
 33554434
  0
STYLE
  5
A647B
330
12
100
AcDbSymbolTableRecord
100
AcDbTextStyleTableRecord
  2
ROMANS
 70
     0
 40
0.0
 41
1.0
 50
0.0
 71
     0
 42
1.0
  3
romans.shx
  4

  0
ENDTAB
  0
TABLE
  2
VIEW
  5
19
330
0
100
AcDbSymbolTable
 70
     0
  0
ENDTAB
  0
TABLE
  2
UCS
  5
1A
330
0
100
AcDbSymbolTable
 70
     0
  0
ENDTAB
  0
TABLE
  2
APPID
  5
1D
330
0
100
AcDbSymbolTable
 70
    17
  0
APPID
  5
14
330
1D
100
AcDbSymbolTableRecord
100
AcDbRegAppTableRecord
  2
ACAD
 70
     0
  0
APPID
  5
1BD0
330
1D
100
AcDbSymbolTableRecord
100
AcDbRegAppTableRecord
  2
GENIUS_GENDIM_13
 70
     0
  0
APPID
  5
1BD1
330
1D
100
AcDbSymbolTableRecord
100
AcDbRegAppTableRecord
  2
GENIUS_GENDTOL_13
 70
     0
  0
APPID
  5
1BD2
330
1D
100
AcDbSymbolTableRecord
100
AcDbRegAppTableRecord
  2
GENIUS_GE3DTOL_13
 70
     0
  0
APPID
  5
1BD3
330
1D
100
AcDbSymbolTableRecord
100
AcDbRegAppTableRecord
  2
MCAD_NO_VIS
 70
     0
  0
APPID
  5
1BD4
330
1D
100
AcDbSymbolTableRecord
100
AcDbRegAppTableRecord
  2
ACAD_TEMP_GRAPHIC
 70
     0
  0
APPID
  5
1BD5
330
1D
100
AcDbSymbolTableRecord
100
AcDbRegAppTableRecord
  2
AD_DRAW
 70
     0
  0
APPID
  5
1BD6
330
1D
100
AcDbSymbolTableRecord
100
AcDbRegAppTableRecord
  2
ACATTRIBSERVICES
 70
     0
  0
APPID
  5
1BD7
330
1D
100
AcDbSymbolTableRecord
100
AcDbRegAppTableRecord
  2
ASURF_PCURVE_APPNAME
 70
     0
  0
APPID
  5
1BD8
330
1D
100
AcDbSymbolTableRecord
100
AcDbRegAppTableRecord
  2
DESIGNERASSEMBLIES
 70
     0
  0
APPID
  5
1BD9
330
1D
100
AcDbSymbolTableRecord
100
AcDbRegAppTableRecord
  2
ACADM_DIM_EDIT
 70
     0
  0
APPID
  5
93F1
330
1D
100
AcDbSymbolTableRecord
100
AcDbRegAppTableRecord
  2
AVE_MATERIAL
 70
     0
  0
APPID
  5
7C0E8
330
1D
100
AcDbSymbolTableRecord
100
AcDbRegAppTableRecord
  2
AVE_RENDER
 70
     0
  0
APPID
  5
7C0E9
330
1D
100
AcDbSymbolTableRecord
100
AcDbRegAppTableRecord
  2
AVE_ENTITY_MATERIAL
 70
     0
  0
APPID
  5
7C0EA
330
1D
100
AcDbSymbolTableRecord
100
AcDbRegAppTableRecord
  2
AVE_FINISH
 70
     0
  0
APPID
  5
7C0EB
330
1D
100
AcDbSymbolTableRecord
100
AcDbRegAppTableRecord
  2
AVE_GLOBAL
 70
     0
  0
APPID
  5
7C0EC
330
1D
100
AcDbSymbolTableRecord
100
AcDbRegAppTableRecord
  2
DCO15
 70
     0
  0
ENDTAB
  0
TABLE
  2
DIMSTYLE
  5
1E
330
0
100
AcDbSymbolTable
 70
     1
100
AcDbDimStyleTable
 71
     0
  0
DIMSTYLE
105
1F
102
{ACAD_REACTORS
330
A65FB
330
A6609
330
A6617
330
A663D
330
A6647
330
A6657
330
A666F
330
A667F
330
A6689
330
A6697
102
}
330
1E
100
AcDbSymbolTableRecord
100
AcDbDimStyleTableRecord
  2
STANDARD
 70
     0
  3
"
 41
0.5
 42
1.0
 43
0.0625
 44
0.25
 73
     0
 74
     0
 77
     3
140
1.0
141
0.0
146
0.125
147
0.125
171
     0
274
     0
276
     2
277
     5
285
     2
286
     2
289
     0
340
13
  0
ENDTAB
  0
TABLE
  2
BLOCK_RECORD
  5
1
330
0
100
AcDbSymbolTable
 70
    55
  0
BLOCK_RECORD
  5
2
102
{ACAD_XDICTIONARY
360
3
102
}
330
1
100
AcDbSymbolTableRecord
100
AcDbBlockTableRecord
  2
*MODEL_SPACE
340
B
  0
BLOCK_RECORD
  5
D
102
{ACAD_XDICTIONARY
360
A67D3
102
}
330
1
100
AcDbSymbolTableRecord
100
AcDbBlockTableRecord
  2
*PAPER_SPACE
340
10
  0
BLOCK_RECORD
  5
7BB3B
330
1
100
AcDbSymbolTableRecord
100
AcDbBlockTableRecord
  2
*U0
340
0
102
{BLKREFS
331
7C12C
102
}
  0
BLOCK_RECORD
  5
7BB3E
330
1
100
AcDbSymbolTableRecord
100
AcDbBlockTableRecord
  2
*U1
340
0
102
{BLKREFS
331
7C12F
102
}
  0
BLOCK_RECORD
  5
7BB41
330
1
100
AcDbSymbolTableRecord
100
AcDbBlockTableRecord
  2
*U2
340
0
102
{BLKREFS
331
7C130
102
}
  0
BLOCK_RECORD
  5
7BB44
330
1
100
AcDbSymbolTableRecord
100
AcDbBlockTableRecord
  2
*U3
340
0
102
{BLKREFS
331
7C131
102
}
  0
BLOCK_RECORD
  5
8A998
330
1
100
AcDbSymbolTableRecord
100
AcDbBlockTableRecord
  2
*U4
340
0
102
{BLKREFS
331
8AB84
102
}
  0
BLOCK_RECORD
  5
8B050
330
1
100
AcDbSymbolTableRecord
100
AcDbBlockTableRecord
  2
*U5
340
0
102
{BLKREFS
331
8B751
102
}
  0
BLOCK_RECORD
  5
8BC8D
330
1
100
AcDbSymbolTableRecord
100
AcDbBlockTableRecord
  2
*U6
340
0
102
{BLKREFS
331
8BDA9
102
}
  0
BLOCK_RECORD
  5
99175
330
1
100
AcDbSymbolTableRecord
100
AcDbBlockTableRecord
  2
PROFILE LOGO
340
0
102
{BLKREFS
331
A5A4D
102
}
  0
BLOCK_RECORD
  5
991DA
330
1
100
AcDbSymbolTableRecord
100
AcDbBlockTableRecord
  2
LINK FLAG
340
0
  0
BLOCK_RECORD
  5
A5481
330
1
100
AcDbSymbolTableRecord
100
AcDbBlockTableRecord
  2
*U9
340
0
102
{BLKREFS
331
A5502
102
}
  0
BLOCK_RECORD
  5
A5484
330
1
100
AcDbSymbolTableRecord
100
AcDbBlockTableRecord
  2
*U10
340
0
102
{BLKREFS
331
A5503
102
}
  0
BLOCK_RECORD
  5
A5487
330
1
100
AcDbSymbolTableRecord
100
AcDbBlockTableRecord
  2
*U11
340
0
102
{BLKREFS
331
A5504
102
}
  0
BLOCK_RECORD
  5
A548A
330
1
100
AcDbSymbolTableRecord
100
AcDbBlockTableRecord
  2
*U12
340
0
102
{BLKREFS
331
A5505
102
}
  0
BLOCK_RECORD
  5
A548D
330
1
100
AcDbSymbolTableRecord
100
AcDbBlockTableRecord
  2
*U13
340
0
102
{BLKREFS
331
A5506
102
}
  0
BLOCK_RECORD
  5
A5490
330
1
100
AcDbSymbolTableRecord
100
AcDbBlockTableRecord
  2
*U14
340
0
102
{BLKREFS
331
A5507
102
}
  0
BLOCK_RECORD
  5
A5493
330
1
100
AcDbSymbolTableRecord
100
AcDbBlockTableRecord
  2
*U15
340
0
102
{BLKREFS
331
A5508
102
}
  0
BLOCK_RECORD
  5
A5583
330
1
100
AcDbSymbolTableRecord
100
AcDbBlockTableRecord
  2
*U16
340
0
102
{BLKREFS
331
A5606
102
}
  0
BLOCK_RECORD
  5
A5586
330
1
100
AcDbSymbolTableRecord
100
AcDbBlockTableRecord
  2
*U17
340
0
102
{BLKREFS
331
A5607
102
}
  0
BLOCK_RECORD
  5
A5589
330
1
100
AcDbSymbolTableRecord
100
AcDbBlockTableRecord
  2
*U18
340
0
102
{BLKREFS
331
A5608
102
}
  0
BLOCK_RECORD
  5
A558C
330
1
100
AcDbSymbolTableRecord
100
AcDbBlockTableRecord
  2
*U19
340
0
102
{BLKREFS
331
A5609
102
}
  0
BLOCK_RECORD
  5
A558F
330
1
100
AcDbSymbolTableRecord
100
AcDbBlockTableRecord
  2
*U20
340
0
102
{BLKREFS
331
A560A
102
}
  0
BLOCK_RECORD
  5
A5592
330
1
100
AcDbSymbolTableRecord
100
AcDbBlockTableRecord
  2
*U21
340
0
102
{BLKREFS
331
A560B
102
}
  0
BLOCK_RECORD
  5
A5595
330
1
100
AcDbSymbolTableRecord
100
AcDbBlockTableRecord
  2
*U22
340
0
102
{BLKREFS
331
A560C
102
}
  0
BLOCK_RECORD
  5
A56AD
330
1
100
AcDbSymbolTableRecord
100
AcDbBlockTableRecord
  2
TSFORMB
340
0
102
{BLKREFS
331
A56DB
102
}
  0
BLOCK_RECORD
  5
A56F8
330
1
100
AcDbSymbolTableRecord
100
AcDbBlockTableRecord
  2
*U24
340
0
102
{BLKREFS
331
A5A3F
102
}
  0
BLOCK_RECORD
  5
A56FB
330
1
100
AcDbSymbolTableRecord
100
AcDbBlockTableRecord
  2
*U25
340
0
102
{BLKREFS
331
A5A40
102
}
  0
BLOCK_RECORD
  5
A56FE
330
1
100
AcDbSymbolTableRecord
100
AcDbBlockTableRecord
  2
*U26
340
0
102
{BLKREFS
331
A5A41
102
}
  0
BLOCK_RECORD
  5
A5701
330
1
100
AcDbSymbolTableRecord
100
AcDbBlockTableRecord
  2
*U27
340
0
102
{BLKREFS
331
A5A42
102
}
  0
BLOCK_RECORD
  5
A5704
330
1
100
AcDbSymbolTableRecord
100
AcDbBlockTableRecord
  2
*U28
340
0
102
{BLKREFS
331
A5A43
102
}
  0
BLOCK_RECORD
  5
A5707
330
1
100
AcDbSymbolTableRecord
100
AcDbBlockTableRecord
  2
*U29
340
0
102
{BLKREFS
331
A5A44
102
}
  0
BLOCK_RECORD
  5
A570A
330
1
100
AcDbSymbolTableRecord
100
AcDbBlockTableRecord
  2
*U30
340
0
102
{BLKREFS
331
A5A45
102
}
  0
BLOCK_RECORD
  5
A570D
330
1
100
AcDbSymbolTableRecord
100
AcDbBlockTableRecord
  2
*U31
340
0
102
{BLKREFS
331
A5A46
102
}
  0
BLOCK_RECORD
  5
A5710
330
1
100
AcDbSymbolTableRecord
100
AcDbBlockTableRecord
  2
*U32
340
0
102
{BLKREFS
331
A5A47
102
}
  0
BLOCK_RECORD
  5
A5713
330
1
100
AcDbSymbolTableRecord
100
AcDbBlockTableRecord
  2
*U33
340
0
102
{BLKREFS
331
A5A48
102
}
  0
BLOCK_RECORD
  5
A5716
330
1
100
AcDbSymbolTableRecord
100
AcDbBlockTableRecord
  2
*U34
340
0
102
{BLKREFS
331
A5A49
102
}
  0
BLOCK_RECORD
  5
A5719
330
1
100
AcDbSymbolTableRecord
100
AcDbBlockTableRecord
  2
*U35
340
0
102
{BLKREFS
331
A5A4A
102
}
  0
BLOCK_RECORD
  5
A571C
330
1
100
AcDbSymbolTableRecord
100
AcDbBlockTableRecord
  2
*U36
340
0
102
{BLKREFS
331
A5A4B
102
}
  0
BLOCK_RECORD
  5
A571F
330
1
100
AcDbSymbolTableRecord
100
AcDbBlockTableRecord
  2
*U37
340
0
102
{BLKREFS
331
A5A4C
102
}
  0
BLOCK_RECORD
  5
A5722
330
1
100
AcDbSymbolTableRecord
100
AcDbBlockTableRecord
  2
*U38
340
0
102
{BLKREFS
331
A5A53
102
}
  0
BLOCK_RECORD
  5
A5725
330
1
100
AcDbSymbolTableRecord
100
AcDbBlockTableRecord
  2
*U39
340
0
102
{BLKREFS
331
A5A54
102
}
  0
BLOCK_RECORD
  5
A5728
330
1
100
AcDbSymbolTableRecord
100
AcDbBlockTableRecord
  2
*U40
340
0
102
{BLKREFS
331
A5A55
102
}
  0
BLOCK_RECORD
  5
A572B
330
1
100
AcDbSymbolTableRecord
100
AcDbBlockTableRecord
  2
*U41
340
0
102
{BLKREFS
331
A5A56
102
}
  0
BLOCK_RECORD
  5
A572E
330
1
100
AcDbSymbolTableRecord
100
AcDbBlockTableRecord
  2
*U42
340
0
102
{BLKREFS
331
A5A57
102
}
  0
BLOCK_RECORD
  5
A5731
330
1
100
AcDbSymbolTableRecord
100
AcDbBlockTableRecord
  2
*U43
340
0
102
{BLKREFS
331
A5A58
102
}
  0
BLOCK_RECORD
  5
A5734
330
1
100
AcDbSymbolTableRecord
100
AcDbBlockTableRecord
  2
*U44
340
0
102
{BLKREFS
331
A5A59
102
}
  0
BLOCK_RECORD
  5
A65FC
330
1
100
AcDbSymbolTableRecord
100
AcDbBlockTableRecord
  2
*D45
340
0
  0
BLOCK_RECORD
  5
A660A
330
1
100
AcDbSymbolTableRecord
100
AcDbBlockTableRecord
  2
*D46
340
0
  0
BLOCK_RECORD
  5
A6618
330
1
100
AcDbSymbolTableRecord
100
AcDbBlockTableRecord
  2
*D47
340
0
  0
BLOCK_RECORD
  5
A663E
330
1
100
AcDbSymbolTableRecord
100
AcDbBlockTableRecord
  2
*D48
340
0
  0
BLOCK_RECORD
  5
A6648
330
1
100
AcDbSymbolTableRecord
100
AcDbBlockTableRecord
  2
*D49
340
0
  0
BLOCK_RECORD
  5
A6658
330
1
100
AcDbSymbolTableRecord
100
AcDbBlockTableRecord
  2
*D50
340
0
  0
BLOCK_RECORD
  5
A6670
330
1
100
AcDbSymbolTableRecord
100
AcDbBlockTableRecord
  2
*D51
340
0
  0
BLOCK_RECORD
  5
A6680
330
1
100
AcDbSymbolTableRecord
100
AcDbBlockTableRecord
  2
*D52
340
0
  0
BLOCK_RECORD
  5
A668A
330
1
100
AcDbSymbolTableRecord
100
AcDbBlockTableRecord
  2
*D53
340
0
  0
BLOCK_RECORD
  5
A6698
330
1
100
AcDbSymbolTableRecord
100
AcDbBlockTableRecord
  2
*D54
340
0
  0
ENDTAB
  0
ENDSEC
  0
SECTION
  2
BLOCKS
  0
BLOCK
  5
4
330
2
100
AcDbEntity
  8
0
100
AcDbBlockBegin
  2
*MODEL_SPACE
 70
     2
 10
0.0
 20
0.0
 30
0.0
  3
*MODEL_SPACE
  1

  0
ENDBLK
  5
A
330
2
100
AcDbEntity
  8
0
100
AcDbBlockEnd
  0
BLOCK
  5
E
330
D
100
AcDbEntity
 67
     1
  8
0
100
AcDbBlockBegin
  2
*PAPER_SPACE
 70
     0
 10
0.0
 20
0.0
 30
0.0
  3
*PAPER_SPACE
  1

  0
ENDBLK
  5
F
330
D
100
AcDbEntity
 67
     1
  8
0
100
AcDbBlockEnd
  0
BLOCK
  5
7BB3C
330
7BB3B
100
AcDbEntity
  8
0
100
AcDbBlockBegin
  2
*U0
 70
     1
 10
0.0
 20
0.0
 30
0.0
  3
*U0
  1

  0
ENDBLK
  5
7BB3D
330
7BB3B
100
AcDbEntity
  8
0
100
AcDbBlockEnd
  0
BLOCK
  5
7BB3F
330
7BB3E
100
AcDbEntity
  8
0
100
AcDbBlockBegin
  2
*U1
 70
     1
 10
0.0
 20
0.0
 30
0.0
  3
*U1
  1

  0
ENDBLK
  5
7BB40
330
7BB3E
100
AcDbEntity
  8
0
100
AcDbBlockEnd
  0
BLOCK
  5
7BB42
330
7BB41
100
AcDbEntity
  8
0
100
AcDbBlockBegin
  2
*U2
 70
     1
 10
0.0
 20
0.0
 30
0.0
  3
*U2
  1

  0
ENDBLK
  5
7BB43
330
7BB41
100
AcDbEntity
  8
0
100
AcDbBlockEnd
  0
BLOCK
  5
7BB45
330
7BB44
100
AcDbEntity
  8
0
100
AcDbBlockBegin
  2
*U3
 70
     1
 10
0.0
 20
0.0
 30
0.0
  3
*U3
  1

  0
ENDBLK
  5
7BB46
330
7BB44
100
AcDbEntity
  8
0
100
AcDbBlockEnd
  0
BLOCK
  5
8A999
330
8A998
100
AcDbEntity
  8
0
100
AcDbBlockBegin
  2
*U4
 70
     1
 10
0.0
 20
0.0
 30
0.0
  3
*U4
  1

  0
ENDBLK
  5
8A99A
330
8A998
100
AcDbEntity
  8
0
100
AcDbBlockEnd
  0
BLOCK
  5
8B051
330
8B050
100
AcDbEntity
  8
0
100
AcDbBlockBegin
  2
*U5
 70
     1
 10
0.0
 20
0.0
 30
0.0
  3
*U5
  1

  0
ENDBLK
  5
8B052
330
8B050
100
AcDbEntity
  8
0
100
AcDbBlockEnd
  0
BLOCK
  5
8BC8E
330
8BC8D
100
AcDbEntity
  8
0
100
AcDbBlockBegin
  2
*U6
 70
     1
 10
0.0
 20
0.0
 30
0.0
  3
*U6
  1

  0
ENDBLK
  5
8BC8F
330
8BC8D
100
AcDbEntity
  8
0
100
AcDbBlockEnd
  0
BLOCK
  5
9918E
330
99175
100
AcDbEntity
  8
0
 62
     7
100
AcDbBlockBegin
  2
PROFILE LOGO
 70
     2
 10
0.0
 20
0.0
 30
0.0
  3
PROFILE LOGO
  1

  0
LINE
  5
99176
330
99175
100
AcDbEntity
  8
0
 62
    22
100
AcDbLine
 10
0.7459516636765642
 20
-0.415894330395318
 30
0.0
 11
0.74595166367655
 21
-1.12746688439163
 31
0.0
  0
LINE
  5
99177
330
99175
100
AcDbEntity
  8
0
 62
    22
100
AcDbLine
 10
0.5841942848079072
 20
-0.415894330395318
 30
0.0
 11
0.5841942848079072
 21
-1.12746688439163
 31
0.0
  0
HATCH
  5
99178
330
99175
100
AcDbEntity
  8
0
 62
    22
100
AcDbHatch
 10
0.0
 20
0.0
 30
0.0
210
0.0
220
0.0
230
1.0
  2
LINE
 70
     0
 71
     0
 91
        1
 92
       33
 93
       38
 72
     1
 10
1.115683196411978
 20
-0.1706330859717084
 11
0.2177636962628071
 21
-0.1706330859717084
 72
     1
 10
0.2177636962628213
 20
-0.1706330859717084
 11
0.2078601968792952
 21
-0.4246889457533243
 72
     1
 10
0.2078601968792952
 20
-0.4246889457533243
 11
0.2375709173007294
 21
-0.4246889457533243
 72
     1
 10
0.2375709173007294
 20
-0.4246889457533243
 11
0.2441732502230991
 21
-0.3817964654080939
 72
     1
 10
0.2441732502230991
 20
-0.3817964654080939
 11
0.254076749606611
 21
-0.3422032805409501
 72
     1
 10
0.2540767496066252
 20
-0.3422032805409501
 11
0.2738837483736916
 21
-0.3092090964125091
 72
     1
 10
0.2738837483736916
 20
-0.3092090964125091
 11
0.2969919136019428
 21
-0.2861130719066693
 72
     1
 10
0.296991913601957
 20
-0.2861130719066764
 11
0.3267026340234338
 21
-0.2663164794731259
 72
     1
 10
0.3267026340234196
 20
-0.2663164794731259
 11
0.356413132174012
 21
-0.2498193191118219
 72
     1
 10
0.356413132174012
 20
-0.2498193191118148
 11
0.3828224638634481
 21
-0.243220591561446
 72
     1
 10
0.3828224638634623
 20
-0.243220591561446
 11
0.4092320178237401
 21
-0.243220591561446
 72
     1
 10
0.4092320178237401
 20
-0.243220591561446
 11
0.4719541805861525
 21
-0.2465198870395469
 72
     1
 10
0.4719541805861525
 20
-0.2465198870395469
 11
0.514869566852326
 21
-0.2729153436176332
 72
     1
 10
0.514869566852326
 20
-0.2729153436176332
 11
0.5742905631535394
 21
-0.3389038484686964
 72
     1
 10
0.5742905631535394
 20
-0.3389038484687106
 11
0.5907966177302626
 21
-0.3916947616248691
 72
     1
 10
0.5907966177302768
 20
-0.3916947616248691
 11
0.5907966177302768
 21
-1.157161773041991
 72
     1
 10
0.5907966177302768
 20
-1.157161773041984
 11
0.5643870637699991
 21
-1.203353685459461
 72
     1
 10
0.5643870637699849
 20
-1.203353685459468
 11
0.4983637345463876
 21
-1.226449709965308
 72
     1
 10
0.4983637345464019
 20
-1.226449709965301
 11
0.4389425159743326
 21
-1.226449709965301
 72
     1
 10
0.4389425159743326
 20
-1.226449709965301
 11
0.4323401830519913
 21
-1.249545734471119
 72
     1
 10
0.4323401830520055
 20
-1.249545734471134
 11
0.8945045989712809
 21
-1.249545734471134
 72
     1
 10
0.8945045989712667
 20
-1.249545734471134
 11
0.8945045989712667
 21
-1.226449709965315
 72
     1
 10
0.8945045989712667
 20
-1.226449709965301
 11
0.8152763816321311
 21
-1.226449709965301
 72
     1
 10
0.8152763816321311
 20
-1.226449709965301
 11
0.7525539965988913
 21
-1.186856661692324
 72
     1
 10
0.7525539965988913
 20
-1.186856661692324
 11
0.7426504972153794
 21
-1.140664612680659
 72
     1
 10
0.7426504972153652
 20
-1.140664612680673
 11
0.7393493307541803
 21
-0.394994193697137
 72
     1
 10
0.7393493307541803
 20
-0.394994193697137
 11
0.7558551630600619
 21
-0.3389038484687106
 72
     1
 10
0.7558551630600761
 20
-0.3389038484687106
 11
0.7987705493262496
 21
-0.2828136398344298
 72
     1
 10
0.7987705493262496
 20
-0.2828136398344227
 11
0.8614929343594894
 21
-0.2498193191118148
 72
     1
 10
0.8614929343594894
 20
-0.2498193191118148
 11
0.9374197629665985
 21
-0.2399211594891923
 72
     1
 10
0.9374197629665985
 20
-0.2399211594891923
 11
1.010045647383407
 21
-0.2663164794731117
 72
     1
 10
1.010045647383407
 20
-0.2663164794731259
 11
1.056262200110722
 21
-0.3092090964125234
 72
     1
 10
1.056262200110722
 20
-0.3092090964125091
 11
1.085972698261343
 21
-0.361999872974522
 72
     1
 10
1.085972698261358
 20
-0.3619998729745291
 11
1.092575031183727
 21
-0.4246889457533243
 72
     1
 10
1.092575031183727
 20
-0.4246889457533243
 11
1.115683196411993
 21
-0.4246889457533243
 72
     1
 10
1.115683196411978
 20
-0.4246889457533243
 11
1.109080863489609
 21
-0.17723195011623
 72
     1
 10
1.109080863489609
 20
-0.17723195011623
 11
1.109080863489609
 21
-0.1739325180439621
 72
     1
 10
1.109080863489609
 20
-0.1739325180439621
 11
1.105779697028424
 21
-0.1739325180439621
 97
        0
 75
     0
 76
     1
 52
0.0
 41
0.078125
 77
     0
 78
     1
 53
0.0
 43
-28.182772630023
 44
-32.9923404580304
 45
0.0
 46
0.009765625
 79
     0
 98
        1
 10
-28.182772630023
 20
-32.9923404580304
  0
LWPOLYLINE
  5
99179
330
99175
100
AcDbEntity
  8
0
 62
    22
100
AcDbPolyline
 90
        4
 70
     1
 43
0.0
 10
0.0262955969727301
 20
-0.0287577800528069
 10
1.307151517972869
 20
-0.0287577800528069
 10
1.307151517972869
 20
-1.731261997456265
 10
0.0262955969727301
 20
-1.731261997456265
  0
LINE
  5
9917A
330
99175
100
AcDbEntity
  8
0
 62
    22
100
AcDbLine
 10
0.0262955969727443
 20
-1.4112176328236
 30
0.0
 11
1.307151517972869
 21
-1.4112176328236
 31
0.0
  0
ATTDEF
  5
9917B
330
99175
100
AcDbEntity
  8
A1
 62
    22
100
AcDbText
 10
0.6781304052809105
 20
-1.678298248906529
 30
0.0
 40
0.2126953125
  1

 72
     1
 11
0.6781304052809105
 21
-1.678298248906529
 31
0.0
100
AcDbAttributeDefinition
  3
ADD STONE MARKER
  2
XXXX
 70
     0
  0
LINE
  5
9917C
330
99175
100
AcDbEntity
  8
0
 62
    22
100
AcDbLine
 10
0.7464576960363587
 20
-1.129021462591367
 30
0.0
 11
0.74595166367655
 21
-1.12746688439163
 31
0.0
  0
ARC
  5
9917D
330
99175
100
AcDbEntity
  8
0
 62
    22
100
AcDbCircle
 10
0.8421255873066684
 20
-1.127299146756172
 30
0.0
 40
0.0956833935014068
100
AcDbArc
 50
181.0313885659746
 51
269.7936990713142
  0
LINE
  5
9917E
330
99175
100
AcDbEntity
  8
0
 62
    22
100
AcDbLine
 10
0.9011069318936506
 20
-1.22315027789304
 30
0.0
 11
0.841781067510368
 21
-1.22315027789304
 31
0.0
  0
LINE
  5
9917F
330
99175
100
AcDbEntity
  8
0
 62
    22
100
AcDbLine
 10
0.9011069318936506
 20
-1.256144598615648
 30
0.0
 11
0.9011069318936506
 21
-1.22315027789304
 31
0.0
  0
ARC
  5
99180
330
99175
100
AcDbEntity
  8
0
 62
    22
100
AcDbCircle
 10
0.4880203611777887
 20
-1.127299146756172
 30
0.0
 40
0.0956833935014068
100
AcDbArc
 50
270.2063009286848
 51
358.9686114340253
  0
LINE
  5
99181
330
99175
100
AcDbEntity
  8
0
 62
    22
100
AcDbLine
 10
0.4290390165908207
 20
-1.256144598615648
 30
0.0
 11
0.4290390165908207
 21
-1.22315027789304
 31
0.0
  0
LINE
  5
99182
330
99175
100
AcDbEntity
  8
0
 62
    22
100
AcDbLine
 10
0.4290390165908207
 20
-1.22315027789304
 30
0.0
 11
0.4883648809740891
 21
-1.22315027789304
 31
0.0
  0
LINE
  5
99183
330
99175
100
AcDbEntity
  8
0
 62
    22
100
AcDbLine
 10
0.5836882524480984
 20
-1.129021462591367
 30
0.0
 11
0.5841942848079072
 21
-1.12746688439163
 31
0.0
  0
LINE
  5
99184
330
99175
100
AcDbEntity
  8
0
 62
    22
100
AcDbLine
 10
0.4290390165908207
 20
-1.256144598615648
 30
0.0
 11
0.9011069318936506
 21
-1.256144598615648
 31
0.0
  0
LINE
  5
99185
330
99175
100
AcDbEntity
  8
0
 62
    22
100
AcDbLine
 10
1.085512597630156
 20
-0.415894330395318
 30
0.0
 11
1.085512597630156
 21
-0.4280723832374847
 31
0.0
  0
ARC
  5
99186
330
99175
100
AcDbEntity
  8
0
 62
    22
100
AcDbCircle
 10
0.9138550451562537
 20
-0.4147906495365632
 30
0.0
 40
0.1716611005230106
100
AcDbArc
 50
359.6316189828552
 51
90.00081606717127
  0
ARC
  5
99187
330
99175
100
AcDbEntity
  8
0
 62
    22
100
AcDbCircle
 10
0.9180888683309831
 20
-0.4147906495365632
 30
0.0
 40
0.1716611005230106
100
AcDbArc
 50
89.99918393282873
 51
180.3683810171443
  0
LINE
  5
99188
330
99175
100
AcDbEntity
  8
0
 62
    22
100
AcDbLine
 10
0.2078601968792952
 20
-0.427988377825578
 30
0.0
 11
0.2441732502230991
 21
-0.427988377825578
 31
0.0
  0
LINE
  5
99189
330
99175
100
AcDbEntity
  8
0
 62
    22
100
AcDbLine
 10
0.2446333508543006
 20
-0.415894330395318
 30
0.0
 11
0.2446333508543006
 21
-0.4280723832374847
 31
0.0
  0
ARC
  5
9918A
330
99175
100
AcDbEntity
  8
0
 62
    22
100
AcDbCircle
 10
0.4162909033282176
 20
-0.4147906495365632
 30
0.0
 40
0.1716611005230106
100
AcDbArc
 50
89.99918393282873
 51
180.3683810171443
  0
LINE
  5
9918B
330
99175
100
AcDbEntity
  8
0
 62
    22
100
AcDbLine
 10
0.2144627520724782
 20
-0.1706330859717156
 30
0.0
 11
0.2078601968792952
 21
-0.427988377825578
 31
0.0
  0
ARC
  5
9918C
330
99175
100
AcDbEntity
  8
0
 62
    22
100
AcDbCircle
 10
0.4120570801534882
 20
-0.4147906495365632
 30
0.0
 40
0.1716611005230106
100
AcDbArc
 50
359.6316189828552
 51
90.00081606717127
  0
LWPOLYLINE
  5
9918D
330
99175
100
AcDbEntity
  8
0
 62
    22
100
AcDbPolyline
 90
        4
 70
     0
 43
0.0
 10
0.224366029185191
 20
-0.1706330859717084
 10
1.115683196411978
 20
-0.1706330859717084
 10
1.122285751605161
 20
-0.427988377825578
 10
1.085972698261358
 20
-0.427988377825578
  0
ENDBLK
  5
9918F
330
99175
100
AcDbEntity
  8
0
 62
     7
100
AcDbBlockEnd
  0
BLOCK
  5
991E2
330
991DA
100
AcDbEntity
  8
0
 62
     7
100
AcDbBlockBegin
  2
LINK FLAG
 70
     2
 10
0.0
 20
0.0
 30
0.0
  3
LINK FLAG
  1

  0
SOLID
  5
991DB
330
991DA
100
AcDbEntity
  8
A1
 62
     1
100
AcDbTrace
 10
0.408488260029003
 20
0.3001362788183428
 30
0.0
 11
0.2890663177079773
 21
0.4163953751078396
 31
0.0
 12
0.0
 22
0.0
 32
0.0
 13
0.0
 23
0.0
 33
0.0
  0
LINE
  5
991DC
330
991DA
100
AcDbEntity
  8
A1
 62
     1
100
AcDbLine
 10
0.3487772888684901
 20
0.3582658269630912
 30
0.0
 11
4.449644902191081
 21
4.57069815453687
 31
0.0
  0
ATTDEF
  5
991DD
330
991DA
100
AcDbEntity
  8
A1
 62
     1
100
AcDbText
 10
10.75853330829194
 20
4.953467229082193
 30
0.0
 40
1.0
  1

100
AcDbAttributeDefinition
  3
ADD LINK NUMBER (WMF)
  2
XXXXXX
 70
     0
  0
MTEXT
  5
991DE
330
991DA
100
AcDbEntity
  8
0
 62
     1
100
AcDbMText
 10
10.79736583926697
 20
4.206192006567398
 30
0.0
 40
1.0
 41
0.0
 71
     1
 72
     1
  1
TannerStone
 73
     1
 44
1.0
1001
ACAD
1000
MTEXTBEGIN
1070
    73
1070
     1
1070
    44
1040
1.0
1070
    74
1070
     0
1000
MTEXTEND
1000
MTEXTBEGIN
1070
    73
1070
     1
1070
    44
1040
1.0
1070
    74
1070
     0
1000
MTEXTEND
  0
MTEXT
  5
991DF
330
991DA
100
AcDbEntity
  8
0
 62
     1
100
AcDbMText
 10
10.87510824661537
 20
2.68903194023958
 30
0.0
 40
0.7386749999999999
 41
0.0
 71
     1
 72
     1
  1
1-800-789-4841
 73
     1
 44
1.0
1001
ACAD
1000
MTEXTBEGIN
1070
    73
1070
     1
1070
    44
1040
1.0
1070
    74
1070
     0
1000
MTEXTEND
1000
MTEXTBEGIN
1070
    73
1070
     1
1070
    44
1040
1.0
1070
    74
1070
     0
1000
MTEXTEND
  0
LINE
  5
991E0
330
991DA
100
AcDbEntity
  8
0
 62
     1
100
AcDbLine
 10
4.449644902191081
 20
4.57069815453687
 30
0.0
 11
19.37910172053511
 21
4.57069815453687
 31
0.0
  0
LINE
  5
991E1
330
991DA
100
AcDbEntity
  8
0
 62
     1
100
AcDbLine
 10
10.27170295921419
 20
1.582920602761227
 30
0.0
 11
10.27170295921419
 21
6.137374365587334
 31
0.0
  0
ENDBLK
  5
991E3
330
991DA
100
AcDbEntity
  8
0
 62
     7
100
AcDbBlockEnd
  0
BLOCK
  5
A5482
330
A5481
100
AcDbEntity
  8
0
100
AcDbBlockBegin
  2
*U9
 70
     1
 10
0.0
 20
0.0
 30
0.0
  3
*U9
  1

  0
ENDBLK
  5
A5483
330
A5481
100
AcDbEntity
  8
0
100
AcDbBlockEnd
  0
BLOCK
  5
A5485
330
A5484
100
AcDbEntity
  8
0
100
AcDbBlockBegin
  2
*U10
 70
     1
 10
0.0
 20
0.0
 30
0.0
  3
*U10
  1

  0
ENDBLK
  5
A5486
330
A5484
100
AcDbEntity
  8
0
100
AcDbBlockEnd
  0
BLOCK
  5
A5488
330
A5487
100
AcDbEntity
  8
0
100
AcDbBlockBegin
  2
*U11
 70
     1
 10
0.0
 20
0.0
 30
0.0
  3
*U11
  1

  0
ENDBLK
  5
A5489
330
A5487
100
AcDbEntity
  8
0
100
AcDbBlockEnd
  0
BLOCK
  5
A548B
330
A548A
100
AcDbEntity
  8
0
100
AcDbBlockBegin
  2
*U12
 70
     1
 10
0.0
 20
0.0
 30
0.0
  3
*U12
  1

  0
ENDBLK
  5
A548C
330
A548A
100
AcDbEntity
  8
0
100
AcDbBlockEnd
  0
BLOCK
  5
A548E
330
A548D
100
AcDbEntity
  8
0
100
AcDbBlockBegin
  2
*U13
 70
     1
 10
0.0
 20
0.0
 30
0.0
  3
*U13
  1

  0
ENDBLK
  5
A548F
330
A548D
100
AcDbEntity
  8
0
100
AcDbBlockEnd
  0
BLOCK
  5
A5491
330
A5490
100
AcDbEntity
  8
0
100
AcDbBlockBegin
  2
*U14
 70
     1
 10
0.0
 20
0.0
 30
0.0
  3
*U14
  1

  0
ENDBLK
  5
A5492
330
A5490
100
AcDbEntity
  8
0
100
AcDbBlockEnd
  0
BLOCK
  5
A5494
330
A5493
100
AcDbEntity
  8
0
100
AcDbBlockBegin
  2
*U15
 70
     1
 10
0.0
 20
0.0
 30
0.0
  3
*U15
  1

  0
ENDBLK
  5
A5495
330
A5493
100
AcDbEntity
  8
0
100
AcDbBlockEnd
  0
BLOCK
  5
A5584
330
A5583
100
AcDbEntity
  8
0
100
AcDbBlockBegin
  2
*U16
 70
     1
 10
0.0
 20
0.0
 30
0.0
  3
*U16
  1

  0
ENDBLK
  5
A5585
330
A5583
100
AcDbEntity
  8
0
100
AcDbBlockEnd
  0
BLOCK
  5
A5587
330
A5586
100
AcDbEntity
  8
0
100
AcDbBlockBegin
  2
*U17
 70
     1
 10
0.0
 20
0.0
 30
0.0
  3
*U17
  1

  0
ENDBLK
  5
A5588
330
A5586
100
AcDbEntity
  8
0
100
AcDbBlockEnd
  0
BLOCK
  5
A558A
330
A5589
100
AcDbEntity
  8
0
100
AcDbBlockBegin
  2
*U18
 70
     1
 10
0.0
 20
0.0
 30
0.0
  3
*U18
  1

  0
ENDBLK
  5
A558B
330
A5589
100
AcDbEntity
  8
0
100
AcDbBlockEnd
  0
BLOCK
  5
A558D
330
A558C
100
AcDbEntity
  8
0
100
AcDbBlockBegin
  2
*U19
 70
     1
 10
0.0
 20
0.0
 30
0.0
  3
*U19
  1

  0
ENDBLK
  5
A558E
330
A558C
100
AcDbEntity
  8
0
100
AcDbBlockEnd
  0
BLOCK
  5
A5590
330
A558F
100
AcDbEntity
  8
0
100
AcDbBlockBegin
  2
*U20
 70
     1
 10
0.0
 20
0.0
 30
0.0
  3
*U20
  1

  0
ENDBLK
  5
A5591
330
A558F
100
AcDbEntity
  8
0
100
AcDbBlockEnd
  0
BLOCK
  5
A5593
330
A5592
100
AcDbEntity
  8
0
100
AcDbBlockBegin
  2
*U21
 70
     1
 10
0.0
 20
0.0
 30
0.0
  3
*U21
  1

  0
ENDBLK
  5
A5594
330
A5592
100
AcDbEntity
  8
0
100
AcDbBlockEnd
  0
BLOCK
  5
A5596
330
A5595
100
AcDbEntity
  8
0
100
AcDbBlockBegin
  2
*U22
 70
     1
 10
0.0
 20
0.0
 30
0.0
  3
*U22
  1

  0
ENDBLK
  5
A5597
330
A5595
100
AcDbEntity
  8
0
100
AcDbBlockEnd
  0
BLOCK
  5
A56D9
330
A56AD
100
AcDbEntity
  8
0
 62
     7
100
AcDbBlockBegin
  2
TSFORMB
 70
     2
 10
0.0
 20
0.0
 30
0.0
  3
TSFORMB
  1

  0
LINE
  5
A56AE
330
A56AD
100
AcDbEntity
  8
0
100
AcDbLine
 10
105.9925392881563
 20
78.84810849484797
 30
0.0
 11
105.9925392881563
 21
70.31072004936999
 31
0.0
  0
LINE
  5
A56AF
330
A56AD
100
AcDbEntity
  8
0
100
AcDbLine
 10
105.9925392881563
 20
0.0
 30
0.0
 11
105.9925392881563
 21
78.84810849484797
 31
0.0
  0
LINE
  5
A56B0
330
A56AD
100
AcDbEntity
  8
0
100
AcDbLine
 10
0.0
 20
0.0
 30
0.0
 11
105.9925392881563
 21
0.0
 31
0.0
  0
LINE
  5
A56B1
330
A56AD
100
AcDbEntity
  8
0
100
AcDbLine
 10
0.0
 20
78.84810849484797
 30
0.0
 11
0.0
 21
0.0
 31
0.0
  0
LINE
  5
A56B2
330
A56AD
100
AcDbEntity
  8
0
100
AcDbLine
 10
56.87404547169354
 20
0.0
 30
0.0
 11
56.87404547169354
 21
12.46470592426129
 31
0.0
  0
TEXT
  5
A56B3
330
A56AD
100
AcDbEntity
  8
0
 62
     7
100
AcDbText
 10
39.28098221173831
 20
10.97304845086642
 30
0.0
 40
0.8085000000000002
  1
LEGEND
100
AcDbText
  0
TEXT
  5
A56B4
330
A56AD
100
AcDbEntity
  8
0
 62
     7
100
AcDbText
 10
38.18320344075362
 20
3.401999220949562
 30
0.0
 40
0.8400000000000002
  1
CATEGORY
 72
     1
 11
41.47652732452399
 21
3.401999220949562
 31
0.0
100
AcDbText
  0
LINE
  5
A56B5
330
A56AD
100
AcDbEntity
  8
0
 62
     7
100
AcDbLine
 10
26.78791925899645
 20
8.549200111339303
 30
0.0
 11
29.32320076794366
 21
8.549200111339303
 31
0.0
  0
TEXT
  5
A56B6
330
A56AD
100
AcDbEntity
  8
0
 62
     7
100
AcDbText
 10
30.56536100380196
 20
8.165961840384341
 30
0.0
 40
1.05
  1
- Unfinished Side
100
AcDbText
  0
LINE
  5
A56B7
330
A56AD
100
AcDbEntity
  8
0
100
AcDbLine
 10
25.9704997615305
 20
0.0
 30
0.0
 11
25.9704997615305
 21
12.46470592426129
 31
0.0
  0
ATTDEF
  5
A56B8
330
A56AD
100
AcDbEntity
  8
A1
 62
     1
100
AcDbText
 10
41.26016333205519
 20
0.916484150045278
 30
0.0
 40
1.025589599999999
  1

 72
     1
 11
41.26016333205519
 21
0.916484150045278
 31
0.0
100
AcDbAttributeDefinition
  3
ADD CATEGORY NAMES
  2
XXXXXX
 70
     0
  0
ATTDEF
  5
A56B9
330
A56AD
100
AcDbEntity
  8
A1
 62
     1
100
AcDbText
 10
21.55372231158242
 20
1.875018704105684
 30
0.0
 40
0.8400000000000002
  1

 72
     2
 11
21.55372231158242
 21
1.875018704105684
 31
0.0
100
AcDbAttributeDefinition
  3
ADD BARCODE TEXT
  2
XXXXXX
 70
     0
  0
LINE
  5
A56BA
330
A56AD
100
AcDbEntity
  8
0
 62
     7
100
AcDbLine
 10
25.9704997615305
 20
12.46470592426129
 30
0.0
 11
0.0
 21
12.46470592426129
 31
0.0
  0
ATTDEF
  5
A56BB
330
A56AD
100
AcDbEntity
  8
A1
 62
     1
100
AcDbText
 10
12.85191920549937
 20
3.11796280247222
 30
0.0
 40
6.132000000000001
  1

  7
barcoder
 72
     1
 11
12.85191920549937
 21
3.11796280247222
 31
0.0
100
AcDbAttributeDefinition
  3
ADD BARCODE NUMBER
  2
BARCODE
 70
     0
  0
LINE
  5
A56BC
330
A56AD
100
AcDbEntity
  8
0
 62
     7
100
AcDbLine
 10
56.87404547169354
 20
10.31505184057846
 30
0.0
 11
25.9704997615305
 21
10.31505184057846
 31
0.0
  0
LINE
  5
A56BD
330
A56AD
100
AcDbEntity
  8
0
 62
     7
100
AcDbLine
 10
56.87404547169354
 20
2.864660228904256
 30
0.0
 11
25.9704997615305
 21
2.864660228904256
 31
0.0
  0
LINE
  5
A56BE
330
A56AD
100
AcDbEntity
  8
0
 62
     7
100
AcDbLine
 10
56.87404547169354
 20
4.753491724833224
 30
0.0
 11
25.9704997615305
 21
4.753491724833224
 31
0.0
  0
LINE
  5
A56BF
330
A56AD
100
AcDbEntity
  8
0
100
AcDbLine
 10
92.45878286761296
 20
70.31072004936999
 30
0.0
 11
92.45878286761296
 21
78.84810849484797
 31
0.0
  0
ATTDEF
  5
A56C0
330
A56AD
100
AcDbEntity
  8
A1
 62
     1
100
AcDbText
 10
99.20289126219257
 20
73.40001633244828
 30
0.0
 40
2.079
  1

 72
     1
 11
99.20289126219257
 21
73.40001633244828
 31
0.0
100
AcDbAttributeDefinition
  3
ADD PAGE NUMBER
  2
TS00XX
 70
     0
  0
LINE
  5
A56C1
330
A56AD
100
AcDbEntity
  8
0
100
AcDbLine
 10
105.9925392881563
 20
70.31072004936999
 30
0.0
 11
92.45878286761296
 21
70.31072004936999
 31
0.0
  0
LINE
  5
A56C2
330
A56AD
100
AcDbEntity
  8
0
100
AcDbLine
 10
105.9925392881563
 20
78.84810849484797
 30
0.0
 11
0.0
 21
78.84810849484797
 31
0.0
  0
TEXT
  5
A56C3
330
A56AD
100
AcDbEntity
  8
0
 62
     7
100
AcDbText
 10
101.0916707105178
 20
4.784832420392319
 30
0.0
 40
0.8459472656250001
  1
1:1
100
AcDbText
  0
ARC
  5
A56C4
330
A56AD
100
AcDbEntity
  8
0
 62
     7
100
AcDbCircle
 10
92.02173719823599
 20
7.854684255185304
 30
0.0
 40
0.5838368232859321
100
AcDbArc
 50
297.5553548372056
 51
304.8408806463489
  0
LINE
  5
A56C5
330
A56AD
100
AcDbEntity
  8
0
 62
     7
100
AcDbLine
 10
96.44018670993672
 20
6.648784575743377
 30
0.0
 11
95.62662822118033
 21
6.648784575743377
 31
0.0
  0
ARC
  5
A56C6
330
A56AD
100
AcDbEntity
  8
0
 62
     7
100
AcDbCircle
 10
92.02173719823599
 20
7.854684255185304
 30
0.0
 40
0.5838368232859408
100
AcDbArc
 50
304.8408806463489
 51
297.5553548372056
  0
TEXT
  5
A56C7
330
A56AD
100
AcDbEntity
  8
0
 62
     7
100
AcDbText
 10
91.5997577365548
 20
7.487990433787842
 30
0.0
 40
0.7875000000000002
  1
R
  7
ROMANC
 72
     1
 11
92.02565639984959
 21
7.487990433787842
 31
0.0
100
AcDbText
  0
LINE
  5
A56C8
330
A56AD
100
AcDbEntity
  8
0
100
AcDbLine
 10
96.44018670993649
 20
0.0
 30
0.0
 11
96.44018670993695
 21
12.46470592426129
 31
0.0
  0
TEXT
  5
A56C9
330
A56AD
100
AcDbEntity
  8
0
100
AcDbText
 10
57.83820509574335
 20
4.931128255646488
 30
0.0
 40
1.111564440985976
  1
ARCHITECTURAL CONCRETE CO., INC.
 41
1.25
 72
     4
 11
76.69038922088157
 21
5.404193065577089
 31
0.0
100
AcDbText
  0
TEXT
  5
A56CA
330
A56AD
100
AcDbEntity
  8
0
100
AcDbText
 10
64.01730751652124
 20
0.6790765005606179
 30
0.0
 40
0.6552430415498756
  1
PHONE: 1-800-789-4841  FAX : 770-463-2635
 41
1.1875
 72
     4
 11
76.73327742292065
 21
1.005769257279496
 31
0.0
100
AcDbText
  0
TEXT
  5
A56CB
330
A56AD
100
AcDbEntity
  8
0
 62
     7
100
AcDbText
 10
61.23651428794109
 20
7.899354841769707
 30
0.0
 40
3.572100000000002
  1
TannerStone
  7
ROMANC
 72
     1
 11
75.92109734429948
 21
7.899354841769707
 31
0.0
100
AcDbText
  0
TEXT
  5
A56CC
330
A56AD
100
AcDbEntity
  8
0
100
AcDbText
 10
61.57240842020546
 20
1.964543484004154
 30
0.0
 40
0.6552430415498756
  1
http://TannerStone.com ~ Email:Sales@TannerStone.com 
 41
1.1875
 72
     4
 11
77.08342119362362
 21
2.259193880788984
 31
0.0
100
AcDbText
  0
TEXT
  5
A56CD
330
A56AD
100
AcDbEntity
  8
0
100
AcDbText
 10
59.98363509556096
 20
3.260563711198551
 30
0.0
 40
0.74899296216962
  1
101 JOHNSTON CIRCLE, PALMETTO, GEORGIA 30268
 41
1.1875
 72
     4
 11
76.85158629384147
 21
3.579323650094977
 31
0.0
100
AcDbText
  0
LINE
  5
A56CE
330
A56AD
100
AcDbEntity
  8
0
100
AcDbLine
 10
56.87404547169354
 20
6.648784575743377
 30
0.0
 11
105.9925392881563
 21
6.648784575743377
 31
0.0
  0
LINE
  5
A56CF
330
A56AD
100
AcDbEntity
  8
0
 62
     7
100
AcDbLine
 10
96.44018670993682
 20
9.556745250002336
 30
0.0
 11
105.9925392881563
 21
9.556745250002336
 31
0.0
  0
TEXT
  5
A56D0
330
A56AD
100
AcDbEntity
  8
0
 62
     7
100
AcDbText
 10
96.66995560986686
 20
8.813345575893606
 30
0.0
 40
0.5414062500000001
  1
LBS/LINEAR FEET:
100
AcDbText
  0
LINE
  5
A56D1
330
A56AD
100
AcDbEntity
  8
LINEWORK
 62
     7
100
AcDbLine
 10
96.40991550469017
 20
3.757904136908962
 30
0.0
 11
105.9622680829099
 21
3.757904136909189
 31
0.0
  0
TEXT
  5
A56D2
330
A56AD
100
AcDbEntity
  8
0
 62
     7
100
AcDbText
 10
98.85330873086445
 20
1.524519923848686
 30
0.0
 40
0.8459472656250001
  1
1-1-2000
100
AcDbText
  0
TEXT
  5
A56D3
330
A56AD
100
AcDbEntity
  8
0
 62
     7
100
AcDbText
 10
96.68542089784603
 20
5.927566558083469
 30
0.0
 40
0.5414062500000001
  1
SCALE:
100
AcDbText
  0
TEXT
  5
A56D4
330
A56AD
100
AcDbEntity
  8
0
 62
     7
100
AcDbText
 10
96.74158717246577
 20
2.97910930546476
 30
0.0
 40
0.5414062500000001
  1
DATE:
100
AcDbText
  0
TEXT
  5
A56D5
330
A56AD
100
AcDbEntity
  8
0
 62
     7
100
AcDbText
 10
96.70022651293084
 20
11.66518473255649
 30
0.0
 40
0.5414062500000001
  1
PROFILE AREA:
100
AcDbText
  0
ATTDEF
  5
A56D6
330
A56AD
100
AcDbEntity
  8
A1
 62
     1
100
AcDbText
 10
101.1759733039033
 20
10.07900441527107
 30
0.0
 40
0.9450000000000002
  1

 72
     1
 11
101.1759733039033
 21
10.07900441527107
 31
0.0
100
AcDbAttributeDefinition
  3
ADD PROFILE AREA
  2
XXXXX
 70
     0
  0
ATTDEF
  5
A56D7
330
A56AD
100
AcDbEntity
  8
A1
 62
     1
100
AcDbText
 10
101.1418062311347
 20
7.21953861551384
 30
0.0
 40
0.9450000000000002
  1

 72
     1
 11
101.1418062311347
 21
7.21953861551384
 31
0.0
100
AcDbAttributeDefinition
  3
ADD #/LF
  2
XXXXX
 70
     0
  0
LINE
  5
A56D8
330
A56AD
100
AcDbEntity
  8
0
100
AcDbLine
 10
25.9704997615305
 20
12.46470592426129
 30
0.0
 11
105.9925392881563
 21
12.46470592426129
 31
0.0
  0
ENDBLK
  5
A56DA
330
A56AD
100
AcDbEntity
  8
0
 62
     7
100
AcDbBlockEnd
  0
BLOCK
  5
A56F9
330
A56F8
100
AcDbEntity
  8
0
100
AcDbBlockBegin
  2
*U24
 70
     1
 10
0.0
 20
0.0
 30
0.0
  3
*U24
  1

  0
ENDBLK
  5
A56FA
330
A56F8
100
AcDbEntity
  8
0
100
AcDbBlockEnd
  0
BLOCK
  5
A56FC
330
A56FB
100
AcDbEntity
  8
0
100
AcDbBlockBegin
  2
*U25
 70
     1
 10
0.0
 20
0.0
 30
0.0
  3
*U25
  1

  0
ENDBLK
  5
A56FD
330
A56FB
100
AcDbEntity
  8
0
100
AcDbBlockEnd
  0
BLOCK
  5
A56FF
330
A56FE
100
AcDbEntity
  8
0
100
AcDbBlockBegin
  2
*U26
 70
     1
 10
0.0
 20
0.0
 30
0.0
  3
*U26
  1

  0
ENDBLK
  5
A5700
330
A56FE
100
AcDbEntity
  8
0
100
AcDbBlockEnd
  0
BLOCK
  5
A5702
330
A5701
100
AcDbEntity
  8
0
100
AcDbBlockBegin
  2
*U27
 70
     1
 10
0.0
 20
0.0
 30
0.0
  3
*U27
  1

  0
ENDBLK
  5
A5703
330
A5701
100
AcDbEntity
  8
0
100
AcDbBlockEnd
  0
BLOCK
  5
A5705
330
A5704
100
AcDbEntity
  8
0
100
AcDbBlockBegin
  2
*U28
 70
     1
 10
0.0
 20
0.0
 30
0.0
  3
*U28
  1

  0
ENDBLK
  5
A5706
330
A5704
100
AcDbEntity
  8
0
100
AcDbBlockEnd
  0
BLOCK
  5
A5708
330
A5707
100
AcDbEntity
  8
0
100
AcDbBlockBegin
  2
*U29
 70
     1
 10
0.0
 20
0.0
 30
0.0
  3
*U29
  1

  0
ENDBLK
  5
A5709
330
A5707
100
AcDbEntity
  8
0
100
AcDbBlockEnd
  0
BLOCK
  5
A570B
330
A570A
100
AcDbEntity
  8
0
100
AcDbBlockBegin
  2
*U30
 70
     1
 10
0.0
 20
0.0
 30
0.0
  3
*U30
  1

  0
ENDBLK
  5
A570C
330
A570A
100
AcDbEntity
  8
0
100
AcDbBlockEnd
  0
BLOCK
  5
A570E
330
A570D
100
AcDbEntity
  8
0
100
AcDbBlockBegin
  2
*U31
 70
     1
 10
0.0
 20
0.0
 30
0.0
  3
*U31
  1

  0
ENDBLK
  5
A570F
330
A570D
100
AcDbEntity
  8
0
100
AcDbBlockEnd
  0
BLOCK
  5
A5711
330
A5710
100
AcDbEntity
  8
0
100
AcDbBlockBegin
  2
*U32
 70
     1
 10
0.0
 20
0.0
 30
0.0
  3
*U32
  1

  0
ENDBLK
  5
A5712
330
A5710
100
AcDbEntity
  8
0
100
AcDbBlockEnd
  0
BLOCK
  5
A5714
330
A5713
100
AcDbEntity
  8
0
100
AcDbBlockBegin
  2
*U33
 70
     1
 10
0.0
 20
0.0
 30
0.0
  3
*U33
  1

  0
ENDBLK
  5
A5715
330
A5713
100
AcDbEntity
  8
0
100
AcDbBlockEnd
  0
BLOCK
  5
A5717
330
A5716
100
AcDbEntity
  8
0
100
AcDbBlockBegin
  2
*U34
 70
     1
 10
0.0
 20
0.0
 30
0.0
  3
*U34
  1

  0
ENDBLK
  5
A5718
330
A5716
100
AcDbEntity
  8
0
100
AcDbBlockEnd
  0
BLOCK
  5
A571A
330
A5719
100
AcDbEntity
  8
0
100
AcDbBlockBegin
  2
*U35
 70
     1
 10
0.0
 20
0.0
 30
0.0
  3
*U35
  1

  0
ENDBLK
  5
A571B
330
A5719
100
AcDbEntity
  8
0
100
AcDbBlockEnd
  0
BLOCK
  5
A571D
330
A571C
100
AcDbEntity
  8
0
100
AcDbBlockBegin
  2
*U36
 70
     1
 10
0.0
 20
0.0
 30
0.0
  3
*U36
  1

  0
ENDBLK
  5
A571E
330
A571C
100
AcDbEntity
  8
0
100
AcDbBlockEnd
  0
BLOCK
  5
A5720
330
A571F
100
AcDbEntity
  8
0
100
AcDbBlockBegin
  2
*U37
 70
     1
 10
0.0
 20
0.0
 30
0.0
  3
*U37
  1

  0
ENDBLK
  5
A5721
330
A571F
100
AcDbEntity
  8
0
100
AcDbBlockEnd
  0
BLOCK
  5
A5723
330
A5722
100
AcDbEntity
  8
0
100
AcDbBlockBegin
  2
*U38
 70
     1
 10
0.0
 20
0.0
 30
0.0
  3
*U38
  1

  0
ENDBLK
  5
A5724
330
A5722
100
AcDbEntity
  8
0
100
AcDbBlockEnd
  0
BLOCK
  5
A5726
330
A5725
100
AcDbEntity
  8
0
100
AcDbBlockBegin
  2
*U39
 70
     1
 10
0.0
 20
0.0
 30
0.0
  3
*U39
  1

  0
ENDBLK
  5
A5727
330
A5725
100
AcDbEntity
  8
0
100
AcDbBlockEnd
  0
BLOCK
  5
A5729
330
A5728
100
AcDbEntity
  8
0
100
AcDbBlockBegin
  2
*U40
 70
     1
 10
0.0
 20
0.0
 30
0.0
  3
*U40
  1

  0
ENDBLK
  5
A572A
330
A5728
100
AcDbEntity
  8
0
100
AcDbBlockEnd
  0
BLOCK
  5
A572C
330
A572B
100
AcDbEntity
  8
0
100
AcDbBlockBegin
  2
*U41
 70
     1
 10
0.0
 20
0.0
 30
0.0
  3
*U41
  1

  0
ENDBLK
  5
A572D
330
A572B
100
AcDbEntity
  8
0
100
AcDbBlockEnd
  0
BLOCK
  5
A572F
330
A572E
100
AcDbEntity
  8
0
100
AcDbBlockBegin
  2
*U42
 70
     1
 10
0.0
 20
0.0
 30
0.0
  3
*U42
  1

  0
ENDBLK
  5
A5730
330
A572E
100
AcDbEntity
  8
0
100
AcDbBlockEnd
  0
BLOCK
  5
A5732
330
A5731
100
AcDbEntity
  8
0
100
AcDbBlockBegin
  2
*U43
 70
     1
 10
0.0
 20
0.0
 30
0.0
  3
*U43
  1

  0
ENDBLK
  5
A5733
330
A5731
100
AcDbEntity
  8
0
100
AcDbBlockEnd
  0
BLOCK
  5
A5735
330
A5734
100
AcDbEntity
  8
0
100
AcDbBlockBegin
  2
*U44
 70
     1
 10
0.0
 20
0.0
 30
0.0
  3
*U44
  1

  0
ENDBLK
  5
A5736
330
A5734
100
AcDbEntity
  8
0
100
AcDbBlockEnd
  0
BLOCK
  5
A6607
330
A65FC
100
AcDbEntity
  8
0
 62
     7
100
AcDbBlockBegin
  2
*D45
 70
     1
 10
0.0
 20
0.0
 30
0.0
  3
*D45
  1

  0
LINE
  5
A6876
330
A65FC
100
AcDbEntity
  8
A1
 62
     0
100
AcDbLine
 10
869.4482647117492
 20
655.6800408662263
 30
0.0
 11
869.4482647117492
 21
649.2758390358601
 31
0.0
  0
LINE
  5
A6877
330
A65FC
100
AcDbEntity
  8
A1
 62
     0
100
AcDbLine
 10
913.1357647117491
 20
655.6800408662263
 30
0.0
 11
913.1357647117491
 21
649.2758390358601
 31
0.0
  0
LINE
  5
A6878
330
A65FC
100
AcDbEntity
  8
A1
 62
     0
100
AcDbLine
 10
870.5107647117491
 20
649.8070890358601
 30
0.0
 11
882.0640336126697
 21
649.8070890358601
 31
0.0
  0
LINE
  5
A6879
330
A65FC
100
AcDbEntity
  8
A1
 62
     0
100
AcDbLine
 10
912.0732647117492
 20
649.8070890358601
 30
0.0
 11
899.2327083114648
 21
649.8070890358601
 31
0.0
  0
MTEXT
  5
A687A
330
A65FC
100
AcDbEntity
  8
A1
 62
     0
100
AcDbMText
 10
890.6483709620673
 20
649.8070890358601
 30
0.0
 40
2.125
 41
0.0
 71
     5
 72
     1
  1
\A1;43 11/16"
 73
     1
 44
1.0
  0
SOLID
  5
A687B
330
A65FC
100
AcDbEntity
  8
A1
 62
     0
100
AcDbTrace
 10
870.5107647117491
 20
649.9841723691935
 30
0.0
 11
870.5107647117491
 21
649.6300057025267
 31
0.0
 12
869.4482647117492
 22
649.8070890358601
 32
0.0
 13
869.4482647117492
 23
649.8070890358601
 33
0.0
  0
SOLID
  5
A687C
330
A65FC
100
AcDbEntity
  8
A1
 62
     0
100
AcDbTrace
 10
912.0732647117492
 20
649.9841723691935
 30
0.0
 11
912.0732647117492
 21
649.6300057025267
 31
0.0
 12
913.1357647117491
 22
649.8070890358601
 32
0.0
 13
913.1357647117491
 23
649.8070890358601
 33
0.0
  0
POINT
  5
A687D
330
A65FC
100
AcDbEntity
  8
DEFPOINTS
 62
     0
100
AcDbPoint
 10
869.4482647117492
 20
657.8050408662264
 30
0.0
  0
POINT
  5
A687E
330
A65FC
100
AcDbEntity
  8
DEFPOINTS
 62
     0
100
AcDbPoint
 10
913.1357647117491
 20
657.8050408662264
 30
0.0
  0
POINT
  5
A687F
330
A65FC
100
AcDbEntity
  8
DEFPOINTS
 62
     0
100
AcDbPoint
 10
913.1357647117491
 20
649.8070890358601
 30
0.0
  0
ENDBLK
  5
A6608
330
A65FC
100
AcDbEntity
  8
0
 62
     7
100
AcDbBlockEnd
  0
BLOCK
  5
A6615
330
A660A
100
AcDbEntity
  8
0
 62
     7
100
AcDbBlockBegin
  2
*D46
 70
     1
 10
0.0
 20
0.0
 30
0.0
  3
*D46
  1

  0
LINE
  5
A6880
330
A660A
100
AcDbEntity
  8
A1
 62
     0
100
AcDbLine
 10
867.3232647117492
 20
657.8050408662264
 30
0.0
 11
856.1868800187916
 21
657.8050408662264
 31
0.0
  0
LINE
  5
A6881
330
A660A
100
AcDbEntity
  8
A1
 62
     0
100
AcDbLine
 10
867.3232647117492
 20
689.8050408662263
 30
0.0
 11
856.1868800187916
 21
689.8050408662263
 31
0.0
  0
LINE
  5
A6882
330
A660A
100
AcDbEntity
  8
A1
 62
     0
100
AcDbLine
 10
856.7181300187916
 20
658.8675408662263
 30
0.0
 11
856.7181300187916
 21
671.4769284281532
 31
0.0
  0
LINE
  5
A6883
330
A660A
100
AcDbEntity
  8
A1
 62
     0
100
AcDbLine
 10
856.7181300187916
 20
688.7425408662263
 30
0.0
 11
856.7181300187916
 21
675.8067477052618
 31
0.0
  0
MTEXT
  5
A6884
330
A660A
100
AcDbEntity
  8
A1
 62
     0
100
AcDbMText
 10
856.7181300187916
 20
673.6418380667077
 30
0.0
 40
2.125
 41
0.0
 71
     5
 72
     1
  1
\A1;32"
 73
     1
 44
1.0
  0
SOLID
  5
A6885
330
A660A
100
AcDbEntity
  8
A1
 62
     0
100
AcDbTrace
 10
856.5410466854583
 20
658.8675408662263
 30
0.0
 11
856.895213352125
 21
658.8675408662263
 31
0.0
 12
856.7181300187916
 22
657.8050408662264
 32
0.0
 13
856.7181300187916
 23
657.8050408662264
 33
0.0
  0
SOLID
  5
A6886
330
A660A
100
AcDbEntity
  8
A1
 62
     0
100
AcDbTrace
 10
856.5410466854583
 20
688.7425408662263
 30
0.0
 11
856.895213352125
 21
688.7425408662263
 31
0.0
 12
856.7181300187916
 22
689.8050408662263
 32
0.0
 13
856.7181300187916
 23
689.8050408662263
 33
0.0
  0
POINT
  5
A6887
330
A660A
100
AcDbEntity
  8
DEFPOINTS
 62
     0
100
AcDbPoint
 10
869.4482647117492
 20
657.8050408662264
 30
0.0
  0
POINT
  5
A6888
330
A660A
100
AcDbEntity
  8
DEFPOINTS
 62
     0
100
AcDbPoint
 10
869.4482647117492
 20
689.8050408662263
 30
0.0
  0
POINT
  5
A6889
330
A660A
100
AcDbEntity
  8
DEFPOINTS
 62
     0
100
AcDbPoint
 10
856.7181300187916
 20
689.8050408662263
 30
0.0
  0
ENDBLK
  5
A6616
330
A660A
100
AcDbEntity
  8
0
 62
     7
100
AcDbBlockEnd
  0
BLOCK
  5
A6625
330
A6618
100
AcDbEntity
  8
0
 62
     7
100
AcDbBlockBegin
  2
*D47
 70
     1
 10
0.0
 20
0.0
 30
0.0
  3
*D47
  1

  0
LINE
  5
A688A
330
A6618
100
AcDbEntity
  8
A1
 62
     0
100
AcDbLine
 10
875.6982647117492
 20
691.9300408662263
 30
0.0
 11
875.6982647117492
 21
695.8306240822451
 31
0.0
  0
LINE
  5
A688B
330
A6618
100
AcDbEntity
  8
A1
 62
     0
100
AcDbLine
 10
869.4482647117492
 20
691.9300408662263
 30
0.0
 11
869.4482647117492
 21
695.8306240822451
 31
0.0
  0
LINE
  5
A688C
330
A6618
100
AcDbEntity
  8
A1
 62
     0
100
AcDbLine
 10
874.6357647117491
 20
695.299374082245
 30
0.0
 11
870.5107647117491
 21
695.299374082245
 31
0.0
  0
LINE
  5
A688D
330
A6618
100
AcDbEntity
  8
A1
 62
     0
100
AcDbLine
 10
862.9693971154528
 20
695.299374082245
 30
0.0
 11
869.4482647117492
 21
695.299374082245
 31
0.0
  0
MTEXT
  5
A688E
330
A6618
100
AcDbEntity
  8
A1
 62
     0
100
AcDbMText
 10
857.0620175973806
 20
695.299374082245
 30
0.0
 40
2.125
 41
0.0
 71
     5
 72
     1
  1
\A1;6 1/4"
 73
     1
 44
1.0
  0
SOLID
  5
A688F
330
A6618
100
AcDbEntity
  8
A1
 62
     0
100
AcDbTrace
 10
874.6357647117491
 20
695.4764574155785
 30
0.0
 11
874.6357647117491
 21
695.1222907489117
 31
0.0
 12
875.6982647117492
 22
695.299374082245
 32
0.0
 13
875.6982647117492
 23
695.299374082245
 33
0.0
  0
SOLID
  5
A6890
330
A6618
100
AcDbEntity
  8
A1
 62
     0
100
AcDbTrace
 10
870.5107647117491
 20
695.4764574155785
 30
0.0
 11
870.5107647117491
 21
695.1222907489117
 31
0.0
 12
869.4482647117492
 22
695.299374082245
 32
0.0
 13
869.4482647117492
 23
695.299374082245
 33
0.0
  0
POINT
  5
A6891
330
A6618
100
AcDbEntity
  8
DEFPOINTS
 62
     0
100
AcDbPoint
 10
875.6982647117492
 20
689.8050408662263
 30
0.0
  0
POINT
  5
A6892
330
A6618
100
AcDbEntity
  8
DEFPOINTS
 62
     0
100
AcDbPoint
 10
869.4482647117492
 20
689.8050408662263
 30
0.0
  0
POINT
  5
A6893
330
A6618
100
AcDbEntity
  8
DEFPOINTS
 62
     0
100
AcDbPoint
 10
869.4482647117492
 20
695.299374082245
 30
0.0
  0
ENDBLK
  5
A6626
330
A6618
100
AcDbEntity
  8
0
 62
     7
100
AcDbBlockEnd
  0
BLOCK
  5
A6645
330
A663E
100
AcDbEntity
  8
0
 62
     7
100
AcDbBlockBegin
  2
*D48
 70
     1
 10
0.0
 20
0.0
 30
0.0
  3
*D48
  1

  0
LINE
  5
A6894
330
A663E
100
AcDbEntity
  8
A1
 62
     0
100
AcDbLine
 10
909.1052454929346
 20
672.2667561623008
 30
0.0
 11
908.0427454929347
 21
672.2667561623008
 31
0.0
  0
LINE
  5
A6895
330
A663E
100
AcDbEntity
  8
A1
 62
     0
100
AcDbLine
 10
908.0427454929347
 20
672.2667561623008
 30
0.0
 11
902.4550595442667
 21
667.1564085929742
 31
0.0
  0
MTEXT
  5
A6896
330
A663E
100
AcDbEntity
  8
A1
 62
     0
100
AcDbMText
 10
916.9358177820914
 20
672.2667561623011
 30
0.0
 40
2.125
 41
0.0
 71
     5
 72
     1
  1
\A1;R36 3/4"
 73
     1
 44
1.0
  0
SOLID
  5
A6897
330
A663E
100
AcDbEntity
  8
A1
 62
     0
100
AcDbTrace
 10
902.3355487076486
 20
667.2870824881303
 30
0.0
 11
902.5745703808849
 21
667.0257346978181
 31
0.0
 12
901.6710161733303
 22
666.4393435732648
 32
0.0
 13
901.6710161733303
 23
666.4393435732648
 33
0.0
  0
POINT
  5
A6898
330
A663E
100
AcDbEntity
  8
DEFPOINTS
 62
     0
100
AcDbPoint
 10
901.6710161733303
 20
666.4393435732648
 30
0.0
  0
POINT
  5
A6899
330
A663E
100
AcDbEntity
  8
DEFPOINTS
 62
     0
100
AcDbPoint
 10
928.7896927680698
 20
691.2413571961532
 30
0.0
  0
ENDBLK
  5
A6646
330
A663E
100
AcDbEntity
  8
0
 62
     7
100
AcDbBlockEnd
  0
BLOCK
  5
A6655
330
A6648
100
AcDbEntity
  8
0
 62
     7
100
AcDbBlockBegin
  2
*D49
 70
     1
 10
0.0
 20
0.0
 30
0.0
  3
*D49
  1

  0
LINE
  5
A689A
330
A6648
100
AcDbEntity
  8
A1
 62
     0
100
AcDbLine
 10
915.2607647117491
 20
657.8050408662264
 30
0.0
 11
918.9198859232357
 21
657.8050408662264
 31
0.0
  0
LINE
  5
A689B
330
A6648
100
AcDbEntity
  8
A1
 62
     0
100
AcDbLine
 10
915.2607647117489
 20
657.9920408662265
 30
0.0
 11
918.9198859232357
 21
657.9920408662265
 31
0.0
  0
LINE
  5
A689C
330
A6648
100
AcDbEntity
  8
A1
 62
     0
100
AcDbLine
 10
918.3886359232356
 20
656.7425408662264
 30
0.0
 11
918.3886359232356
 21
655.6800408662263
 31
0.0
  0
LINE
  5
A689D
330
A6648
100
AcDbEntity
  8
A1
 62
     0
100
AcDbLine
 10
918.3886359232356
 20
659.0545408662265
 30
0.0
 11
918.3886359232356
 21
660.1170408662264
 31
0.0
  0
LINE
  5
A689E
330
A6648
100
AcDbEntity
  8
A1
 62
     0
100
AcDbLine
 10
919.4511359232357
 20
662.7557748265553
 30
0.0
 11
918.3886359232356
 21
662.7557748265553
 31
0.0
  0
LINE
  5
A689F
330
A6648
100
AcDbEntity
  8
A1
 62
     0
100
AcDbLine
 10
918.3886359232356
 20
662.7557748265553
 30
0.0
 11
918.3886359232356
 21
660.1170408662264
 31
0.0
  0
MTEXT
  5
A68A0
330
A6648
100
AcDbEntity
  8
A1
 62
     0
100
AcDbMText
 10
924.8660455617898
 20
662.7557748265555
 30
0.0
 40
2.125
 41
0.0
 71
     5
 72
     1
  1
\A1;3/16"
 73
     1
 44
1.0
  0
SOLID
  5
A68A1
330
A6648
100
AcDbEntity
  8
A1
 62
     0
100
AcDbTrace
 10
918.2115525899023
 20
656.7425408662264
 30
0.0
 11
918.565719256569
 21
656.7425408662264
 31
0.0
 12
918.3886359232356
 22
657.8050408662264
 32
0.0
 13
918.3886359232356
 23
657.8050408662264
 33
0.0
  0
SOLID
  5
A68A2
330
A6648
100
AcDbEntity
  8
A1
 62
     0
100
AcDbTrace
 10
918.2115525899023
 20
659.0545408662265
 30
0.0
 11
918.565719256569
 21
659.0545408662265
 31
0.0
 12
918.3886359232356
 22
657.9920408662265
 32
0.0
 13
918.3886359232356
 23
657.9920408662265
 33
0.0
  0
POINT
  5
A68A3
330
A6648
100
AcDbEntity
  8
DEFPOINTS
 62
     0
100
AcDbPoint
 10
913.1357647117491
 20
657.8050408662264
 30
0.0
  0
POINT
  5
A68A4
330
A6648
100
AcDbEntity
  8
DEFPOINTS
 62
     0
100
AcDbPoint
 10
913.1357647117491
 20
657.9920408662265
 30
0.0
  0
POINT
  5
A68A5
330
A6648
100
AcDbEntity
  8
DEFPOINTS
 62
     0
100
AcDbPoint
 10
918.3886359232356
 20
657.9920408662265
 30
0.0
  0
ENDBLK
  5
A6656
330
A6648
100
AcDbEntity
  8
0
 62
     7
100
AcDbBlockEnd
  0
BLOCK
  5
A6663
330
A6658
100
AcDbEntity
  8
0
 62
     7
100
AcDbBlockBegin
  2
*D50
 70
     1
 10
0.0
 20
0.0
 30
0.0
  3
*D50
  1

  0
LINE
  5
A68A6
330
A6658
100
AcDbEntity
  8
A1
 62
     0
100
AcDbLine
 10
915.2607647117491
 20
657.8050408662264
 30
0.0
 11
937.1459275884484
 21
657.8050408662264
 31
0.0
  0
LINE
  5
A68A7
330
A6658
100
AcDbEntity
  8
A1
 62
     0
100
AcDbLine
 10
888.103055703797
 20
687.6064844479542
 30
0.0
 11
937.1459275884484
 21
687.6064844479542
 31
0.0
  0
LINE
  5
A68A8
330
A6658
100
AcDbEntity
  8
A1
 62
     0
100
AcDbLine
 10
936.6146775884484
 20
658.8675408662263
 30
0.0
 11
936.6146775884484
 21
670.6190744256835
 31
0.0
  0
LINE
  5
A68A9
330
A6658
100
AcDbEntity
  8
A1
 62
     0
100
AcDbLine
 10
936.6146775884484
 20
686.5439844479542
 30
0.0
 11
936.6146775884484
 21
675.0603394859244
 31
0.0
  0
MTEXT
  5
A68AA
330
A6658
100
AcDbEntity
  8
A1
 62
     0
100
AcDbMText
 10
936.6146775884484
 20
672.8397069558041
 30
0.0
 40
2.125
 41
0.0
 71
     5
 72
     1
  1
\A1;29 13/16"
 73
     1
 44
1.0
  0
SOLID
  5
A68AB
330
A6658
100
AcDbEntity
  8
A1
 62
     0
100
AcDbTrace
 10
936.437594255115
 20
658.8675408662263
 30
0.0
 11
936.7917609217817
 21
658.8675408662263
 31
0.0
 12
936.6146775884484
 22
657.8050408662264
 32
0.0
 13
936.6146775884484
 23
657.8050408662264
 33
0.0
  0
SOLID
  5
A68AC
330
A6658
100
AcDbEntity
  8
A1
 62
     0
100
AcDbTrace
 10
936.437594255115
 20
686.5439844479542
 30
0.0
 11
936.7917609217817
 21
686.5439844479542
 31
0.0
 12
936.6146775884484
 22
687.6064844479542
 32
0.0
 13
936.6146775884484
 23
687.6064844479542
 33
0.0
  0
POINT
  5
A68AD
330
A6658
100
AcDbEntity
  8
DEFPOINTS
 62
     0
100
AcDbPoint
 10
913.1357647117491
 20
657.8050408662264
 30
0.0
  0
POINT
  5
A68AE
330
A6658
100
AcDbEntity
  8
DEFPOINTS
 62
     0
100
AcDbPoint
 10
885.978055703797
 20
687.6064844479542
 30
0.0
  0
POINT
  5
A68AF
330
A6658
100
AcDbEntity
  8
DEFPOINTS
 62
     0
100
AcDbPoint
 10
936.6146775884484
 20
687.6064844479542
 30
0.0
  0
ENDBLK
  5
A6664
330
A6658
100
AcDbEntity
  8
0
 62
     7
100
AcDbBlockEnd
  0
BLOCK
  5
A667C
330
A6670
100
AcDbEntity
  8
0
 62
     7
100
AcDbBlockBegin
  2
*D51
 70
     1
 10
0.0
 20
0.0
 30
0.0
  3
*D51
  1

  0
LINE
  5
A68B0
330
A6670
100
AcDbEntity
  8
A1
 62
     0
100
AcDbLine
 10
888.103055703797
 20
687.6064844479539
 30
0.0
 11
894.3892385063948
 21
687.6064844479539
 31
0.0
  0
LINE
  5
A68B1
330
A6670
100
AcDbEntity
  8
A1
 62
     0
100
AcDbLine
 10
877.8232647117491
 20
689.8050408662263
 30
0.0
 11
894.3892385063948
 21
689.8050408662263
 31
0.0
  0
LINE
  5
A68B2
330
A6670
100
AcDbEntity
  8
A1
 62
     0
100
AcDbLine
 10
893.8579885063949
 20
686.5439844479539
 30
0.0
 11
893.8579885063949
 21
685.4814844479538
 31
0.0
  0
LINE
  5
A68B3
330
A6670
100
AcDbEntity
  8
A1
 62
     0
100
AcDbLine
 10
893.8579885063949
 20
690.8675408662263
 30
0.0
 11
893.8579885063949
 21
691.9300408662263
 31
0.0
  0
LINE
  5
A68B4
330
A6670
100
AcDbEntity
  8
A1
 62
     0
100
AcDbLine
 10
894.9204885063949
 20
691.9300408662263
 30
0.0
 11
893.8579885063949
 21
691.9300408662263
 31
0.0
  0
MTEXT
  5
A68B5
330
A6670
100
AcDbEntity
  8
A1
 62
     0
100
AcDbMText
 10
901.7751571810936
 20
691.9300408662266
 30
0.0
 40
2.125
 41
0.0
 71
     5
 72
     1
  1
\A1;2 3/16"
 73
     1
 44
1.0
  0
SOLID
  5
A68B6
330
A6670
100
AcDbEntity
  8
A1
 62
     0
100
AcDbTrace
 10
893.6809051730616
 20
686.5439844479539
 30
0.0
 11
894.0350718397283
 21
686.5439844479539
 31
0.0
 12
893.8579885063949
 22
687.6064844479539
 32
0.0
 13
893.8579885063949
 23
687.6064844479539
 33
0.0
  0
SOLID
  5
A68B7
330
A6670
100
AcDbEntity
  8
A1
 62
     0
100
AcDbTrace
 10
893.6809051730616
 20
690.8675408662263
 30
0.0
 11
894.0350718397283
 21
690.8675408662263
 31
0.0
 12
893.8579885063949
 22
689.8050408662263
 32
0.0
 13
893.8579885063949
 23
689.8050408662263
 33
0.0
  0
POINT
  5
A68B8
330
A6670
100
AcDbEntity
  8
DEFPOINTS
 62
     0
100
AcDbPoint
 10
885.978055703797
 20
687.6064844479539
 30
0.0
  0
POINT
  5
A68B9
330
A6670
100
AcDbEntity
  8
DEFPOINTS
 62
     0
100
AcDbPoint
 10
875.6982647117492
 20
689.8050408662263
 30
0.0
  0
POINT
  5
A68BA
330
A6670
100
AcDbEntity
  8
DEFPOINTS
 62
     0
100
AcDbPoint
 10
893.8579885063949
 20
689.8050408662263
 30
0.0
  0
ENDBLK
  5
A667D
330
A6670
100
AcDbEntity
  8
0
 62
     7
100
AcDbBlockEnd
  0
BLOCK
  5
A6687
330
A6680
100
AcDbEntity
  8
0
 62
     7
100
AcDbBlockBegin
  2
*D52
 70
     1
 10
0.0
 20
0.0
 30
0.0
  3
*D52
  1

  0
LINE
  5
A68BB
330
A6680
100
AcDbEntity
  8
A1
 62
     0
100
AcDbLine
 10
895.76922325831
 20
683.2089530541306
 30
0.0
 11
894.7067232583101
 21
683.2089530541306
 31
0.0
  0
LINE
  5
A68BC
330
A6680
100
AcDbEntity
  8
A1
 62
     0
100
AcDbLine
 10
894.7067232583101
 20
683.2089530541306
 30
0.0
 11
893.7738114880671
 21
682.7004435862327
 31
0.0
  0
MTEXT
  5
A68BD
330
A6680
100
AcDbEntity
  8
A1
 62
     0
100
AcDbMText
 10
903.5997955474668
 20
683.2089530541306
 30
0.0
 40
2.125
 41
0.0
 71
     5
 72
     1
  1
\A1;R11 1/8"
 73
     1
 44
1.0
  0
SOLID
  5
A68BE
330
A6680
100
AcDbEntity
  8
A1
 62
     0
100
AcDbTrace
 10
893.6890599100841
 20
682.8559288812733
 30
0.0
 11
893.8585630660501
 21
682.5449582911922
 31
0.0
 12
892.8408997178239
 22
682.1919341183347
 32
0.0
 13
892.8408997178239
 23
682.1919341183347
 33
0.0
  0
POINT
  5
A68BF
330
A6680
100
AcDbEntity
  8
DEFPOINTS
 62
     0
100
AcDbPoint
 10
892.8408997178239
 20
682.1919341183347
 30
0.0
  0
POINT
  5
A68C0
330
A6680
100
AcDbEntity
  8
DEFPOINTS
 62
     0
100
AcDbPoint
 10
883.0727647117491
 20
676.8675408662262
 30
0.0
  0
ENDBLK
  5
A6688
330
A6680
100
AcDbEntity
  8
0
 62
     7
100
AcDbBlockEnd
  0
BLOCK
  5
A6695
330
A668A
100
AcDbEntity
  8
0
 62
     7
100
AcDbBlockBegin
  2
*D53
 70
     1
 10
0.0
 20
0.0
 30
0.0
  3
*D53
  1

  0
LINE
  5
A68C1
330
A668A
100
AcDbEntity
  8
A1
 62
     0
100
AcDbLine
 10
875.6982647117492
 20
691.9300408662263
 30
0.0
 11
875.6982647117492
 21
699.7266888659303
 31
0.0
  0
LINE
  5
A68C2
330
A668A
100
AcDbEntity
  8
A1
 62
     0
100
AcDbLine
 10
885.978055703797
 20
689.7314844479539
 30
0.0
 11
885.978055703797
 21
699.7266888659303
 31
0.0
  0
LINE
  5
A68C3
330
A668A
100
AcDbEntity
  8
A1
 62
     0
100
AcDbLine
 10
876.7607647117491
 20
699.1954388659303
 30
0.0
 11
884.9155557037969
 21
699.1954388659303
 31
0.0
  0
LINE
  5
A68C4
330
A668A
100
AcDbEntity
  8
A1
 62
     0
100
AcDbLine
 10
887.86353474791
 20
699.1954388659303
 30
0.0
 11
885.978055703797
 21
699.1954388659303
 31
0.0
  0
MTEXT
  5
A68C5
330
A668A
100
AcDbEntity
  8
A1
 62
     0
100
AcDbMText
 10
894.5457636635728
 20
699.1954388659303
 30
0.0
 40
2.125
 41
0.0
 71
     5
 72
     1
  1
\A1;10 1/4"
 73
     1
 44
1.0
  0
SOLID
  5
A68C6
330
A668A
100
AcDbEntity
  8
A1
 62
     0
100
AcDbTrace
 10
876.7607647117491
 20
699.3725221992637
 30
0.0
 11
876.7607647117491
 21
699.018355532597
 31
0.0
 12
875.6982647117492
 22
699.1954388659303
 32
0.0
 13
875.6982647117492
 23
699.1954388659303
 33
0.0
  0
SOLID
  5
A68C7
330
A668A
100
AcDbEntity
  8
A1
 62
     0
100
AcDbTrace
 10
884.9155557037969
 20
699.3725221992637
 30
0.0
 11
884.9155557037969
 21
699.018355532597
 31
0.0
 12
885.978055703797
 22
699.1954388659303
 32
0.0
 13
885.978055703797
 23
699.1954388659303
 33
0.0
  0
POINT
  5
A68C8
330
A668A
100
AcDbEntity
  8
DEFPOINTS
 62
     0
100
AcDbPoint
 10
875.6982647117492
 20
689.8050408662263
 30
0.0
  0
POINT
  5
A68C9
330
A668A
100
AcDbEntity
  8
DEFPOINTS
 62
     0
100
AcDbPoint
 10
885.978055703797
 20
687.6064844479539
 30
0.0
  0
POINT
  5
A68CA
330
A668A
100
AcDbEntity
  8
DEFPOINTS
 62
     0
100
AcDbPoint
 10
885.978055703797
 20
699.1954388659303
 30
0.0
  0
ENDBLK
  5
A6696
330
A668A
100
AcDbEntity
  8
0
 62
     7
100
AcDbBlockEnd
  0
BLOCK
  5
A669F
330
A6698
100
AcDbEntity
  8
0
 62
     7
100
AcDbBlockBegin
  2
*D54
 70
     1
 10
0.0
 20
0.0
 30
0.0
  3
*D54
  1

  0
LINE
  5
A68CB
330
A6698
100
AcDbEntity
  8
A1
 62
     0
100
AcDbLine
 10
877.9556012016868
 20
702.7477331735139
 30
0.0
 11
879.0181012016869
 21
702.7477331735139
 31
0.0
  0
LINE
  5
A68CC
330
A6698
100
AcDbEntity
  8
A1
 62
     0
100
AcDbLine
 10
879.0181012016869
 20
702.7477331735139
 30
0.0
 11
881.7495712345328
 21
685.5459017821813
 31
0.0
  0
MTEXT
  5
A68CD
330
A6698
100
AcDbEntity
  8
A1
 62
     0
100
AcDbMText
 10
871.0918963824095
 20
702.7477331735139
 30
0.0
 40
2.125
 41
0.0
 71
     5
 72
     1
  1
\A1;R5 3/8"
 73
     1
 44
1.0
  0
SOLID
  5
A68CE
330
A6698
100
AcDbEntity
  8
A1
 62
     0
100
AcDbTrace
 10
881.9244634191434
 20
685.5736728229719
 30
0.0
 11
881.5746790499222
 21
685.5181307413906
 31
0.0
 12
881.9161974792768
 22
684.4965486745181
 32
0.0
 13
881.9161974792768
 23
684.4965486745181
 33
0.0
  0
POINT
  5
A68CF
330
A6698
100
AcDbEntity
  8
DEFPOINTS
 62
     0
100
AcDbPoint
 10
881.9161974792768
 20
684.4965486745181
 30
0.0
  0
POINT
  5
A68D0
330
A6698
100
AcDbEntity
  8
DEFPOINTS
 62
     0
100
AcDbPoint
 10
881.0732647117488
 20
689.805040866226
 30
0.0
  0
ENDBLK
  5
A66A0
330
A6698
100
AcDbEntity
  8
0
 62
     7
100
AcDbBlockEnd
  0
ENDSEC
  0
SECTION
  2
ENTITIES
  0
INSERT
  5
7C12C
330
2
100
AcDbEntity
  8
0
100
AcDbBlockReference
  2
*U0
 10
496.8557196716146
 20
396.3907964545663
 30
0.0
  0
INSERT
  5
7C12F
330
2
100
AcDbEntity
  8
0
100
AcDbBlockReference
  2
*U1
 10
496.5432141166417
 20
402.9502409247067
 30
0.0
  0
INSERT
  5
7C130
330
2
100
AcDbEntity
  8
0
100
AcDbBlockReference
  2
*U2
 10
497.1057244269991
 20
399.0145740457534
 30
0.0
  0
INSERT
  5
7C131
330
2
100
AcDbEntity
  8
0
100
AcDbBlockReference
  2
*U3
 10
498.1057434485376
 20
385.7082723500777
 30
0.0
  0
INSERT
  5
8AB84
330
2
100
AcDbEntity
  8
0
100
AcDbBlockReference
  2
*U4
 10
-269.9762742725946
 20
510.3024601907236
 30
0.0
  0
INSERT
  5
8B751
330
2
100
AcDbEntity
  8
0
100
AcDbBlockReference
  2
*U5
 10
-256.2597366547767
 20
515.6249495228784
 30
0.0
  0
INSERT
  5
8BDA9
330
2
100
AcDbEntity
  8
0
100
AcDbBlockReference
  2
*U6
 10
-257.9943222346918
 20
509.7192604450555
 30
0.0
  0
INSERT
  5
A5502
330
2
100
AcDbEntity
  8
0
100
AcDbBlockReference
  2
*U9
 10
920.9465894972963
 20
747.5459691936181
 30
0.0
  0
INSERT
  5
A5503
330
2
100
AcDbEntity
  8
0
100
AcDbBlockReference
  2
*U10
 10
920.6340839423235
 20
754.1054136637585
 30
0.0
  0
INSERT
  5
A5504
330
2
100
AcDbEntity
  8
0
100
AcDbBlockReference
  2
*U11
 10
921.1965942526809
 20
750.1697467848052
 30
0.0
  0
INSERT
  5
A5505
330
2
100
AcDbEntity
  8
0
100
AcDbBlockReference
  2
*U12
 10
922.1966132742194
 20
736.8634450891295
 30
0.0
  0
INSERT
  5
A5506
330
2
100
AcDbEntity
  8
0
100
AcDbBlockReference
  2
*U13
 10
154.1145955530871
 20
861.4576329297754
 30
0.0
  0
INSERT
  5
A5507
330
2
100
AcDbEntity
  8
0
100
AcDbBlockReference
  2
*U14
 10
167.8311331709051
 20
866.7801222619303
 30
0.0
  0
INSERT
  5
A5508
330
2
100
AcDbEntity
  8
0
100
AcDbBlockReference
  2
*U15
 10
166.0965475909899
 20
860.8744331841073
 30
0.0
  0
INSERT
  5
A5606
330
2
100
AcDbEntity
  8
0
100
AcDbBlockReference
  2
*U16
 10
984.0373866926274
 20
747.545969193618
 30
0.0
  0
INSERT
  5
A5607
330
2
100
AcDbEntity
  8
0
100
AcDbBlockReference
  2
*U17
 10
983.7248811376547
 20
754.1054136637585
 30
0.0
  0
INSERT
  5
A5608
330
2
100
AcDbEntity
  8
0
100
AcDbBlockReference
  2
*U18
 10
984.287391448012
 20
750.1697467848052
 30
0.0
  0
INSERT
  5
A5609
330
2
100
AcDbEntity
  8
0
100
AcDbBlockReference
  2
*U19
 10
985.2874104695505
 20
736.8634450891295
 30
0.0
  0
INSERT
  5
A560A
330
2
100
AcDbEntity
  8
0
100
AcDbBlockReference
  2
*U20
 10
217.2053927484182
 20
861.4576329297754
 30
0.0
  0
INSERT
  5
A560B
330
2
100
AcDbEntity
  8
0
100
AcDbBlockReference
  2
*U21
 10
230.9219303662362
 20
866.7801222619303
 30
0.0
  0
INSERT
  5
A560C
330
2
100
AcDbEntity
  8
0
100
AcDbBlockReference
  2
*U22
 10
229.187344786321
 20
860.8744331841073
 30
0.0
  0
INSERT
  5
A56DB
330
2
100
AcDbEntity
  8
A1
 62
     7
100
AcDbBlockReference
 66
     1
  2
TSFORMB
 10
827.2104104790818
 20
622.7778577263575
 30
0.0
 41
1.2375
 42
1.2375
 43
1.2375
  0
ATTRIB
  5
A56DC
330
A56DB
100
AcDbEntity
  8
A1
 62
     1
100
AcDbText
 10
869.7607761037051
 20
623.9120068620386
 30
0.0
 40
1.26916713
  1
HEADER PEDIMENT
 72
     1
 11
878.2698626025004
 21
623.9120068620386
 31
0.0
100
AcDbAttribute
  2
XXXXXX
 70
     0
  0
ATTRIB
  5
A56DD
330
A56DB
100
AcDbEntity
  8
A1
 62
     1
100
AcDbText
 10
848.1795210033787
 20
625.0981933726881
 30
0.0
 40
1.0395
  1
TS0374
 72
     2
 11
853.883141839665
 21
625.0981933726881
 31
0.0
100
AcDbAttribute
  2
XXXXXX
 70
     0
  0
ATTRIB
  5
A56DE
330
A56DB
100
AcDbEntity
  8
A1
 62
     1
100
AcDbText
 10
835.6211648708873
 20
626.6363366944167
 30
0.0
 40
7.588350000000002
  1
TS0374
  7
barcoder
 72
     1
 11
843.1146604958874
 21
626.6363366944167
 31
0.0
100
AcDbAttribute
  2
BARCODE
 70
     0
  0
ATTRIB
  5
A56DF
330
A56DB
100
AcDbEntity
  8
A1
 62
     1
100
AcDbText
 10
942.9157576311407
 20
713.6103779377622
 30
0.0
 40
2.572762500000001
  1
TS0374
 72
     1
 11
949.9739884160451
 21
713.6103779377622
 31
0.0
100
AcDbAttribute
  2
TS00XX
 70
     0
  0
ATTRIB
  5
A56E0
330
A56DB
100
AcDbEntity
  8
A1
 62
     1
100
AcDbText
 10
949.084728248828
 20
635.2506256902553
 30
0.0
 40
1.1694375
  1
854.25"
 72
     1
 11
952.4156774426622
 21
635.2506256902553
 31
0.0
100
AcDbAttribute
  2
XXXXX
 70
     0
  0
ATTRIB
  5
A56E1
330
A56DB
100
AcDbEntity
  8
A1
 62
     1
100
AcDbText
 10
949.4216227232437
 20
631.7120367630557
 30
0.0
 40
1.1694375
  1
771.19
 72
     1
 11
952.3733956901111
 21
631.7120367630557
 31
0.0
100
AcDbAttribute
  2
XXXXX
 70
     0
  0
SEQEND
  5
A56E2
330
A56DB
100
AcDbEntity
  8
A1
 62
     7
  0
INSERT
  5
A5A3F
330
2
100
AcDbEntity
  8
0
100
AcDbBlockReference
  2
*U24
 10
495.8144775253177
 20
397.2521313474236
 30
0.0
  0
INSERT
  5
A5A40
330
2
100
AcDbEntity
  8
0
100
AcDbBlockReference
  2
*U25
 10
495.5019719703448
 20
403.8115758175639
 30
0.0
  0
INSERT
  5
A5A41
330
2
100
AcDbEntity
  8
0
100
AcDbBlockReference
  2
*U26
 10
496.0644822807022
 20
399.8759089386107
 30
0.0
  0
INSERT
  5
A5A42
330
2
100
AcDbEntity
  8
0
100
AcDbBlockReference
  2
*U27
 10
497.0645013022407
 20
386.5696072429349
 30
0.0
  0
INSERT
  5
A5A43
330
2
100
AcDbEntity
  8
0
100
AcDbBlockReference
  2
*U28
 10
-271.0175164188915
 20
511.1637950835809
 30
0.0
  0
INSERT
  5
A5A44
330
2
100
AcDbEntity
  8
0
100
AcDbBlockReference
  2
*U29
 10
-257.3009788010736
 20
516.4862844157357
 30
0.0
  0
INSERT
  5
A5A45
330
2
100
AcDbEntity
  8
0
100
AcDbBlockReference
  2
*U30
 10
-259.0355643809887
 20
510.5805953379128
 30
0.0
  0
INSERT
  5
A5A46
330
2
100
AcDbEntity
  8
0
100
AcDbBlockReference
  2
*U31
 10
919.9053473509994
 20
748.4073040864753
 30
0.0
  0
INSERT
  5
A5A47
330
2
100
AcDbEntity
  8
0
100
AcDbBlockReference
  2
*U32
 10
919.5928417960265
 20
754.9667485566158
 30
0.0
  0
INSERT
  5
A5A48
330
2
100
AcDbEntity
  8
0
100
AcDbBlockReference
  2
*U33
 10
920.1553521063841
 20
751.0310816776625
 30
0.0
  0
INSERT
  5
A5A49
330
2
100
AcDbEntity
  8
0
100
AcDbBlockReference
  2
*U34
 10
921.1553711279226
 20
737.7247799819867
 30
0.0
  0
INSERT
  5
A5A4A
330
2
100
AcDbEntity
  8
0
100
AcDbBlockReference
  2
*U35
 10
153.0733534067902
 20
862.3189678226326
 30
0.0
  0
INSERT
  5
A5A4B
330
2
100
AcDbEntity
  8
0
100
AcDbBlockReference
  2
*U36
 10
166.7898910246082
 20
867.6414571547875
 30
0.0
  0
INSERT
  5
A5A4C
330
2
100
AcDbEntity
  8
0
100
AcDbBlockReference
  2
*U37
 10
165.055305444693
 20
861.7357680769647
 30
0.0
  0
INSERT
  5
A5A4D
330
2
100
AcDbEntity
  8
A1
 62
     7
100
AcDbBlockReference
 66
     1
  2
PROFILE LOGO
 10
870.0059610685036
 20
689.2505238868506
 30
0.0
 41
1.575
 42
1.575
 43
1.575
  0
ATTRIB
  5
A5A4E
330
A5A4D
100
AcDbEntity
  8
A1
 62
    22
100
AcDbText
 10
870.4643300918759
 20
686.6072041448229
 30
0.0
 40
0.3349951171875
  1
0374
 72
     1
 11
871.074016456821
 21
686.6072041448229
 31
0.0
100
AcDbAttribute
  2
XXXX
 70
     0
  0
SEQEND
  5
A5A4F
330
A5A4D
100
AcDbEntity
  8
A1
 62
     7
  0
INSERT
  5
A5A53
330
2
100
AcDbEntity
  8
0
100
AcDbBlockReference
  2
*U38
 10
982.9961445463304
 20
748.4073040864752
 30
0.0
  0
INSERT
  5
A5A54
330
2
100
AcDbEntity
  8
0
100
AcDbBlockReference
  2
*U39
 10
982.6836389913578
 20
754.9667485566158
 30
0.0
  0
INSERT
  5
A5A55
330
2
100
AcDbEntity
  8
0
100
AcDbBlockReference
  2
*U40
 10
983.246149301715
 20
751.0310816776625
 30
0.0
  0
INSERT
  5
A5A56
330
2
100
AcDbEntity
  8
0
100
AcDbBlockReference
  2
*U41
 10
984.2461683232537
 20
737.7247799819867
 30
0.0
  0
INSERT
  5
A5A57
330
2
100
AcDbEntity
  8
0
100
AcDbBlockReference
  2
*U42
 10
216.1641506021213
 20
862.3189678226326
 30
0.0
  0
INSERT
  5
A5A58
330
2
100
AcDbEntity
  8
0
100
AcDbBlockReference
  2
*U43
 10
229.8806882199392
 20
867.6414571547875
 30
0.0
  0
INSERT
  5
A5A59
330
2
100
AcDbEntity
  8
0
100
AcDbBlockReference
  2
*U44
 10
228.1461026400242
 20
861.7357680769647
 30
0.0
  0
LWPOLYLINE
  5
A65FA
330
2
100
AcDbEntity
  8
A1
 62
     7
370
    50
100
AcDbPolyline
 90
        9
 70
     1
 43
0.0
 10
869.4482647117492
 20
657.8050408662264
 10
913.1357647117491
 20
657.8050408662264
 10
913.1357647117491
 20
657.9920408662263
 10
913.1357647117491
 20
657.9920408662265
 42
-0.1959203924259186
 10
894.3554848083547
 20
678.4020494972512
 10
893.285289339769
 20
681.2800192766087
 42
0.228544784802533
 10
885.978055703797
 20
687.6064844479539
 42
-0.8087431332926037
 10
875.6982647117492
 20
689.8050408662263
 10
869.4482647117492
 20
689.8050408662263
  0
DIMENSION
  5
A65FB
330
2
100
AcDbEntity
  8
A1
 62
     7
100
AcDbDimension
  2
*D45
 10
913.1357647117491
 20
649.8070890358601
 30
0.0
 11
890.6483709620673
 21
649.8070890358601
 31
0.0
 70
   161
 71
     5
 42
-1.0
  3
STANDARD
100
AcDbAlignedDimension
 13
869.4482647117492
 23
657.8050408662264
 33
0.0
 14
913.1357647117491
 24
657.8050408662264
 34
0.0
1001
ACAD
1000
DSTYLE
1002
{
1070
   287
1070
     4
1070
    40
1040
2.125
1070
    73
1070
     1
1070
    74
1070
     1
1070
    77
1070
     0
1070
   147
1040
0.5
1070
   279
1070
     1
1070
   288
1070
     1
1070
   289
1070
     3
1002
}
  0
DIMENSION
  5
A6609
330
2
100
AcDbEntity
  8
A1
 62
     7
100
AcDbDimension
  2
*D46
 10
856.7181300187916
 20
689.8050408662263
 30
0.0
 11
856.7181300187916
 21
673.6418380667077
 31
0.0
 70
   161
 71
     5
 42
-1.0
  3
STANDARD
100
AcDbAlignedDimension
 13
869.4482647117492
 23
657.8050408662264
 33
0.0
 14
869.4482647117492
 24
689.8050408662263
 34
0.0
1001
ACAD
1000
DSTYLE
1002
{
1070
   287
1070
     4
1070
    40
1040
2.125
1070
    73
1070
     1
1070
    74
1070
     1
1070
    77
1070
     0
1070
   147
1040
0.5
1070
   279
1070
     1
1070
   288
1070
     1
1070
   289
1070
     3
1002
}
  0
DIMENSION
  5
A6617
330
2
100
AcDbEntity
  8
A1
 62
     7
100
AcDbDimension
  2
*D47
 10
869.4482647117492
 20
695.299374082245
 30
0.0
 11
857.0620175973806
 21
695.299374082245
 31
0.0
 70
   161
 71
     5
 42
-1.0
  3
STANDARD
100
AcDbAlignedDimension
 13
875.6982647117492
 23
689.8050408662263
 33
0.0
 14
869.4482647117492
 24
689.8050408662263
 34
0.0
1001
ACAD
1000
DSTYLE
1002
{
1070
   287
1070
     4
1070
    40
1040
2.125
1070
    73
1070
     1
1070
    74
1070
     1
1070
    77
1070
     0
1070
   147
1040
0.5
1070
   279
1070
     1
1070
   288
1070
     1
1070
   289
1070
     3
1002
}
  0
DIMENSION
  5
A663D
330
2
100
AcDbEntity
  8
A1
 62
     7
100
AcDbDimension
  2
*D48
 10
928.7896927680698
 20
691.2413571961532
 30
0.0
 11
908.0427454929347
 21
672.266756162301
 31
0.0
 70
   164
 71
     5
 42
-1.0
  3
STANDARD
100
AcDbRadialDimension
 15
901.6710161733303
 25
666.4393435732648
 35
0.0
 40
0.0
1001
ACAD
1000
DSTYLE
1002
{
1070
   287
1070
     4
1070
    40
1040
2.125
1070
    73
1070
     1
1070
    74
1070
     1
1070
    77
1070
     0
1070
   147
1040
0.5
1070
   279
1070
     1
1070
   288
1070
     1
1070
   289
1070
     3
1002
}
  0
DIMENSION
  5
A6647
330
2
100
AcDbEntity
  8
A1
 62
     7
100
AcDbDimension
  2
*D49
 10
918.3886359232356
 20
657.9920408662265
 30
0.0
 11
918.3886359232356
 21
662.7557748265555
 31
0.0
 70
   160
 71
     5
 42
-1.0
  3
STANDARD
100
AcDbAlignedDimension
 13
913.1357647117491
 23
657.8050408662264
 33
0.0
 14
913.1357647117491
 24
657.9920408662265
 34
0.0
 50
90.0
100
AcDbRotatedDimension
1001
ACAD
1000
DSTYLE
1002
{
1070
   287
1070
     4
1070
    40
1040
2.125
1070
    73
1070
     1
1070
    74
1070
     1
1070
    77
1070
     0
1070
   147
1040
0.5
1070
   279
1070
     1
1070
   288
1070
     1
1070
   289
1070
     3
1002
}
  0
DIMENSION
  5
A6657
330
2
100
AcDbEntity
  8
A1
 62
     7
100
AcDbDimension
  2
*D50
 10
936.6146775884484
 20
687.6064844479542
 30
0.0
 11
936.6146775884484
 21
672.8397069558041
 31
0.0
 70
   160
 71
     5
 42
-1.0
  3
STANDARD
100
AcDbAlignedDimension
 13
913.1357647117491
 23
657.8050408662264
 33
0.0
 14
885.978055703797
 24
687.6064844479542
 34
0.0
 50
90.0
100
AcDbRotatedDimension
1001
ACAD
1000
DSTYLE
1002
{
1070
   287
1070
     4
1070
    40
1040
2.125
1070
    73
1070
     1
1070
    74
1070
     1
1070
    77
1070
     0
1070
   147
1040
0.5
1070
   279
1070
     1
1070
   288
1070
     1
1070
   289
1070
     3
1002
}
  0
DIMENSION
  5
A666F
330
2
100
AcDbEntity
  8
A1
 62
     7
100
AcDbDimension
  2
*D51
 10
893.8579885063949
 20
689.8050408662263
 30
0.0
 11
893.8579885063949
 21
690.6011784937224
 31
0.0
 70
   160
 71
     5
 42
-1.0
  3
STANDARD
100
AcDbAlignedDimension
 13
885.978055703797
 23
687.6064844479539
 33
0.0
 14
875.6982647117492
 24
689.8050408662263
 34
0.0
 50
90.0
100
AcDbRotatedDimension
1001
ACAD
1000
DSTYLE
1002
{
1070
   287
1070
     4
1070
    40
1040
2.125
1070
    73
1070
     1
1070
    74
1070
     1
1070
    77
1070
     0
1070
   147
1040
0.5
1070
   279
1070
     1
1070
   288
1070
     1
1070
   289
1070
     3
1002
}
  0
DIMENSION
  5
A667F
330
2
100
AcDbEntity
  8
A1
 62
     7
100
AcDbDimension
  2
*D52
 10
883.0727647117491
 20
676.8675408662262
 30
0.0
 11
894.7067232583101
 21
683.2089530541306
 31
0.0
 70
   164
 71
     5
 42
-1.0
  3
STANDARD
100
AcDbRadialDimension
 15
892.8408997178239
 25
682.1919341183347
 35
0.0
 40
0.0
1001
ACAD
1000
DSTYLE
1002
{
1070
   287
1070
     4
1070
    40
1040
2.125
1070
    73
1070
     1
1070
    74
1070
     1
1070
    77
1070
     0
1070
   147
1040
0.5
1070
   279
1070
     1
1070
   288
1070
     1
1070
   289
1070
     3
1002
}
  0
DIMENSION
  5
A6689
330
2
100
AcDbEntity
  8
A1
 62
     7
100
AcDbDimension
  2
*D53
 10
885.978055703797
 20
699.1954388659303
 30
0.0
 11
894.5457636635728
 21
699.1954388659303
 31
0.0
 70
   160
 71
     5
 42
-1.0
  3
STANDARD
100
AcDbAlignedDimension
 13
875.6982647117492
 23
689.8050408662263
 33
0.0
 14
885.978055703797
 24
687.6064844479539
 34
0.0
100
AcDbRotatedDimension
1001
ACAD
1000
DSTYLE
1002
{
1070
   287
1070
     4
1070
    40
1040
2.125
1070
    73
1070
     1
1070
    74
1070
     1
1070
    77
1070
     0
1070
   147
1040
0.5
1070
   279
1070
     1
1070
   288
1070
     1
1070
   289
1070
     3
1002
}
  0
DIMENSION
  5
A6697
330
2
100
AcDbEntity
  8
A1
 62
     7
100
AcDbDimension
  2
*D54
 10
881.0732647117488
 20
689.805040866226
 30
0.0
 11
879.0181012016867
 21
702.7477331735139
 31
0.0
 70
   164
 71
     5
 42
-1.0
  3
STANDARD
100
AcDbRadialDimension
 15
881.9161974792768
 25
684.4965486745181
 35
0.0
 40
0.0
1001
ACAD
1000
DSTYLE
1002
{
1070
   287
1070
     4
1070
    40
1040
2.125
1070
    73
1070
     1
1070
    74
1070
     1
1070
    77
1070
     0
1070
   147
1040
0.5
1070
   279
1070
     1
1070
   288
1070
     1
1070
   289
1070
     3
1002
}
  0
SOLID
  5
A6705
330
2
100
AcDbEntity
  8
A1
 62
     1
100
AcDbTrace
 10
876.4196613666408
 20
690.616253034182
 30
0.0
 11
876.0937135398217
 21
690.8016796077682
 31
0.0
 12
875.7004077324728
 22
689.7311228405178
 32
0.0
 13
875.7004077324728
 23
689.7311228405178
 33
0.0
  0
LINE
  5
A6706
330
2
100
AcDbEntity
  8
A1
 62
     1
100
AcDbLine
 10
876.2566874532311
 20
690.7089663209752
 30
0.0
 11
879.270158517326
 21
696.0061269464845
 31
0.0
  0
ATTDEF
  5
A6707
330
2
100
AcDbEntity
  8
A1
 62
     1
100
AcDbText
 10
924.0938670818879
 20
705.918390170577
 30
0.0
 40
2.25
  1

100
AcDbAttributeDefinition
  3
ADD LINK NUMBER (WMF)
  2
TS0374
 70
     0
  0
MTEXT
  5
A6708
330
2
100
AcDbEntity
  8
0
 62
     1
100
AcDbMText
 10
924.1812402765816
 20
704.2370209199187
 30
0.0
 40
2.25
 41
0.0
 71
     1
 72
     1
  1
TannerStone
 73
     1
 44
1.0
1001
ACAD
1000
MTEXTBEGIN
1070
    73
1070
     1
1070
    44
1040
1.0
1070
    74
1070
     0
1000
MTEXTEND
1000
MTEXTBEGIN
1070
    73
1070
     1
1070
    44
1040
1.0
1070
    74
1070
     0
1000
MTEXTEND
  0
MTEXT
  5
A6709
330
2
100
AcDbEntity
  8
0
 62
     1
100
AcDbMText
 10
924.3561606931155
 20
700.8234107706812
 30
0.0
 40
1.662018749999999
 41
0.0
 71
     1
 72
     1
  1
1-800-789-4841
 73
     1
 44
1.0
1001
ACAD
1000
MTEXTBEGIN
1070
    73
1070
     1
1070
    44
1040
1.0
1070
    74
1070
     0
1000
MTEXTEND
1000
MTEXTBEGIN
1070
    73
1070
     1
1070
    44
1040
1.0
1070
    74
1070
     0
1000
MTEXTEND
  0
LINE
  5
A670A
330
2
100
AcDbEntity
  8
0
 62
     1
100
AcDbLine
 10
884.4191482101832
 20
705.0571597528502
 30
0.0
 11
943.490146009435
 21
705.0571597528501
 31
0.0
  0
LINE
  5
A670B
330
2
100
AcDbEntity
  8
0
 62
     1
100
AcDbLine
 10
922.9984987964629
 20
698.3346602613549
 30
0.0
 11
922.9984987964629
 21
708.5821812277136
 31
0.0
  0
LINE
  5
A6711
330
2
100
AcDbEntity
  8
A1
 62
     1
100
AcDbLine
 10
880.4885735125393
 20
698.1478896516501
 30
0.0
 11
884.4191482101832
 21
705.0571597528503
 31
0.0
  0
ENDSEC
  0
SECTION
  2
OBJECTS
  0
DICTIONARY
  5
8
330
0
100
AcDbDictionary
281
     1
  3
ACAD_GROUP
350
21
  3
ACAD_LAYOUT
350
C
  3
ACAD_MLINESTYLE
350
22
  3
ACAD_PLOTSETTINGS
350
23
  3
ACAD_PLOTSTYLENAME
350
7
  3
ACAD_VBA
350
A56E3
  3
ASE_INDEX_DICTIONARY
350
A557F
  0
DICTIONARY
  5
3
330
2
100
AcDbDictionary
280
     1
281
     1
  3
ACAD_LAYOUTSELFREF
360
A686A
  0
DICTIONARY
  5
A67D3
330
D
100
AcDbDictionary
280
     1
281
     1
  3
ACAD_LAYOUTSELFREF
360
A686D
  0
DICTIONARY
  5
21
102
{ACAD_REACTORS
330
8
102
}
330
8
100
AcDbDictionary
281
     1
  0
DICTIONARY
  5
C
102
{ACAD_REACTORS
330
8
102
}
330
8
100
AcDbDictionary
281
     1
  3
Layout1
350
10
  3
Model
350
B
  0
DICTIONARY
  5
22
102
{ACAD_REACTORS
330
8
102
}
330
8
100
AcDbDictionary
281
     1
  3
STANDARD
350
25
  0
DICTIONARY
  5
23
102
{ACAD_REACTORS
330
8
102
}
330
8
100
AcDbDictionary
281
     1
  3
EXOT1
350
7C0ED
  0
ACDBDICTIONARYWDFLT
  5
7
102
{ACAD_REACTORS
330
8
102
}
330
8
100
AcDbDictionary
281
     1
  3
Normal
350
6
100
AcDbDictionaryWithDefault
340
6
  0
DICTIONARY
  5
A56E3
102
{ACAD_REACTORS
330
8
102
}
330
8
100
AcDbDictionary
281
     1
  3
VBAProject
350
A56E4
  0
DICTIONARY
  5
A557F
102
{ACAD_REACTORS
330
8
102
}
330
8
100
AcDbDictionary
281
     1
  3
ASEBlockHierarchyIndexRecord
350
A5580
1001
DCO15
1040
1363409718.5
  0
XRECORD
  5
A686A
102
{ACAD_REACTORS
330
3
102
}
330
3
100
AcDbXrecord
280
     1
340
2
  0
XRECORD
  5
A686D
102
{ACAD_REACTORS
330
A67D3
102
}
330
A67D3
100
AcDbXrecord
280
     1
340
D
  0
LAYOUT
  5
10
102
{ACAD_REACTORS
330
C
102
}
330
C
100
AcDbPlotSettings
  1

  2
None
  4

  6

 40
0.0
 41
0.0
 42
0.0
 43
0.0
 44
0.0
 45
0.0
 46
0.0
 47
0.0
 48
0.0
 49
0.0
140
0.0
141
0.0
142
1.0
143
1.0
 70
   688
 72
     0
 73
     0
 74
     5
  7

 75
    16
147
1.0
148
0.0
149
0.0
100
AcDbLayout
  1
Layout1
 70
     1
 71
     1
 10
0.0
 20
0.0
 11
12.0
 21
9.0
 12
0.0
 22
0.0
 32
0.0
 14
1.000000000000000E+20
 24
1.000000000000000E+20
 34
1.000000000000000E+20
 15
-1.000000000000000E+20
 25
-1.000000000000000E+20
 35
-1.000000000000000E+20
146
0.0
 13
0.0
 23
0.0
 33
0.0
 16
1.0
 26
0.0
 36
0.0
 17
0.0
 27
1.0
 37
0.0
 76
     0
330
D
  0
LAYOUT
  5
B
102
{ACAD_REACTORS
330
C
102
}
330
C
100
AcDbPlotSettings
  1

  2
HP LaserJet 5.pc3
  4
Letter
  6

 40
7.143749713897705
 41
6.381738662719726
 42
7.14373779296875
 43
6.381744384765625
 44
215.8999938964843
 45
279.3999938964843
 46
0.0
 47
0.0
 48
867.0979978764448
 49
646.6651317110963
140
930.1887950717759
141
693.5985296246963
142
1.0
143
12.49647508885015
 70
 11952
 72
     0
 73
     1
 74
     1
  7

 75
     0
147
0.0800225657947527
148
-21011.02032145595
149
-15817.99531802125
100
AcDbLayout
  1
Model
 70
     1
 71
     0
 10
0.0
 20
0.0
 11
12.0
 21
9.0
 12
0.0
 22
0.0
 32
0.0
 14
0.0
 24
0.0
 34
0.0
 15
0.0
 25
0.0
 35
0.0
146
0.0
 13
0.0
 23
0.0
 33
0.0
 16
1.0
 26
0.0
 36
0.0
 17
0.0
 27
1.0
 37
0.0
 76
     0
330
2
  0
MLINESTYLE
  5
25
102
{ACAD_REACTORS
330
22
102
}
330
22
100
AcDbMlineStyle
  2
STANDARD
 70
     0
  3

 62
   256
 51
90.0
 52
90.0
 71
     2
 49
0.5
 62
   256
  6
BYLAYER
 49
-0.5
 62
   256
  6
BYLAYER
  0
PLOTSETTINGS
  5
7C0ED
102
{ACAD_REACTORS
330
23
102
}
330
23
100
AcDbPlotSettings
  1
EXOT1
  2
none_device
  4
Letter_(8.50_x_11.00_Inches)
  6

 40
6.349999904632568
 41
6.349999904632568
 42
6.350006103515625
 43
6.350006103515625
 44
215.8999938964843
 45
279.3999938964843
 46
0.0
 47
0.0
 48
103.0850064956629
 49
-9.683547388295792
140
103.9154412227691
141
-9.137474670122287
142
1.0
143
6.008830949410951
 70
  1712
 72
     0
 73
     1
 74
     1
  7

 75
     0
147
0.1664217230305057
148
0.0244351407155108
149
0.0181773607759482
  0
ACDBPLACEHOLDER
  5
6
102
{ACAD_REACTORS
330
7
102
}
330
7
  0
VBA_PROJECT
  5
A56E4
102
{ACAD_REACTORS
330
A56E3
102
}
330
A56E3
100
AcDbVbaProject
 90
     7680
310
D0CF11E0A1B11AE1000000000000000000000000000000003E000300FEFF0900060000000000000000000000010000000100000000000000001000000200000001000000FEFFFFFF0000000000000000FFFFFFFFFFFFFFFFFFFFFFFFFFFFFFFFFFFFFFFFFFFFFFFFFFFFFFFFFFFFFFFFFFFFFFFFFFFFFFFFFFFFFFFFFFFFFF
310
FFFFFFFFFFFFFFFFFFFFFFFFFFFFFFFFFFFFFFFFFFFFFFFFFFFFFFFFFFFFFFFFFFFFFFFFFFFFFFFFFFFFFFFFFFFFFFFFFFFFFFFFFFFFFFFFFFFFFFFFFFFFFFFFFFFFFFFFFFFFFFFFFFFFFFFFFFFFFFFFFFFFFFFFFFFFFFFFFFFFFFFFFFFFFFFFFFFFFFFFFFFFFFFFFFFFFFFFFFFFFFFFFFFFFFFFFFFFFFFFFFFFFFFFFFFFFF
310
FFFFFFFFFFFFFFFFFFFFFFFFFFFFFFFFFFFFFFFFFFFFFFFFFFFFFFFFFFFFFFFFFFFFFFFFFFFFFFFFFFFFFFFFFFFFFFFFFFFFFFFFFFFFFFFFFFFFFFFFFFFFFFFFFFFFFFFFFFFFFFFFFFFFFFFFFFFFFFFFFFFFFFFFFFFFFFFFFFFFFFFFFFFFFFFFFFFFFFFFFFFFFFFFFFFFFFFFFFFFFFFFFFFFFFFFFFFFFFFFFFFFFFFFFFFFFF
310
FFFFFFFFFFFFFFFFFFFFFFFFFFFFFFFFFFFFFFFFFFFFFFFFFFFFFFFFFFFFFFFFFFFFFFFFFFFFFFFFFFFFFFFFFFFFFFFFFFFFFFFFFFFFFFFFFFFFFFFFFFFFFFFFFFFFFFFFFFFFFFFFFFFFFFFFFFFFFFFFFFFFFFFFFFFFFFFFFFFFFFFFFFFFFFFFFFFFFFFFFFFFFFFFFFFFFFFFFFFFFFFFFFFFFFFFFFFFFFFFFFFFFFFFFFFFFF
310
FFFFFFFFFDFFFFFF04000000FEFFFFFF050000000D000000060000000700000008000000090000000A0000000B0000000C000000FEFFFFFFFEFFFFFFFFFFFFFFFFFFFFFFFFFFFFFFFFFFFFFFFFFFFFFFFFFFFFFFFFFFFFFFFFFFFFFFFFFFFFFFFFFFFFFFFFFFFFFFFFFFFFFFFFFFFFFFFFFFFFFFFFFFFFFFFFFFFFFFFFFFFF
310
FFFFFFFFFFFFFFFFFFFFFFFFFFFFFFFFFFFFFFFFFFFFFFFFFFFFFFFFFFFFFFFFFFFFFFFFFFFFFFFFFFFFFFFFFFFFFFFFFFFFFFFFFFFFFFFFFFFFFFFFFFFFFFFFFFFFFFFFFFFFFFFFFFFFFFFFFFFFFFFFFFFFFFFFFFFFFFFFFFFFFFFFFFFFFFFFFFFFFFFFFFFFFFFFFFFFFFFFFFFFFFFFFFFFFFFFFFFFFFFFFFFFFFFFFFFFFF
310
FFFFFFFFFFFFFFFFFFFFFFFFFFFFFFFFFFFFFFFFFFFFFFFFFFFFFFFFFFFFFFFFFFFFFFFFFFFFFFFFFFFFFFFFFFFFFFFFFFFFFFFFFFFFFFFFFFFFFFFFFFFFFFFFFFFFFFFFFFFFFFFFFFFFFFFFFFFFFFFFFFFFFFFFFFFFFFFFFFFFFFFFFFFFFFFFFFFFFFFFFFFFFFFFFFFFFFFFFFFFFFFFFFFFFFFFFFFFFFFFFFFFFFFFFFFFFF
310
FFFFFFFFFFFFFFFFFFFFFFFFFFFFFFFFFFFFFFFFFFFFFFFFFFFFFFFFFFFFFFFFFFFFFFFFFFFFFFFFFFFFFFFFFFFFFFFFFFFFFFFFFFFFFFFFFFFFFFFFFFFFFFFFFFFFFFFFFFFFFFFFFFFFFFFFFFFFFFFFFFFFFFFFFFFFFFFFFFFFFFFFFFFFFFFFFFFFFFFFFFFFFFFFFFFFFFFFFFFFFFFFFFFFFFFFFFFFFFFFFFFFFFFFFFFFFF
310
FFFFFFFFFFFFFFFF52006F006F007400200045006E00740072007900000000000000000000000000000000000000000000000000000000000000000000000000000000000000000016000500FFFFFFFFFFFFFFFF010000000000000000000000000000000000000000000000000000000000000040258D65F6AEBF01030000
310
00C0100000000000005600420041005F00500072006F006A0065006300740000000000000000000000000000000000000000000000000000000000000000000000000000000000000018000101FFFFFFFF0800000006000000000000000000000000000000000000000000000040258D65F6AEBF0140258D65F6AEBF010000
310
000000000000000000005600420041000000000000000000000000000000000000000000000000000000000000000000000000000000000000000000000000000000000000000000000008000100FFFFFFFFFFFFFFFF04000000000000000000000000000000000000000000000040258D65F6AEBF0140258D65F6AEBF0100
310
00000000000000000000006400690072000000000000000000000000000000000000000000000000000000000000000000000000000000000000000000000000000000000000000000000008000200FFFFFFFFFFFFFFFFFFFFFFFF000000000000000000000000000000000000000000000000000000000000000000000000
310
00000000F90100000000000001000000020000000300000004000000050000000600000007000000FEFFFFFF090000000A0000000B0000000C0000000D0000000E0000000F0000001000000011000000120000001300000014000000150000001600000017000000FEFFFFFF190000001A0000001B0000001C0000001D0000
310
001E0000001F000000200000002100000022000000230000002400000025000000260000002700000028000000290000002A0000002B0000002C0000002D0000002E0000002F000000300000003100000032000000330000003400000035000000360000003700000038000000390000003A0000003B000000FEFFFFFF3D00
310
00003E0000003F00000040000000FEFFFFFFFEFFFFFFFEFFFFFFFFFFFFFFFFFFFFFFFFFFFFFFFFFFFFFFFFFFFFFFFFFFFFFFFFFFFFFFFFFFFFFFFFFFFFFFFFFFFFFFFFFFFFFFFFFFFFFFFFFFFFFFFFFFFFFFFFFFFFFFFFFFFFFFFFFFFFFFFFFFFFFFFFFFFFFFFFFFFFFFFFFFFFFFFFFFFFFFFFFFFFFFFFFFFFFFFFFFFFFFFF
310
FFFFFFFFFFFFFFFFFFFFFFFFFFFFFFFFFFFFFFFFFFFFFFFFFFFFFFFFFFFFFFFFFFFFFFFFFFFFFFFFFFFFFFFFFFFFFFFFFFFFFFFFFFFFFFFFFFFFFFFFFFFFFFFFFFFFFFFFFFFFFFFFFFFFFFFFFFFFFFFFFFFFFFFFFFFFFFFFFFFFFFFFFFFFFFFFFFFFFFFFFFFFFFFFFFFFFFFFFFFFFFFFFFFFFFFFFFFFFFFFFFFFFFFFFFFFFF
310
FFFFFFFFFFFFFFFFFFFFFFFFFFFFFFFF01F5B1800100040000000100302A020290090070140648030082020064E40404000B001C004143414450726F6A10656374050038000040D5021406020A3D020A07027401140A080612090212DF3EBD382811000C024A3C020A16000101727374646F6C653E0102197300740064006F
310
00006C0065000D00660500255C00032A5C477B3000303032303433302D3B0008040443000A020E011230300034367D23322E3023003023433A5C57494E00444F57535C5359530054454D5C5354444F004C45322E544C4223010008204175746F6D613074696F6E005E00011600020780024D53466F726D10733E000E010600
310
53000246004572006D007300682F007A800970800101463600354238343236302D00344131382D31314400312D384439372D348034343535333534014803174604332E545744234D006963726F736F66748A20023D200060204F6201B000204C69627261727947003900011E50300090001372038001015038393136374580
310
30362D35343239275081804A505C5642455C8528044558A728E12E450D8F00E01A10852E02608C284D0BB481940F828F01002213C2017044198291546800697344726177696E44671A0D04320016C030541000680069805D4400721000610077C0026E006744001C4006000048420131C1C2941F0300001E42020105A22C42
310
197E442242082B420102104201000000000000005400680069007300440072006100770069006E006700000000000000000000000000000000000000000000000000000000000000000000000000000000000000180002010300000005000000FFFFFFFF000000000000000000000000000000000000000000000000000000
310
00000000000000000008000000D0030000000000005F005600420041005F00500052004F004A00450043005400000000000000000000000000000000000000000000000000000000000000000000000000000000001A000200FFFFFFFFFFFFFFFFFFFFFFFF0000000000000000000000000000000000000000000000000000
310
0000000000000000000018000000EA08000000000000500052004F004A004500430054000000000000000000000000000000000000000000000000000000000000000000000000000000000000000000000000000000100002010200000007000000FFFFFFFF00000000000000000000000000000000000000000000000000
310
00000000000000000000003C0000002201000000000000500052004F004A0045004300540077006D000000000000000000000000000000000000000000000000000000000000000000000000000000000000000000000014000200FFFFFFFFFFFFFFFFFFFFFFFF000000000000000000000000000000000000000000000000
310
0000000000000000000000004100000026000000000000000116010000B600FFFF010100000000FFFFFFFF00000000FFFFFFFFFFFF0000000000000000000000000000000000000000000000000000000000000000000000000000000000000000000000000000000010000000030000000500000007000000FFFFFFFFFFFF
310
FFFF010108000000FFFFFFFF78000000DE000000AF020000F5010000FFFFFFFF000000000100000070447E440000FFFF2300000088000000080000000000000000000000000000000000000000000000000000000000000000FFFF0000CB020000D6000000D60000001F0300000000FFFFFFFF00000000DF00FFFF00000000
310
0C00FFFFFFFFFFFFFFFFFFFFFFFFFFFFFFFFFFFFFFFFFFFFFFFFFFFFFFFFFFFFFFFFFFFFFFFFFFFFFFFFFFFFFFFFFFFFFFFFFFFFFFFFFFFFFFFFFFFFFFFFFFFFFFFFFFFFFFFFFFFFFFFFFFFFFFFFFFFFFFFFFFFFFFFFFFFFFFFFFFFFFFFFFFFFFFFFFFFFFFFFFFFFFFFFFFFFFFFFFFFFFFFFFFFFFFFFFFFFFFFFFFFFFFFFFF
310
FFFFFF280000000200534CFFFFFFFF000001005310FFFFFFFF000001005394FFFFFFFF00000000023CFFFFFFFF0000FFFF01010000000001004E0030007B00380045003700350044003900310033002D0033004400320031002D0031003100440032002D0038003500430034002D0030003800300030003000390041003000
310
43003600320036007D00000000000000DF00000000FFFFFFFF0101380000000281FEFFFFFFFFFFFFFFFFFF280000000000FFFF0000000000000000FFFFFFFFFFFFFFFF000000001D00000024000000FFFFFFFF480000000000FFFF00000100000000000000FFFFFFFFFFFFFFFFFFFFFFFF00000000FFFFFFFFFFFFFFFFFFFF
310
FFFFFFFFFFFF00000000FFFFFFFFFFFFFFFFFFFFFFFFFFFFFFFF0000000001000000FFFFFFFFFFFFFFFF00000000FFFFFFFFFFFFFFFFFFFFFFFFFFFFFFFFFFFFFFFFFFFFFFFFFFFFFFFFFFFF4D450000FFFFFFFFFFFF00000000FFFF00000000FFFF0101000000000000000000000000000000000000000000000000000000
310
00000000000000000000000000000000000000000000000000000000000000000000000000FECA01000000FFFFFFFF010108000000FFFFFFFF7800000001ADB000417474726962757400652056425F4E616D0065203D2022546869007344726177696E6788220D0A0A88426173028800307B3845373544390031332D334432
310
312D00313144322D38354300342D303830303039804130433632367D0D7C00437265617461626C41018646616C73650CBC508072656465636C610006444964008A5472750D22452078706F7365141C5465006D706C6174654465187269760224116543757360746F6D697A0488033200000000000000000000000000000000
310
0000000000000000000000000000000000000000000000000000000000000000CC615E00000100FF0904000009040000E4040100000000000000000001000400020016012A005C0047007B00300030003000320030003400450046002D0030003000300030002D0030003000300030002D0043003000300030002D00300030
310
0030003000300030003000300030003000340036007D00230033002E00300023003900230043003A005C00500052004F004700520041004D002000460049004C00450053005C0043004F004D004D004F004E002000460049004C00450053005C004D004900430052004F0053004F0046005400200053004800410052004500
310
44005C005600420041005C005600420041003300330032002E0044004C004C002300560069007300750061006C00200042006100730069006300200046006F00720020004100700070006C00690063006100740069006F006E007300000000000000000000000000CE002A005C0047007B0043003000390034004300310045
310
0032002D0035003700430036002D0031003100440032002D0038003500450033002D003000380030003000300039004100300043003600320036007D00230031002E00310023003000230043003A005C00500072006F006700720061006D002000460069006C00650073005C004D00440054005C0041004300410044002E00
310
54004C00420023004100750074006F00430041004400200032003000300030002000540079007000650020004C00690062007200610072007900000000000000000000000000B8002A005C0047007B00300030003000320030003400330030002D0030003000300030002D0030003000300030002D0043003000300030002D
310
003000300030003000300030003000300030003000340036007D00230032002E00300023003000230043003A005C00570049004E0044004F00570053005C00530059005300540045004D005C005300540044004F004C00450032002E0054004C00420023004F004C00450020004100750074006F006D006100740069006F00
310
6E00000000000000000000000000E0002A005C0047007B00360035004200380034003200360030002D0034004100310038002D0031003100440031002D0038004400390037002D003400340034003500350033003500340030003000300030007D00230032002E00300023003000230043003A005C00570049004E0044004F
310
00570053005C00530059005300540045004D005C004D00530046006F0072006D0073002E0054005700440023004D006900630072006F0073006F0066007400200046006F0072006D007300200032002E00300020004F0062006A0065006300740020004C00690062007200610072007900000000000000000000000100E400
310
2A005C0047007B00380039003100360037004500300036002D0035003400320039002D0031003100440031002D0038004400390037002D003400340034003500350033003500340030003000300030007D00230032002E00300023003000230043003A005C00570049004E0044004F00570053005C00540045004D0050005C
310
005600420045005C004D00530046006F0072006D0073002E0045005800440023004D006900630072006F0073006F0066007400200046006F0072006D007300200032002E00300020004F0062006A0065006300740020004C006900620072006100720079000000000000000000000001000000E12E450D8FE01A10852E0260
310
8C4D0BB400000100020003000402000006020100080200001002FFFFFFFFFFFF00000000FFFF0000DF3EBD381100FFFFFFFFFFFFFFFF0000FFFFFFFFFFFFFFFFFFFFFFFFFFFFFFFFFFFFFFFFFFFFFFFFFFFFFFFFFFFFFFFFFFFFFFFFFFFFFFFFFFFFFFFFFFFFFFFFFFFFFFFFFFFF0100000000000000000000000000000000
310
0000007044010016005400680069007300440072006100770069006E0067000A003131333862643365646603002A44011302FFFF7E4400000000000000020000001F030000FFFFFFFFFFFF010120020000FFFFFFFFFFFFFFFFFFFFFFFFFFFFFFFFFFFFFFFFFFFFFFFFFFFFFFFFFFFFFFFFFFFFFFFFFFFFFFFFFFFFFFFFFFFF
310
FFFFFFFFFFFFFFFFFFFFFFFFFFFFFFFFFFFFFFFFFFFFFFFFFFFFFFFFFFFFFFFFFFFFFFFFFFFFFFFFFFFFFFFFFFFFFFFFFFFFFFFFFFFFFFFFFFFFFFFFFFFFFFFFFFFFFFFFFFFFFFFFFFFFFFFFFFFFFFFFFFFFFFFFFFFFFFFFFFFFFFFFFFFFFFFFFFFFFFFFFFFFFFFFFFFFFFFFFFFFFFFFFFFFFFFFFFFFFFFFFFFFFFFFFFFFFF
310
FFFFFFFFFFFFFFFFFFFFFFFFFFFFFFFFFFFFFFFFFFFFFFFFFFFFFFFFFFFFFFFFFFFFFFFFFFFFFFFFFFFFFFFFFFFFFFFFFFFFFFFFFFFFFFFFFFFFFFFFFFFFFFFFFFFFFFFFFFFFFFFFFFFFFFFFFFFFFFFFFFFFFFFFFFFFFFFFFFFFFFFFFFFFFFFFFFFFFFFFFFFFFFFFFFFFFFFFFFFFFFFFFFFFFFFFFFFFFFFFFFFFFFFFFFFFFF
310
FFFFFFFFFFFFFFFFFFFFFFFFFFFFFFFFFFFFFFFFFFFFFFFFFFFFFFFFFFFFFFFFFFFFFFFFFFFFFFFFFFFFFFFFFFFFFFFFFFFFFFFFFFFFFFFFFFFFFFFFFFFFFFFFFFFFFFFFFFFFFFFFFFFFFFFFFFFFFFFFFFFFFFFFFFFFFFFFFFFFFFFFFFFFFFFFFFFFFFFFFFFFFFFFFFFFFFFFFFFFFFFFFFFFFFFFFFFFFFFFFFFFFFFFFFFFFF
310
FFFFFFFFFFFFFFFFFFFFFFFFFFFFFFFFFFFFFFFFFFFFFFFFFFFFFFFFFFFFFFFFFFFFFFFFFFFFFFFFFFFFFFFFFFFFFFFFFFFFFFFFFFFFFFFFFFFFFFFFFFFFFFFFFFFFFFFFFFFFFFFFFF00020000FFFFFFFFFFFFFFFFCA74DC145FEFD3118DA400A0C981A35FFFFFFFFF01000000FFFFFFFF600000008000000000000B010C00
310
FF008825000007044175746F43414422F810000304564241F7E21000050457696E3136C17E1000050457696E3332077F100003044D6163B3B21000080450726F6A656374310A17100006047374646F6C659360100007004D53466F726D73430F10000B044143414450726F6A656374A6D410000B045468697344726177696E
310
67B935100009800000FF03FFFF5F4576616C7561746518D910000C0441636164446F63756D656E741B5A100002FFFF0101480000001002FFFFFFFF130200000100FFFFFFFFFFFFFFFFFFFFFFFF00020100FFFF02020000FFFFFFFFFFFFFFFFFFFFFFFFFFFFFFFFFFFFFFFFFFFFFFFFFFFF0C020200FFFF0E020300FFFF0100
310
0C0000000100120000000000000000000000000000000000000000000000000000000000000000000000000000000000000049443D227B31344443373444302D454635462D313144332D384441342D3030413043393831413335467D220D0A446F63756D656E743D5468697344726177696E672F264830303030303030300D
310
0A4E616D653D224143414450726F6A656374220D0A48656C70436F6E7465787449443D2230220D0A434D473D2235303532424333414330334143303341433033414330220D0A4450423D22384138383636344541313446413134464131220D0A47433D224334433632383838353843333539433335393343220D0A0D0A5B48
310
6F737420457874656E64657220496E666F5D0D0A264830303030303030313D7B33383332443634302D434639302D313143462D384534332D3030413043393131303035417D3B5642453B264830303030303030300D0A0000000000000000000000000000000000000000000000000000000000005468697344726177696E67
310
005400680069007300440072006100770069006E0067000000000000000000000000000000000000000000000000000000000000000F00000000000000000000000000000000000000000000000000000000000000000000000000000000000000000000000000000000000000000000000000000000000000000000000000
310
00000000000000000000000000000000000000000000000000000000000000000000000000000000000000000000000000000000000000000000000000000000000000000000000000000000000000000000000000000000000000000000000000000000000000000000000000000000000000000000000000000000000000
310
00000000000000000000000000000000000000000000000000000000000000000000000000000000000000000000000000000000000000000000000000000000000000000000000000000000000000000000000000000000000000000000000000000000000000000000000000000000000000000000000000000000000000
310
00000000000000000000000000000000000000000000000000000000000000000000000000000000000000000000000000000000000000005600420041005F00500072006F006A006500630074005F00560065007200730069006F006E00000000000000000000000000000000000000000000000000000028000200FFFFFF
310
FFFFFFFFFFFFFFFFFF0000000000000000000000000000000000000000000000000000000000000000000000004200000008000000000000000000000000000000000000000000000000000000000000000000000000000000000000000000000000000000000000000000000000000000000000000000000000000000FFFF
310
FFFFFFFFFFFFFFFFFFFF0000000000000000000000000000000000000000000000000000000000000000000000000000000000000000000000000000000000000000000000000000000000000000000000000000000000000000000000000000000000000000000000000000000000000000000000000000000000000000FF
310
FFFFFFFFFFFFFFFFFFFFFF0000000000000000000000000000000000000000000000000000000000000000000000000000000000000000000000000000000000000000000000000000000000000000000000000000000000000000000000000000000000000000000000000000000000000000000000000000000000000000
310
FFFFFFFFFFFFFFFFFFFFFFFF000000000000000000000000000000000000000000000000000000000000000000000000000000000000000000000000
  0
XRECORD
  5
A5580
102
{ACAD_REACTORS
330
A557F
102
}
330
A557F
100
AcDbXrecord
280
     1
330
7C12C
330
7C12F
330
7C130
330
7C131
330
8AB84
330
8B751
330
8BDA9
330
0
330
A5502
330
A5503
330
A5504
330
A5505
330
A5506
330
A5507
330
A5508
330
0
330
0
330
A5606
330
A5607
330
A5608
330
A5609
330
A560A
330
A560B
330
A560C
330
0
  0
ENDSEC
  0
EOF
