  0
SECTION
  2
HEADER
  9
$ACADVER
  1
AC1015
  9
$ACADMAINTVER
 70
     6
  9
$DWGCODEPAGE
  3
ANSI_1252
  9
$INSBASE
 10
0.0
 20
0.0
 30
0.0
  9
$EXTMIN
 10
608.8788159902975
 20
83.1890992328565
 30
0.0
  9
$EXTMAX
 10
679.3638546169214
 20
135.6230913819304
 30
0.0
  9
$LIMMIN
 10
0.0
 20
0.0
  9
$LIMMAX
 10
12.0
 20
9.0
  9
$ORTHOMODE
 70
     0
  9
$REGENMODE
 70
     1
  9
$FILLMODE
 70
     1
  9
$QTEXTMODE
 70
     0
  9
$MIRRTEXT
 70
     0
  9
$LTSCALE
 40
1.0
  9
$ATTMODE
 70
     2
  9
$TEXTSIZE
 40
1.0
  9
$TRACEWID
 40
0.05
  9
$TEXTSTYLE
  7
STANDARD
  9
$CLAYER
  8
A1
  9
$CELTYPE
  6
BYLAYER
  9
$CECOLOR
 62
     7
  9
$CELTSCALE
 40
1.0
  9
$DISPSILH
 70
     0
  9
$DIMSCALE
 40
1.0
  9
$DIMASZ
 40
0.5
  9
$DIMEXO
 40
1.0
  9
$DIMDLI
 40
0.0625
  9
$DIMRND
 40
0.0
  9
$DIMDLE
 40
0.0
  9
$DIMEXE
 40
0.25
  9
$DIMTP
 40
0.0
  9
$DIMTM
 40
0.0
  9
$DIMTXT
 40
1.0
  9
$DIMCEN
 40
0.0
  9
$DIMTSZ
 40
0.0
  9
$DIMTOL
 70
     0
  9
$DIMLIM
 70
     0
  9
$DIMTIH
 70
     1
  9
$DIMTOH
 70
     1
  9
$DIMSE1
 70
     0
  9
$DIMSE2
 70
     0
  9
$DIMTAD
 70
     0
  9
$DIMZIN
 70
     0
  9
$DIMBLK
  1

  9
$DIMASO
 70
     1
  9
$DIMSHO
 70
     1
  9
$DIMPOST
  1
"
  9
$DIMAPOST
  1

  9
$DIMALT
 70
     0
  9
$DIMALTD
 70
     0
  9
$DIMALTF
 40
25.4
  9
$DIMLFAC
 40
1.0
  9
$DIMTOFL
 70
     0
  9
$DIMTVP
 40
0.0
  9
$DIMTIX
 70
     0
  9
$DIMSOXD
 70
     0
  9
$DIMSAH
 70
     0
  9
$DIMBLK1
  1

  9
$DIMBLK2
  1

  9
$DIMSTYLE
  2
STANDARD
  9
$DIMCLRD
 70
     0
  9
$DIMCLRE
 70
     0
  9
$DIMCLRT
 70
     0
  9
$DIMTFAC
 40
0.125
  9
$DIMGAP
 40
0.5
  9
$DIMJUST
 70
     0
  9
$DIMSD1
 70
     0
  9
$DIMSD2
 70
     0
  9
$DIMTOLJ
 70
     1
  9
$DIMTZIN
 70
     0
  9
$DIMALTZ
 70
     2
  9
$DIMALTTZ
 70
     2
  9
$DIMUPT
 70
     1
  9
$DIMDEC
 70
     4
  9
$DIMTDEC
 70
     4
  9
$DIMALTU
 70
     2
  9
$DIMALTTD
 70
     0
  9
$DIMTXSTY
  7
STANDARD
  9
$DIMAUNIT
 70
     0
  9
$DIMADEC
 70
     0
  9
$DIMALTRND
 40
0.0
  9
$DIMAZIN
 70
     0
  9
$DIMDSEP
 70
    46
  9
$DIMATFIT
 70
     1
  9
$DIMFRAC
 70
     2
  9
$DIMLDRBLK
  1

  9
$DIMLUNIT
 70
     5
  9
$DIMLWD
 70
    -2
  9
$DIMLWE
 70
    -2
  9
$DIMTMOVE
 70
     1
  9
$LUNITS
 70
     5
  9
$LUPREC
 70
     4
  9
$SKETCHINC
 40
0.1
  9
$FILLETRAD
 40
0.0
  9
$AUNITS
 70
     0
  9
$AUPREC
 70
     1
  9
$MENU
  1
acad
  9
$ELEVATION
 40
0.0
  9
$PELEVATION
 40
0.0
  9
$THICKNESS
 40
0.0
  9
$LIMCHECK
 70
     0
  9
$CHAMFERA
 40
0.75
  9
$CHAMFERB
 40
0.75
  9
$CHAMFERC
 40
0.0
  9
$CHAMFERD
 40
0.0
  9
$SKPOLY
 70
     0
  9
$TDCREATE
 40
2451085.664838310
  9
$TDUCREATE
 40
2451085.831504977
  9
$TDUPDATE
 40
2451660.698032407
  9
$TDUUPDATE
 40
2451660.864699074
  9
$TDINDWG
 40
2.6717759259
  9
$TDUSRTIMER
 40
2.6717759259
  9
$USRTIMER
 70
     1
  9
$ANGBASE
 50
0.0
  9
$ANGDIR
 70
     0
  9
$PDMODE
 70
     0
  9
$PDSIZE
 40
0.0
  9
$PLINEWID
 40
0.0
  9
$SPLFRAME
 70
     0
  9
$SPLINETYPE
 70
     6
  9
$SPLINESEGS
 70
     8
  9
$HANDSEED
  5
12AE8
  9
$SURFTAB1
 70
     6
  9
$SURFTAB2
 70
     6
  9
$SURFTYPE
 70
     6
  9
$SURFU
 70
     6
  9
$SURFV
 70
     6
  9
$UCSBASE
  2

  9
$UCSNAME
  2

  9
$UCSORG
 10
0.0
 20
0.0
 30
0.0
  9
$UCSXDIR
 10
1.0
 20
0.0
 30
0.0
  9
$UCSYDIR
 10
0.0
 20
1.0
 30
0.0
  9
$UCSORTHOREF
  2

  9
$UCSORTHOVIEW
 70
     0
  9
$UCSORGTOP
 10
0.0
 20
0.0
 30
0.0
  9
$UCSORGBOTTOM
 10
0.0
 20
0.0
 30
0.0
  9
$UCSORGLEFT
 10
0.0
 20
0.0
 30
0.0
  9
$UCSORGRIGHT
 10
0.0
 20
0.0
 30
0.0
  9
$UCSORGFRONT
 10
0.0
 20
0.0
 30
0.0
  9
$UCSORGBACK
 10
0.0
 20
0.0
 30
0.0
  9
$PUCSBASE
  2

  9
$PUCSNAME
  2

  9
$PUCSORG
 10
0.0
 20
0.0
 30
0.0
  9
$PUCSXDIR
 10
1.0
 20
0.0
 30
0.0
  9
$PUCSYDIR
 10
0.0
 20
1.0
 30
0.0
  9
$PUCSORTHOREF
  2

  9
$PUCSORTHOVIEW
 70
     0
  9
$PUCSORGTOP
 10
0.0
 20
0.0
 30
0.0
  9
$PUCSORGBOTTOM
 10
0.0
 20
0.0
 30
0.0
  9
$PUCSORGLEFT
 10
0.0
 20
0.0
 30
0.0
  9
$PUCSORGRIGHT
 10
0.0
 20
0.0
 30
0.0
  9
$PUCSORGFRONT
 10
0.0
 20
0.0
 30
0.0
  9
$PUCSORGBACK
 10
0.0
 20
0.0
 30
0.0
  9
$USERI1
 70
     0
  9
$USERI2
 70
     0
  9
$USERI3
 70
     0
  9
$USERI4
 70
     0
  9
$USERI5
 70
     0
  9
$USERR1
 40
0.0
  9
$USERR2
 40
0.0
  9
$USERR3
 40
0.0
  9
$USERR4
 40
0.0
  9
$USERR5
 40
0.0
  9
$WORLDVIEW
 70
     1
  9
$SHADEDGE
 70
     1
  9
$SHADEDIF
 70
    70
  9
$TILEMODE
 70
     1
  9
$MAXACTVP
 70
    16
  9
$PINSBASE
 10
0.0
 20
0.0
 30
0.0
  9
$PLIMCHECK
 70
     0
  9
$PEXTMIN
 10
1.000000000000000E+20
 20
1.000000000000000E+20
 30
1.000000000000000E+20
  9
$PEXTMAX
 10
-1.000000000000000E+20
 20
-1.000000000000000E+20
 30
-1.000000000000000E+20
  9
$PLIMMIN
 10
0.0
 20
0.0
  9
$PLIMMAX
 10
12.0
 20
9.0
  9
$UNITMODE
 70
     0
  9
$VISRETAIN
 70
     0
  9
$PLINEGEN
 70
     0
  9
$PSLTSCALE
 70
     1
  9
$TREEDEPTH
 70
  3020
  9
$CMLSTYLE
  2
STANDARD
  9
$CMLJUST
 70
     0
  9
$CMLSCALE
 40
1.0
  9
$PROXYGRAPHICS
 70
     1
  9
$MEASUREMENT
 70
     0
  9
$CELWEIGHT
370
    -1
  9
$ENDCAPS
280
     0
  9
$JOINSTYLE
280
     0
  9
$LWDISPLAY
290
     0
  9
$INSUNITS
 70
     0
  9
$HYPERLINKBASE
  1

  9
$STYLESHEET
  1

  9
$XEDIT
290
     1
  9
$CEPSNTYPE
380
     0
  9
$PSTYLEMODE
290
     1
  9
$FINGERPRINTGUID
  2
{A6232B84-9B2E-11D3-8DA4-00A0C981A35F}
  9
$VERSIONGUID
  2
{86898238-1468-11D4-8DA4-00A0C981A35F}
  9
$EXTNAMES
290
     1
  9
$PSVPSCALE
 40
0.0
  9
$OLESTARTUP
290
     0
  0
ENDSEC
  0
SECTION
  2
CLASSES
  0
CLASS
  1
DICTIONARYVAR
  2
AcDbDictionaryVar
  3
AutoCAD 2000
 90
        0
280
     0
281
     0
  0
CLASS
  1
LWPOLYLINE
  2
AcDbPolyline
  3
AutoCAD 2000
 90
    32768
280
     0
281
     1
  0
CLASS
  1
RASTERVARIABLES
  2
AcDbRasterVariables
  3
ISM
 90
    32768
280
     0
281
     0
  0
CLASS
  1
ACDBDICTIONARYWDFLT
  2
AcDbDictionaryWithDefault
  3
AutoCAD 2000
 90
        0
280
     0
281
     0
  0
CLASS
  1
ACDBPLACEHOLDER
  2
AcDbPlaceHolder
  3
AutoCAD 2000
 90
        0
280
     0
281
     0
  0
CLASS
  1
LAYOUT
  2
AcDbLayout
  3
AutoCAD 2000
 90
        0
280
     0
281
     0
  0
CLASS
  1
ACME_DOCUMENT
  2
AcMeDbDoc
  3
AcMeServices
 90
    32768
280
     1
281
     0
  0
CLASS
  1
ACMESCOPE
  2
AcMeScope
  3
AcMeServices
 90
    32768
280
     1
281
     0
  0
CLASS
  1
ACMECOMMANDHISTORY
  2
AcMeCommandHistory
  3
AcMeServices
 90
    32768
280
     1
281
     0
  0
CLASS
  1
ACIMSYSVARMAN
  2
AcImSysVarManager
  3
AcMeServices
 90
    32768
280
     1
281
     0
  0
CLASS
  1
ACIMREALSYSVAR
  2
AcImRealSysVar
  3
AcMeServices
 90
    32768
280
     1
281
     0
  0
CLASS
  1
ACIMINTSYSVAR
  2
AcImIntSysVar
  3
AcMeServices
 90
    32768
280
     1
281
     0
  0
CLASS
  1
ACMEDRAWINGMAN
  2
AcMeDrawingMan
  3
AcMeServices
 90
    32768
280
     1
281
     0
  0
CLASS
  1
ACMEVIEW
  2
AcMeView
  3
AcMeServices
 90
    32768
280
     1
281
     0
  0
CLASS
  1
ACDBENTITYCACHE
  2
AcMeEntityCache
  3
AcMeServices
 90
    32768
280
     1
281
     0
  0
CLASS
  1
GSMANAGER
  2
AcMeGSManager
  3
AcMeServices
 90
    32768
280
     1
281
     0
  0
CLASS
  1
AmdtInternalReactor
  2
AmdtInternalReactor
  3
AcMeServices
 90
    32768
280
     1
281
     0
  0
CLASS
  1
ACMESTATEMGR
  2
AcMeStateMgr
  3
AcMeServices
 90
    32768
280
     1
281
     0
  0
CLASS
  1
ACGREFMASTER
  2
AcGrefMaster
  3
AcAttribServices
 90
    32768
280
     1
281
     0
  0
CLASS
  1
AM_DRAWING_MGR
  2
AcDmDwgMgr
  3
AcMechDwgViewMgmt
 90
    32768
280
     1
281
     0
  0
CLASS
  1
AM_DWG_DOCUMENT
  2
AcDmDwgDocument
  3
AcMechDwgViewMgmt
 90
    32768
280
     1
281
     0
  0
CLASS
  1
AM_DWG_SHEET
  2
AcDmSheet
  3
AcMechDwgViewMgmt
 90
    32768
280
     1
281
     0
  0
CLASS
  1
AM_VIEWDIMPARMAP
  2
AcDmViewDimParMap
  3
AcMechDwgViewMgmt
 90
    32768
280
     1
281
     0
  0
CLASS
  1
AM_DWGMGR_NAME
  2
AcDmDwgMgrName
  3
AcMechDwgViewMgmt
 90
    32768
280
     1
281
     0
  0
CLASS
  1
ACME_DATABASE
  2
AcMeDbDatabase
  3
AcMeServices
 90
    32768
280
     1
281
     0
  0
CLASS
  1
ACRFINSADJUSTERMGR
  2
AcRfInsAdjusterMgr
  3
AcMeServices
 90
    32768
280
     1
281
     0
  0
CLASS
  1
ACGREFMASTER
  2
AcGrefacadMaster
  3
AcGrefServices
 90
    32768
280
     1
281
     0
  0
CLASS
  1
AMDTMENUSTATEMGR
  2
AmdtMenuStateMgr
  3
McadcomServices
 90
    32768
280
     1
281
     0
  0
CLASS
  1
AMDTMCOMMENUSTATE
  2
AmdtMcomMenuState
  3
McadcomServices
 90
    32768
280
     1
281
     0
  0
CLASS
  1
ASAPP
  2
AcAsAppObject
  3
AutoSurfServices
 90
    32768
280
     1
281
     0
  0
CLASS
  1
IM_STATIC_MAN
  2
AcImStaticVarManager
  3
AcMeServices
 90
    32768
280
     1
281
     0
  0
CLASS
  1
ACIMSTRSYSVAR
  2
AcImStrSysVar
  3
AcMeServices
 90
    32768
280
     1
281
     0
  0
CLASS
  1
ACIMDBLSTATICVAR
  2
AcImDblStaticVar
  3
AcMeServices
 90
    32768
280
     1
281
     0
  0
CLASS
  1
ACIMSTRSTATICVAR
  2
AcImStrStaticVar
  3
AcMeServices
 90
    32768
280
     1
281
     0
  0
CLASS
  1
ACIMINTSTATICVAR
  2
AcImIntStaticVar
  3
AcMeServices
 90
    32768
280
     1
281
     0
  0
CLASS
  1
ACADGREFMODULE
  2
AcAdGrefModule
  3
AdGrefServices
 90
    32768
280
     1
281
     0
  0
CLASS
  1
AMIMASTER
  2
AmiMaster
  3
AmiServices
 90
    32768
280
     1
281
     0
  0
CLASS
  1
ACASGREFMASTER
  2
AcAsGrefMaster
  3
AutoSurfResolverServices
 90
    32768
280
     1
281
     0
  0
CLASS
  1
MAPIAMMOUDLE
  2
MApiAmModule
  3
MApiAmServices
 90
    32768
280
     1
281
     0
  0
CLASS
  1
AMDTDMMENUSTATE
  2
AmdtDmMenuState
  3
AcMechDwgViewMgmt
 90
    32768
280
     1
281
     0
  0
CLASS
  1
AMDTADMENUSTATE
  2
AmdtAdMenuState
  3
DesignerServices
 90
    32768
280
     1
281
     0
  0
CLASS
  1
ADAPPL
  2
AcAdAppl
  3
DesignerServices
 90
    32768
280
     1
281
     0
  0
CLASS
  1
DEPMGR
  2
AcAdDepMgr
  3
DesignerServices
 90
    32768
280
     1
281
     0
  0
CLASS
  1
PARAMMGR
  2
AcAdParamMgr
  3
DesignerServices
 90
    32768
280
     1
281
     0
  0
CLASS
  1
PARAMSCOPE
  2
AcAdParamScope
  3
DesignerServices
 90
    32768
280
     1
281
     0
  0
CLASS
  1
NAMEDAPPL
  2
AcAdNamedAppl
  3
DesignerServices
 90
    32768
280
     1
281
     0
  0
CLASS
  1
ADHNTMPLT
  2
AdHoleNoteTemplateMgr
  3
DesignerServices
 90
    32768
280
     1
281
     0
  0
CLASS
  1
AM_HNTEMPLATE_MGR_NAME
  2
AdHoleNoteTemplateMgrName
  3
DesignerServices
 90
    32768
280
     1
281
     0
  0
CLASS
  1
AMDTAMMENUSTATE
  2
AmdtAmMenuState
  3
DesignerAssemblies
 90
    32768
280
     1
281
     0
  0
CLASS
  1
ACAMPROJECT
  2
AcAmProject
  3
DesignerAssemblies
 90
    32768
280
     1
281
     0
  0
CLASS
  1
ACAMGRCOMPDEF
  2
AcAmGrCompDef
  3
DesignerAssemblies
 90
    32768
280
     1
281
     0
  0
CLASS
  1
ACCMCONTEXT
  2
AcCmContext
  3
DesignerAssemblies
 90
    32768
280
     1
281
     0
  0
CLASS
  1
ACAMCOMPDEF
  2
AcAmCompDef
  3
DesignerAssemblies
 90
    32768
280
     1
281
     0
  0
CLASS
  1
ACAMCOMPDEFMGR
  2
AcAmCompDefMgr
  3
DesignerAssemblies
 90
    32768
280
     1
281
     0
  0
CLASS
  1
AMCONTEXTMGR
  2
AcAmContextMgr
  3
DesignerAssemblies
 90
    32768
280
     1
281
     0
  0
CLASS
  1
ACAMCONTEXTMODELER
  2
AcAmContextModeler
  3
DesignerAssemblies
 90
    32768
280
     1
281
     0
  0
CLASS
  1
MAPIADMODULE
  2
MApiAdModule
  3
MApiAdServices
 90
    32768
280
     1
281
     0
  0
CLASS
  1
ACMDATADICTIONARY
  2
AcmDataDictionary
  3
"AcmSymBB|Product Description: AutoCAD Mechanical 2000|Company: Autodesk"
 90
    32768
280
     1
281
     0
  0
CLASS
  1
ACMDATAENTRYBLOCK
  2
AcmDataEntryBlock
  3
"AcmSymBB|Product Description: AutoCAD Mechanical 2000|Company: Autodesk"
 90
    32768
280
     1
281
     0
  0
CLASS
  1
AMDTBROWSERDBTAB
  2
AmdtBrowserDbTab
  3
McadcomServices
 90
    32768
280
     1
281
     0
  0
CLASS
  1
CBROWSERAPPOBJECT
  2
CBrowserAppObject
  3
McadcomServices
 90
    32768
280
     1
281
     0
  0
CLASS
  1
DM_PLACEHOLDER
  2
AcDmSelsetPlaceholder
  3
AcMechDwgViewMgmt
 90
    32768
280
     1
281
     0
  0
CLASS
  1
CATALOGSTATE
  2
AcAmCatalogState
  3
DesignerAssemblies
 90
    32768
280
     1
281
     0
  0
CLASS
  1
ACAMGRCOMPDEFSET
  2
AcAmGrCompDefSet
  3
DesignerAssemblies
 90
    32768
280
     1
281
     0
  0
CLASS
  1
AMGOBJPROPCFG
  2
AmgObjPropCfg
  3
"AmgLay|Product Description: AutoCAD Mechanical 2000|Company: Autodesk"
 90
    32769
280
     1
281
     0
  0
CLASS
  1
LAYER_INDEX
  2
AcDbLayerIndex
  3
AutoCAD 2000
 90
    32768
280
     0
281
     0
  0
CLASS
  1
IDBUFFER
  2
AcDbIdBuffer
  3
AutoCAD 2000
 90
    32768
280
     0
281
     0
  0
CLASS
  1
ACRFATTGENMGR
  2
AcRfAttGeneralMgr
  3
AcAttribServices
 90
    32768
280
     1
281
     0
  0
CLASS
  1
PLOTSETTINGS
  2
AcDbPlotSettings
  3
AutoCAD 2000
 90
        0
280
     0
281
     0
  0
CLASS
  1
VBA_PROJECT
  2
AcDbVbaProject
  3
acadvba
 90
        0
280
     0
281
     0
  0
CLASS
  1
LONG_TRANSACTION
  2
AcDbLongTransaction
  3
AutoCAD 2000
 90
    32768
280
     0
281
     0
  0
CLASS
  1
LWPOLYLINE
  2
AcDbPolyline
  3
AutoCAD 2000
 90
    32768
280
     0
281
     1
  0
CLASS
  1
HATCH
  2
AcDbHatch
  3
AutoCAD 2000
 90
    32768
280
     0
281
     1
  0
CLASS
  1
XRECORD
  2
AcDbXrecord
  3
AutoCAD 2000
 90
    32768
280
     0
281
     0
  0
ENDSEC
  0
SECTION
  2
TABLES
  0
TABLE
  2
VPORT
  5
1B
330
0
100
AcDbSymbolTable
 70
     2
  0
VPORT
  5
12AE7
330
1B
100
AcDbSymbolTableRecord
100
AcDbViewportTableRecord
  2
*Active
 70
     0
 10
0.0
 20
0.0
 11
1.0
 21
1.0
 12
708.5997778654655
 22
76.38053439085098
 13
0.0
 23
0.0
 14
1.0
 24
1.0
 15
0.0
 25
0.0
 16
0.0
 26
0.0
 36
1.0
 17
-64.46234487877643
 27
33.0238264231553
 37
6.148717398612387
 40
52.81348755194287
 41
1.413068844807467
 42
50.0
 43
-6.148717398612387
 44
-6.148717398612387
 50
0.0
 51
0.0
 71
     0
 72
 20000
 73
     1
 74
     1
 75
     0
 76
     0
 77
     0
 78
     2
281
     0
 65
     1
110
0.0
120
0.0
130
0.0
111
1.0
121
0.0
131
0.0
112
0.0
122
1.0
132
0.0
 79
     0
146
0.0
  0
ENDTAB
  0
TABLE
  2
LTYPE
  5
16
330
0
100
AcDbSymbolTable
 70
     1
  0
LTYPE
  5
17
330
16
100
AcDbSymbolTableRecord
100
AcDbLinetypeTableRecord
  2
BYBLOCK
 70
     0
  3

 72
    65
 73
     0
 40
0.0
  0
LTYPE
  5
18
330
16
100
AcDbSymbolTableRecord
100
AcDbLinetypeTableRecord
  2
BYLAYER
 70
     0
  3

 72
    65
 73
     0
 40
0.0
  0
LTYPE
  5
9
330
16
100
AcDbSymbolTableRecord
100
AcDbLinetypeTableRecord
  2
CONTINUOUS
 70
     0
  3
Solid line
 72
    65
 73
     0
 40
0.0
  0
ENDTAB
  0
TABLE
  2
LAYER
  5
11
330
0
100
AcDbSymbolTable
 70
     5
  0
LAYER
  5
5
330
11
100
AcDbSymbolTableRecord
100
AcDbLayerTableRecord
  2
0
 70
     0
 62
     7
  6
CONTINUOUS
370
    -3
390
6
  0
LAYER
  5
24
330
11
100
AcDbSymbolTableRecord
100
AcDbLayerTableRecord
  2
A1
 70
     0
 62
     7
  6
CONTINUOUS
370
    -3
390
6
  0
LAYER
  5
A6
330
11
100
AcDbSymbolTableRecord
100
AcDbLayerTableRecord
  2
Defpoints
 70
     0
 62
     7
  6
CONTINUOUS
290
     0
370
    -3
390
6
  0
LAYER
  5
DDE2
330
11
100
AcDbSymbolTableRecord
100
AcDbLayerTableRecord
  2
ASHADE
 70
     4
 62
     7
  6
CONTINUOUS
370
    -3
390
6
  0
LAYER
  5
128E6
330
11
100
AcDbSymbolTableRecord
100
AcDbLayerTableRecord
  2
LINEWORK
 70
     0
 62
    41
  6
CONTINUOUS
370
    -3
390
6
  0
ENDTAB
  0
TABLE
  2
STYLE
  5
12
330
0
100
AcDbSymbolTable
 70
     3
  0
STYLE
  5
13
330
12
100
AcDbSymbolTableRecord
100
AcDbTextStyleTableRecord
  2
STANDARD
 70
     0
 40
0.0
 41
1.0
 50
0.0
 71
     0
 42
1.0
  3
unvr55w.ttf
  4

1001
ACAD
1000
Univers
1071
       34
  0
STYLE
  5
128E7
330
12
100
AcDbSymbolTableRecord
100
AcDbTextStyleTableRecord
  2
ROMANC
 70
     0
 40
0.0
 41
1.0
 50
0.0
 71
     0
 42
0.5
  3
TIMESBD.TTF
  4

1001
ACAD
1000
Times New Roman
1071
 33554450
  0
STYLE
  5
128E8
330
12
100
AcDbSymbolTableRecord
100
AcDbTextStyleTableRecord
  2
barcoder
 70
     0
 40
0.0
 41
1.0
 50
0.0
 71
     0
 42
4.5625
  3
cw_barcd.ttf
  4

1001
ACAD
1000
Barcoder
1071
 33554434
  0
ENDTAB
  0
TABLE
  2
VIEW
  5
19
330
0
100
AcDbSymbolTable
 70
     0
  0
ENDTAB
  0
TABLE
  2
UCS
  5
1A
330
0
100
AcDbSymbolTable
 70
     0
  0
ENDTAB
  0
TABLE
  2
APPID
  5
1D
330
0
100
AcDbSymbolTable
 70
    20
  0
APPID
  5
14
330
1D
100
AcDbSymbolTableRecord
100
AcDbRegAppTableRecord
  2
ACAD
 70
     0
  0
APPID
  5
54
330
1D
100
AcDbSymbolTableRecord
100
AcDbRegAppTableRecord
  2
DCO15
 70
     0
  0
APPID
  5
D3AC
330
1D
100
AcDbSymbolTableRecord
100
AcDbRegAppTableRecord
  2
GENIUS_GENDIM_13
 70
     0
  0
APPID
  5
D3AD
330
1D
100
AcDbSymbolTableRecord
100
AcDbRegAppTableRecord
  2
GENIUS_GENDTOL_13
 70
     0
  0
APPID
  5
D3AE
330
1D
100
AcDbSymbolTableRecord
100
AcDbRegAppTableRecord
  2
GENIUS_GE3DTOL_13
 70
     0
  0
APPID
  5
D3AF
330
1D
100
AcDbSymbolTableRecord
100
AcDbRegAppTableRecord
  2
MCAD_NO_VIS
 70
     0
  0
APPID
  5
D3B0
330
1D
100
AcDbSymbolTableRecord
100
AcDbRegAppTableRecord
  2
ACAD_TEMP_GRAPHIC
 70
     0
  0
APPID
  5
D3B1
330
1D
100
AcDbSymbolTableRecord
100
AcDbRegAppTableRecord
  2
AD_DRAW
 70
     0
  0
APPID
  5
D3B2
330
1D
100
AcDbSymbolTableRecord
100
AcDbRegAppTableRecord
  2
ACATTRIBSERVICES
 70
     0
  0
APPID
  5
D3B3
330
1D
100
AcDbSymbolTableRecord
100
AcDbRegAppTableRecord
  2
ASURF_PCURVE_APPNAME
 70
     0
  0
APPID
  5
D3B4
330
1D
100
AcDbSymbolTableRecord
100
AcDbRegAppTableRecord
  2
DESIGNERASSEMBLIES
 70
     0
  0
APPID
  5
D3B5
330
1D
100
AcDbSymbolTableRecord
100
AcDbRegAppTableRecord
  2
ACADM_DIM_EDIT
 70
     0
  0
APPID
  5
D3B6
330
1D
100
AcDbSymbolTableRecord
100
AcDbRegAppTableRecord
  2
AVE_MATERIAL
 70
     0
  0
APPID
  5
D3B7
330
1D
100
AcDbSymbolTableRecord
100
AcDbRegAppTableRecord
  2
AVE_RENDER
 70
     0
  0
APPID
  5
D3B8
330
1D
100
AcDbSymbolTableRecord
100
AcDbRegAppTableRecord
  2
AVE_ENTITY_MATERIAL
 70
     0
  0
APPID
  5
D3B9
330
1D
100
AcDbSymbolTableRecord
100
AcDbRegAppTableRecord
  2
AVE_FINISH
 70
     0
  0
APPID
  5
D3BA
330
1D
100
AcDbSymbolTableRecord
100
AcDbRegAppTableRecord
  2
AVE_GLOBAL
 70
     0
  0
APPID
  5
DDE7
330
1D
100
AcDbSymbolTableRecord
100
AcDbRegAppTableRecord
  2
ADCADD_ZZ
 70
     0
  0
APPID
  5
DDE8
330
1D
100
AcDbSymbolTableRecord
100
AcDbRegAppTableRecord
  2
SDSK_PMN
 70
     0
  0
APPID
  5
DDE9
330
1D
100
AcDbSymbolTableRecord
100
AcDbRegAppTableRecord
  2
RAK
 70
     0
  0
ENDTAB
  0
TABLE
  2
DIMSTYLE
  5
1E
330
0
100
AcDbSymbolTable
 70
     1
100
AcDbDimStyleTable
 71
     0
  0
DIMSTYLE
105
1F
102
{ACAD_REACTORS
330
11A51
330
11A53
330
11A4C
330
11FF3
330
12001
330
12029
102
}
330
1E
100
AcDbSymbolTableRecord
100
AcDbDimStyleTableRecord
  2
STANDARD
 70
     0
  3
"
 41
0.5
 42
1.0
 43
0.0625
 44
0.25
 73
     0
 74
     0
 77
     3
140
1.0
141
0.0
146
0.125
147
0.125
171
     0
274
     0
276
     2
277
     5
285
     2
286
     2
289
     0
340
13
  0
ENDTAB
  0
TABLE
  2
BLOCK_RECORD
  5
1
330
0
100
AcDbSymbolTable
 70
    17
  0
BLOCK_RECORD
  5
2
102
{ACAD_XDICTIONARY
360
3
102
}
330
1
100
AcDbSymbolTableRecord
100
AcDbBlockTableRecord
  2
*MODEL_SPACE
340
B
  0
BLOCK_RECORD
  5
D
102
{ACAD_XDICTIONARY
360
12A9A
102
}
330
1
100
AcDbSymbolTableRecord
100
AcDbBlockTableRecord
  2
*PAPER_SPACE
340
10
  0
BLOCK_RECORD
  5
2D
330
1
100
AcDbSymbolTableRecord
100
AcDbBlockTableRecord
  2
PROFILE LOGO
340
0
102
{BLKREFS
331
11A55
331
11FE8
102
}
  0
BLOCK_RECORD
  5
D36C
330
1
100
AcDbSymbolTableRecord
100
AcDbBlockTableRecord
  2
*U1
340
0
102
{BLKREFS
331
D415
102
}
  0
BLOCK_RECORD
  5
D36F
330
1
100
AcDbSymbolTableRecord
100
AcDbBlockTableRecord
  2
*U2
340
0
102
{BLKREFS
331
D416
102
}
  0
BLOCK_RECORD
  5
D372
330
1
100
AcDbSymbolTableRecord
100
AcDbBlockTableRecord
  2
*U3
340
0
102
{BLKREFS
331
D417
102
}
  0
BLOCK_RECORD
  5
D375
330
1
100
AcDbSymbolTableRecord
100
AcDbBlockTableRecord
  2
*U4
340
0
102
{BLKREFS
331
D418
102
}
  0
BLOCK_RECORD
  5
D378
330
1
100
AcDbSymbolTableRecord
100
AcDbBlockTableRecord
  2
*U5
340
0
102
{BLKREFS
331
D419
102
}
  0
BLOCK_RECORD
  5
D37B
330
1
100
AcDbSymbolTableRecord
100
AcDbBlockTableRecord
  2
*U6
340
0
102
{BLKREFS
331
D41A
102
}
  0
BLOCK_RECORD
  5
D37E
330
1
100
AcDbSymbolTableRecord
100
AcDbBlockTableRecord
  2
*U7
340
0
102
{BLKREFS
331
D41B
102
}
  0
BLOCK_RECORD
  5
D986
330
1
100
AcDbSymbolTableRecord
100
AcDbBlockTableRecord
  2
AVE_RENDER
340
0
102
{BLKREFS
331
F070
331
F071
331
F072
331
F073
331
F074
331
F075
331
F076
331
F077
331
F0F4
331
F0F5
331
F0F6
331
F0F7
331
F0F8
331
F0F9
331
F0FA
331
F0FB
331
F0FD
331
F0FE
331
F0FF
331
F100
331
F101
331
F102
331
F103
331
F104
331
F780
331
F781
331
F782
331
F783
331
F784
331
F785
331
F786
331
F787
331
F789
331
F78A
331
F78B
331
F78C
331
F78D
331
F78E
331
F78F
331
F790
331
F796
331
F797
331
F798
331
F799
331
F79A
331
F79B
331
F79C
331
F79D
331
F7AB
331
F7AC
331
F7AD
331
F7AE
331
F7AF
331
F7B0
331
F7B1
331
F7B2
331
F7B8
331
F7B9
331
F7BA
331
F7BB
331
F7BC
331
F7BD
331
F7BE
331
F7BF
331
F9A1
331
F9A2
331
F9A3
331
F9A4
331
F9A5
331
F9A6
331
F9A7
331
F9A8
331
FB86
331
FB87
331
FB88
331
FB89
331
FB8A
331
FB8B
331
FB8C
331
FB8D
331
FB8F
331
FB90
331
FB91
331
FB92
331
FB93
331
FB94
331
FB95
331
FB96
331
FB98
331
FB99
331
FB9A
331
FB9B
331
FB9C
331
FB9D
331
FB9E
331
FB9F
102
}
  0
BLOCK_RECORD
  5
D989
330
1
100
AcDbSymbolTableRecord
100
AcDbBlockTableRecord
  2
AVE_GLOBAL
340
0
102
{BLKREFS
331
F078
331
F079
331
F093
331
F09C
331
F0BA
331
F0FC
331
F105
331
F788
331
F791
331
F79E
331
F7B3
331
F7C0
331
F9A9
331
FB8E
331
FB97
331
FBA0
102
}
  0
BLOCK_RECORD
  5
11A76
330
1
100
AcDbSymbolTableRecord
100
AcDbBlockTableRecord
  2
*D10
340
0
  0
BLOCK_RECORD
  5
11A83
330
1
100
AcDbSymbolTableRecord
100
AcDbBlockTableRecord
  2
*D11
340
0
  0
BLOCK_RECORD
  5
11A90
330
1
100
AcDbSymbolTableRecord
100
AcDbBlockTableRecord
  2
*D12
340
0
  0
BLOCK_RECORD
  5
11FF4
330
1
100
AcDbSymbolTableRecord
100
AcDbBlockTableRecord
  2
*D13
340
0
  0
BLOCK_RECORD
  5
12002
330
1
100
AcDbSymbolTableRecord
100
AcDbBlockTableRecord
  2
*D14
340
0
  0
BLOCK_RECORD
  5
1202A
330
1
100
AcDbSymbolTableRecord
100
AcDbBlockTableRecord
  2
*D15
340
0
  0
BLOCK_RECORD
  5
128E9
330
1
100
AcDbSymbolTableRecord
100
AcDbBlockTableRecord
  2
TSFORMB
340
0
102
{BLKREFS
331
12917
102
}
  0
ENDTAB
  0
ENDSEC
  0
SECTION
  2
BLOCKS
  0
BLOCK
  5
4
330
2
100
AcDbEntity
  8
0
100
AcDbBlockBegin
  2
*MODEL_SPACE
 70
     2
 10
0.0
 20
0.0
 30
0.0
  3
*MODEL_SPACE
  1

  0
ENDBLK
  5
A
330
2
100
AcDbEntity
  8
0
100
AcDbBlockEnd
  0
BLOCK
  5
E
330
D
100
AcDbEntity
 67
     1
  8
0
100
AcDbBlockBegin
  2
*PAPER_SPACE
 70
     0
 10
0.0
 20
0.0
 30
0.0
  3
*PAPER_SPACE
  1

  0
ENDBLK
  5
F
330
D
100
AcDbEntity
 67
     1
  8
0
100
AcDbBlockEnd
  0
BLOCK
  5
46
330
2D
100
AcDbEntity
  8
0
 62
     7
100
AcDbBlockBegin
  2
PROFILE LOGO
 70
     2
 10
0.0
 20
0.0
 30
0.0
  3
PROFILE LOGO
  1

  0
LINE
  5
2E
330
2D
100
AcDbEntity
  8
0
 62
    22
100
AcDbLine
 10
0.7459516636765642
 20
-0.415894330395318
 30
0.0
 11
0.74595166367655
 21
-1.12746688439163
 31
0.0
  0
LINE
  5
2F
330
2D
100
AcDbEntity
  8
0
 62
    22
100
AcDbLine
 10
0.5841942848079072
 20
-0.415894330395318
 30
0.0
 11
0.5841942848079072
 21
-1.12746688439163
 31
0.0
  0
HATCH
  5
30
330
2D
100
AcDbEntity
  8
0
 62
    22
100
AcDbHatch
 10
0.0
 20
0.0
 30
0.0
210
0.0
220
0.0
230
1.0
  2
LINE
 70
     0
 71
     0
 91
        1
 92
       33
 93
       38
 72
     1
 10
1.115683196411978
 20
-0.1706330859717084
 11
0.2177636962628071
 21
-0.1706330859717084
 72
     1
 10
0.2177636962628213
 20
-0.1706330859717084
 11
0.2078601968792952
 21
-0.4246889457533243
 72
     1
 10
0.2078601968792952
 20
-0.4246889457533243
 11
0.2375709173007294
 21
-0.4246889457533243
 72
     1
 10
0.2375709173007294
 20
-0.4246889457533243
 11
0.2441732502230991
 21
-0.3817964654080939
 72
     1
 10
0.2441732502230991
 20
-0.3817964654080939
 11
0.254076749606611
 21
-0.3422032805409501
 72
     1
 10
0.2540767496066252
 20
-0.3422032805409501
 11
0.2738837483736916
 21
-0.3092090964125091
 72
     1
 10
0.2738837483736916
 20
-0.3092090964125091
 11
0.2969919136019428
 21
-0.2861130719066693
 72
     1
 10
0.296991913601957
 20
-0.2861130719066764
 11
0.3267026340234338
 21
-0.2663164794731259
 72
     1
 10
0.3267026340234196
 20
-0.2663164794731259
 11
0.356413132174012
 21
-0.2498193191118219
 72
     1
 10
0.356413132174012
 20
-0.2498193191118148
 11
0.3828224638634481
 21
-0.243220591561446
 72
     1
 10
0.3828224638634623
 20
-0.243220591561446
 11
0.4092320178237401
 21
-0.243220591561446
 72
     1
 10
0.4092320178237401
 20
-0.243220591561446
 11
0.4719541805861525
 21
-0.2465198870395469
 72
     1
 10
0.4719541805861525
 20
-0.2465198870395469
 11
0.514869566852326
 21
-0.2729153436176332
 72
     1
 10
0.514869566852326
 20
-0.2729153436176332
 11
0.5742905631535394
 21
-0.3389038484686964
 72
     1
 10
0.5742905631535394
 20
-0.3389038484687106
 11
0.5907966177302626
 21
-0.3916947616248691
 72
     1
 10
0.5907966177302768
 20
-0.3916947616248691
 11
0.5907966177302768
 21
-1.157161773041991
 72
     1
 10
0.5907966177302768
 20
-1.157161773041984
 11
0.5643870637699991
 21
-1.203353685459461
 72
     1
 10
0.5643870637699849
 20
-1.203353685459468
 11
0.4983637345463876
 21
-1.226449709965308
 72
     1
 10
0.4983637345464019
 20
-1.226449709965301
 11
0.4389425159743326
 21
-1.226449709965301
 72
     1
 10
0.4389425159743326
 20
-1.226449709965301
 11
0.4323401830519913
 21
-1.249545734471119
 72
     1
 10
0.4323401830520055
 20
-1.249545734471134
 11
0.8945045989712809
 21
-1.249545734471134
 72
     1
 10
0.8945045989712667
 20
-1.249545734471134
 11
0.8945045989712667
 21
-1.226449709965315
 72
     1
 10
0.8945045989712667
 20
-1.226449709965301
 11
0.8152763816321311
 21
-1.226449709965301
 72
     1
 10
0.8152763816321311
 20
-1.226449709965301
 11
0.7525539965988913
 21
-1.186856661692324
 72
     1
 10
0.7525539965988913
 20
-1.186856661692324
 11
0.7426504972153794
 21
-1.140664612680659
 72
     1
 10
0.7426504972153652
 20
-1.140664612680673
 11
0.7393493307541803
 21
-0.394994193697137
 72
     1
 10
0.7393493307541803
 20
-0.394994193697137
 11
0.7558551630600619
 21
-0.3389038484687106
 72
     1
 10
0.7558551630600761
 20
-0.3389038484687106
 11
0.7987705493262496
 21
-0.2828136398344298
 72
     1
 10
0.7987705493262496
 20
-0.2828136398344227
 11
0.8614929343594894
 21
-0.2498193191118148
 72
     1
 10
0.8614929343594894
 20
-0.2498193191118148
 11
0.9374197629665985
 21
-0.2399211594891923
 72
     1
 10
0.9374197629665985
 20
-0.2399211594891923
 11
1.010045647383407
 21
-0.2663164794731117
 72
     1
 10
1.010045647383407
 20
-0.2663164794731259
 11
1.056262200110722
 21
-0.3092090964125234
 72
     1
 10
1.056262200110722
 20
-0.3092090964125091
 11
1.085972698261343
 21
-0.361999872974522
 72
     1
 10
1.085972698261358
 20
-0.3619998729745291
 11
1.092575031183727
 21
-0.4246889457533243
 72
     1
 10
1.092575031183727
 20
-0.4246889457533243
 11
1.115683196411993
 21
-0.4246889457533243
 72
     1
 10
1.115683196411978
 20
-0.4246889457533243
 11
1.109080863489609
 21
-0.17723195011623
 72
     1
 10
1.109080863489609
 20
-0.17723195011623
 11
1.109080863489609
 21
-0.1739325180439621
 72
     1
 10
1.109080863489609
 20
-0.1739325180439621
 11
1.105779697028424
 21
-0.1739325180439621
 97
        0
 75
     0
 76
     1
 52
0.0
 41
0.078125
 77
     0
 78
     1
 53
0.0
 43
-28.182772630023
 44
-32.9923404580304
 45
0.0
 46
0.009765625
 79
     0
 98
        1
 10
-28.182772630023
 20
-32.9923404580304
  0
LWPOLYLINE
  5
31
330
2D
100
AcDbEntity
  8
0
 62
    22
100
AcDbPolyline
 90
        4
 70
     1
 43
0.0
 10
0.0262955969727301
 20
-0.0287577800528069
 10
1.307151517972869
 20
-0.0287577800528069
 10
1.307151517972869
 20
-1.731261997456265
 10
0.0262955969727301
 20
-1.731261997456265
  0
LINE
  5
32
330
2D
100
AcDbEntity
  8
0
 62
    22
100
AcDbLine
 10
0.0262955969727443
 20
-1.4112176328236
 30
0.0
 11
1.307151517972869
 21
-1.4112176328236
 31
0.0
  0
ATTDEF
  5
33
330
2D
100
AcDbEntity
  8
A1
 62
    22
100
AcDbText
 10
0.6781304052809105
 20
-1.678298248906529
 30
0.0
 40
0.2126953125
  1

 72
     1
 11
0.6781304052809105
 21
-1.678298248906529
 31
0.0
100
AcDbAttributeDefinition
  3
ADD STONE MARKER
  2
XXXX
 70
     0
  0
LINE
  5
34
330
2D
100
AcDbEntity
  8
0
 62
    22
100
AcDbLine
 10
0.7464576960363587
 20
-1.129021462591367
 30
0.0
 11
0.74595166367655
 21
-1.12746688439163
 31
0.0
  0
ARC
  5
35
330
2D
100
AcDbEntity
  8
0
 62
    22
100
AcDbCircle
 10
0.8421255873066684
 20
-1.127299146756172
 30
0.0
 40
0.0956833935014068
100
AcDbArc
 50
181.0313885659746
 51
269.7936990713142
  0
LINE
  5
36
330
2D
100
AcDbEntity
  8
0
 62
    22
100
AcDbLine
 10
0.9011069318936506
 20
-1.22315027789304
 30
0.0
 11
0.841781067510368
 21
-1.22315027789304
 31
0.0
  0
LINE
  5
37
330
2D
100
AcDbEntity
  8
0
 62
    22
100
AcDbLine
 10
0.9011069318936506
 20
-1.256144598615648
 30
0.0
 11
0.9011069318936506
 21
-1.22315027789304
 31
0.0
  0
ARC
  5
38
330
2D
100
AcDbEntity
  8
0
 62
    22
100
AcDbCircle
 10
0.4880203611777887
 20
-1.127299146756172
 30
0.0
 40
0.0956833935014068
100
AcDbArc
 50
270.2063009286848
 51
358.9686114340253
  0
LINE
  5
39
330
2D
100
AcDbEntity
  8
0
 62
    22
100
AcDbLine
 10
0.4290390165908207
 20
-1.256144598615648
 30
0.0
 11
0.4290390165908207
 21
-1.22315027789304
 31
0.0
  0
LINE
  5
3A
330
2D
100
AcDbEntity
  8
0
 62
    22
100
AcDbLine
 10
0.4290390165908207
 20
-1.22315027789304
 30
0.0
 11
0.4883648809740891
 21
-1.22315027789304
 31
0.0
  0
LINE
  5
3B
330
2D
100
AcDbEntity
  8
0
 62
    22
100
AcDbLine
 10
0.5836882524480984
 20
-1.129021462591367
 30
0.0
 11
0.5841942848079072
 21
-1.12746688439163
 31
0.0
  0
LINE
  5
3C
330
2D
100
AcDbEntity
  8
0
 62
    22
100
AcDbLine
 10
0.4290390165908207
 20
-1.256144598615648
 30
0.0
 11
0.9011069318936506
 21
-1.256144598615648
 31
0.0
  0
LINE
  5
3D
330
2D
100
AcDbEntity
  8
0
 62
    22
100
AcDbLine
 10
1.085512597630156
 20
-0.415894330395318
 30
0.0
 11
1.085512597630156
 21
-0.4280723832374847
 31
0.0
  0
ARC
  5
3E
330
2D
100
AcDbEntity
  8
0
 62
    22
100
AcDbCircle
 10
0.9138550451562537
 20
-0.4147906495365632
 30
0.0
 40
0.1716611005230106
100
AcDbArc
 50
359.6316189828552
 51
90.00081606717127
  0
ARC
  5
3F
330
2D
100
AcDbEntity
  8
0
 62
    22
100
AcDbCircle
 10
0.9180888683309831
 20
-0.4147906495365632
 30
0.0
 40
0.1716611005230106
100
AcDbArc
 50
89.99918393282873
 51
180.3683810171443
  0
LINE
  5
40
330
2D
100
AcDbEntity
  8
0
 62
    22
100
AcDbLine
 10
0.2078601968792952
 20
-0.427988377825578
 30
0.0
 11
0.2441732502230991
 21
-0.427988377825578
 31
0.0
  0
LINE
  5
41
330
2D
100
AcDbEntity
  8
0
 62
    22
100
AcDbLine
 10
0.2446333508543006
 20
-0.415894330395318
 30
0.0
 11
0.2446333508543006
 21
-0.4280723832374847
 31
0.0
  0
ARC
  5
42
330
2D
100
AcDbEntity
  8
0
 62
    22
100
AcDbCircle
 10
0.4162909033282176
 20
-0.4147906495365632
 30
0.0
 40
0.1716611005230106
100
AcDbArc
 50
89.99918393282873
 51
180.3683810171443
  0
LINE
  5
43
330
2D
100
AcDbEntity
  8
0
 62
    22
100
AcDbLine
 10
0.2144627520724782
 20
-0.1706330859717156
 30
0.0
 11
0.2078601968792952
 21
-0.427988377825578
 31
0.0
  0
ARC
  5
44
330
2D
100
AcDbEntity
  8
0
 62
    22
100
AcDbCircle
 10
0.4120570801534882
 20
-0.4147906495365632
 30
0.0
 40
0.1716611005230106
100
AcDbArc
 50
359.6316189828552
 51
90.00081606717127
  0
LWPOLYLINE
  5
45
330
2D
100
AcDbEntity
  8
0
 62
    22
100
AcDbPolyline
 90
        4
 70
     0
 43
0.0
 10
0.224366029185191
 20
-0.1706330859717084
 10
1.115683196411978
 20
-0.1706330859717084
 10
1.122285751605161
 20
-0.427988377825578
 10
1.085972698261358
 20
-0.427988377825578
  0
ENDBLK
  5
47
330
2D
100
AcDbEntity
  8
0
 62
     7
100
AcDbBlockEnd
  0
BLOCK
  5
D36D
330
D36C
100
AcDbEntity
  8
0
100
AcDbBlockBegin
  2
*U1
 70
     1
 10
0.0
 20
0.0
 30
0.0
  3
*U1
  1

  0
ENDBLK
  5
D36E
330
D36C
100
AcDbEntity
  8
0
100
AcDbBlockEnd
  0
BLOCK
  5
D370
330
D36F
100
AcDbEntity
  8
0
100
AcDbBlockBegin
  2
*U2
 70
     1
 10
0.0
 20
0.0
 30
0.0
  3
*U2
  1

  0
ENDBLK
  5
D371
330
D36F
100
AcDbEntity
  8
0
100
AcDbBlockEnd
  0
BLOCK
  5
D373
330
D372
100
AcDbEntity
  8
0
100
AcDbBlockBegin
  2
*U3
 70
     1
 10
0.0
 20
0.0
 30
0.0
  3
*U3
  1

  0
ENDBLK
  5
D374
330
D372
100
AcDbEntity
  8
0
100
AcDbBlockEnd
  0
BLOCK
  5
D376
330
D375
100
AcDbEntity
  8
0
100
AcDbBlockBegin
  2
*U4
 70
     1
 10
0.0
 20
0.0
 30
0.0
  3
*U4
  1

  0
ENDBLK
  5
D377
330
D375
100
AcDbEntity
  8
0
100
AcDbBlockEnd
  0
BLOCK
  5
D379
330
D378
100
AcDbEntity
  8
0
100
AcDbBlockBegin
  2
*U5
 70
     1
 10
0.0
 20
0.0
 30
0.0
  3
*U5
  1

  0
ENDBLK
  5
D37A
330
D378
100
AcDbEntity
  8
0
100
AcDbBlockEnd
  0
BLOCK
  5
D37C
330
D37B
100
AcDbEntity
  8
0
100
AcDbBlockBegin
  2
*U6
 70
     1
 10
0.0
 20
0.0
 30
0.0
  3
*U6
  1

  0
ENDBLK
  5
D37D
330
D37B
100
AcDbEntity
  8
0
100
AcDbBlockEnd
  0
BLOCK
  5
D37F
330
D37E
100
AcDbEntity
  8
0
100
AcDbBlockBegin
  2
*U7
 70
     1
 10
0.0
 20
0.0
 30
0.0
  3
*U7
  1

  0
ENDBLK
  5
D380
330
D37E
100
AcDbEntity
  8
0
100
AcDbBlockEnd
  0
BLOCK
  5
D987
330
D986
100
AcDbEntity
  8
0
100
AcDbBlockBegin
  2
AVE_RENDER
 70
     0
 10
0.0
 20
0.0
 30
0.0
  3
AVE_RENDER
  1
AVE_RENDER
  0
ENDBLK
  5
D988
330
D986
100
AcDbEntity
  8
0
100
AcDbBlockEnd
  0
BLOCK
  5
D98A
330
D989
100
AcDbEntity
  8
0
100
AcDbBlockBegin
  2
AVE_GLOBAL
 70
     0
 10
0.0
 20
0.0
 30
0.0
  3
AVE_GLOBAL
  1
AVE_GLOBAL
  0
ENDBLK
  5
D98B
330
D989
100
AcDbEntity
  8
0
100
AcDbBlockEnd
  0
BLOCK
  5
11A81
330
11A76
100
AcDbEntity
  8
0
 62
     7
100
AcDbBlockBegin
  2
*D10
 70
     1
 10
0.0
 20
0.0
 30
0.0
  3
*D10
  1

  0
LINE
  5
12A9E
330
11A76
100
AcDbEntity
  8
A1
 62
     0
100
AcDbLine
 10
627.7937253543333
 20
109.2820856739401
 30
0.0
 11
617.9569333040376
 21
109.2820856739401
 31
0.0
  0
LINE
  5
12A9F
330
11A76
100
AcDbEntity
  8
A1
 62
     0
100
AcDbLine
 10
624.7937253543335
 20
116.8820856739402
 30
0.0
 11
617.9569333040376
 21
116.8820856739402
 31
0.0
  0
LINE
  5
12AA0
330
11A76
100
AcDbEntity
  8
A1
 62
     0
100
AcDbLine
 10
618.2694333040376
 20
109.9070856739401
 30
0.0
 11
618.2694333040376
 21
111.7374028841994
 31
0.0
  0
LINE
  5
12AA1
330
11A76
100
AcDbEntity
  8
A1
 62
     0
100
AcDbLine
 10
618.2694333040376
 20
116.2570856739401
 30
0.0
 11
618.2694333040376
 21
114.3499117431646
 31
0.0
  0
MTEXT
  5
12AA2
330
11A76
100
AcDbEntity
  8
A1
 62
     0
100
AcDbMText
 10
618.2694333040376
 20
113.0436573136821
 30
0.0
 40
1.25
 41
0.0
 71
     5
 72
     1
  1
\A1;7 5/8"
 73
     1
 44
1.0
  0
SOLID
  5
12AA3
330
11A76
100
AcDbEntity
  8
A1
 62
     0
100
AcDbTrace
 10
618.165266637371
 20
109.9070856739401
 30
0.0
 11
618.3735999707042
 21
109.9070856739401
 31
0.0
 12
618.2694333040376
 22
109.2820856739401
 32
0.0
 13
618.2694333040376
 23
109.2820856739401
 33
0.0
  0
SOLID
  5
12AA4
330
11A76
100
AcDbEntity
  8
A1
 62
     0
100
AcDbTrace
 10
618.165266637371
 20
116.2570856739401
 30
0.0
 11
618.3735999707042
 21
116.2570856739401
 31
0.0
 12
618.2694333040376
 22
116.8820856739402
 32
0.0
 13
618.2694333040376
 23
116.8820856739402
 33
0.0
  0
POINT
  5
12AA5
330
11A76
100
AcDbEntity
  8
Defpoints
 62
     0
100
AcDbPoint
 10
629.0437253543333
 20
109.2820856739401
 30
0.0
  0
POINT
  5
12AA6
330
11A76
100
AcDbEntity
  8
Defpoints
 62
     0
100
AcDbPoint
 10
626.0437253543336
 20
116.8820856739402
 30
0.0
  0
POINT
  5
12AA7
330
11A76
100
AcDbEntity
  8
Defpoints
 62
     0
100
AcDbPoint
 10
618.2694333040376
 20
116.8820856739402
 30
0.0
  0
ENDBLK
  5
11A82
330
11A76
100
AcDbEntity
  8
0
 62
     7
100
AcDbBlockEnd
  0
BLOCK
  5
11A8E
330
11A83
100
AcDbEntity
  8
0
 62
     7
100
AcDbBlockBegin
  2
*D11
 70
     1
 10
0.0
 20
0.0
 30
0.0
  3
*D11
  1

  0
LINE
  5
12AA8
330
11A83
100
AcDbEntity
  8
A1
 62
     0
100
AcDbLine
 10
649.0437253543334
 20
108.0320856739401
 30
0.0
 11
649.0437253543334
 21
102.6561349691178
 31
0.0
  0
LINE
  5
12AA9
330
11A83
100
AcDbEntity
  8
A1
 62
     0
100
AcDbLine
 10
629.0437253543334
 20
108.0320856739401
 30
0.0
 11
629.0437253543334
 21
102.6561349691178
 31
0.0
  0
LINE
  5
12AAA
330
11A83
100
AcDbEntity
  8
A1
 62
     0
100
AcDbLine
 10
648.4187253543334
 20
102.9686349691178
 30
0.0
 11
643.2928022543271
 21
102.9686349691178
 31
0.0
  0
LINE
  5
12AAB
330
11A83
100
AcDbEntity
  8
A1
 62
     0
100
AcDbLine
 10
629.6687253543334
 20
102.9686349691178
 30
0.0
 11
635.7821714959998
 21
102.9686349691178
 31
0.0
  0
MTEXT
  5
12AAC
330
11A83
100
AcDbEntity
  8
A1
 62
     0
100
AcDbMText
 10
639.5374868751635
 20
102.9686349691178
 30
0.0
 40
1.25
 41
0.0
 71
     5
 72
     1
  1
\A1;VARIES
 73
     1
 44
1.0
  0
SOLID
  5
12AAD
330
11A83
100
AcDbEntity
  8
A1
 62
     0
100
AcDbTrace
 10
648.4187253543334
 20
103.0728016357844
 30
0.0
 11
648.4187253543334
 21
102.8644683024511
 31
0.0
 12
649.0437253543334
 22
102.9686349691178
 32
0.0
 13
649.0437253543334
 23
102.9686349691178
 33
0.0
  0
SOLID
  5
12AAE
330
11A83
100
AcDbEntity
  8
A1
 62
     0
100
AcDbTrace
 10
629.6687253543334
 20
103.0728016357844
 30
0.0
 11
629.6687253543334
 21
102.8644683024511
 31
0.0
 12
629.0437253543334
 22
102.9686349691178
 32
0.0
 13
629.0437253543334
 23
102.9686349691178
 33
0.0
  0
POINT
  5
12AAF
330
11A83
100
AcDbEntity
  8
Defpoints
 62
     0
100
AcDbPoint
 10
649.0437253543334
 20
109.2820856739401
 30
0.0
  0
POINT
  5
12AB0
330
11A83
100
AcDbEntity
  8
Defpoints
 62
     0
100
AcDbPoint
 10
629.0437253543334
 20
109.2820856739401
 30
0.0
  0
POINT
  5
12AB1
330
11A83
100
AcDbEntity
  8
Defpoints
 62
     0
100
AcDbPoint
 10
629.0437253543334
 20
102.9686349691178
 30
0.0
  0
ENDBLK
  5
11A8F
330
11A83
100
AcDbEntity
  8
0
 62
     7
100
AcDbBlockEnd
  0
BLOCK
  5
11A9B
330
11A90
100
AcDbEntity
  8
0
 62
     7
100
AcDbBlockBegin
  2
*D12
 70
     1
 10
0.0
 20
0.0
 30
0.0
  3
*D12
  1

  0
LINE
  5
12AB2
330
11A90
100
AcDbEntity
  8
A1
 62
     0
100
AcDbLine
 10
626.0188497324429
 20
115.6320856739401
 30
0.0
 11
626.0188497324429
 21
102.6561349691178
 31
0.0
  0
LINE
  5
12AB3
330
11A90
100
AcDbEntity
  8
A1
 62
     0
100
AcDbLine
 10
629.0437253543334
 20
108.0320856739402
 30
0.0
 11
629.0437253543334
 21
102.6561349691178
 31
0.0
  0
LINE
  5
12AB4
330
11A90
100
AcDbEntity
  8
A1
 62
     0
100
AcDbLine
 10
625.3938497324429
 20
102.9686349691178
 30
0.0
 11
624.7688497324429
 21
102.9686349691178
 31
0.0
  0
LINE
  5
12AB5
330
11A90
100
AcDbEntity
  8
A1
 62
     0
100
AcDbLine
 10
629.6687253543334
 20
102.9686349691178
 30
0.0
 11
630.2937253543334
 21
102.9686349691178
 31
0.0
  0
LINE
  5
12AB6
330
11A90
100
AcDbEntity
  8
A1
 62
     0
100
AcDbLine
 10
624.6683647849327
 20
102.9686349691178
 30
0.0
 11
626.0188497324429
 21
102.9686349691178
 31
0.0
  0
MTEXT
  5
12AB7
330
11A90
100
AcDbEntity
  8
A1
 62
     0
100
AcDbMText
 10
622.921819781389
 20
102.9686349691178
 30
0.0
 40
1.25
 41
0.0
 71
     5
 72
     1
  1
\A1;3"
 73
     1
 44
1.0
  0
LINE
  5
12AB8
330
11A90
100
AcDbEntity
  8
A1
 62
     0
100
AcDbLine
 10
626.0188497324429
 20
102.9686349691178
 30
0.0
 11
629.0437253543334
 21
102.9686349691178
 31
0.0
  0
SOLID
  5
12AB9
330
11A90
100
AcDbEntity
  8
A1
 62
     0
100
AcDbTrace
 10
625.3938497324429
 20
103.0728016357844
 30
0.0
 11
625.3938497324429
 21
102.8644683024511
 31
0.0
 12
626.0188497324429
 22
102.9686349691178
 32
0.0
 13
626.0188497324429
 23
102.9686349691178
 33
0.0
  0
SOLID
  5
12ABA
330
11A90
100
AcDbEntity
  8
A1
 62
     0
100
AcDbTrace
 10
629.6687253543334
 20
103.0728016357844
 30
0.0
 11
629.6687253543334
 21
102.8644683024511
 31
0.0
 12
629.0437253543334
 22
102.9686349691178
 32
0.0
 13
629.0437253543334
 23
102.9686349691178
 33
0.0
  0
POINT
  5
12ABB
330
11A90
100
AcDbEntity
  8
Defpoints
 62
     0
100
AcDbPoint
 10
626.0188497324429
 20
116.8820856739402
 30
0.0
  0
POINT
  5
12ABC
330
11A90
100
AcDbEntity
  8
Defpoints
 62
     0
100
AcDbPoint
 10
629.0437253543334
 20
109.2820856739402
 30
0.0
  0
POINT
  5
12ABD
330
11A90
100
AcDbEntity
  8
Defpoints
 62
     0
100
AcDbPoint
 10
629.0437253543334
 20
102.9686349691178
 30
0.0
  0
ENDBLK
  5
11A9C
330
11A90
100
AcDbEntity
  8
0
 62
     7
100
AcDbBlockEnd
  0
BLOCK
  5
11FFF
330
11FF4
100
AcDbEntity
  8
0
 62
     7
100
AcDbBlockBegin
  2
*D13
 70
     1
 10
0.0
 20
0.0
 30
0.0
  3
*D13
  1

  0
LINE
  5
12ABE
330
11FF4
100
AcDbEntity
  8
A1
 62
     0
100
AcDbLine
 10
655.9637916586106
 20
108.0320856739402
 30
0.0
 11
655.9637916586106
 21
103.1636977598643
 31
0.0
  0
LINE
  5
12ABF
330
11FF4
100
AcDbEntity
  8
A1
 62
     0
100
AcDbLine
 10
660.3150448055816
 20
108.7820856739402
 30
0.0
 11
660.3150448055816
 21
103.1636977598643
 31
0.0
  0
LINE
  5
12AC0
330
11FF4
100
AcDbEntity
  8
A1
 62
     0
100
AcDbLine
 10
655.3387916586107
 20
103.4761977598643
 30
0.0
 11
654.7137916586107
 21
103.4761977598643
 31
0.0
  0
LINE
  5
12AC1
330
11FF4
100
AcDbEntity
  8
A1
 62
     0
100
AcDbLine
 10
660.9400448055817
 20
103.4761977598643
 30
0.0
 11
661.5650448055816
 21
103.4761977598643
 31
0.0
  0
MTEXT
  5
12AC2
330
11FF4
100
AcDbEntity
  8
A1
 62
     0
100
AcDbMText
 10
664.7039348533271
 20
103.4761977598643
 30
0.0
 40
1.25
 41
0.0
 71
     5
 72
     1
  1
\A1;4 3/8"
 73
     1
 44
1.0
  0
SOLID
  5
12AC3
330
11FF4
100
AcDbEntity
  8
A1
 62
     0
100
AcDbTrace
 10
655.3387916586107
 20
103.580364426531
 30
0.0
 11
655.3387916586107
 21
103.3720310931977
 31
0.0
 12
655.9637916586106
 22
103.4761977598643
 32
0.0
 13
655.9637916586106
 23
103.4761977598643
 33
0.0
  0
SOLID
  5
12AC4
330
11FF4
100
AcDbEntity
  8
A1
 62
     0
100
AcDbTrace
 10
660.9400448055817
 20
103.580364426531
 30
0.0
 11
660.9400448055817
 21
103.3720310931977
 31
0.0
 12
660.3150448055816
 22
103.4761977598643
 32
0.0
 13
660.3150448055816
 23
103.4761977598643
 33
0.0
  0
POINT
  5
12AC5
330
11FF4
100
AcDbEntity
  8
Defpoints
 62
     0
100
AcDbPoint
 10
655.9637916586106
 20
109.2820856739402
 30
0.0
  0
POINT
  5
12AC6
330
11FF4
100
AcDbEntity
  8
Defpoints
 62
     0
100
AcDbPoint
 10
660.3150448055816
 20
110.0320856739402
 30
0.0
  0
POINT
  5
12AC7
330
11FF4
100
AcDbEntity
  8
Defpoints
 62
     0
100
AcDbPoint
 10
660.3150448055816
 20
103.4761977598643
 30
0.0
  0
ENDBLK
  5
12000
330
11FF4
100
AcDbEntity
  8
0
 62
     7
100
AcDbBlockEnd
  0
BLOCK
  5
1200F
330
12002
100
AcDbEntity
  8
0
 62
     7
100
AcDbBlockBegin
  2
*D14
 70
     1
 10
0.0
 20
0.0
 30
0.0
  3
*D14
  1

  0
LINE
  5
12AC8
330
12002
100
AcDbEntity
  8
A1
 62
     0
100
AcDbLine
 10
655.9637916586106
 20
108.0320856739402
 30
0.0
 11
655.9637916586106
 21
105.7712918502655
 31
0.0
  0
LINE
  5
12AC9
330
12002
100
AcDbEntity
  8
A1
 62
     0
100
AcDbLine
 10
659.5650448055817
 20
108.0320856739402
 30
0.0
 11
659.5650448055817
 21
105.7712918502655
 31
0.0
  0
LINE
  5
12ACA
330
12002
100
AcDbEntity
  8
A1
 62
     0
100
AcDbLine
 10
655.3387916586107
 20
106.0837918502655
 30
0.0
 11
654.7137916586107
 21
106.0837918502655
 31
0.0
  0
LINE
  5
12ACB
330
12002
100
AcDbEntity
  8
A1
 62
     0
100
AcDbLine
 10
660.1900448055816
 20
106.0837918502655
 30
0.0
 11
660.8150448055816
 21
106.0837918502655
 31
0.0
  0
LINE
  5
12ACC
330
12002
100
AcDbEntity
  8
A1
 62
     0
100
AcDbLine
 10
661.2174890701945
 20
106.0837918502655
 30
0.0
 11
659.5650448055817
 21
106.0837918502655
 31
0.0
  0
MTEXT
  5
12ACD
330
12002
100
AcDbEntity
  8
A1
 62
     0
100
AcDbMText
 10
664.7039348533271
 20
106.0837918502655
 30
0.0
 40
1.25
 41
0.0
 71
     5
 72
     1
  1
\A1;3 5/8"
 73
     1
 44
1.0
  0
LINE
  5
12ACE
330
12002
100
AcDbEntity
  8
A1
 62
     0
100
AcDbLine
 10
655.9637916586106
 20
106.0837918502655
 30
0.0
 11
659.5650448055817
 21
106.0837918502655
 31
0.0
  0
SOLID
  5
12ACF
330
12002
100
AcDbEntity
  8
A1
 62
     0
100
AcDbTrace
 10
655.3387916586107
 20
106.1879585169322
 30
0.0
 11
655.3387916586107
 21
105.9796251835989
 31
0.0
 12
655.9637916586106
 22
106.0837918502655
 32
0.0
 13
655.9637916586106
 23
106.0837918502655
 33
0.0
  0
SOLID
  5
12AD0
330
12002
100
AcDbEntity
  8
A1
 62
     0
100
AcDbTrace
 10
660.1900448055816
 20
106.1879585169322
 30
0.0
 11
660.1900448055816
 21
105.9796251835989
 31
0.0
 12
659.5650448055817
 22
106.0837918502655
 32
0.0
 13
659.5650448055817
 23
106.0837918502655
 33
0.0
  0
POINT
  5
12AD1
330
12002
100
AcDbEntity
  8
Defpoints
 62
     0
100
AcDbPoint
 10
655.9637916586106
 20
109.2820856739402
 30
0.0
  0
POINT
  5
12AD2
330
12002
100
AcDbEntity
  8
Defpoints
 62
     0
100
AcDbPoint
 10
659.5650448055817
 20
109.2820856739402
 30
0.0
  0
POINT
  5
12AD3
330
12002
100
AcDbEntity
  8
Defpoints
 62
     0
100
AcDbPoint
 10
659.5650448055817
 20
106.0837918502655
 30
0.0
  0
ENDBLK
  5
12010
330
12002
100
AcDbEntity
  8
0
 62
     7
100
AcDbBlockEnd
  0
BLOCK
  5
12037
330
1202A
100
AcDbEntity
  8
0
 62
     7
100
AcDbBlockBegin
  2
*D15
 70
     1
 10
0.0
 20
0.0
 30
0.0
  3
*D15
  1

  0
LINE
  5
12AD4
330
1202A
100
AcDbEntity
  8
A1
 62
     0
100
AcDbLine
 10
649.0437253543334
 20
110.5320856739403
 30
0.0
 11
649.0437253543334
 21
121.04325707586
 31
0.0
  0
LINE
  5
12AD5
330
1202A
100
AcDbEntity
  8
A1
 62
     0
100
AcDbLine
 10
647.5729936470164
 20
118.1320856739402
 30
0.0
 11
647.5729936470164
 21
121.04325707586
 31
0.0
  0
LINE
  5
12AD6
330
1202A
100
AcDbEntity
  8
A1
 62
     0
100
AcDbLine
 10
649.6687253543334
 20
120.73075707586
 30
0.0
 11
650.2937253543334
 21
120.73075707586
 31
0.0
  0
LINE
  5
12AD7
330
1202A
100
AcDbEntity
  8
A1
 62
     0
100
AcDbLine
 10
646.9479936470165
 20
120.73075707586
 30
0.0
 11
646.3229936470164
 21
120.73075707586
 31
0.0
  0
LINE
  5
12AD8
330
1202A
100
AcDbEntity
  8
A1
 62
     0
100
AcDbLine
 10
645.3872524987446
 20
120.73075707586
 30
0.0
 11
647.5729936470164
 21
120.73075707586
 31
0.0
  0
MTEXT
  5
12AD9
330
1202A
100
AcDbEntity
  8
A1
 62
     0
100
AcDbMText
 10
642.0252751776956
 20
120.73075707586
 30
0.0
 40
1.25
 41
0.0
 71
     5
 72
     1
  1
\A1;1 1/2"
 73
     1
 44
1.0
  0
LINE
  5
12ADA
330
1202A
100
AcDbEntity
  8
A1
 62
     0
100
AcDbLine
 10
649.0437253543334
 20
120.73075707586
 30
0.0
 11
647.5729936470164
 21
120.73075707586
 31
0.0
  0
SOLID
  5
12ADB
330
1202A
100
AcDbEntity
  8
A1
 62
     0
100
AcDbTrace
 10
649.6687253543334
 20
120.8349237425267
 30
0.0
 11
649.6687253543334
 21
120.6265904091934
 31
0.0
 12
649.0437253543334
 22
120.73075707586
 32
0.0
 13
649.0437253543334
 23
120.73075707586
 33
0.0
  0
SOLID
  5
12ADC
330
1202A
100
AcDbEntity
  8
A1
 62
     0
100
AcDbTrace
 10
646.9479936470165
 20
120.8349237425267
 30
0.0
 11
646.9479936470165
 21
120.6265904091934
 31
0.0
 12
647.5729936470164
 22
120.73075707586
 32
0.0
 13
647.5729936470164
 23
120.73075707586
 33
0.0
  0
POINT
  5
12ADD
330
1202A
100
AcDbEntity
  8
Defpoints
 62
     0
100
AcDbPoint
 10
649.0437253543334
 20
109.2820856739403
 30
0.0
  0
POINT
  5
12ADE
330
1202A
100
AcDbEntity
  8
Defpoints
 62
     0
100
AcDbPoint
 10
647.5729936470164
 20
116.8820856739402
 30
0.0
  0
POINT
  5
12ADF
330
1202A
100
AcDbEntity
  8
Defpoints
 62
     0
100
AcDbPoint
 10
647.5729936470164
 20
120.73075707586
 30
0.0
  0
ENDBLK
  5
12038
330
1202A
100
AcDbEntity
  8
0
 62
     7
100
AcDbBlockEnd
  0
BLOCK
  5
12915
330
128E9
100
AcDbEntity
  8
0
 62
     7
100
AcDbBlockBegin
  2
TSFORMB
 70
     2
 10
0.0
 20
0.0
 30
0.0
  3
TSFORMB
  1

  0
LINE
  5
128EA
330
128E9
100
AcDbEntity
  8
0
100
AcDbLine
 10
105.9925392881563
 20
78.84810849484797
 30
0.0
 11
105.9925392881563
 21
70.31072004936999
 31
0.0
  0
LINE
  5
128EB
330
128E9
100
AcDbEntity
  8
0
100
AcDbLine
 10
105.9925392881563
 20
0.0
 30
0.0
 11
105.9925392881563
 21
78.84810849484797
 31
0.0
  0
LINE
  5
128EC
330
128E9
100
AcDbEntity
  8
0
100
AcDbLine
 10
0.0
 20
0.0
 30
0.0
 11
105.9925392881563
 21
0.0
 31
0.0
  0
LINE
  5
128ED
330
128E9
100
AcDbEntity
  8
0
100
AcDbLine
 10
0.0
 20
78.84810849484797
 30
0.0
 11
0.0
 21
0.0
 31
0.0
  0
LINE
  5
128EE
330
128E9
100
AcDbEntity
  8
0
100
AcDbLine
 10
56.87404547169354
 20
0.0
 30
0.0
 11
56.87404547169354
 21
12.46470592426129
 31
0.0
  0
TEXT
  5
128EF
330
128E9
100
AcDbEntity
  8
0
 62
     7
100
AcDbText
 10
39.28098221173831
 20
10.97304845086642
 30
0.0
 40
0.8085000000000002
  1
LEGEND
100
AcDbText
  0
TEXT
  5
128F0
330
128E9
100
AcDbEntity
  8
0
 62
     7
100
AcDbText
 10
38.18320344075362
 20
3.401999220949562
 30
0.0
 40
0.8400000000000002
  1
CATEGORY
 72
     1
 11
41.47652732452399
 21
3.401999220949562
 31
0.0
100
AcDbText
  0
LINE
  5
128F1
330
128E9
100
AcDbEntity
  8
0
 62
     7
100
AcDbLine
 10
26.78791925899645
 20
8.549200111339303
 30
0.0
 11
29.32320076794366
 21
8.549200111339303
 31
0.0
  0
TEXT
  5
128F2
330
128E9
100
AcDbEntity
  8
0
 62
     7
100
AcDbText
 10
30.56536100380196
 20
8.165961840384341
 30
0.0
 40
1.05
  1
- Unfinished Side
100
AcDbText
  0
LINE
  5
128F3
330
128E9
100
AcDbEntity
  8
0
100
AcDbLine
 10
25.9704997615305
 20
0.0
 30
0.0
 11
25.9704997615305
 21
12.46470592426129
 31
0.0
  0
ATTDEF
  5
128F4
330
128E9
100
AcDbEntity
  8
A1
 62
     1
100
AcDbText
 10
41.26016333205519
 20
0.916484150045278
 30
0.0
 40
1.025589599999999
  1

 72
     1
 11
41.26016333205519
 21
0.916484150045278
 31
0.0
100
AcDbAttributeDefinition
  3
ADD CATEGORY NAMES
  2
XXXXXX
 70
     0
  0
ATTDEF
  5
128F5
330
128E9
100
AcDbEntity
  8
A1
 62
     1
100
AcDbText
 10
21.55372231158242
 20
1.875018704105684
 30
0.0
 40
0.8400000000000002
  1

 72
     2
 11
21.55372231158242
 21
1.875018704105684
 31
0.0
100
AcDbAttributeDefinition
  3
ADD BARCODE TEXT
  2
XXXXXX
 70
     0
  0
LINE
  5
128F6
330
128E9
100
AcDbEntity
  8
0
 62
     7
100
AcDbLine
 10
25.9704997615305
 20
12.46470592426129
 30
0.0
 11
0.0
 21
12.46470592426129
 31
0.0
  0
ATTDEF
  5
128F7
330
128E9
100
AcDbEntity
  8
A1
 62
     1
100
AcDbText
 10
12.85191920549937
 20
3.11796280247222
 30
0.0
 40
6.132000000000001
  1

  7
barcoder
 72
     1
 11
12.85191920549937
 21
3.11796280247222
 31
0.0
100
AcDbAttributeDefinition
  3
ADD BARCODE NUMBER
  2
BARCODE
 70
     0
  0
LINE
  5
128F8
330
128E9
100
AcDbEntity
  8
0
 62
     7
100
AcDbLine
 10
56.87404547169354
 20
10.31505184057846
 30
0.0
 11
25.9704997615305
 21
10.31505184057846
 31
0.0
  0
LINE
  5
128F9
330
128E9
100
AcDbEntity
  8
0
 62
     7
100
AcDbLine
 10
56.87404547169354
 20
2.864660228904256
 30
0.0
 11
25.9704997615305
 21
2.864660228904256
 31
0.0
  0
LINE
  5
128FA
330
128E9
100
AcDbEntity
  8
0
 62
     7
100
AcDbLine
 10
56.87404547169354
 20
4.753491724833224
 30
0.0
 11
25.9704997615305
 21
4.753491724833224
 31
0.0
  0
LINE
  5
128FB
330
128E9
100
AcDbEntity
  8
0
100
AcDbLine
 10
92.45878286761296
 20
70.31072004936999
 30
0.0
 11
92.45878286761296
 21
78.84810849484797
 31
0.0
  0
ATTDEF
  5
128FC
330
128E9
100
AcDbEntity
  8
A1
 62
     1
100
AcDbText
 10
99.20289126219257
 20
73.40001633244828
 30
0.0
 40
2.079
  1

 72
     1
 11
99.20289126219257
 21
73.40001633244828
 31
0.0
100
AcDbAttributeDefinition
  3
ADD PAGE NUMBER
  2
TS00XX
 70
     0
  0
LINE
  5
128FD
330
128E9
100
AcDbEntity
  8
0
100
AcDbLine
 10
105.9925392881563
 20
70.31072004936999
 30
0.0
 11
92.45878286761296
 21
70.31072004936999
 31
0.0
  0
LINE
  5
128FE
330
128E9
100
AcDbEntity
  8
0
100
AcDbLine
 10
105.9925392881563
 20
78.84810849484797
 30
0.0
 11
0.0
 21
78.84810849484797
 31
0.0
  0
TEXT
  5
128FF
330
128E9
100
AcDbEntity
  8
0
 62
     7
100
AcDbText
 10
101.0916707105178
 20
4.784832420392319
 30
0.0
 40
0.8459472656250001
  1
1:1
100
AcDbText
  0
ARC
  5
12900
330
128E9
100
AcDbEntity
  8
0
 62
     7
100
AcDbCircle
 10
92.02173719823599
 20
7.854684255185304
 30
0.0
 40
0.5838368232859321
100
AcDbArc
 50
297.5553548372056
 51
304.8408806463489
  0
LINE
  5
12901
330
128E9
100
AcDbEntity
  8
0
 62
     7
100
AcDbLine
 10
96.44018670993672
 20
6.648784575743377
 30
0.0
 11
95.62662822118033
 21
6.648784575743377
 31
0.0
  0
ARC
  5
12902
330
128E9
100
AcDbEntity
  8
0
 62
     7
100
AcDbCircle
 10
92.02173719823599
 20
7.854684255185304
 30
0.0
 40
0.5838368232859408
100
AcDbArc
 50
304.8408806463489
 51
297.5553548372056
  0
TEXT
  5
12903
330
128E9
100
AcDbEntity
  8
0
 62
     7
100
AcDbText
 10
91.5997577365548
 20
7.487990433787842
 30
0.0
 40
0.7875000000000002
  1
R
  7
ROMANC
 72
     1
 11
92.02565639984959
 21
7.487990433787842
 31
0.0
100
AcDbText
  0
LINE
  5
12904
330
128E9
100
AcDbEntity
  8
0
100
AcDbLine
 10
96.44018670993649
 20
0.0
 30
0.0
 11
96.44018670993695
 21
12.46470592426129
 31
0.0
  0
TEXT
  5
12905
330
128E9
100
AcDbEntity
  8
0
100
AcDbText
 10
57.83820509574335
 20
4.931128255646488
 30
0.0
 40
1.111564440985976
  1
ARCHITECTURAL CONCRETE CO., INC.
 41
1.25
 72
     4
 11
76.69038922088157
 21
5.404193065577089
 31
0.0
100
AcDbText
  0
TEXT
  5
12906
330
128E9
100
AcDbEntity
  8
0
100
AcDbText
 10
64.01730751652124
 20
0.6790765005606179
 30
0.0
 40
0.6552430415498756
  1
PHONE: 1-800-789-4841  FAX : 770-463-2635
 41
1.1875
 72
     4
 11
76.73327742292065
 21
1.005769257279496
 31
0.0
100
AcDbText
  0
TEXT
  5
12907
330
128E9
100
AcDbEntity
  8
0
 62
     7
100
AcDbText
 10
61.23651428794109
 20
7.899354841769707
 30
0.0
 40
3.572100000000002
  1
TannerStone
  7
ROMANC
 72
     1
 11
75.92109734429948
 21
7.899354841769707
 31
0.0
100
AcDbText
  0
TEXT
  5
12908
330
128E9
100
AcDbEntity
  8
0
100
AcDbText
 10
61.57240842020546
 20
1.964543484004154
 30
0.0
 40
0.6552430415498756
  1
http://TannerStone.com ~ Email:Sales@TannerStone.com 
 41
1.1875
 72
     4
 11
77.08342119362362
 21
2.259193880788984
 31
0.0
100
AcDbText
  0
TEXT
  5
12909
330
128E9
100
AcDbEntity
  8
0
100
AcDbText
 10
59.98363509556096
 20
3.260563711198551
 30
0.0
 40
0.74899296216962
  1
101 JOHNSTON CIRCLE, PALMETTO, GEORGIA 30268
 41
1.1875
 72
     4
 11
76.85158629384147
 21
3.579323650094977
 31
0.0
100
AcDbText
  0
LINE
  5
1290A
330
128E9
100
AcDbEntity
  8
0
100
AcDbLine
 10
56.87404547169354
 20
6.648784575743377
 30
0.0
 11
105.9925392881563
 21
6.648784575743377
 31
0.0
  0
LINE
  5
1290B
330
128E9
100
AcDbEntity
  8
0
 62
     7
100
AcDbLine
 10
96.44018670993682
 20
9.556745250002336
 30
0.0
 11
105.9925392881563
 21
9.556745250002336
 31
0.0
  0
TEXT
  5
1290C
330
128E9
100
AcDbEntity
  8
0
 62
     7
100
AcDbText
 10
96.66995560986686
 20
8.813345575893606
 30
0.0
 40
0.5414062500000001
  1
LBS/LINEAR FEET:
100
AcDbText
  0
LINE
  5
1290D
330
128E9
100
AcDbEntity
  8
LINEWORK
 62
     7
100
AcDbLine
 10
96.40991550469017
 20
3.757904136908962
 30
0.0
 11
105.9622680829099
 21
3.757904136909189
 31
0.0
  0
TEXT
  5
1290E
330
128E9
100
AcDbEntity
  8
0
 62
     7
100
AcDbText
 10
98.85330873086445
 20
1.524519923848686
 30
0.0
 40
0.8459472656250001
  1
1-1-2000
100
AcDbText
  0
TEXT
  5
1290F
330
128E9
100
AcDbEntity
  8
0
 62
     7
100
AcDbText
 10
96.68542089784603
 20
5.927566558083469
 30
0.0
 40
0.5414062500000001
  1
SCALE:
100
AcDbText
  0
TEXT
  5
12910
330
128E9
100
AcDbEntity
  8
0
 62
     7
100
AcDbText
 10
96.74158717246577
 20
2.97910930546476
 30
0.0
 40
0.5414062500000001
  1
DATE:
100
AcDbText
  0
TEXT
  5
12911
330
128E9
100
AcDbEntity
  8
0
 62
     7
100
AcDbText
 10
96.70022651293084
 20
11.66518473255649
 30
0.0
 40
0.5414062500000001
  1
PROFILE AREA:
100
AcDbText
  0
ATTDEF
  5
12912
330
128E9
100
AcDbEntity
  8
A1
 62
     1
100
AcDbText
 10
101.1759733039033
 20
10.07900441527107
 30
0.0
 40
0.9450000000000002
  1

 72
     1
 11
101.1759733039033
 21
10.07900441527107
 31
0.0
100
AcDbAttributeDefinition
  3
ADD PROFILE AREA
  2
XXXXX
 70
     0
  0
ATTDEF
  5
12913
330
128E9
100
AcDbEntity
  8
A1
 62
     1
100
AcDbText
 10
101.1418062311347
 20
7.21953861551384
 30
0.0
 40
0.9450000000000002
  1

 72
     1
 11
101.1418062311347
 21
7.21953861551384
 31
0.0
100
AcDbAttributeDefinition
  3
ADD #/LF
  2
XXXXX
 70
     0
  0
LINE
  5
12914
330
128E9
100
AcDbEntity
  8
0
100
AcDbLine
 10
25.9704997615305
 20
12.46470592426129
 30
0.0
 11
105.9925392881563
 21
12.46470592426129
 31
0.0
  0
ENDBLK
  5
12916
330
128E9
100
AcDbEntity
  8
0
 62
     7
100
AcDbBlockEnd
  0
ENDSEC
  0
SECTION
  2
ENTITIES
  0
INSERT
  5
D415
330
2
100
AcDbEntity
  8
0
100
AcDbBlockReference
  2
*U1
 10
646.1106899335409
 20
404.7125532552913
 30
0.0
  0
INSERT
  5
D416
330
2
100
AcDbEntity
  8
0
100
AcDbBlockReference
  2
*U2
 10
645.798184378568
 20
411.2719977254316
 30
0.0
  0
INSERT
  5
D417
330
2
100
AcDbEntity
  8
0
100
AcDbBlockReference
  2
*U3
 10
646.3606946889255
 20
407.3363308464784
 30
0.0
  0
INSERT
  5
D418
330
2
100
AcDbEntity
  8
0
100
AcDbBlockReference
  2
*U4
 10
647.3607137104639
 20
394.0300291508026
 30
0.0
  0
INSERT
  5
D419
330
2
100
AcDbEntity
  8
0
100
AcDbBlockReference
  2
*U5
 10
-120.7213040106682
 20
518.6242169914485
 30
0.0
  0
INSERT
  5
D41A
330
2
100
AcDbEntity
  8
0
100
AcDbBlockReference
  2
*U6
 10
-107.0047663928503
 20
523.9467063236033
 30
0.0
  0
INSERT
  5
D41B
330
2
100
AcDbEntity
  8
0
100
AcDbBlockReference
  2
*U7
 10
-108.7393519727654
 20
518.0410172457804
 30
0.0
  0
INSERT
  5
F070
330
2
100
AcDbEntity
  8
ASHADE
 62
     1
100
AcDbBlockReference
  2
AVE_RENDER
 10
345.1963598822981
 20
-20.78421747581671
 30
0.0
 41
0.4444444444444571
 42
0.4444444444444571
 43
0.4444444444444445
1001
AVE_RENDER
1002
{
1070
     7
1000
Pref
1070
    60
1070
    20
1070
     1
1070
     0
1000

1070
    10
1070
     1
1070
    30
1040
1.0
1070
     1
1040
0.3
1040
0.7
1040
0.0
1040
10.0
1010
-1.0
1020
-1.0
1030
-1.0
1040
0.3
1070
    49
1070
     1
1070
     0
1010
1.0
1020
1.0
1030
1.0
1040
45.0
1070
     1
1070
     0
1000
WCS
1040
0.0
1070
     0
1040
10.0
1002
}
  0
INSERT
  5
F071
330
2
100
AcDbEntity
  8
ASHADE
 62
     3
100
AcDbBlockReference
  2
AVE_RENDER
 10
345.1963598822981
 20
-20.78421747581671
 30
0.0
 41
0.4444444444444571
 42
0.4444444444444571
 43
0.4444444444444445
1001
AVE_RENDER
1002
{
1070
     0
1000
Full Opt
1070
     0
1070
     1
1070
     1
1070
     1
1070
     0
1070
     0
1070
     0
1070
     1
1070
     1
1040
0.0001
1040
0.0001
1002
}
  0
INSERT
  5
F072
330
2
100
AcDbEntity
  8
ASHADE
 62
     4
100
AcDbBlockReference
  2
AVE_RENDER
 10
345.1963598822981
 20
-20.78421747581671
 30
0.0
 41
0.4444444444444571
 42
0.4444444444444571
 43
0.4444444444444445
1001
AVE_RENDER
1002
{
1070
     0
1000
Quick Opt
1070
     0
1070
     1
1070
     1
1070
     1
1070
     0
1070
     0
1070
     1
1002
}
  0
INSERT
  5
F073
330
2
100
AcDbEntity
  8
ASHADE
 62
     5
100
AcDbBlockReference
  2
AVE_RENDER
 10
345.1963598822981
 20
-20.78421747581671
 30
0.0
 41
0.4444444444444571
 42
0.4444444444444571
 43
0.4444444444444445
1001
AVE_RENDER
1002
{
1070
     1
1000
Scanl Opt
1070
     2
1070
     0
1070
     2
1040
2.0
1040
4.0
1070
     0
1070
     1
1070
     0
1040
0.03
1002
}
  0
INSERT
  5
F074
330
2
100
AcDbEntity
  8
ASHADE
 62
     6
100
AcDbBlockReference
  2
AVE_RENDER
 10
345.1963598822981
 20
-20.78421747581671
 30
0.0
 41
0.4444444444444571
 42
0.4444444444444571
 43
0.4444444444444445
1001
AVE_RENDER
1002
{
1070
     2
1000
Raytr Opt
1070
     2
1070
     0
1070
     2
1040
2.0
1040
4.0
1070
     0
1070
     1
1070
     1
1040
0.03
1070
     3
1040
0.03
1002
}
  0
INSERT
  5
F075
330
2
100
AcDbEntity
  8
ASHADE
 62
     7
100
AcDbBlockReference
  2
AVE_RENDER
 10
345.1963598822981
 20
-20.78421747581671
 30
0.0
 41
0.4444444444444571
 42
0.4444444444444571
 43
0.4444444444444445
1001
AVE_RENDER
1002
{
1070
     0
1000
RFile Opt
1070
     5
1070
   640
1070
   480
1070
 10000
1070
     3
1070
    32
1070
    24
1070
     0
1070
     0
1070
     0
1070
     1
1070
     0
1070
     0
1070
     0
1002
}
  0
INSERT
  5
F076
330
2
100
AcDbEntity
  8
ASHADE
 62
     8
100
AcDbBlockReference
  2
AVE_RENDER
 10
345.1963598822981
 20
-20.78421747581671
 30
0.0
 41
0.4444444444444571
 42
0.4444444444444571
 43
0.4444444444444445
1001
AVE_RENDER
1002
{
1070
     0
1000
Fog Opt
1070
     0
1070
     0
1040
0.0
1040
1.0
1040
0.0
1040
1.0
1010
0.5
1020
0.5
1030
0.5
1002
}
  0
INSERT
  5
F077
330
2
100
AcDbEntity
  8
ASHADE
 62
     9
100
AcDbBlockReference
  2
AVE_RENDER
 10
345.1963598822981
 20
-20.78421747581671
 30
0.0
 41
0.4444444444444571
 42
0.4444444444444571
 43
0.4444444444444445
1001
AVE_RENDER
1002
{
1070
     0
1000
BG Opt
1070
     0
1070
     1
1010
0.0
1020
0.0
1030
0.0
1010
1.0
1020
0.0
1030
0.0
1010
0.0
1020
1.0
1030
0.0
1010
0.0
1020
0.0
1030
1.0
1040
0.5
1040
0.33
1040
0.0
1000

1070
     1
1000

1070
     1
1070
     1
1040
1.0
1040
1.0
1040
0.0
1040
0.0
1070
     0
1002
}
  0
INSERT
  5
F078
330
2
100
AcDbEntity
  8
ASHADE
 62
     1
100
AcDbBlockReference
  2
AVE_GLOBAL
 10
345.1963598822981
 20
-20.78421747581671
 30
0.0
 41
0.4444444444444571
 42
0.4444444444444571
 43
0.4444444444444445
1001
AVE_MATERIAL
1002
{
1000
*GLOBAL*
1000
1
1000
Global finish.
1002
{
1002
}
1002
{
1070
    63
1002
{
1002
{
1010
-1.0
1020
-1.0
1030
-1.0
1002
}
1040
0.1000000014901161
1000

1040
0.0
1002
{
1002
}
1040
0.0
1002
{
1002
}
1040
0.0
1002
}
1002
{
1002
{
1010
-1.0
1020
-1.0
1030
-1.0
1002
}
1040
0.6999999880790711
1000

1040
0.0
1002
{
1002
}
1040
0.0
1002
{
1002
}
1040
0.0
1002
}
1002
{
1002
{
1010
-1.0
1020
-1.0
1030
-1.0
1002
}
1040
0.2000000029802322
1000

1040
0.0
1002
{
1002
}
1040
0.0
1002
{
1002
}
1040
0.0
1002
}
1002
{
1070
     0
1002
{
1070
     1
1002
{
1040
1.0
1040
1.0
1000

1040
0.0
1002
{
1002
}
1040
0.0
1002
{
1002
}
1040
0.0
1002
}
1002
}
1040
1.0
1040
0.0
1040
0.0
1002
}
1002
{
1040
1.0
1040
1.0
1000

1040
0.0
1002
{
1002
}
1040
0.0
1002
{
1002
}
1040
0.0
1002
}
1002
{
1040
0.5
1040
1.0
1000

1040
0.0
1002
{
1002
}
1040
0.0
1002
{
1002
}
1040
0.0
1002
}
1002
{
1070
     0
1040
0.0
1002
{
1002
}
1040
1.0
1002
{
1002
}
1040
0.0
1002
}
1002
{
1040
0.0
1002
{
1002
{
1010
0.0
1020
0.0
1030
0.0
1002
}
1040
1.0
1000

1040
0.0
1002
{
1002
}
1040
0.0
1002
{
1002
}
1040
0.0
1002
}
1002
}
1002
{
1002
{
1070
     1
1002
{
1040
0.0
1040
1.0
1000

1040
0.0
1002
{
1002
}
1040
0.0
1002
{
1002
}
1040
0.0
1002
}
1002
}
1040
0.0
1002
{
1002
}
1010
1.0
1020
0.0
1030
0.0
1010
0.0
1020
1.0
1030
0.0
1010
0.0
1020
0.0
1030
1.0
1070
     0
1002
}
1002
{
1002
{
1040
1.0
1040
1.0
1002
{
1070
     1
1002
{
1040
1.0
1040
1.0
1000

1040
0.0
1002
{
1002
}
1040
0.0
1002
{
1002
}
1040
0.0
1002
}
1002
}
1002
}
1070
     0
1040
0.0
1002
{
1002
}
1002
}
1002
{
1002
}
1002
}
1002
{
1071
        3
1070
     3
1070
     0
1002
{
1070
     2
1070
     0
1070
     0
1040
0.0
1002
}
1070
     0
1070
     2
1002
{
1002
}
1002
}
1002
{
1040
8030.0
1040
190.3000030517578
1040
0.3050000071525574
1040
228.0
1040
545.0
1040
14.0
1040
17.39999961853027
1040
0.4560000002384186
1002
}
1002
}
  0
INSERT
  5
F079
330
2
100
AcDbEntity
  8
ASHADE
 62
     1
100
AcDbBlockReference
  2
AVE_GLOBAL
 10
607.9730469079288
 20
98.04468493244327
 30
0.0
1001
AVE_MATERIAL
1002
{
1000
*GLOBAL*
1000
1
1000
Global finish.
1002
{
1002
}
1002
{
1070
    63
1002
{
1002
{
1010
-1.0
1020
-1.0
1030
-1.0
1002
}
1040
0.1000000014901161
1000

1040
0.0
1002
{
1002
}
1040
0.0
1002
{
1002
}
1040
0.0
1002
}
1002
{
1002
{
1010
-1.0
1020
-1.0
1030
-1.0
1002
}
1040
0.6999999880790711
1000

1040
0.0
1002
{
1002
}
1040
0.0
1002
{
1002
}
1040
0.0
1002
}
1002
{
1002
{
1010
-1.0
1020
-1.0
1030
-1.0
1002
}
1040
0.2000000029802322
1000

1040
0.0
1002
{
1002
}
1040
0.0
1002
{
1002
}
1040
0.0
1002
}
1002
{
1070
     0
1002
{
1070
     1
1002
{
1040
1.0
1040
1.0
1000

1040
0.0
1002
{
1002
}
1040
0.0
1002
{
1002
}
1040
0.0
1002
}
1002
}
1040
1.0
1040
0.0
1040
0.0
1002
}
1002
{
1040
1.0
1040
1.0
1000

1040
0.0
1002
{
1002
}
1040
0.0
1002
{
1002
}
1040
0.0
1002
}
1002
{
1040
0.5
1040
1.0
1000

1040
0.0
1002
{
1002
}
1040
0.0
1002
{
1002
}
1040
0.0
1002
}
1002
{
1070
     0
1040
0.0
1002
{
1002
}
1040
1.0
1002
{
1002
}
1040
0.0
1002
}
1002
{
1040
0.0
1002
{
1002
{
1010
0.0
1020
0.0
1030
0.0
1002
}
1040
1.0
1000

1040
0.0
1002
{
1002
}
1040
0.0
1002
{
1002
}
1040
0.0
1002
}
1002
}
1002
{
1002
{
1070
     1
1002
{
1040
0.0
1040
1.0
1000

1040
0.0
1002
{
1002
}
1040
0.0
1002
{
1002
}
1040
0.0
1002
}
1002
}
1040
0.0
1002
{
1002
}
1010
1.0
1020
0.0
1030
0.0
1010
0.0
1020
1.0
1030
0.0
1010
0.0
1020
0.0
1030
1.0
1070
     0
1002
}
1002
{
1002
{
1040
1.0
1040
1.0
1002
{
1070
     1
1002
{
1040
1.0
1040
1.0
1000

1040
0.0
1002
{
1002
}
1040
0.0
1002
{
1002
}
1040
0.0
1002
}
1002
}
1002
}
1070
     0
1040
0.0
1002
{
1002
}
1002
}
1002
{
1002
}
1002
}
1002
{
1071
        3
1070
     3
1070
     0
1002
{
1070
     2
1070
     0
1070
     0
1040
0.0
1002
}
1070
     0
1070
     2
1002
{
1002
}
1002
}
1002
{
1040
8030.0
1040
190.3000030517578
1040
0.3050000071525574
1040
228.0
1040
545.0
1040
14.0
1040
17.39999961853027
1040
0.4560000002384186
1002
}
1002
}
  0
INSERT
  5
F093
330
2
100
AcDbEntity
  8
ASHADE
 62
     1
100
AcDbBlockReference
  2
AVE_GLOBAL
 10
608.4449950125299
 20
70.2117492506037
 30
0.0
1001
AVE_MATERIAL
1002
{
1000
*GLOBAL*
1000
1
1000
Global finish.
1002
{
1002
}
1002
{
1070
    63
1002
{
1002
{
1010
-1.0
1020
-1.0
1030
-1.0
1002
}
1040
0.1000000014901161
1000

1040
0.0
1002
{
1002
}
1040
0.0
1002
{
1002
}
1040
0.0
1002
}
1002
{
1002
{
1010
-1.0
1020
-1.0
1030
-1.0
1002
}
1040
0.6999999880790711
1000

1040
0.0
1002
{
1002
}
1040
0.0
1002
{
1002
}
1040
0.0
1002
}
1002
{
1002
{
1010
-1.0
1020
-1.0
1030
-1.0
1002
}
1040
0.2000000029802322
1000

1040
0.0
1002
{
1002
}
1040
0.0
1002
{
1002
}
1040
0.0
1002
}
1002
{
1070
     0
1002
{
1070
     1
1002
{
1040
1.0
1040
1.0
1000

1040
0.0
1002
{
1002
}
1040
0.0
1002
{
1002
}
1040
0.0
1002
}
1002
}
1040
1.0
1040
0.0
1040
0.0
1002
}
1002
{
1040
1.0
1040
1.0
1000

1040
0.0
1002
{
1002
}
1040
0.0
1002
{
1002
}
1040
0.0
1002
}
1002
{
1040
0.5
1040
1.0
1000

1040
0.0
1002
{
1002
}
1040
0.0
1002
{
1002
}
1040
0.0
1002
}
1002
{
1070
     0
1040
0.0
1002
{
1002
}
1040
1.0
1002
{
1002
}
1040
0.0
1002
}
1002
{
1040
0.0
1002
{
1002
{
1010
0.0
1020
0.0
1030
0.0
1002
}
1040
1.0
1000

1040
0.0
1002
{
1002
}
1040
0.0
1002
{
1002
}
1040
0.0
1002
}
1002
}
1002
{
1002
{
1070
     1
1002
{
1040
0.0
1040
1.0
1000

1040
0.0
1002
{
1002
}
1040
0.0
1002
{
1002
}
1040
0.0
1002
}
1002
}
1040
0.0
1002
{
1002
}
1010
1.0
1020
0.0
1030
0.0
1010
0.0
1020
1.0
1030
0.0
1010
0.0
1020
0.0
1030
1.0
1070
     0
1002
}
1002
{
1002
{
1040
1.0
1040
1.0
1002
{
1070
     1
1002
{
1040
1.0
1040
1.0
1000

1040
0.0
1002
{
1002
}
1040
0.0
1002
{
1002
}
1040
0.0
1002
}
1002
}
1002
}
1070
     0
1040
0.0
1002
{
1002
}
1002
}
1002
{
1002
}
1002
}
1002
{
1071
        3
1070
     3
1070
     0
1002
{
1070
     2
1070
     0
1070
     0
1040
0.0
1002
}
1070
     0
1070
     2
1002
{
1002
}
1002
}
1002
{
1040
8030.0
1040
190.3000030517578
1040
0.3050000071525574
1040
228.0
1040
545.0
1040
14.0
1040
17.39999961853027
1040
0.4560000002384186
1002
}
1002
}
  0
INSERT
  5
F09C
330
2
100
AcDbEntity
  8
ASHADE
 62
     1
100
AcDbBlockReference
  2
AVE_GLOBAL
 10
326.878796185584
 20
114.6104560251897
 30
12.6740639196657
 41
0.6666666666666288
 42
0.6666666666666288
 43
0.6666666666666666
1001
AVE_MATERIAL
1002
{
1000
*GLOBAL*
1000
1
1000
Global finish.
1002
{
1002
}
1002
{
1070
    63
1002
{
1002
{
1010
-1.0
1020
-1.0
1030
-1.0
1002
}
1040
0.1000000014901161
1000

1040
0.0
1002
{
1002
}
1040
0.0
1002
{
1002
}
1040
0.0
1002
}
1002
{
1002
{
1010
-1.0
1020
-1.0
1030
-1.0
1002
}
1040
0.6999999880790711
1000

1040
0.0
1002
{
1002
}
1040
0.0
1002
{
1002
}
1040
0.0
1002
}
1002
{
1002
{
1010
-1.0
1020
-1.0
1030
-1.0
1002
}
1040
0.2000000029802322
1000

1040
0.0
1002
{
1002
}
1040
0.0
1002
{
1002
}
1040
0.0
1002
}
1002
{
1070
     0
1002
{
1070
     1
1002
{
1040
1.0
1040
1.0
1000

1040
0.0
1002
{
1002
}
1040
0.0
1002
{
1002
}
1040
0.0
1002
}
1002
}
1040
1.0
1040
0.0
1040
0.0
1002
}
1002
{
1040
1.0
1040
1.0
1000

1040
0.0
1002
{
1002
}
1040
0.0
1002
{
1002
}
1040
0.0
1002
}
1002
{
1040
0.5
1040
1.0
1000

1040
0.0
1002
{
1002
}
1040
0.0
1002
{
1002
}
1040
0.0
1002
}
1002
{
1070
     0
1040
0.0
1002
{
1002
}
1040
1.0
1002
{
1002
}
1040
0.0
1002
}
1002
{
1040
0.0
1002
{
1002
{
1010
0.0
1020
0.0
1030
0.0
1002
}
1040
1.0
1000

1040
0.0
1002
{
1002
}
1040
0.0
1002
{
1002
}
1040
0.0
1002
}
1002
}
1002
{
1002
{
1070
     1
1002
{
1040
0.0
1040
1.0
1000

1040
0.0
1002
{
1002
}
1040
0.0
1002
{
1002
}
1040
0.0
1002
}
1002
}
1040
0.0
1002
{
1002
}
1010
1.0
1020
0.0
1030
0.0
1010
0.0
1020
1.0
1030
0.0
1010
0.0
1020
0.0
1030
1.0
1070
     0
1002
}
1002
{
1002
{
1040
1.0
1040
1.0
1002
{
1070
     1
1002
{
1040
1.0
1040
1.0
1000

1040
0.0
1002
{
1002
}
1040
0.0
1002
{
1002
}
1040
0.0
1002
}
1002
}
1002
}
1070
     0
1040
0.0
1002
{
1002
}
1002
}
1002
{
1002
}
1002
}
1002
{
1071
        3
1070
     3
1070
     0
1002
{
1070
     2
1070
     0
1070
     0
1040
0.0
1002
}
1070
     0
1070
     2
1002
{
1002
}
1002
}
1002
{
1040
8030.0
1040
190.3000030517578
1040
0.3050000071525574
1040
228.0
1040
545.0
1040
14.0
1040
17.39999961853027
1040
0.4560000002384186
1002
}
1002
}
  0
INSERT
  5
F0BA
330
2
100
AcDbEntity
  8
ASHADE
 62
     1
100
AcDbBlockReference
  2
AVE_GLOBAL
 10
403.2250140402669
 20
114.6104560251897
 30
12.6740639196657
 41
0.6666666666666288
 42
0.6666666666666288
 43
0.6666666666666666
1001
AVE_MATERIAL
1002
{
1000
*GLOBAL*
1000
1
1000
Global finish.
1002
{
1002
}
1002
{
1070
    63
1002
{
1002
{
1010
-1.0
1020
-1.0
1030
-1.0
1002
}
1040
0.1000000014901161
1000

1040
0.0
1002
{
1002
}
1040
0.0
1002
{
1002
}
1040
0.0
1002
}
1002
{
1002
{
1010
-1.0
1020
-1.0
1030
-1.0
1002
}
1040
0.6999999880790711
1000

1040
0.0
1002
{
1002
}
1040
0.0
1002
{
1002
}
1040
0.0
1002
}
1002
{
1002
{
1010
-1.0
1020
-1.0
1030
-1.0
1002
}
1040
0.2000000029802322
1000

1040
0.0
1002
{
1002
}
1040
0.0
1002
{
1002
}
1040
0.0
1002
}
1002
{
1070
     0
1002
{
1070
     1
1002
{
1040
1.0
1040
1.0
1000

1040
0.0
1002
{
1002
}
1040
0.0
1002
{
1002
}
1040
0.0
1002
}
1002
}
1040
1.0
1040
0.0
1040
0.0
1002
}
1002
{
1040
1.0
1040
1.0
1000

1040
0.0
1002
{
1002
}
1040
0.0
1002
{
1002
}
1040
0.0
1002
}
1002
{
1040
0.5
1040
1.0
1000

1040
0.0
1002
{
1002
}
1040
0.0
1002
{
1002
}
1040
0.0
1002
}
1002
{
1070
     0
1040
0.0
1002
{
1002
}
1040
1.0
1002
{
1002
}
1040
0.0
1002
}
1002
{
1040
0.0
1002
{
1002
{
1010
0.0
1020
0.0
1030
0.0
1002
}
1040
1.0
1000

1040
0.0
1002
{
1002
}
1040
0.0
1002
{
1002
}
1040
0.0
1002
}
1002
}
1002
{
1002
{
1070
     1
1002
{
1040
0.0
1040
1.0
1000

1040
0.0
1002
{
1002
}
1040
0.0
1002
{
1002
}
1040
0.0
1002
}
1002
}
1040
0.0
1002
{
1002
}
1010
1.0
1020
0.0
1030
0.0
1010
0.0
1020
1.0
1030
0.0
1010
0.0
1020
0.0
1030
1.0
1070
     0
1002
}
1002
{
1002
{
1040
1.0
1040
1.0
1002
{
1070
     1
1002
{
1040
1.0
1040
1.0
1000

1040
0.0
1002
{
1002
}
1040
0.0
1002
{
1002
}
1040
0.0
1002
}
1002
}
1002
}
1070
     0
1040
0.0
1002
{
1002
}
1002
}
1002
{
1002
}
1002
}
1002
{
1071
        3
1070
     3
1070
     0
1002
{
1070
     2
1070
     0
1070
     0
1040
0.0
1002
}
1070
     0
1070
     2
1002
{
1002
}
1002
}
1002
{
1040
8030.0
1040
190.3000030517578
1040
0.3050000071525574
1040
228.0
1040
545.0
1040
14.0
1040
17.39999961853027
1040
0.4560000002384186
1002
}
1002
}
  0
INSERT
  5
F0F4
330
2
100
AcDbEntity
  8
ASHADE
 62
     1
100
AcDbBlockReference
  2
AVE_RENDER
 10
163.839375876731
 20
-629.2364123446609
 30
0.0
 41
1.305150000000026
 42
1.305150000000026
 43
1.305150000000001
1001
AVE_RENDER
1002
{
1070
     6
1000
Pref
1070
    30
1070
    20
1070
     1
1070
     0
1000

1070
    10
1070
     1
1070
    30
1040
1.0
1070
     1
1040
0.3
1040
0.7
1040
0.0
1040
10.0
1010
-1.0
1020
-1.0
1030
-1.0
1040
0.3
1070
    49
1070
     0
1070
     0
1010
1.0
1020
1.0
1030
1.0
1040
45.0
1070
     1
1070
     0
1000
WCS
1040
0.0
1002
}
  0
INSERT
  5
F0F5
330
2
100
AcDbEntity
  8
ASHADE
 62
     3
100
AcDbBlockReference
  2
AVE_RENDER
 10
163.839375876731
 20
-629.2364123446609
 30
0.0
 41
1.305150000000026
 42
1.305150000000026
 43
1.305150000000001
1001
AVE_RENDER
1002
{
1070
     0
1000
Full Opt
1070
     0
1070
     1
1070
     1
1070
     1
1070
     0
1070
     0
1070
     0
1070
     1
1070
     1
1040
0.0001
1040
0.0001
1002
}
  0
INSERT
  5
F0F6
330
2
100
AcDbEntity
  8
ASHADE
 62
     4
100
AcDbBlockReference
  2
AVE_RENDER
 10
163.839375876731
 20
-629.2364123446609
 30
0.0
 41
1.305150000000026
 42
1.305150000000026
 43
1.305150000000001
1001
AVE_RENDER
1002
{
1070
     0
1000
Quick Opt
1070
     0
1070
     1
1070
     1
1070
     1
1070
     0
1070
     0
1070
     1
1002
}
  0
INSERT
  5
F0F7
330
2
100
AcDbEntity
  8
ASHADE
 62
     5
100
AcDbBlockReference
  2
AVE_RENDER
 10
163.839375876731
 20
-629.2364123446609
 30
0.0
 41
1.305150000000026
 42
1.305150000000026
 43
1.305150000000001
1001
AVE_RENDER
1002
{
1070
     1
1000
Scanl Opt
1070
     2
1070
     0
1070
     2
1040
2.0
1040
4.0
1070
     0
1070
     1
1070
     0
1040
0.03
1002
}
  0
INSERT
  5
F0F8
330
2
100
AcDbEntity
  8
ASHADE
 62
     6
100
AcDbBlockReference
  2
AVE_RENDER
 10
163.839375876731
 20
-629.2364123446609
 30
0.0
 41
1.305150000000026
 42
1.305150000000026
 43
1.305150000000001
1001
AVE_RENDER
1002
{
1070
     2
1000
Raytr Opt
1070
     2
1070
     0
1070
     2
1040
2.0
1040
4.0
1070
     0
1070
     1
1070
     1
1040
0.03
1070
     3
1040
0.03
1002
}
  0
INSERT
  5
F0F9
330
2
100
AcDbEntity
  8
ASHADE
 62
     7
100
AcDbBlockReference
  2
AVE_RENDER
 10
163.839375876731
 20
-629.2364123446609
 30
0.0
 41
1.305150000000026
 42
1.305150000000026
 43
1.305150000000001
1001
AVE_RENDER
1002
{
1070
     0
1000
RFile Opt
1070
     5
1070
   640
1070
   480
1070
 10000
1070
     3
1070
    32
1070
    24
1070
     0
1070
     0
1070
     0
1070
     1
1070
     0
1070
     0
1070
     0
1002
}
  0
INSERT
  5
F0FA
330
2
100
AcDbEntity
  8
ASHADE
 62
     8
100
AcDbBlockReference
  2
AVE_RENDER
 10
163.839375876731
 20
-629.2364123446609
 30
0.0
 41
1.305150000000026
 42
1.305150000000026
 43
1.305150000000001
1001
AVE_RENDER
1002
{
1070
     0
1000
Fog Opt
1070
     0
1070
     0
1040
0.0
1040
1.0
1040
0.0
1040
1.0
1010
0.5
1020
0.5
1030
0.5
1002
}
  0
INSERT
  5
F0FB
330
2
100
AcDbEntity
  8
ASHADE
 62
     9
100
AcDbBlockReference
  2
AVE_RENDER
 10
163.839375876731
 20
-629.2364123446609
 30
0.0
 41
1.305150000000026
 42
1.305150000000026
 43
1.305150000000001
1001
AVE_RENDER
1002
{
1070
     0
1000
BG Opt
1070
     0
1070
     1
1010
0.0
1020
0.0
1030
0.0
1010
1.0
1020
0.0
1030
0.0
1010
0.0
1020
1.0
1030
0.0
1010
0.0
1020
0.0
1030
1.0
1040
0.5
1040
0.33
1040
0.0
1000

1070
     1
1000

1070
     1
1070
     1
1040
1.0
1040
1.0
1040
0.0
1040
0.0
1070
     0
1002
}
  0
INSERT
  5
F0FC
330
2
100
AcDbEntity
  8
ASHADE
 62
     1
100
AcDbBlockReference
  2
AVE_GLOBAL
 10
163.839375876731
 20
-629.2364123446609
 30
0.0
 41
1.305150000000026
 42
1.305150000000026
 43
1.305150000000001
1001
AVE_MATERIAL
1002
{
1000
*GLOBAL*
1000
1
1000
Global finish.
1002
{
1002
}
1002
{
1070
    63
1002
{
1002
{
1010
-1.0
1020
-1.0
1030
-1.0
1002
}
1040
0.1000000014901161
1000

1040
0.0
1002
{
1002
}
1040
0.0
1002
{
1002
}
1040
0.0
1002
}
1002
{
1002
{
1010
-1.0
1020
-1.0
1030
-1.0
1002
}
1040
0.6999999880790711
1000

1040
0.0
1002
{
1002
}
1040
0.0
1002
{
1002
}
1040
0.0
1002
}
1002
{
1002
{
1010
-1.0
1020
-1.0
1030
-1.0
1002
}
1040
0.2000000029802322
1000

1040
0.0
1002
{
1002
}
1040
0.0
1002
{
1002
}
1040
0.0
1002
}
1002
{
1070
     0
1002
{
1070
     1
1002
{
1040
1.0
1040
1.0
1000

1040
0.0
1002
{
1002
}
1040
0.0
1002
{
1002
}
1040
0.0
1002
}
1002
}
1040
1.0
1040
0.0
1040
0.0
1002
}
1002
{
1040
1.0
1040
1.0
1000

1040
0.0
1002
{
1002
}
1040
0.0
1002
{
1002
}
1040
0.0
1002
}
1002
{
1040
0.5
1040
1.0
1000

1040
0.0
1002
{
1002
}
1040
0.0
1002
{
1002
}
1040
0.0
1002
}
1002
{
1070
     0
1040
0.0
1002
{
1002
}
1040
1.0
1002
{
1002
}
1040
0.0
1002
}
1002
{
1040
0.0
1002
{
1002
{
1010
0.0
1020
0.0
1030
0.0
1002
}
1040
1.0
1000

1040
0.0
1002
{
1002
}
1040
0.0
1002
{
1002
}
1040
0.0
1002
}
1002
}
1002
{
1002
{
1070
     1
1002
{
1040
0.0
1040
1.0
1000

1040
0.0
1002
{
1002
}
1040
0.0
1002
{
1002
}
1040
0.0
1002
}
1002
}
1040
0.0
1002
{
1002
}
1010
1.0
1020
0.0
1030
0.0
1010
0.0
1020
1.0
1030
0.0
1010
0.0
1020
0.0
1030
1.0
1070
     0
1002
}
1002
{
1002
{
1040
1.0
1040
1.0
1002
{
1070
     1
1002
{
1040
1.0
1040
1.0
1000

1040
0.0
1002
{
1002
}
1040
0.0
1002
{
1002
}
1040
0.0
1002
}
1002
}
1002
}
1070
     0
1040
0.0
1002
{
1002
}
1002
}
1002
{
1002
}
1002
}
1002
{
1071
        3
1070
     3
1070
     0
1002
{
1070
     2
1070
     0
1070
     0
1040
0.0
1002
}
1070
     0
1070
     2
1002
{
1002
}
1002
}
1002
{
1040
8030.0
1040
190.3000030517578
1040
0.3050000071525574
1040
228.0
1040
545.0
1040
14.0
1040
17.39999961853027
1040
0.4560000002384186
1002
}
1002
}
  0
INSERT
  5
F0FD
330
2
100
AcDbEntity
  8
ASHADE
 62
     1
100
AcDbBlockReference
  2
AVE_RENDER
 10
580.6091884466176
 20
16.47457181389745
 30
0.0
 41
0.3262875000000349
 42
0.3262875000000349
 43
0.3262875000000003
1001
AVE_RENDER
1002
{
1070
     6
1000
Pref
1070
    30
1070
    20
1070
     1
1070
     0
1000

1070
    10
1070
     1
1070
    30
1040
1.0
1070
     1
1040
0.3
1040
0.7
1040
0.0
1040
10.0
1010
-1.0
1020
-1.0
1030
-1.0
1040
0.3
1070
    49
1070
     0
1070
     0
1010
1.0
1020
1.0
1030
1.0
1040
45.0
1070
     1
1070
     0
1000
WCS
1040
0.0
1002
}
  0
INSERT
  5
F0FE
330
2
100
AcDbEntity
  8
ASHADE
 62
     3
100
AcDbBlockReference
  2
AVE_RENDER
 10
580.6091884466176
 20
16.47457181389745
 30
0.0
 41
0.3262875000000349
 42
0.3262875000000349
 43
0.3262875000000003
1001
AVE_RENDER
1002
{
1070
     0
1000
Full Opt
1070
     0
1070
     1
1070
     1
1070
     1
1070
     0
1070
     0
1070
     0
1070
     1
1070
     1
1040
0.0001
1040
0.0001
1002
}
  0
INSERT
  5
F0FF
330
2
100
AcDbEntity
  8
ASHADE
 62
     4
100
AcDbBlockReference
  2
AVE_RENDER
 10
580.6091884466176
 20
16.47457181389745
 30
0.0
 41
0.3262875000000349
 42
0.3262875000000349
 43
0.3262875000000003
1001
AVE_RENDER
1002
{
1070
     0
1000
Quick Opt
1070
     0
1070
     1
1070
     1
1070
     1
1070
     0
1070
     0
1070
     1
1002
}
  0
INSERT
  5
F100
330
2
100
AcDbEntity
  8
ASHADE
 62
     5
100
AcDbBlockReference
  2
AVE_RENDER
 10
580.6091884466176
 20
16.47457181389745
 30
0.0
 41
0.3262875000000349
 42
0.3262875000000349
 43
0.3262875000000003
1001
AVE_RENDER
1002
{
1070
     1
1000
Scanl Opt
1070
     2
1070
     0
1070
     2
1040
2.0
1040
4.0
1070
     0
1070
     1
1070
     0
1040
0.03
1002
}
  0
INSERT
  5
F101
330
2
100
AcDbEntity
  8
ASHADE
 62
     6
100
AcDbBlockReference
  2
AVE_RENDER
 10
580.6091884466176
 20
16.47457181389745
 30
0.0
 41
0.3262875000000349
 42
0.3262875000000349
 43
0.3262875000000003
1001
AVE_RENDER
1002
{
1070
     2
1000
Raytr Opt
1070
     2
1070
     0
1070
     2
1040
2.0
1040
4.0
1070
     0
1070
     1
1070
     1
1040
0.03
1070
     3
1040
0.03
1002
}
  0
INSERT
  5
F102
330
2
100
AcDbEntity
  8
ASHADE
 62
     7
100
AcDbBlockReference
  2
AVE_RENDER
 10
580.6091884466176
 20
16.47457181389745
 30
0.0
 41
0.3262875000000349
 42
0.3262875000000349
 43
0.3262875000000003
1001
AVE_RENDER
1002
{
1070
     0
1000
RFile Opt
1070
     5
1070
   640
1070
   480
1070
 10000
1070
     3
1070
    32
1070
    24
1070
     0
1070
     0
1070
     0
1070
     1
1070
     0
1070
     0
1070
     0
1002
}
  0
INSERT
  5
F103
330
2
100
AcDbEntity
  8
ASHADE
 62
     8
100
AcDbBlockReference
  2
AVE_RENDER
 10
580.6091884466176
 20
16.47457181389745
 30
0.0
 41
0.3262875000000349
 42
0.3262875000000349
 43
0.3262875000000003
1001
AVE_RENDER
1002
{
1070
     0
1000
Fog Opt
1070
     0
1070
     0
1040
0.0
1040
1.0
1040
0.0
1040
1.0
1010
0.5
1020
0.5
1030
0.5
1002
}
  0
INSERT
  5
F104
330
2
100
AcDbEntity
  8
ASHADE
 62
     9
100
AcDbBlockReference
  2
AVE_RENDER
 10
580.6091884466176
 20
16.47457181389745
 30
0.0
 41
0.3262875000000349
 42
0.3262875000000349
 43
0.3262875000000003
1001
AVE_RENDER
1002
{
1070
     0
1000
BG Opt
1070
     0
1070
     1
1010
0.0
1020
0.0
1030
0.0
1010
1.0
1020
0.0
1030
0.0
1010
0.0
1020
1.0
1030
0.0
1010
0.0
1020
0.0
1030
1.0
1040
0.5
1040
0.33
1040
0.0
1000

1070
     1
1000

1070
     1
1070
     1
1040
1.0
1040
1.0
1040
0.0
1040
0.0
1070
     0
1002
}
  0
INSERT
  5
F105
330
2
100
AcDbEntity
  8
ASHADE
 62
     1
100
AcDbBlockReference
  2
AVE_GLOBAL
 10
580.6091884466176
 20
16.47457181389745
 30
0.0
 41
0.3262875000000349
 42
0.3262875000000349
 43
0.3262875000000003
1001
AVE_MATERIAL
1002
{
1000
*GLOBAL*
1000
1
1000
Global finish.
1002
{
1002
}
1002
{
1070
    63
1002
{
1002
{
1010
-1.0
1020
-1.0
1030
-1.0
1002
}
1040
0.1000000014901161
1000

1040
0.0
1002
{
1002
}
1040
0.0
1002
{
1002
}
1040
0.0
1002
}
1002
{
1002
{
1010
-1.0
1020
-1.0
1030
-1.0
1002
}
1040
0.6999999880790711
1000

1040
0.0
1002
{
1002
}
1040
0.0
1002
{
1002
}
1040
0.0
1002
}
1002
{
1002
{
1010
-1.0
1020
-1.0
1030
-1.0
1002
}
1040
0.2000000029802322
1000

1040
0.0
1002
{
1002
}
1040
0.0
1002
{
1002
}
1040
0.0
1002
}
1002
{
1070
     0
1002
{
1070
     1
1002
{
1040
1.0
1040
1.0
1000

1040
0.0
1002
{
1002
}
1040
0.0
1002
{
1002
}
1040
0.0
1002
}
1002
}
1040
1.0
1040
0.0
1040
0.0
1002
}
1002
{
1040
1.0
1040
1.0
1000

1040
0.0
1002
{
1002
}
1040
0.0
1002
{
1002
}
1040
0.0
1002
}
1002
{
1040
0.5
1040
1.0
1000

1040
0.0
1002
{
1002
}
1040
0.0
1002
{
1002
}
1040
0.0
1002
}
1002
{
1070
     0
1040
0.0
1002
{
1002
}
1040
1.0
1002
{
1002
}
1040
0.0
1002
}
1002
{
1040
0.0
1002
{
1002
{
1010
0.0
1020
0.0
1030
0.0
1002
}
1040
1.0
1000

1040
0.0
1002
{
1002
}
1040
0.0
1002
{
1002
}
1040
0.0
1002
}
1002
}
1002
{
1002
{
1070
     1
1002
{
1040
0.0
1040
1.0
1000

1040
0.0
1002
{
1002
}
1040
0.0
1002
{
1002
}
1040
0.0
1002
}
1002
}
1040
0.0
1002
{
1002
}
1010
1.0
1020
0.0
1030
0.0
1010
0.0
1020
1.0
1030
0.0
1010
0.0
1020
0.0
1030
1.0
1070
     0
1002
}
1002
{
1002
{
1040
1.0
1040
1.0
1002
{
1070
     1
1002
{
1040
1.0
1040
1.0
1000

1040
0.0
1002
{
1002
}
1040
0.0
1002
{
1002
}
1040
0.0
1002
}
1002
}
1002
}
1070
     0
1040
0.0
1002
{
1002
}
1002
}
1002
{
1002
}
1002
}
1002
{
1071
        3
1070
     3
1070
     0
1002
{
1070
     2
1070
     0
1070
     0
1040
0.0
1002
}
1070
     0
1070
     2
1002
{
1002
}
1002
}
1002
{
1040
8030.0
1040
190.3000030517578
1040
0.3050000071525574
1040
228.0
1040
545.0
1040
14.0
1040
17.39999961853027
1040
0.4560000002384186
1002
}
1002
}
  0
INSERT
  5
F780
330
2
100
AcDbEntity
  8
ASHADE
 62
     1
100
AcDbBlockReference
  2
AVE_RENDER
 10
372.3128693329844
 20
-629.236412344661
 30
0.0
 41
1.305150000000026
 42
1.305150000000026
 43
1.305150000000001
1001
AVE_RENDER
1002
{
1070
     6
1000
Pref
1070
    30
1070
    20
1070
     1
1070
     0
1000

1070
    10
1070
     1
1070
    30
1040
1.0
1070
     1
1040
0.3
1040
0.7
1040
0.0
1040
10.0
1010
-1.0
1020
-1.0
1030
-1.0
1040
0.3
1070
    49
1070
     0
1070
     0
1010
1.0
1020
1.0
1030
1.0
1040
45.0
1070
     1
1070
     0
1000
WCS
1040
0.0
1002
}
  0
INSERT
  5
F781
330
2
100
AcDbEntity
  8
ASHADE
 62
     3
100
AcDbBlockReference
  2
AVE_RENDER
 10
372.3128693329844
 20
-629.236412344661
 30
0.0
 41
1.305150000000026
 42
1.305150000000026
 43
1.305150000000001
1001
AVE_RENDER
1002
{
1070
     0
1000
Full Opt
1070
     0
1070
     1
1070
     1
1070
     1
1070
     0
1070
     0
1070
     0
1070
     1
1070
     1
1040
0.0001
1040
0.0001
1002
}
  0
INSERT
  5
F782
330
2
100
AcDbEntity
  8
ASHADE
 62
     4
100
AcDbBlockReference
  2
AVE_RENDER
 10
372.3128693329844
 20
-629.236412344661
 30
0.0
 41
1.305150000000026
 42
1.305150000000026
 43
1.305150000000001
1001
AVE_RENDER
1002
{
1070
     0
1000
Quick Opt
1070
     0
1070
     1
1070
     1
1070
     1
1070
     0
1070
     0
1070
     1
1002
}
  0
INSERT
  5
F783
330
2
100
AcDbEntity
  8
ASHADE
 62
     5
100
AcDbBlockReference
  2
AVE_RENDER
 10
372.3128693329844
 20
-629.236412344661
 30
0.0
 41
1.305150000000026
 42
1.305150000000026
 43
1.305150000000001
1001
AVE_RENDER
1002
{
1070
     1
1000
Scanl Opt
1070
     2
1070
     0
1070
     2
1040
2.0
1040
4.0
1070
     0
1070
     1
1070
     0
1040
0.03
1002
}
  0
INSERT
  5
F784
330
2
100
AcDbEntity
  8
ASHADE
 62
     6
100
AcDbBlockReference
  2
AVE_RENDER
 10
372.3128693329844
 20
-629.236412344661
 30
0.0
 41
1.305150000000026
 42
1.305150000000026
 43
1.305150000000001
1001
AVE_RENDER
1002
{
1070
     2
1000
Raytr Opt
1070
     2
1070
     0
1070
     2
1040
2.0
1040
4.0
1070
     0
1070
     1
1070
     1
1040
0.03
1070
     3
1040
0.03
1002
}
  0
INSERT
  5
F785
330
2
100
AcDbEntity
  8
ASHADE
 62
     7
100
AcDbBlockReference
  2
AVE_RENDER
 10
372.3128693329844
 20
-629.236412344661
 30
0.0
 41
1.305150000000026
 42
1.305150000000026
 43
1.305150000000001
1001
AVE_RENDER
1002
{
1070
     0
1000
RFile Opt
1070
     5
1070
   640
1070
   480
1070
 10000
1070
     3
1070
    32
1070
    24
1070
     0
1070
     0
1070
     0
1070
     1
1070
     0
1070
     0
1070
     0
1002
}
  0
INSERT
  5
F786
330
2
100
AcDbEntity
  8
ASHADE
 62
     8
100
AcDbBlockReference
  2
AVE_RENDER
 10
372.3128693329844
 20
-629.236412344661
 30
0.0
 41
1.305150000000026
 42
1.305150000000026
 43
1.305150000000001
1001
AVE_RENDER
1002
{
1070
     0
1000
Fog Opt
1070
     0
1070
     0
1040
0.0
1040
1.0
1040
0.0
1040
1.0
1010
0.5
1020
0.5
1030
0.5
1002
}
  0
INSERT
  5
F787
330
2
100
AcDbEntity
  8
ASHADE
 62
     9
100
AcDbBlockReference
  2
AVE_RENDER
 10
372.3128693329844
 20
-629.236412344661
 30
0.0
 41
1.305150000000026
 42
1.305150000000026
 43
1.305150000000001
1001
AVE_RENDER
1002
{
1070
     0
1000
BG Opt
1070
     0
1070
     1
1010
0.0
1020
0.0
1030
0.0
1010
1.0
1020
0.0
1030
0.0
1010
0.0
1020
1.0
1030
0.0
1010
0.0
1020
0.0
1030
1.0
1040
0.5
1040
0.33
1040
0.0
1000

1070
     1
1000

1070
     1
1070
     1
1040
1.0
1040
1.0
1040
0.0
1040
0.0
1070
     0
1002
}
  0
INSERT
  5
F788
330
2
100
AcDbEntity
  8
ASHADE
 62
     1
100
AcDbBlockReference
  2
AVE_GLOBAL
 10
372.3128693329844
 20
-629.236412344661
 30
0.0
 41
1.305150000000026
 42
1.305150000000026
 43
1.305150000000001
1001
AVE_MATERIAL
1002
{
1000
*GLOBAL*
1000
1
1000
Global finish.
1002
{
1002
}
1002
{
1070
    63
1002
{
1002
{
1010
-1.0
1020
-1.0
1030
-1.0
1002
}
1040
0.1000000014901161
1000

1040
0.0
1002
{
1002
}
1040
0.0
1002
{
1002
}
1040
0.0
1002
}
1002
{
1002
{
1010
-1.0
1020
-1.0
1030
-1.0
1002
}
1040
0.6999999880790711
1000

1040
0.0
1002
{
1002
}
1040
0.0
1002
{
1002
}
1040
0.0
1002
}
1002
{
1002
{
1010
-1.0
1020
-1.0
1030
-1.0
1002
}
1040
0.2000000029802322
1000

1040
0.0
1002
{
1002
}
1040
0.0
1002
{
1002
}
1040
0.0
1002
}
1002
{
1070
     0
1002
{
1070
     1
1002
{
1040
1.0
1040
1.0
1000

1040
0.0
1002
{
1002
}
1040
0.0
1002
{
1002
}
1040
0.0
1002
}
1002
}
1040
1.0
1040
0.0
1040
0.0
1002
}
1002
{
1040
1.0
1040
1.0
1000

1040
0.0
1002
{
1002
}
1040
0.0
1002
{
1002
}
1040
0.0
1002
}
1002
{
1040
0.5
1040
1.0
1000

1040
0.0
1002
{
1002
}
1040
0.0
1002
{
1002
}
1040
0.0
1002
}
1002
{
1070
     0
1040
0.0
1002
{
1002
}
1040
1.0
1002
{
1002
}
1040
0.0
1002
}
1002
{
1040
0.0
1002
{
1002
{
1010
0.0
1020
0.0
1030
0.0
1002
}
1040
1.0
1000

1040
0.0
1002
{
1002
}
1040
0.0
1002
{
1002
}
1040
0.0
1002
}
1002
}
1002
{
1002
{
1070
     1
1002
{
1040
0.0
1040
1.0
1000

1040
0.0
1002
{
1002
}
1040
0.0
1002
{
1002
}
1040
0.0
1002
}
1002
}
1040
0.0
1002
{
1002
}
1010
1.0
1020
0.0
1030
0.0
1010
0.0
1020
1.0
1030
0.0
1010
0.0
1020
0.0
1030
1.0
1070
     0
1002
}
1002
{
1002
{
1040
1.0
1040
1.0
1002
{
1070
     1
1002
{
1040
1.0
1040
1.0
1000

1040
0.0
1002
{
1002
}
1040
0.0
1002
{
1002
}
1040
0.0
1002
}
1002
}
1002
}
1070
     0
1040
0.0
1002
{
1002
}
1002
}
1002
{
1002
}
1002
}
1002
{
1071
        3
1070
     3
1070
     0
1002
{
1070
     2
1070
     0
1070
     0
1040
0.0
1002
}
1070
     0
1070
     2
1002
{
1002
}
1002
}
1002
{
1040
8030.0
1040
190.3000030517578
1040
0.3050000071525574
1040
228.0
1040
545.0
1040
14.0
1040
17.39999961853027
1040
0.4560000002384186
1002
}
1002
}
  0
INSERT
  5
F789
330
2
100
AcDbEntity
  8
ASHADE
 62
     1
100
AcDbBlockReference
  2
AVE_RENDER
 10
784.3731119774168
 20
211.560800091514
 30
2.284012500000298
 41
1.305150000000026
 42
1.305150000000026
 43
1.305150000000001
1001
AVE_RENDER
1002
{
1070
     6
1000
Pref
1070
    30
1070
    20
1070
     1
1070
     0
1000

1070
    10
1070
     1
1070
    30
1040
1.0
1070
     1
1040
0.3
1040
0.7
1040
0.0
1040
10.0
1010
-1.0
1020
-1.0
1030
-1.0
1040
0.3
1070
    49
1070
     0
1070
     0
1010
1.0
1020
1.0
1030
1.0
1040
45.0
1070
     1
1070
     0
1000
WCS
1040
0.0
1002
}
  0
INSERT
  5
F78A
330
2
100
AcDbEntity
  8
ASHADE
 62
     3
100
AcDbBlockReference
  2
AVE_RENDER
 10
784.3731119774168
 20
211.560800091514
 30
2.284012500000298
 41
1.305150000000026
 42
1.305150000000026
 43
1.305150000000001
1001
AVE_RENDER
1002
{
1070
     0
1000
Full Opt
1070
     0
1070
     1
1070
     1
1070
     1
1070
     0
1070
     0
1070
     0
1070
     1
1070
     1
1040
0.0001
1040
0.0001
1002
}
  0
INSERT
  5
F78B
330
2
100
AcDbEntity
  8
ASHADE
 62
     4
100
AcDbBlockReference
  2
AVE_RENDER
 10
784.3731119774168
 20
211.560800091514
 30
2.284012500000298
 41
1.305150000000026
 42
1.305150000000026
 43
1.305150000000001
1001
AVE_RENDER
1002
{
1070
     0
1000
Quick Opt
1070
     0
1070
     1
1070
     1
1070
     1
1070
     0
1070
     0
1070
     1
1002
}
  0
INSERT
  5
F78C
330
2
100
AcDbEntity
  8
ASHADE
 62
     5
100
AcDbBlockReference
  2
AVE_RENDER
 10
784.3731119774168
 20
211.560800091514
 30
2.284012500000298
 41
1.305150000000026
 42
1.305150000000026
 43
1.305150000000001
1001
AVE_RENDER
1002
{
1070
     1
1000
Scanl Opt
1070
     2
1070
     0
1070
     2
1040
2.0
1040
4.0
1070
     0
1070
     1
1070
     0
1040
0.03
1002
}
  0
INSERT
  5
F78D
330
2
100
AcDbEntity
  8
ASHADE
 62
     6
100
AcDbBlockReference
  2
AVE_RENDER
 10
784.3731119774168
 20
211.560800091514
 30
2.284012500000298
 41
1.305150000000026
 42
1.305150000000026
 43
1.305150000000001
1001
AVE_RENDER
1002
{
1070
     2
1000
Raytr Opt
1070
     2
1070
     0
1070
     2
1040
2.0
1040
4.0
1070
     0
1070
     1
1070
     1
1040
0.03
1070
     3
1040
0.03
1002
}
  0
INSERT
  5
F78E
330
2
100
AcDbEntity
  8
ASHADE
 62
     7
100
AcDbBlockReference
  2
AVE_RENDER
 10
784.3731119774168
 20
211.560800091514
 30
2.284012500000298
 41
1.305150000000026
 42
1.305150000000026
 43
1.305150000000001
1001
AVE_RENDER
1002
{
1070
     0
1000
RFile Opt
1070
     5
1070
   640
1070
   480
1070
 10000
1070
     3
1070
    32
1070
    24
1070
     0
1070
     0
1070
     0
1070
     1
1070
     0
1070
     0
1070
     0
1002
}
  0
INSERT
  5
F78F
330
2
100
AcDbEntity
  8
ASHADE
 62
     8
100
AcDbBlockReference
  2
AVE_RENDER
 10
784.3731119774168
 20
211.560800091514
 30
2.284012500000298
 41
1.305150000000026
 42
1.305150000000026
 43
1.305150000000001
1001
AVE_RENDER
1002
{
1070
     0
1000
Fog Opt
1070
     0
1070
     0
1040
0.0
1040
1.0
1040
0.0
1040
1.0
1010
0.5
1020
0.5
1030
0.5
1002
}
  0
INSERT
  5
F790
330
2
100
AcDbEntity
  8
ASHADE
 62
     9
100
AcDbBlockReference
  2
AVE_RENDER
 10
784.3731119774168
 20
211.560800091514
 30
2.284012500000298
 41
1.305150000000026
 42
1.305150000000026
 43
1.305150000000001
1001
AVE_RENDER
1002
{
1070
     0
1000
BG Opt
1070
     0
1070
     1
1010
0.0
1020
0.0
1030
0.0
1010
1.0
1020
0.0
1030
0.0
1010
0.0
1020
1.0
1030
0.0
1010
0.0
1020
0.0
1030
1.0
1040
0.5
1040
0.33
1040
0.0
1000

1070
     1
1000

1070
     1
1070
     1
1040
1.0
1040
1.0
1040
0.0
1040
0.0
1070
     0
1002
}
  0
INSERT
  5
F791
330
2
100
AcDbEntity
  8
ASHADE
 62
     1
100
AcDbBlockReference
  2
AVE_GLOBAL
 10
784.3731119774168
 20
211.560800091514
 30
2.284012500000298
 41
1.305150000000026
 42
1.305150000000026
 43
1.305150000000001
1001
AVE_MATERIAL
1002
{
1000
*GLOBAL*
1000
1
1000
Global finish.
1002
{
1002
}
1002
{
1070
    63
1002
{
1002
{
1010
-1.0
1020
-1.0
1030
-1.0
1002
}
1040
0.1000000014901161
1000

1040
0.0
1002
{
1002
}
1040
0.0
1002
{
1002
}
1040
0.0
1002
}
1002
{
1002
{
1010
-1.0
1020
-1.0
1030
-1.0
1002
}
1040
0.6999999880790711
1000

1040
0.0
1002
{
1002
}
1040
0.0
1002
{
1002
}
1040
0.0
1002
}
1002
{
1002
{
1010
-1.0
1020
-1.0
1030
-1.0
1002
}
1040
0.2000000029802322
1000

1040
0.0
1002
{
1002
}
1040
0.0
1002
{
1002
}
1040
0.0
1002
}
1002
{
1070
     0
1002
{
1070
     1
1002
{
1040
1.0
1040
1.0
1000

1040
0.0
1002
{
1002
}
1040
0.0
1002
{
1002
}
1040
0.0
1002
}
1002
}
1040
1.0
1040
0.0
1040
0.0
1002
}
1002
{
1040
1.0
1040
1.0
1000

1040
0.0
1002
{
1002
}
1040
0.0
1002
{
1002
}
1040
0.0
1002
}
1002
{
1040
0.5
1040
1.0
1000

1040
0.0
1002
{
1002
}
1040
0.0
1002
{
1002
}
1040
0.0
1002
}
1002
{
1070
     0
1040
0.0
1002
{
1002
}
1040
1.0
1002
{
1002
}
1040
0.0
1002
}
1002
{
1040
0.0
1002
{
1002
{
1010
0.0
1020
0.0
1030
0.0
1002
}
1040
1.0
1000

1040
0.0
1002
{
1002
}
1040
0.0
1002
{
1002
}
1040
0.0
1002
}
1002
}
1002
{
1002
{
1070
     1
1002
{
1040
0.0
1040
1.0
1000

1040
0.0
1002
{
1002
}
1040
0.0
1002
{
1002
}
1040
0.0
1002
}
1002
}
1040
0.0
1002
{
1002
}
1010
1.0
1020
0.0
1030
0.0
1010
0.0
1020
1.0
1030
0.0
1010
0.0
1020
0.0
1030
1.0
1070
     0
1002
}
1002
{
1002
{
1040
1.0
1040
1.0
1002
{
1070
     1
1002
{
1040
1.0
1040
1.0
1000

1040
0.0
1002
{
1002
}
1040
0.0
1002
{
1002
}
1040
0.0
1002
}
1002
}
1002
}
1070
     0
1040
0.0
1002
{
1002
}
1002
}
1002
{
1002
}
1002
}
1002
{
1071
        3
1070
     3
1070
     0
1002
{
1070
     2
1070
     0
1070
     0
1040
0.0
1002
}
1070
     0
1070
     2
1002
{
1002
}
1002
}
1002
{
1040
8030.0
1040
190.3000030517578
1040
0.3050000071525574
1040
228.0
1040
545.0
1040
14.0
1040
17.39999961853027
1040
0.4560000002384186
1002
}
1002
}
  0
INSERT
  5
F796
330
2
100
AcDbEntity
  8
ASHADE
 62
     1
100
AcDbBlockReference
  2
AVE_RENDER
 10
-665.7366815394903
 20
-722.7568828897999
 30
-3.763544048676747
 41
1.305150000000026
 42
1.305150000000026
 43
1.305150000000001
1001
AVE_RENDER
1002
{
1070
     6
1000
Pref
1070
    30
1070
    20
1070
     1
1070
     0
1000

1070
    10
1070
     1
1070
    30
1040
1.0
1070
     1
1040
0.3
1040
0.7
1040
0.0
1040
10.0
1010
-1.0
1020
-1.0
1030
-1.0
1040
0.3
1070
    49
1070
     0
1070
     0
1010
1.0
1020
1.0
1030
1.0
1040
45.0
1070
     1
1070
     0
1000
WCS
1040
0.0
1002
}
  0
INSERT
  5
F797
330
2
100
AcDbEntity
  8
ASHADE
 62
     3
100
AcDbBlockReference
  2
AVE_RENDER
 10
-665.7366815394903
 20
-722.7568828897999
 30
-3.763544048676747
 41
1.305150000000026
 42
1.305150000000026
 43
1.305150000000001
1001
AVE_RENDER
1002
{
1070
     0
1000
Full Opt
1070
     0
1070
     1
1070
     1
1070
     1
1070
     0
1070
     0
1070
     0
1070
     1
1070
     1
1040
0.0001
1040
0.0001
1002
}
  0
INSERT
  5
F798
330
2
100
AcDbEntity
  8
ASHADE
 62
     4
100
AcDbBlockReference
  2
AVE_RENDER
 10
-665.7366815394903
 20
-722.7568828897999
 30
-3.763544048676747
 41
1.305150000000026
 42
1.305150000000026
 43
1.305150000000001
1001
AVE_RENDER
1002
{
1070
     0
1000
Quick Opt
1070
     0
1070
     1
1070
     1
1070
     1
1070
     0
1070
     0
1070
     1
1002
}
  0
INSERT
  5
F799
330
2
100
AcDbEntity
  8
ASHADE
 62
     5
100
AcDbBlockReference
  2
AVE_RENDER
 10
-665.7366815394903
 20
-722.7568828897999
 30
-3.763544048676747
 41
1.305150000000026
 42
1.305150000000026
 43
1.305150000000001
1001
AVE_RENDER
1002
{
1070
     1
1000
Scanl Opt
1070
     2
1070
     0
1070
     2
1040
2.0
1040
4.0
1070
     0
1070
     1
1070
     0
1040
0.03
1002
}
  0
INSERT
  5
F79A
330
2
100
AcDbEntity
  8
ASHADE
 62
     6
100
AcDbBlockReference
  2
AVE_RENDER
 10
-665.7366815394903
 20
-722.7568828897999
 30
-3.763544048676747
 41
1.305150000000026
 42
1.305150000000026
 43
1.305150000000001
1001
AVE_RENDER
1002
{
1070
     2
1000
Raytr Opt
1070
     2
1070
     0
1070
     2
1040
2.0
1040
4.0
1070
     0
1070
     1
1070
     1
1040
0.03
1070
     3
1040
0.03
1002
}
  0
INSERT
  5
F79B
330
2
100
AcDbEntity
  8
ASHADE
 62
     7
100
AcDbBlockReference
  2
AVE_RENDER
 10
-665.7366815394903
 20
-722.7568828897999
 30
-3.763544048676747
 41
1.305150000000026
 42
1.305150000000026
 43
1.305150000000001
1001
AVE_RENDER
1002
{
1070
     0
1000
RFile Opt
1070
     5
1070
   640
1070
   480
1070
 10000
1070
     3
1070
    32
1070
    24
1070
     0
1070
     0
1070
     0
1070
     1
1070
     0
1070
     0
1070
     0
1002
}
  0
INSERT
  5
F79C
330
2
100
AcDbEntity
  8
ASHADE
 62
     8
100
AcDbBlockReference
  2
AVE_RENDER
 10
-665.7366815394903
 20
-722.7568828897999
 30
-3.763544048676747
 41
1.305150000000026
 42
1.305150000000026
 43
1.305150000000001
1001
AVE_RENDER
1002
{
1070
     0
1000
Fog Opt
1070
     0
1070
     0
1040
0.0
1040
1.0
1040
0.0
1040
1.0
1010
0.5
1020
0.5
1030
0.5
1002
}
  0
INSERT
  5
F79D
330
2
100
AcDbEntity
  8
ASHADE
 62
     9
100
AcDbBlockReference
  2
AVE_RENDER
 10
-665.7366815394903
 20
-722.7568828897999
 30
-3.763544048676747
 41
1.305150000000026
 42
1.305150000000026
 43
1.305150000000001
1001
AVE_RENDER
1002
{
1070
     0
1000
BG Opt
1070
     0
1070
     1
1010
0.0
1020
0.0
1030
0.0
1010
1.0
1020
0.0
1030
0.0
1010
0.0
1020
1.0
1030
0.0
1010
0.0
1020
0.0
1030
1.0
1040
0.5
1040
0.33
1040
0.0
1000

1070
     1
1000

1070
     1
1070
     1
1040
1.0
1040
1.0
1040
0.0
1040
0.0
1070
     0
1002
}
  0
INSERT
  5
F79E
330
2
100
AcDbEntity
  8
ASHADE
 62
     1
100
AcDbBlockReference
  2
AVE_GLOBAL
 10
-665.7366815394903
 20
-722.7568828897999
 30
-3.763544048676747
 41
1.305150000000026
 42
1.305150000000026
 43
1.305150000000001
1001
AVE_MATERIAL
1002
{
1000
*GLOBAL*
1000
1
1000
Global finish.
1002
{
1002
}
1002
{
1070
    63
1002
{
1002
{
1010
-1.0
1020
-1.0
1030
-1.0
1002
}
1040
0.1000000014901161
1000

1040
0.0
1002
{
1002
}
1040
0.0
1002
{
1002
}
1040
0.0
1002
}
1002
{
1002
{
1010
-1.0
1020
-1.0
1030
-1.0
1002
}
1040
0.6999999880790711
1000

1040
0.0
1002
{
1002
}
1040
0.0
1002
{
1002
}
1040
0.0
1002
}
1002
{
1002
{
1010
-1.0
1020
-1.0
1030
-1.0
1002
}
1040
0.2000000029802322
1000

1040
0.0
1002
{
1002
}
1040
0.0
1002
{
1002
}
1040
0.0
1002
}
1002
{
1070
     0
1002
{
1070
     1
1002
{
1040
1.0
1040
1.0
1000

1040
0.0
1002
{
1002
}
1040
0.0
1002
{
1002
}
1040
0.0
1002
}
1002
}
1040
1.0
1040
0.0
1040
0.0
1002
}
1002
{
1040
1.0
1040
1.0
1000

1040
0.0
1002
{
1002
}
1040
0.0
1002
{
1002
}
1040
0.0
1002
}
1002
{
1040
0.5
1040
1.0
1000

1040
0.0
1002
{
1002
}
1040
0.0
1002
{
1002
}
1040
0.0
1002
}
1002
{
1070
     0
1040
0.0
1002
{
1002
}
1040
1.0
1002
{
1002
}
1040
0.0
1002
}
1002
{
1040
0.0
1002
{
1002
{
1010
0.0
1020
0.0
1030
0.0
1002
}
1040
1.0
1000

1040
0.0
1002
{
1002
}
1040
0.0
1002
{
1002
}
1040
0.0
1002
}
1002
}
1002
{
1002
{
1070
     1
1002
{
1040
0.0
1040
1.0
1000

1040
0.0
1002
{
1002
}
1040
0.0
1002
{
1002
}
1040
0.0
1002
}
1002
}
1040
0.0
1002
{
1002
}
1010
1.0
1020
0.0
1030
0.0
1010
0.0
1020
1.0
1030
0.0
1010
0.0
1020
0.0
1030
1.0
1070
     0
1002
}
1002
{
1002
{
1040
1.0
1040
1.0
1002
{
1070
     1
1002
{
1040
1.0
1040
1.0
1000

1040
0.0
1002
{
1002
}
1040
0.0
1002
{
1002
}
1040
0.0
1002
}
1002
}
1002
}
1070
     0
1040
0.0
1002
{
1002
}
1002
}
1002
{
1002
}
1002
}
1002
{
1071
        3
1070
     3
1070
     0
1002
{
1070
     2
1070
     0
1070
     0
1040
0.0
1002
}
1070
     0
1070
     2
1002
{
1002
}
1002
}
1002
{
1040
8030.0
1040
190.3000030517578
1040
0.3050000071525574
1040
228.0
1040
545.0
1040
14.0
1040
17.39999961853027
1040
0.4560000002384186
1002
}
1002
}
  0
INSERT
  5
F7AB
330
2
100
AcDbEntity
  8
ASHADE
 62
     1
100
AcDbBlockReference
  2
AVE_RENDER
 10
722.7568828897997
 20
-1480.989586647651
 30
-856.0734094938556
 41
1.305150000000001
 42
1.305150000000001
 43
1.305150000000026
 50
90.0
210
-1.0
220
0.0
230
0.0000000000000001
1001
AVE_RENDER
1002
{
1070
     6
1000
Pref
1070
    30
1070
    20
1070
     1
1070
     0
1000

1070
    10
1070
     1
1070
    30
1040
1.0
1070
     1
1040
0.3
1040
0.7
1040
0.0
1040
10.0
1010
-1.0
1020
-1.0
1030
-1.0
1040
0.3
1070
    49
1070
     0
1070
     0
1010
1.0
1020
1.0
1030
1.0
1040
45.0
1070
     1
1070
     0
1000
WCS
1040
0.0
1002
}
  0
INSERT
  5
F7AC
330
2
100
AcDbEntity
  8
ASHADE
 62
     3
100
AcDbBlockReference
  2
AVE_RENDER
 10
722.7568828897997
 20
-1480.989586647651
 30
-856.0734094938556
 41
1.305150000000001
 42
1.305150000000001
 43
1.305150000000026
 50
90.0
210
-1.0
220
0.0
230
0.0000000000000001
1001
AVE_RENDER
1002
{
1070
     0
1000
Full Opt
1070
     0
1070
     1
1070
     1
1070
     1
1070
     0
1070
     0
1070
     0
1070
     1
1070
     1
1040
0.0001
1040
0.0001
1002
}
  0
INSERT
  5
F7AD
330
2
100
AcDbEntity
  8
ASHADE
 62
     4
100
AcDbBlockReference
  2
AVE_RENDER
 10
722.7568828897997
 20
-1480.989586647651
 30
-856.0734094938556
 41
1.305150000000001
 42
1.305150000000001
 43
1.305150000000026
 50
90.0
210
-1.0
220
0.0
230
0.0000000000000001
1001
AVE_RENDER
1002
{
1070
     0
1000
Quick Opt
1070
     0
1070
     1
1070
     1
1070
     1
1070
     0
1070
     0
1070
     1
1002
}
  0
INSERT
  5
F7AE
330
2
100
AcDbEntity
  8
ASHADE
 62
     5
100
AcDbBlockReference
  2
AVE_RENDER
 10
722.7568828897997
 20
-1480.989586647651
 30
-856.0734094938556
 41
1.305150000000001
 42
1.305150000000001
 43
1.305150000000026
 50
90.0
210
-1.0
220
0.0
230
0.0000000000000001
1001
AVE_RENDER
1002
{
1070
     1
1000
Scanl Opt
1070
     2
1070
     0
1070
     2
1040
2.0
1040
4.0
1070
     0
1070
     1
1070
     0
1040
0.03
1002
}
  0
INSERT
  5
F7AF
330
2
100
AcDbEntity
  8
ASHADE
 62
     6
100
AcDbBlockReference
  2
AVE_RENDER
 10
722.7568828897997
 20
-1480.989586647651
 30
-856.0734094938556
 41
1.305150000000001
 42
1.305150000000001
 43
1.305150000000026
 50
90.0
210
-1.0
220
0.0
230
0.0000000000000001
1001
AVE_RENDER
1002
{
1070
     2
1000
Raytr Opt
1070
     2
1070
     0
1070
     2
1040
2.0
1040
4.0
1070
     0
1070
     1
1070
     1
1040
0.03
1070
     3
1040
0.03
1002
}
  0
INSERT
  5
F7B0
330
2
100
AcDbEntity
  8
ASHADE
 62
     7
100
AcDbBlockReference
  2
AVE_RENDER
 10
722.7568828897997
 20
-1480.989586647651
 30
-856.0734094938556
 41
1.305150000000001
 42
1.305150000000001
 43
1.305150000000026
 50
90.0
210
-1.0
220
0.0
230
0.0000000000000001
1001
AVE_RENDER
1002
{
1070
     0
1000
RFile Opt
1070
     5
1070
   640
1070
   480
1070
 10000
1070
     3
1070
    32
1070
    24
1070
     0
1070
     0
1070
     0
1070
     1
1070
     0
1070
     0
1070
     0
1002
}
  0
INSERT
  5
F7B1
330
2
100
AcDbEntity
  8
ASHADE
 62
     8
100
AcDbBlockReference
  2
AVE_RENDER
 10
722.7568828897997
 20
-1480.989586647651
 30
-856.0734094938556
 41
1.305150000000001
 42
1.305150000000001
 43
1.305150000000026
 50
90.0
210
-1.0
220
0.0
230
0.0000000000000001
1001
AVE_RENDER
1002
{
1070
     0
1000
Fog Opt
1070
     0
1070
     0
1040
0.0
1040
1.0
1040
0.0
1040
1.0
1010
0.5
1020
0.5
1030
0.5
1002
}
  0
INSERT
  5
F7B2
330
2
100
AcDbEntity
  8
ASHADE
 62
     9
100
AcDbBlockReference
  2
AVE_RENDER
 10
722.7568828897997
 20
-1480.989586647651
 30
-856.0734094938556
 41
1.305150000000001
 42
1.305150000000001
 43
1.305150000000026
 50
90.0
210
-1.0
220
0.0
230
0.0000000000000001
1001
AVE_RENDER
1002
{
1070
     0
1000
BG Opt
1070
     0
1070
     1
1010
0.0
1020
0.0
1030
0.0
1010
1.0
1020
0.0
1030
0.0
1010
0.0
1020
1.0
1030
0.0
1010
0.0
1020
0.0
1030
1.0
1040
0.5
1040
0.33
1040
0.0
1000

1070
     1
1000

1070
     1
1070
     1
1040
1.0
1040
1.0
1040
0.0
1040
0.0
1070
     0
1002
}
  0
INSERT
  5
F7B3
330
2
100
AcDbEntity
  8
ASHADE
 62
     1
100
AcDbBlockReference
  2
AVE_GLOBAL
 10
722.7568828897997
 20
-1480.989586647651
 30
-856.0734094938556
 41
1.305150000000001
 42
1.305150000000001
 43
1.305150000000026
 50
90.0
210
-1.0
220
0.0
230
0.0000000000000001
1001
AVE_MATERIAL
1002
{
1000
*GLOBAL*
1000
1
1000
Global finish.
1002
{
1002
}
1002
{
1070
    63
1002
{
1002
{
1010
-1.0
1020
-1.0
1030
-1.0
1002
}
1040
0.1000000014901161
1000

1040
0.0
1002
{
1002
}
1040
0.0
1002
{
1002
}
1040
0.0
1002
}
1002
{
1002
{
1010
-1.0
1020
-1.0
1030
-1.0
1002
}
1040
0.6999999880790711
1000

1040
0.0
1002
{
1002
}
1040
0.0
1002
{
1002
}
1040
0.0
1002
}
1002
{
1002
{
1010
-1.0
1020
-1.0
1030
-1.0
1002
}
1040
0.2000000029802322
1000

1040
0.0
1002
{
1002
}
1040
0.0
1002
{
1002
}
1040
0.0
1002
}
1002
{
1070
     0
1002
{
1070
     1
1002
{
1040
1.0
1040
1.0
1000

1040
0.0
1002
{
1002
}
1040
0.0
1002
{
1002
}
1040
0.0
1002
}
1002
}
1040
1.0
1040
0.0
1040
0.0
1002
}
1002
{
1040
1.0
1040
1.0
1000

1040
0.0
1002
{
1002
}
1040
0.0
1002
{
1002
}
1040
0.0
1002
}
1002
{
1040
0.5
1040
1.0
1000

1040
0.0
1002
{
1002
}
1040
0.0
1002
{
1002
}
1040
0.0
1002
}
1002
{
1070
     0
1040
0.0
1002
{
1002
}
1040
1.0
1002
{
1002
}
1040
0.0
1002
}
1002
{
1040
0.0
1002
{
1002
{
1010
0.0
1020
0.0
1030
0.0
1002
}
1040
1.0
1000

1040
0.0
1002
{
1002
}
1040
0.0
1002
{
1002
}
1040
0.0
1002
}
1002
}
1002
{
1002
{
1070
     1
1002
{
1040
0.0
1040
1.0
1000

1040
0.0
1002
{
1002
}
1040
0.0
1002
{
1002
}
1040
0.0
1002
}
1002
}
1040
0.0
1002
{
1002
}
1010
1.0
1020
0.0
1030
0.0
1010
0.0
1020
1.0
1030
0.0
1010
0.0
1020
0.0
1030
1.0
1070
     0
1002
}
1002
{
1002
{
1040
1.0
1040
1.0
1002
{
1070
     1
1002
{
1040
1.0
1040
1.0
1000

1040
0.0
1002
{
1002
}
1040
0.0
1002
{
1002
}
1040
0.0
1002
}
1002
}
1002
}
1070
     0
1040
0.0
1002
{
1002
}
1002
}
1002
{
1002
}
1002
}
1002
{
1071
        3
1070
     3
1070
     0
1002
{
1070
     2
1070
     0
1070
     0
1040
0.0
1002
}
1070
     0
1070
     2
1002
{
1002
}
1002
}
1002
{
1040
8030.0
1040
190.3000030517578
1040
0.3050000071525574
1040
228.0
1040
545.0
1040
14.0
1040
17.39999961853027
1040
0.4560000002384186
1002
}
1002
}
  0
INSERT
  5
F7B8
330
2
100
AcDbEntity
  8
ASHADE
 62
     1
100
AcDbBlockReference
  2
AVE_RENDER
 10
-211.560800091514
 20
-30.87979313074393
 30
-857.7901682849821
 41
1.305150000000001
 42
1.305150000000001
 43
1.305150000000026
 50
90.0
210
-1.0
220
0.0
230
0.0000000000000001
1001
AVE_RENDER
1002
{
1070
     6
1000
Pref
1070
    30
1070
    20
1070
     1
1070
     0
1000

1070
    10
1070
     1
1070
    30
1040
1.0
1070
     1
1040
0.3
1040
0.7
1040
0.0
1040
10.0
1010
-1.0
1020
-1.0
1030
-1.0
1040
0.3
1070
    49
1070
     0
1070
     0
1010
1.0
1020
1.0
1030
1.0
1040
45.0
1070
     1
1070
     0
1000
WCS
1040
0.0
1002
}
  0
INSERT
  5
F7B9
330
2
100
AcDbEntity
  8
ASHADE
 62
     3
100
AcDbBlockReference
  2
AVE_RENDER
 10
-211.560800091514
 20
-30.87979313074393
 30
-857.7901682849821
 41
1.305150000000001
 42
1.305150000000001
 43
1.305150000000026
 50
90.0
210
-1.0
220
0.0
230
0.0000000000000001
1001
AVE_RENDER
1002
{
1070
     0
1000
Full Opt
1070
     0
1070
     1
1070
     1
1070
     1
1070
     0
1070
     0
1070
     0
1070
     1
1070
     1
1040
0.0001
1040
0.0001
1002
}
  0
INSERT
  5
F7BA
330
2
100
AcDbEntity
  8
ASHADE
 62
     4
100
AcDbBlockReference
  2
AVE_RENDER
 10
-211.560800091514
 20
-30.87979313074393
 30
-857.7901682849821
 41
1.305150000000001
 42
1.305150000000001
 43
1.305150000000026
 50
90.0
210
-1.0
220
0.0
230
0.0000000000000001
1001
AVE_RENDER
1002
{
1070
     0
1000
Quick Opt
1070
     0
1070
     1
1070
     1
1070
     1
1070
     0
1070
     0
1070
     1
1002
}
  0
INSERT
  5
F7BB
330
2
100
AcDbEntity
  8
ASHADE
 62
     5
100
AcDbBlockReference
  2
AVE_RENDER
 10
-211.560800091514
 20
-30.87979313074393
 30
-857.7901682849821
 41
1.305150000000001
 42
1.305150000000001
 43
1.305150000000026
 50
90.0
210
-1.0
220
0.0
230
0.0000000000000001
1001
AVE_RENDER
1002
{
1070
     1
1000
Scanl Opt
1070
     2
1070
     0
1070
     2
1040
2.0
1040
4.0
1070
     0
1070
     1
1070
     0
1040
0.03
1002
}
  0
INSERT
  5
F7BC
330
2
100
AcDbEntity
  8
ASHADE
 62
     6
100
AcDbBlockReference
  2
AVE_RENDER
 10
-211.560800091514
 20
-30.87979313074393
 30
-857.7901682849821
 41
1.305150000000001
 42
1.305150000000001
 43
1.305150000000026
 50
90.0
210
-1.0
220
0.0
230
0.0000000000000001
1001
AVE_RENDER
1002
{
1070
     2
1000
Raytr Opt
1070
     2
1070
     0
1070
     2
1040
2.0
1040
4.0
1070
     0
1070
     1
1070
     1
1040
0.03
1070
     3
1040
0.03
1002
}
  0
INSERT
  5
F7BD
330
2
100
AcDbEntity
  8
ASHADE
 62
     7
100
AcDbBlockReference
  2
AVE_RENDER
 10
-211.560800091514
 20
-30.87979313074393
 30
-857.7901682849821
 41
1.305150000000001
 42
1.305150000000001
 43
1.305150000000026
 50
90.0
210
-1.0
220
0.0
230
0.0000000000000001
1001
AVE_RENDER
1002
{
1070
     0
1000
RFile Opt
1070
     5
1070
   640
1070
   480
1070
 10000
1070
     3
1070
    32
1070
    24
1070
     0
1070
     0
1070
     0
1070
     1
1070
     0
1070
     0
1070
     0
1002
}
  0
INSERT
  5
F7BE
330
2
100
AcDbEntity
  8
ASHADE
 62
     8
100
AcDbBlockReference
  2
AVE_RENDER
 10
-211.560800091514
 20
-30.87979313074393
 30
-857.7901682849821
 41
1.305150000000001
 42
1.305150000000001
 43
1.305150000000026
 50
90.0
210
-1.0
220
0.0
230
0.0000000000000001
1001
AVE_RENDER
1002
{
1070
     0
1000
Fog Opt
1070
     0
1070
     0
1040
0.0
1040
1.0
1040
0.0
1040
1.0
1010
0.5
1020
0.5
1030
0.5
1002
}
  0
INSERT
  5
F7BF
330
2
100
AcDbEntity
  8
ASHADE
 62
     9
100
AcDbBlockReference
  2
AVE_RENDER
 10
-211.560800091514
 20
-30.87979313074393
 30
-857.7901682849821
 41
1.305150000000001
 42
1.305150000000001
 43
1.305150000000026
 50
90.0
210
-1.0
220
0.0
230
0.0000000000000001
1001
AVE_RENDER
1002
{
1070
     0
1000
BG Opt
1070
     0
1070
     1
1010
0.0
1020
0.0
1030
0.0
1010
1.0
1020
0.0
1030
0.0
1010
0.0
1020
1.0
1030
0.0
1010
0.0
1020
0.0
1030
1.0
1040
0.5
1040
0.33
1040
0.0
1000

1070
     1
1000

1070
     1
1070
     1
1040
1.0
1040
1.0
1040
0.0
1040
0.0
1070
     0
1002
}
  0
INSERT
  5
F7C0
330
2
100
AcDbEntity
  8
ASHADE
 62
     1
100
AcDbBlockReference
  2
AVE_GLOBAL
 10
-211.560800091514
 20
-30.87979313074393
 30
-857.7901682849821
 41
1.305150000000001
 42
1.305150000000001
 43
1.305150000000026
 50
90.0
210
-1.0
220
0.0
230
0.0000000000000001
1001
AVE_MATERIAL
1002
{
1000
*GLOBAL*
1000
1
1000
Global finish.
1002
{
1002
}
1002
{
1070
    63
1002
{
1002
{
1010
-1.0
1020
-1.0
1030
-1.0
1002
}
1040
0.1000000014901161
1000

1040
0.0
1002
{
1002
}
1040
0.0
1002
{
1002
}
1040
0.0
1002
}
1002
{
1002
{
1010
-1.0
1020
-1.0
1030
-1.0
1002
}
1040
0.6999999880790711
1000

1040
0.0
1002
{
1002
}
1040
0.0
1002
{
1002
}
1040
0.0
1002
}
1002
{
1002
{
1010
-1.0
1020
-1.0
1030
-1.0
1002
}
1040
0.2000000029802322
1000

1040
0.0
1002
{
1002
}
1040
0.0
1002
{
1002
}
1040
0.0
1002
}
1002
{
1070
     0
1002
{
1070
     1
1002
{
1040
1.0
1040
1.0
1000

1040
0.0
1002
{
1002
}
1040
0.0
1002
{
1002
}
1040
0.0
1002
}
1002
}
1040
1.0
1040
0.0
1040
0.0
1002
}
1002
{
1040
1.0
1040
1.0
1000

1040
0.0
1002
{
1002
}
1040
0.0
1002
{
1002
}
1040
0.0
1002
}
1002
{
1040
0.5
1040
1.0
1000

1040
0.0
1002
{
1002
}
1040
0.0
1002
{
1002
}
1040
0.0
1002
}
1002
{
1070
     0
1040
0.0
1002
{
1002
}
1040
1.0
1002
{
1002
}
1040
0.0
1002
}
1002
{
1040
0.0
1002
{
1002
{
1010
0.0
1020
0.0
1030
0.0
1002
}
1040
1.0
1000

1040
0.0
1002
{
1002
}
1040
0.0
1002
{
1002
}
1040
0.0
1002
}
1002
}
1002
{
1002
{
1070
     1
1002
{
1040
0.0
1040
1.0
1000

1040
0.0
1002
{
1002
}
1040
0.0
1002
{
1002
}
1040
0.0
1002
}
1002
}
1040
0.0
1002
{
1002
}
1010
1.0
1020
0.0
1030
0.0
1010
0.0
1020
1.0
1030
0.0
1010
0.0
1020
0.0
1030
1.0
1070
     0
1002
}
1002
{
1002
{
1040
1.0
1040
1.0
1002
{
1070
     1
1002
{
1040
1.0
1040
1.0
1000

1040
0.0
1002
{
1002
}
1040
0.0
1002
{
1002
}
1040
0.0
1002
}
1002
}
1002
}
1070
     0
1040
0.0
1002
{
1002
}
1002
}
1002
{
1002
}
1002
}
1002
{
1071
        3
1070
     3
1070
     0
1002
{
1070
     2
1070
     0
1070
     0
1040
0.0
1002
}
1070
     0
1070
     2
1002
{
1002
}
1002
}
1002
{
1040
8030.0
1040
190.3000030517578
1040
0.3050000071525574
1040
228.0
1040
545.0
1040
14.0
1040
17.39999961853027
1040
0.4560000002384186
1002
}
1002
}
  0
INSERT
  5
F9A1
330
2
100
AcDbEntity
  8
ASHADE
 62
     1
100
AcDbBlockReference
  2
AVE_RENDER
 10
77.03899897126416
 20
-572.1833200155199
 30
0.0
1001
AVE_RENDER
1002
{
1070
     6
1000
Pref
1070
    30
1070
    20
1070
     1
1070
     0
1000

1070
    10
1070
     1
1070
    30
1040
1.0
1070
     1
1040
0.3
1040
0.7
1040
0.0
1040
10.0
1010
-1.0
1020
-1.0
1030
-1.0
1040
0.3
1070
    49
1070
     0
1070
     0
1010
1.0
1020
1.0
1030
1.0
1040
45.0
1070
     1
1070
     0
1000
WCS
1040
0.0
1002
}
  0
INSERT
  5
F9A2
330
2
100
AcDbEntity
  8
ASHADE
 62
     3
100
AcDbBlockReference
  2
AVE_RENDER
 10
77.03899897126416
 20
-572.1833200155199
 30
0.0
1001
AVE_RENDER
1002
{
1070
     0
1000
Full Opt
1070
     0
1070
     1
1070
     1
1070
     1
1070
     0
1070
     0
1070
     0
1070
     1
1070
     1
1040
0.0001
1040
0.0001
1002
}
  0
INSERT
  5
F9A3
330
2
100
AcDbEntity
  8
ASHADE
 62
     4
100
AcDbBlockReference
  2
AVE_RENDER
 10
77.03899897126416
 20
-572.1833200155199
 30
0.0
1001
AVE_RENDER
1002
{
1070
     0
1000
Quick Opt
1070
     0
1070
     1
1070
     1
1070
     1
1070
     0
1070
     0
1070
     1
1002
}
  0
INSERT
  5
F9A4
330
2
100
AcDbEntity
  8
ASHADE
 62
     5
100
AcDbBlockReference
  2
AVE_RENDER
 10
77.03899897126416
 20
-572.1833200155199
 30
0.0
1001
AVE_RENDER
1002
{
1070
     1
1000
Scanl Opt
1070
     2
1070
     0
1070
     2
1040
2.0
1040
4.0
1070
     0
1070
     1
1070
     0
1040
0.03
1002
}
  0
INSERT
  5
F9A5
330
2
100
AcDbEntity
  8
ASHADE
 62
     6
100
AcDbBlockReference
  2
AVE_RENDER
 10
77.03899897126416
 20
-572.1833200155199
 30
0.0
1001
AVE_RENDER
1002
{
1070
     2
1000
Raytr Opt
1070
     2
1070
     0
1070
     2
1040
2.0
1040
4.0
1070
     0
1070
     1
1070
     1
1040
0.03
1070
     3
1040
0.03
1002
}
  0
INSERT
  5
F9A6
330
2
100
AcDbEntity
  8
ASHADE
 62
     7
100
AcDbBlockReference
  2
AVE_RENDER
 10
77.03899897126416
 20
-572.1833200155199
 30
0.0
1001
AVE_RENDER
1002
{
1070
     0
1000
RFile Opt
1070
     5
1070
   640
1070
   480
1070
 10000
1070
     3
1070
    32
1070
    24
1070
     0
1070
     0
1070
     0
1070
     1
1070
     0
1070
     0
1070
     0
1002
}
  0
INSERT
  5
F9A7
330
2
100
AcDbEntity
  8
ASHADE
 62
     8
100
AcDbBlockReference
  2
AVE_RENDER
 10
77.03899897126416
 20
-572.1833200155199
 30
0.0
1001
AVE_RENDER
1002
{
1070
     0
1000
Fog Opt
1070
     0
1070
     0
1040
0.0
1040
1.0
1040
0.0
1040
1.0
1010
0.5
1020
0.5
1030
0.5
1002
}
  0
INSERT
  5
F9A8
330
2
100
AcDbEntity
  8
ASHADE
 62
     9
100
AcDbBlockReference
  2
AVE_RENDER
 10
77.03899897126416
 20
-572.1833200155199
 30
0.0
1001
AVE_RENDER
1002
{
1070
     0
1000
BG Opt
1070
     0
1070
     1
1010
0.0
1020
0.0
1030
0.0
1010
1.0
1020
0.0
1030
0.0
1010
0.0
1020
1.0
1030
0.0
1010
0.0
1020
0.0
1030
1.0
1040
0.5
1040
0.33
1040
0.0
1000

1070
     1
1000

1070
     1
1070
     1
1040
1.0
1040
1.0
1040
0.0
1040
0.0
1070
     0
1002
}
  0
INSERT
  5
F9A9
330
2
100
AcDbEntity
  8
ASHADE
 62
     1
100
AcDbBlockReference
  2
AVE_GLOBAL
 10
77.03899897126416
 20
-572.1833200155199
 30
0.0
1001
AVE_MATERIAL
1002
{
1000
*GLOBAL*
1000
1
1000
Global finish.
1002
{
1002
}
1002
{
1070
    63
1002
{
1002
{
1010
-1.0
1020
-1.0
1030
-1.0
1002
}
1040
0.1000000014901161
1000

1040
0.0
1002
{
1002
}
1040
0.0
1002
{
1002
}
1040
0.0
1002
}
1002
{
1002
{
1010
-1.0
1020
-1.0
1030
-1.0
1002
}
1040
0.6999999880790711
1000

1040
0.0
1002
{
1002
}
1040
0.0
1002
{
1002
}
1040
0.0
1002
}
1002
{
1002
{
1010
-1.0
1020
-1.0
1030
-1.0
1002
}
1040
0.2000000029802322
1000

1040
0.0
1002
{
1002
}
1040
0.0
1002
{
1002
}
1040
0.0
1002
}
1002
{
1070
     0
1002
{
1070
     1
1002
{
1040
1.0
1040
1.0
1000

1040
0.0
1002
{
1002
}
1040
0.0
1002
{
1002
}
1040
0.0
1002
}
1002
}
1040
1.0
1040
0.0
1040
0.0
1002
}
1002
{
1040
1.0
1040
1.0
1000

1040
0.0
1002
{
1002
}
1040
0.0
1002
{
1002
}
1040
0.0
1002
}
1002
{
1040
0.5
1040
1.0
1000

1040
0.0
1002
{
1002
}
1040
0.0
1002
{
1002
}
1040
0.0
1002
}
1002
{
1070
     0
1040
0.0
1002
{
1002
}
1040
1.0
1002
{
1002
}
1040
0.0
1002
}
1002
{
1040
0.0
1002
{
1002
{
1010
0.0
1020
0.0
1030
0.0
1002
}
1040
1.0
1000

1040
0.0
1002
{
1002
}
1040
0.0
1002
{
1002
}
1040
0.0
1002
}
1002
}
1002
{
1002
{
1070
     1
1002
{
1040
0.0
1040
1.0
1000

1040
0.0
1002
{
1002
}
1040
0.0
1002
{
1002
}
1040
0.0
1002
}
1002
}
1040
0.0
1002
{
1002
}
1010
1.0
1020
0.0
1030
0.0
1010
0.0
1020
1.0
1030
0.0
1010
0.0
1020
0.0
1030
1.0
1070
     0
1002
}
1002
{
1002
{
1040
1.0
1040
1.0
1002
{
1070
     1
1002
{
1040
1.0
1040
1.0
1000

1040
0.0
1002
{
1002
}
1040
0.0
1002
{
1002
}
1040
0.0
1002
}
1002
}
1002
}
1070
     0
1040
0.0
1002
{
1002
}
1002
}
1002
{
1002
}
1002
}
1002
{
1071
        3
1070
     3
1070
     0
1002
{
1070
     2
1070
     0
1070
     0
1040
0.0
1002
}
1070
     0
1070
     2
1002
{
1002
}
1002
}
1002
{
1040
8030.0
1040
190.3000030517578
1040
0.3050000071525574
1040
228.0
1040
545.0
1040
14.0
1040
17.39999961853027
1040
0.4560000002384186
1002
}
1002
}
  0
INSERT
  5
FB86
330
2
100
AcDbEntity
  8
ASHADE
 62
     1
100
AcDbBlockReference
  2
AVE_RENDER
 10
176.760173401079
 20
-573.2780972902929
 30
0.0
1001
AVE_RENDER
1002
{
1070
     6
1000
Pref
1070
    30
1070
    20
1070
     1
1070
     0
1000

1070
    10
1070
     1
1070
    30
1040
1.0
1070
     1
1040
0.3
1040
0.7
1040
0.0
1040
10.0
1010
-1.0
1020
-1.0
1030
-1.0
1040
0.3
1070
    49
1070
     0
1070
     0
1010
1.0
1020
1.0
1030
1.0
1040
45.0
1070
     1
1070
     0
1000
WCS
1040
0.0
1002
}
  0
INSERT
  5
FB87
330
2
100
AcDbEntity
  8
ASHADE
 62
     3
100
AcDbBlockReference
  2
AVE_RENDER
 10
176.760173401079
 20
-573.2780972902929
 30
0.0
1001
AVE_RENDER
1002
{
1070
     0
1000
Full Opt
1070
     0
1070
     1
1070
     1
1070
     1
1070
     0
1070
     0
1070
     0
1070
     1
1070
     1
1040
0.0001
1040
0.0001
1002
}
  0
INSERT
  5
FB88
330
2
100
AcDbEntity
  8
ASHADE
 62
     4
100
AcDbBlockReference
  2
AVE_RENDER
 10
176.760173401079
 20
-573.2780972902929
 30
0.0
1001
AVE_RENDER
1002
{
1070
     0
1000
Quick Opt
1070
     0
1070
     1
1070
     1
1070
     1
1070
     0
1070
     0
1070
     1
1002
}
  0
INSERT
  5
FB89
330
2
100
AcDbEntity
  8
ASHADE
 62
     5
100
AcDbBlockReference
  2
AVE_RENDER
 10
176.760173401079
 20
-573.2780972902929
 30
0.0
1001
AVE_RENDER
1002
{
1070
     1
1000
Scanl Opt
1070
     2
1070
     0
1070
     2
1040
2.0
1040
4.0
1070
     0
1070
     1
1070
     0
1040
0.03
1002
}
  0
INSERT
  5
FB8A
330
2
100
AcDbEntity
  8
ASHADE
 62
     6
100
AcDbBlockReference
  2
AVE_RENDER
 10
176.760173401079
 20
-573.2780972902929
 30
0.0
1001
AVE_RENDER
1002
{
1070
     2
1000
Raytr Opt
1070
     2
1070
     0
1070
     2
1040
2.0
1040
4.0
1070
     0
1070
     1
1070
     1
1040
0.03
1070
     3
1040
0.03
1002
}
  0
INSERT
  5
FB8B
330
2
100
AcDbEntity
  8
ASHADE
 62
     7
100
AcDbBlockReference
  2
AVE_RENDER
 10
176.760173401079
 20
-573.2780972902929
 30
0.0
1001
AVE_RENDER
1002
{
1070
     0
1000
RFile Opt
1070
     5
1070
   640
1070
   480
1070
 10000
1070
     3
1070
    32
1070
    24
1070
     0
1070
     0
1070
     0
1070
     1
1070
     0
1070
     0
1070
     0
1002
}
  0
INSERT
  5
FB8C
330
2
100
AcDbEntity
  8
ASHADE
 62
     8
100
AcDbBlockReference
  2
AVE_RENDER
 10
176.760173401079
 20
-573.2780972902929
 30
0.0
1001
AVE_RENDER
1002
{
1070
     0
1000
Fog Opt
1070
     0
1070
     0
1040
0.0
1040
1.0
1040
0.0
1040
1.0
1010
0.5
1020
0.5
1030
0.5
1002
}
  0
INSERT
  5
FB8D
330
2
100
AcDbEntity
  8
ASHADE
 62
     9
100
AcDbBlockReference
  2
AVE_RENDER
 10
176.760173401079
 20
-573.2780972902929
 30
0.0
1001
AVE_RENDER
1002
{
1070
     0
1000
BG Opt
1070
     0
1070
     1
1010
0.0
1020
0.0
1030
0.0
1010
1.0
1020
0.0
1030
0.0
1010
0.0
1020
1.0
1030
0.0
1010
0.0
1020
0.0
1030
1.0
1040
0.5
1040
0.33
1040
0.0
1000

1070
     1
1000

1070
     1
1070
     1
1040
1.0
1040
1.0
1040
0.0
1040
0.0
1070
     0
1002
}
  0
INSERT
  5
FB8E
330
2
100
AcDbEntity
  8
ASHADE
 62
     1
100
AcDbBlockReference
  2
AVE_GLOBAL
 10
176.760173401079
 20
-573.2780972902929
 30
0.0
1001
AVE_MATERIAL
1002
{
1000
*GLOBAL*
1000
1
1000
Global finish.
1002
{
1002
}
1002
{
1070
    63
1002
{
1002
{
1010
-1.0
1020
-1.0
1030
-1.0
1002
}
1040
0.1000000014901161
1000

1040
0.0
1002
{
1002
}
1040
0.0
1002
{
1002
}
1040
0.0
1002
}
1002
{
1002
{
1010
-1.0
1020
-1.0
1030
-1.0
1002
}
1040
0.6999999880790711
1000

1040
0.0
1002
{
1002
}
1040
0.0
1002
{
1002
}
1040
0.0
1002
}
1002
{
1002
{
1010
-1.0
1020
-1.0
1030
-1.0
1002
}
1040
0.2000000029802322
1000

1040
0.0
1002
{
1002
}
1040
0.0
1002
{
1002
}
1040
0.0
1002
}
1002
{
1070
     0
1002
{
1070
     1
1002
{
1040
1.0
1040
1.0
1000

1040
0.0
1002
{
1002
}
1040
0.0
1002
{
1002
}
1040
0.0
1002
}
1002
}
1040
1.0
1040
0.0
1040
0.0
1002
}
1002
{
1040
1.0
1040
1.0
1000

1040
0.0
1002
{
1002
}
1040
0.0
1002
{
1002
}
1040
0.0
1002
}
1002
{
1040
0.5
1040
1.0
1000

1040
0.0
1002
{
1002
}
1040
0.0
1002
{
1002
}
1040
0.0
1002
}
1002
{
1070
     0
1040
0.0
1002
{
1002
}
1040
1.0
1002
{
1002
}
1040
0.0
1002
}
1002
{
1040
0.0
1002
{
1002
{
1010
0.0
1020
0.0
1030
0.0
1002
}
1040
1.0
1000

1040
0.0
1002
{
1002
}
1040
0.0
1002
{
1002
}
1040
0.0
1002
}
1002
}
1002
{
1002
{
1070
     1
1002
{
1040
0.0
1040
1.0
1000

1040
0.0
1002
{
1002
}
1040
0.0
1002
{
1002
}
1040
0.0
1002
}
1002
}
1040
0.0
1002
{
1002
}
1010
1.0
1020
0.0
1030
0.0
1010
0.0
1020
1.0
1030
0.0
1010
0.0
1020
0.0
1030
1.0
1070
     0
1002
}
1002
{
1002
{
1040
1.0
1040
1.0
1002
{
1070
     1
1002
{
1040
1.0
1040
1.0
1000

1040
0.0
1002
{
1002
}
1040
0.0
1002
{
1002
}
1040
0.0
1002
}
1002
}
1002
}
1070
     0
1040
0.0
1002
{
1002
}
1002
}
1002
{
1002
}
1002
}
1002
{
1071
        3
1070
     3
1070
     0
1002
{
1070
     2
1070
     0
1070
     0
1040
0.0
1002
}
1070
     0
1070
     2
1002
{
1002
}
1002
}
1002
{
1040
8030.0
1040
190.3000030517578
1040
0.3050000071525574
1040
228.0
1040
545.0
1040
14.0
1040
17.39999961853027
1040
0.4560000002384186
1002
}
1002
}
  0
INSERT
  5
FB8F
330
2
100
AcDbEntity
  8
ASHADE
 62
     1
100
AcDbBlockReference
  2
AVE_RENDER
 10
-15.95240570776695
 20
-635.081546998775
 30
0.0
1001
AVE_RENDER
1002
{
1070
     7
1000
Pref
1070
    60
1070
    20
1070
     1
1070
     0
1000

1070
    10
1070
     1
1070
    30
1040
1.0
1070
     1
1040
0.3
1040
0.7
1040
0.0
1040
10.0
1010
-1.0
1020
-1.0
1030
-1.0
1040
1.0
1070
    49
1070
     0
1070
     0
1010
1.0
1020
1.0
1030
1.0
1040
45.0
1070
     1
1070
     0
1000
WCS
1040
0.0
1070
     0
1040
10.0
1002
}
  0
INSERT
  5
FB90
330
2
100
AcDbEntity
  8
ASHADE
 62
     3
100
AcDbBlockReference
  2
AVE_RENDER
 10
-15.95240570776695
 20
-635.081546998775
 30
0.0
1001
AVE_RENDER
1002
{
1070
     0
1000
Full Opt
1070
     0
1070
     1
1070
     1
1070
     1
1070
     0
1070
     0
1070
     0
1070
     1
1070
     1
1040
0.0001
1040
0.0001
1002
}
  0
INSERT
  5
FB91
330
2
100
AcDbEntity
  8
ASHADE
 62
     4
100
AcDbBlockReference
  2
AVE_RENDER
 10
-15.95240570776695
 20
-635.081546998775
 30
0.0
1001
AVE_RENDER
1002
{
1070
     0
1000
Quick Opt
1070
     0
1070
     1
1070
     1
1070
     1
1070
     0
1070
     0
1070
     1
1002
}
  0
INSERT
  5
FB92
330
2
100
AcDbEntity
  8
ASHADE
 62
     5
100
AcDbBlockReference
  2
AVE_RENDER
 10
-15.95240570776695
 20
-635.081546998775
 30
0.0
1001
AVE_RENDER
1002
{
1070
     1
1000
Scanl Opt
1070
     2
1070
     0
1070
     2
1040
2.0
1040
4.0
1070
     0
1070
     1
1070
     0
1040
0.03
1002
}
  0
INSERT
  5
FB93
330
2
100
AcDbEntity
  8
ASHADE
 62
     6
100
AcDbBlockReference
  2
AVE_RENDER
 10
-15.95240570776695
 20
-635.081546998775
 30
0.0
1001
AVE_RENDER
1002
{
1070
     2
1000
Raytr Opt
1070
     2
1070
     0
1070
     2
1040
2.0
1040
4.0
1070
     0
1070
     1
1070
     1
1040
0.03
1070
     3
1040
0.03
1002
}
  0
INSERT
  5
FB94
330
2
100
AcDbEntity
  8
ASHADE
 62
     7
100
AcDbBlockReference
  2
AVE_RENDER
 10
-15.95240570776695
 20
-635.081546998775
 30
0.0
1001
AVE_RENDER
1002
{
1070
     0
1000
RFile Opt
1070
     4
1070
  1024
1070
   768
1070
 10000
1070
     3
1070
     8
1070
     8
1070
     0
1070
     0
1070
     0
1070
     1
1070
     0
1070
     0
1070
     0
1002
}
  0
INSERT
  5
FB95
330
2
100
AcDbEntity
  8
ASHADE
 62
     8
100
AcDbBlockReference
  2
AVE_RENDER
 10
-15.95240570776695
 20
-635.081546998775
 30
0.0
1001
AVE_RENDER
1002
{
1070
     0
1000
Fog Opt
1070
     0
1070
     0
1040
0.0
1040
1.0
1040
0.0
1040
1.0
1010
0.5
1020
0.5
1030
0.5
1002
}
  0
INSERT
  5
FB96
330
2
100
AcDbEntity
  8
ASHADE
 62
     9
100
AcDbBlockReference
  2
AVE_RENDER
 10
-15.95240570776695
 20
-635.081546998775
 30
0.0
1001
AVE_RENDER
1002
{
1070
     0
1000
BG Opt
1070
     0
1070
     1
1010
0.0
1020
0.0
1030
0.0
1010
1.0
1020
0.0
1030
0.0
1010
0.0
1020
1.0
1030
0.0
1010
0.0
1020
0.0
1030
1.0
1040
0.5
1040
0.33
1040
0.0
1000

1070
     1
1000

1070
     1
1070
     1
1040
1.0
1040
1.0
1040
0.0
1040
0.0
1070
     0
1002
}
  0
INSERT
  5
FB97
330
2
100
AcDbEntity
  8
ASHADE
 62
     1
100
AcDbBlockReference
  2
AVE_GLOBAL
 10
-15.95240570776695
 20
-635.081546998775
 30
0.0
1001
AVE_MATERIAL
1002
{
1000
*GLOBAL*
1000
1
1000
Global finish.
1002
{
1002
}
1002
{
1070
    63
1002
{
1002
{
1010
-1.0
1020
-1.0
1030
-1.0
1002
}
1040
0.1000000014901161
1000

1040
0.0
1002
{
1002
}
1040
0.0
1002
{
1002
}
1040
0.0
1002
}
1002
{
1002
{
1010
-1.0
1020
-1.0
1030
-1.0
1002
}
1040
0.6999999880790711
1000

1040
0.0
1002
{
1002
}
1040
0.0
1002
{
1002
}
1040
0.0
1002
}
1002
{
1002
{
1010
-1.0
1020
-1.0
1030
-1.0
1002
}
1040
0.2000000029802322
1000

1040
0.0
1002
{
1002
}
1040
0.0
1002
{
1002
}
1040
0.0
1002
}
1002
{
1070
     0
1002
{
1070
     1
1002
{
1040
1.0
1040
1.0
1000

1040
0.0
1002
{
1002
}
1040
0.0
1002
{
1002
}
1040
0.0
1002
}
1002
}
1040
1.0
1040
0.0
1040
0.0
1002
}
1002
{
1040
1.0
1040
1.0
1000

1040
0.0
1002
{
1002
}
1040
0.0
1002
{
1002
}
1040
0.0
1002
}
1002
{
1040
0.5
1040
1.0
1000

1040
0.0
1002
{
1002
}
1040
0.0
1002
{
1002
}
1040
0.0
1002
}
1002
{
1070
     0
1040
0.0
1002
{
1002
}
1040
1.0
1002
{
1002
}
1040
0.0
1002
}
1002
{
1040
0.0
1002
{
1002
{
1010
0.0
1020
0.0
1030
0.0
1002
}
1040
1.0
1000

1040
0.0
1002
{
1002
}
1040
0.0
1002
{
1002
}
1040
0.0
1002
}
1002
}
1002
{
1002
{
1070
     1
1002
{
1040
0.0
1040
1.0
1000

1040
0.0
1002
{
1002
}
1040
0.0
1002
{
1002
}
1040
0.0
1002
}
1002
}
1040
0.0
1002
{
1002
}
1010
1.0
1020
0.0
1030
0.0
1010
0.0
1020
1.0
1030
0.0
1010
0.0
1020
0.0
1030
1.0
1070
     0
1002
}
1002
{
1002
{
1040
1.0
1040
1.0
1002
{
1070
     1
1002
{
1040
1.0
1040
1.0
1000

1040
0.0
1002
{
1002
}
1040
0.0
1002
{
1002
}
1040
0.0
1002
}
1002
}
1002
}
1070
     0
1040
0.0
1002
{
1002
}
1002
}
1002
{
1002
}
1002
}
1002
{
1071
        3
1070
     3
1070
     0
1002
{
1070
     2
1070
     0
1070
     0
1040
0.0
1002
}
1070
     0
1070
     2
1002
{
1002
}
1002
}
1002
{
1040
8030.0
1040
190.3000030517578
1040
0.3050000071525574
1040
228.0
1040
545.0
1040
14.0
1040
17.39999961853027
1040
0.4560000002384186
1002
}
1002
}
  0
INSERT
  5
FB98
330
2
100
AcDbEntity
  8
ASHADE
 62
     1
100
AcDbBlockReference
  2
AVE_RENDER
 10
459.9210683805508
 20
-0.6575810621056917
 30
0.0
 41
0.3480083857442651
 42
0.3480083857442651
 43
0.3480083857442348
1001
AVE_RENDER
1002
{
1070
     7
1000
Pref
1070
    30
1070
    20
1070
     1
1070
     0
1000

1070
    10
1070
     1
1070
    30
1040
1.0
1070
     1
1040
0.3
1040
0.7
1040
0.0
1040
10.0
1010
-1.0
1020
-1.0
1030
-1.0
1040
0.3
1070
    49
1070
     0
1070
     0
1010
1.0
1020
1.0
1030
1.0
1040
45.0
1070
     1
1070
     0
1000
WCS
1040
0.0
1070
     0
1040
10.0
1002
}
  0
INSERT
  5
FB99
330
2
100
AcDbEntity
  8
ASHADE
 62
     3
100
AcDbBlockReference
  2
AVE_RENDER
 10
459.9210683805508
 20
-0.6575810621056917
 30
0.0
 41
0.3480083857442651
 42
0.3480083857442651
 43
0.3480083857442348
1001
AVE_RENDER
1002
{
1070
     0
1000
Full Opt
1070
     0
1070
     1
1070
     1
1070
     1
1070
     0
1070
     0
1070
     0
1070
     1
1070
     1
1040
0.0001
1040
0.0001
1002
}
  0
INSERT
  5
FB9A
330
2
100
AcDbEntity
  8
ASHADE
 62
     4
100
AcDbBlockReference
  2
AVE_RENDER
 10
459.9210683805508
 20
-0.6575810621056917
 30
0.0
 41
0.3480083857442651
 42
0.3480083857442651
 43
0.3480083857442348
1001
AVE_RENDER
1002
{
1070
     0
1000
Quick Opt
1070
     0
1070
     1
1070
     1
1070
     1
1070
     0
1070
     0
1070
     1
1002
}
  0
INSERT
  5
FB9B
330
2
100
AcDbEntity
  8
ASHADE
 62
     5
100
AcDbBlockReference
  2
AVE_RENDER
 10
459.9210683805508
 20
-0.6575810621056917
 30
0.0
 41
0.3480083857442651
 42
0.3480083857442651
 43
0.3480083857442348
1001
AVE_RENDER
1002
{
1070
     1
1000
Scanl Opt
1070
     2
1070
     0
1070
     2
1040
2.0
1040
4.0
1070
     0
1070
     1
1070
     0
1040
0.03
1002
}
  0
INSERT
  5
FB9C
330
2
100
AcDbEntity
  8
ASHADE
 62
     6
100
AcDbBlockReference
  2
AVE_RENDER
 10
459.9210683805508
 20
-0.6575810621056917
 30
0.0
 41
0.3480083857442651
 42
0.3480083857442651
 43
0.3480083857442348
1001
AVE_RENDER
1002
{
1070
     2
1000
Raytr Opt
1070
     2
1070
     0
1070
     2
1040
2.0
1040
4.0
1070
     0
1070
     1
1070
     1
1040
0.03
1070
     3
1040
0.03
1002
}
  0
INSERT
  5
FB9D
330
2
100
AcDbEntity
  8
ASHADE
 62
     7
100
AcDbBlockReference
  2
AVE_RENDER
 10
459.9210683805508
 20
-0.6575810621056917
 30
0.0
 41
0.3480083857442651
 42
0.3480083857442651
 43
0.3480083857442348
1001
AVE_RENDER
1002
{
1070
     0
1000
RFile Opt
1070
     5
1070
   640
1070
   480
1070
 10000
1070
     3
1070
    32
1070
    24
1070
     0
1070
     0
1070
     0
1070
     1
1070
     0
1070
     0
1070
     0
1002
}
  0
INSERT
  5
FB9E
330
2
100
AcDbEntity
  8
ASHADE
 62
     8
100
AcDbBlockReference
  2
AVE_RENDER
 10
459.9210683805508
 20
-0.6575810621056917
 30
0.0
 41
0.3480083857442651
 42
0.3480083857442651
 43
0.3480083857442348
1001
AVE_RENDER
1002
{
1070
     0
1000
Fog Opt
1070
     0
1070
     0
1040
0.0
1040
1.0
1040
0.0
1040
1.0
1010
0.5
1020
0.5
1030
0.5
1002
}
  0
INSERT
  5
FB9F
330
2
100
AcDbEntity
  8
ASHADE
 62
     9
100
AcDbBlockReference
  2
AVE_RENDER
 10
459.9210683805508
 20
-0.6575810621056917
 30
0.0
 41
0.3480083857442651
 42
0.3480083857442651
 43
0.3480083857442348
1001
AVE_RENDER
1002
{
1070
     0
1000
BG Opt
1070
     0
1070
     1
1010
0.0
1020
0.0
1030
0.0
1010
1.0
1020
0.0
1030
0.0
1010
0.0
1020
1.0
1030
0.0
1010
0.0
1020
0.0
1030
1.0
1040
0.5
1040
0.33
1040
0.0
1000

1070
     1
1000

1070
     1
1070
     1
1040
1.0
1040
1.0
1040
0.0
1040
0.0
1070
     0
1002
}
  0
INSERT
  5
FBA0
330
2
100
AcDbEntity
  8
ASHADE
 62
     1
100
AcDbBlockReference
  2
AVE_GLOBAL
 10
459.9210683805508
 20
-0.6575810621056917
 30
0.0
 41
0.3480083857442651
 42
0.3480083857442651
 43
0.3480083857442348
1001
AVE_MATERIAL
1002
{
1000
*GLOBAL*
1000
1
1000
Global finish.
1002
{
1002
}
1002
{
1070
    63
1002
{
1002
{
1010
-1.0
1020
-1.0
1030
-1.0
1002
}
1040
0.1000000014901161
1000

1040
0.0
1002
{
1002
}
1040
0.0
1002
{
1002
}
1040
0.0
1002
}
1002
{
1002
{
1010
-1.0
1020
-1.0
1030
-1.0
1002
}
1040
0.6999999880790711
1000

1040
0.0
1002
{
1002
}
1040
0.0
1002
{
1002
}
1040
0.0
1002
}
1002
{
1002
{
1010
-1.0
1020
-1.0
1030
-1.0
1002
}
1040
0.2000000029802322
1000

1040
0.0
1002
{
1002
}
1040
0.0
1002
{
1002
}
1040
0.0
1002
}
1002
{
1070
     0
1002
{
1070
     1
1002
{
1040
1.0
1040
1.0
1000

1040
0.0
1002
{
1002
}
1040
0.0
1002
{
1002
}
1040
0.0
1002
}
1002
}
1040
1.0
1040
0.0
1040
0.0
1002
}
1002
{
1040
1.0
1040
1.0
1000

1040
0.0
1002
{
1002
}
1040
0.0
1002
{
1002
}
1040
0.0
1002
}
1002
{
1040
0.5
1040
1.0
1000

1040
0.0
1002
{
1002
}
1040
0.0
1002
{
1002
}
1040
0.0
1002
}
1002
{
1070
     0
1040
0.0
1002
{
1002
}
1040
1.0
1002
{
1002
}
1040
0.0
1002
}
1002
{
1040
0.0
1002
{
1002
{
1010
0.0
1020
0.0
1030
0.0
1002
}
1040
1.0
1000

1040
0.0
1002
{
1002
}
1040
0.0
1002
{
1002
}
1040
0.0
1002
}
1002
}
1002
{
1002
{
1070
     1
1002
{
1040
0.0
1040
1.0
1000

1040
0.0
1002
{
1002
}
1040
0.0
1002
{
1002
}
1040
0.0
1002
}
1002
}
1040
0.0
1002
{
1002
}
1010
1.0
1020
0.0
1030
0.0
1010
0.0
1020
1.0
1030
0.0
1010
0.0
1020
0.0
1030
1.0
1070
     0
1002
}
1002
{
1002
{
1040
1.0
1040
1.0
1002
{
1070
     1
1002
{
1040
1.0
1040
1.0
1000

1040
0.0
1002
{
1002
}
1040
0.0
1002
{
1002
}
1040
0.0
1002
}
1002
}
1002
}
1070
     0
1040
0.0
1002
{
1002
}
1002
}
1002
{
1002
}
1002
}
1002
{
1071
        3
1070
     3
1070
     0
1002
{
1070
     2
1070
     0
1070
     0
1040
0.0
1002
}
1070
     0
1070
     2
1002
{
1002
}
1002
}
1002
{
1040
8030.0
1040
190.3000030517578
1040
0.3050000071525574
1040
228.0
1040
545.0
1040
14.0
1040
17.39999961853027
1040
0.4560000002384186
1002
}
1002
}
  0
DIMENSION
  5
11A4C
330
2
100
AcDbEntity
  8
A1
 62
     7
100
AcDbDimension
  2
*D10
 10
618.2694333040376
 20
116.8820856739402
 30
0.0
 11
618.2694333040376
 21
113.0436573136821
 31
0.0
 70
   160
 71
     5
 42
-1.0
  3
STANDARD
100
AcDbAlignedDimension
 13
629.0437253543333
 23
109.2820856739401
 33
0.0
 14
626.0437253543336
 24
116.8820856739402
 34
0.0
 50
90.0
100
AcDbRotatedDimension
1001
ACAD
1000
DSTYLE
1002
{
1070
    40
1040
1.25
1070
    73
1070
     1
1070
    74
1070
     1
1070
    77
1070
     0
1070
   147
1040
0.5
1070
   279
1070
     1
1070
   288
1070
     1
1070
   289
1070
     3
1002
}
  0
LINE
  5
11A4D
330
2
100
AcDbEntity
  8
A1
 62
     7
100
AcDbLine
 10
626.0188497324429
 20
116.8820856739403
 30
0.0
 11
647.5607985250651
 21
116.8820856739402
 31
0.0
  0
LINE
  5
11A4E
330
2
100
AcDbEntity
  8
A1
 62
     7
100
AcDbLine
 10
646.9429961382039
 20
116.1320856739401
 30
0.0
 11
627.1245787912724
 21
116.1320856739403
 31
0.0
  0
LINE
  5
11A4F
330
2
100
AcDbEntity
  8
A1
 62
     7
100
AcDbLine
 10
629.5524394877899
 20
110.0320856739402
 30
0.0
 11
648.133240040643
 21
110.0320856739402
 31
0.0
  0
LINE
  5
11A50
330
2
100
AcDbEntity
  8
A1
 62
     7
100
AcDbLine
 10
649.0437253543334
 20
109.2820856739402
 30
0.0
 11
629.0437253543334
 21
109.2820856739402
 31
0.0
  0
DIMENSION
  5
11A51
330
2
100
AcDbEntity
  8
A1
 62
     7
100
AcDbDimension
  2
*D11
 10
629.0437253543334
 20
102.9686349691178
 30
0.0
 11
639.5374868751635
 21
102.9686349691178
 31
0.0
 70
   161
  1
VARIES
 71
     5
 42
-1.0
  3
STANDARD
100
AcDbAlignedDimension
 13
649.0437253543334
 23
109.2820856739401
 33
0.0
 14
629.0437253543334
 24
109.2820856739401
 34
0.0
1001
ACAD
1000
DSTYLE
1002
{
1070
    40
1040
1.25
1070
    73
1070
     1
1070
    74
1070
     1
1070
    77
1070
     0
1070
   147
1040
0.5
1070
   279
1070
     1
1070
   288
1070
     1
1070
   289
1070
     3
1002
}
  0
DIMENSION
  5
11A53
330
2
100
AcDbEntity
  8
A1
 62
     7
100
AcDbDimension
  2
*D12
 10
629.0437253543334
 20
102.9686349691178
 30
0.0
 11
622.921819781389
 21
102.9686349691178
 31
0.0
 70
   160
 71
     5
 42
-1.0
  3
STANDARD
100
AcDbAlignedDimension
 13
626.0188497324429
 23
116.8820856739402
 33
0.0
 14
629.0437253543334
 24
109.2820856739402
 34
0.0
100
AcDbRotatedDimension
1001
ACAD
1000
DSTYLE
1002
{
1070
    40
1040
1.25
1070
    73
1070
     1
1070
    74
1070
     1
1070
    77
1070
     0
1070
   147
1040
0.5
1070
   279
1070
     1
1070
   288
1070
     1
1070
   289
1070
     3
1002
}
  0
LINE
  5
11A54
330
2
100
AcDbEntity
  8
A1
 62
     7
100
AcDbLine
 10
627.1245787912724
 20
116.1320856739403
 30
0.0
 11
629.5524394877899
 21
110.0320856739402
 31
0.0
  0
INSERT
  5
11A55
330
2
100
AcDbEntity
  8
A1
 62
     7
100
AcDbBlockReference
 66
     1
  2
PROFILE LOGO
 10
629.8474438173116
 20
112.2391722300633
 30
0.0
  0
ATTRIB
  5
11A56
330
11A55
100
AcDbEntity
  8
A1
 62
    22
100
AcDbText
 10
630.1384717686592
 20
110.5608739811568
 30
0.0
 40
0.2126953125
  1
0434
 72
     1
 11
630.5255742225925
 21
110.5608739811568
 31
0.0
100
AcDbAttribute
  2
XXXX
 70
     0
  0
SEQEND
  5
11A57
330
11A55
100
AcDbEntity
  8
A1
 62
     7
  0
LINE
  5
11A58
330
2
100
AcDbEntity
  8
A1
 62
     7
100
AcDbLine
 10
629.0437253543334
 20
109.2820856739402
 30
0.0
 11
626.0188497324429
 21
116.8820856739403
 31
0.0
  0
POINT
  5
11A59
330
2
100
AcDbEntity
  8
Defpoints
  6
ByBlock
 62
     7
100
AcDbPoint
 10
629.0437253543334
 20
109.2820856739402
 30
0.0
  0
POINT
  5
11A5A
330
2
100
AcDbEntity
  8
Defpoints
  6
ByBlock
 62
     7
100
AcDbPoint
 10
629.0437253543334
 20
109.2820856739402
 30
0.0
  0
POINT
  5
11A5B
330
2
100
AcDbEntity
  8
Defpoints
  6
ByBlock
 62
     7
100
AcDbPoint
 10
629.0437253543334
 20
109.2820856739402
 30
0.0
  0
LINE
  5
11A5D
330
2
100
AcDbEntity
  8
A1
 62
     7
100
AcDbLine
 10
629.0437253543334
 20
109.2820856739402
 30
0.0
 11
629.5524394877899
 21
110.0320856739402
 31
0.0
  0
POINT
  5
11A5E
330
2
100
AcDbEntity
  8
Defpoints
  6
ByBlock
 62
     7
100
AcDbPoint
 10
626.0437253543334
 20
116.8195856739401
 30
0.0
  0
POINT
  5
11A5F
330
2
100
AcDbEntity
  8
Defpoints
  6
ByBlock
 62
     7
100
AcDbPoint
 10
626.0188497324429
 20
116.8820856739402
 30
0.0
  0
LINE
  5
11A60
330
2
100
AcDbEntity
  8
A1
 62
     7
100
AcDbLine
 10
626.0437253543334
 20
116.8820856739403
 30
0.0
 11
627.149454413163
 21
116.1320856739403
 31
0.0
  0
LINE
  5
11A65
330
2
100
AcDbEntity
  8
A1
 62
     7
100
AcDbLine
 10
648.133240040643
 20
110.0320856739402
 30
0.0
 11
646.9429961382039
 21
116.1320856739401
 31
0.0
  0
LINE
  5
11A66
330
2
100
AcDbEntity
  8
A1
 62
     7
100
AcDbLine
 10
647.5607985250651
 20
116.8820856739402
 30
0.0
 11
649.0437253543334
 21
109.2820856739402
 31
0.0
  0
LINE
  5
11A6B
330
2
100
AcDbEntity
  8
A1
 62
     7
100
AcDbLine
 10
647.5729936470164
 20
116.8820856739402
 30
0.0
 11
646.9551912601551
 21
116.1320856739401
 31
0.0
  0
LINE
  5
11FA9
330
2
100
AcDbEntity
  8
A1
 62
     7
100
AcDbLine
 10
649.0437253543334
 20
109.2820856739402
 30
0.0
 11
648.133240040643
 21
110.0320856739402
 31
0.0
  0
POINT
  5
11FD9
330
2
100
AcDbEntity
  8
Defpoints
  6
ByBlock
 62
     7
100
AcDbPoint
 10
655.9637916586106
 20
109.2820856739402
 30
0.0
  0
POINT
  5
11FDA
330
2
100
AcDbEntity
  8
Defpoints
  6
ByBlock
 62
     7
100
AcDbPoint
 10
655.9637916586106
 20
109.2820856739402
 30
0.0
  0
POINT
  5
11FDB
330
2
100
AcDbEntity
  8
Defpoints
  6
ByBlock
 62
     7
100
AcDbPoint
 10
655.9637916586106
 20
109.2820856739402
 30
0.0
  0
POINT
  5
11FDC
330
2
100
AcDbEntity
  8
Defpoints
  6
ByBlock
 62
     7
100
AcDbPoint
 10
655.9637916586106
 20
109.2820856739402
 30
0.0
  0
POINT
  5
11FDF
330
2
100
AcDbEntity
  8
Defpoints
  6
ByBlock
 62
     7
100
AcDbPoint
 10
659.5650448055817
 20
109.2820856739402
 30
0.0
  0
POINT
  5
11FE0
330
2
100
AcDbEntity
  8
Defpoints
  6
ByBlock
 62
     7
100
AcDbPoint
 10
659.5650448055817
 20
109.2820856739402
 30
0.0
  0
POINT
  5
11FE1
330
2
100
AcDbEntity
  8
Defpoints
  6
ByBlock
 62
     7
100
AcDbPoint
 10
659.5650448055817
 20
109.2820856739402
 30
0.0
  0
POINT
  5
11FE2
330
2
100
AcDbEntity
  8
Defpoints
  6
ByBlock
 62
     7
100
AcDbPoint
 10
659.5650448055817
 20
109.2820856739402
 30
0.0
  0
POINT
  5
11FE3
330
2
100
AcDbEntity
  8
Defpoints
  6
ByBlock
 62
     7
100
AcDbPoint
 10
659.5650448055817
 20
109.2820856739402
 30
0.0
  0
POINT
  5
11FE4
330
2
100
AcDbEntity
  8
Defpoints
  6
ByBlock
 62
     7
100
AcDbPoint
 10
659.5650448055817
 20
109.2820856739402
 30
0.0
  0
INSERT
  5
11FE8
330
2
100
AcDbEntity
  8
A1
 62
     7
100
AcDbBlockReference
 66
     1
  2
PROFILE LOGO
 10
656.2929954026688
 20
111.4714202411208
 30
0.0
  0
ATTRIB
  5
11FE9
330
11FE8
100
AcDbEntity
  8
A1
 62
    22
100
AcDbText
 10
656.5840233540163
 20
109.7931219922143
 30
0.0
 40
0.2126953125
  1
0434
 72
     1
 11
656.9711258079498
 21
109.7931219922143
 31
0.0
100
AcDbAttribute
  2
XXXX
 70
     0
  0
SEQEND
  5
11FEA
330
11FE8
100
AcDbEntity
  8
A1
 62
     7
  0
POINT
  5
11FEB
330
2
100
AcDbEntity
  8
Defpoints
  6
ByBlock
 62
     7
100
AcDbPoint
 10
660.3150448055816
 20
110.0320856739402
 30
0.0
  0
POINT
  5
11FEC
330
2
100
AcDbEntity
  8
Defpoints
  6
ByBlock
 62
     7
100
AcDbPoint
 10
660.3150448055816
 20
110.0320856739402
 30
0.0
  0
POINT
  5
11FED
330
2
100
AcDbEntity
  8
Defpoints
  6
ByBlock
 62
     7
100
AcDbPoint
 10
660.3150448055816
 20
110.0320856739402
 30
0.0
  0
POINT
  5
11FEE
330
2
100
AcDbEntity
  8
Defpoints
  6
ByBlock
 62
     7
100
AcDbPoint
 10
660.3150448055816
 20
110.0320856739402
 30
0.0
  0
POINT
  5
11FEF
330
2
100
AcDbEntity
  8
Defpoints
  6
ByBlock
 62
     7
100
AcDbPoint
 10
660.3150448055816
 20
110.0320856739402
 30
0.0
  0
POINT
  5
11FF0
330
2
100
AcDbEntity
  8
Defpoints
  6
ByBlock
 62
     7
100
AcDbPoint
 10
660.3150448055816
 20
110.0320856739402
 30
0.0
  0
POINT
  5
11FF1
330
2
100
AcDbEntity
  8
Defpoints
  6
ByBlock
 62
     7
100
AcDbPoint
 10
659.5650448055817
 20
116.886512971267
 30
0.0
  0
POINT
  5
11FF2
330
2
100
AcDbEntity
  8
Defpoints
  6
ByBlock
 62
     7
100
AcDbPoint
 10
660.3150448055816
 20
116.136512971267
 30
0.0
  0
DIMENSION
  5
11FF3
330
2
100
AcDbEntity
  8
A1
 62
     7
100
AcDbDimension
  2
*D13
 10
660.3150448055816
 20
103.4761977598643
 30
0.0
 11
664.7039348533271
 21
103.4761977598643
 31
0.0
 70
   160
 71
     5
 42
-1.0
  3
STANDARD
100
AcDbAlignedDimension
 13
655.9637916586106
 23
109.2820856739402
 33
0.0
 14
660.3150448055816
 24
110.0320856739402
 34
0.0
100
AcDbRotatedDimension
1001
ACAD
1000
DSTYLE
1002
{
1070
    40
1040
1.25
1070
    73
1070
     1
1070
    74
1070
     1
1070
    77
1070
     0
1070
   147
1040
0.5
1070
   279
1070
     1
1070
   288
1070
     1
1070
   289
1070
     3
1002
}
  0
DIMENSION
  5
12001
330
2
100
AcDbEntity
  8
A1
 62
     7
100
AcDbDimension
  2
*D14
 10
659.5650448055817
 20
106.0837918502655
 30
0.0
 11
664.7039348533271
 21
106.0837918502655
 31
0.0
 70
   160
 71
     5
 42
-1.0
  3
STANDARD
100
AcDbAlignedDimension
 13
655.9637916586106
 23
109.2820856739402
 33
0.0
 14
659.5650448055817
 24
109.2820856739402
 34
0.0
100
AcDbRotatedDimension
1001
ACAD
1000
DSTYLE
1002
{
1070
    40
1040
1.25
1070
    73
1070
     1
1070
    74
1070
     1
1070
    77
1070
     0
1070
   147
1040
0.5
1070
   279
1070
     1
1070
   288
1070
     1
1070
   289
1070
     3
1002
}
  0
DIMENSION
  5
12029
330
2
100
AcDbEntity
  8
A1
 62
     7
100
AcDbDimension
  2
*D15
 10
647.5729936470164
 20
120.73075707586
 30
0.0
 11
642.0252751776956
 21
120.73075707586
 31
0.0
 70
   160
 71
     5
 42
-1.0
  3
STANDARD
100
AcDbAlignedDimension
 13
649.0437253543334
 23
109.2820856739403
 33
0.0
 14
647.5729936470164
 24
116.8820856739402
 34
0.0
100
AcDbRotatedDimension
1001
ACAD
1000
DSTYLE
1002
{
1070
    40
1040
1.25
1070
    73
1070
     1
1070
    74
1070
     1
1070
    77
1070
     0
1070
   147
1040
0.5
1070
   279
1070
     1
1070
   288
1070
     1
1070
   289
1070
     3
1002
}
  0
SOLID
  5
12080
330
2
100
AcDbEntity
  8
A1
 62
     1
100
AcDbTrace
 10
648.0836039720527
 20
117.2572560224631
 30
0.0
 11
647.9343265441514
 21
117.402579892825
 31
0.0
 12
647.5729936470164
 22
116.8820856739402
 32
0.0
 13
647.5729936470164
 23
116.8820856739402
 33
0.0
  0
LINE
  5
12081
330
2
100
AcDbEntity
  8
A1
 62
     1
100
AcDbLine
 10
648.008965258102
 20
117.329917957644
 30
0.0
 11
648.4272516689251
 21
117.7595839125779
 31
0.0
  0
ATTDEF
  5
12082
330
2
100
AcDbEntity
  8
A1
 62
     1
100
AcDbText
 10
661.0211602823814
 20
123.0739197102929
 30
0.0
 40
1.25
  1

100
AcDbAttributeDefinition
  3
ADD LINK NUMBER (WMF)
  2
TS0434
 70
     0
  0
MTEXT
  5
12083
330
2
100
AcDbEntity
  8
0
 62
     1
100
AcDbMText
 10
661.0697009461001
 20
122.1398256821494
 30
0.0
 40
1.25
 41
0.0
 71
     1
 72
     1
  1
TannerStone
 73
     1
 44
1.0
1001
ACAD
1000
MTEXTBEGIN
1070
    73
1070
     1
1070
    44
1040
1.0
1070
    74
1070
     0
1000
MTEXTEND
  0
MTEXT
  5
12084
330
2
100
AcDbEntity
  8
0
 62
     1
100
AcDbMText
 10
661.1668789552857
 20
120.2433755992396
 30
0.0
 40
0.9233437499999997
 41
0.0
 71
     1
 72
     1
  1
1-800-789-4841
 73
     1
 44
1.0
1001
ACAD
1000
MTEXTBEGIN
1070
    73
1070
     1
1070
    44
1040
1.0
1070
    74
1070
     0
1000
MTEXTEND
  0
LINE
  5
12085
330
2
100
AcDbEntity
  8
0
 62
     1
100
AcDbLine
 10
653.1350497747553
 20
122.5954583671112
 30
0.0
 11
671.7968707976853
 21
122.5954583671112
 31
0.0
  0
LINE
  5
12086
330
2
100
AcDbEntity
  8
0
 62
     1
100
AcDbLine
 10
660.4126223460342
 20
118.8607364273917
 30
0.0
 11
660.4126223460342
 21
124.5538036309243
 31
0.0
  0
LINE
  5
12089
330
2
100
AcDbEntity
  8
A1
 62
     1
100
AcDbLine
 10
649.5328910925652
 20
118.8953024214248
 30
0.0
 11
653.1350497747553
 21
122.5954583671112
 31
0.0
  0
LINE
  5
127ED
330
2
100
AcDbEntity
  8
A1
 62
     7
370
    50
100
AcDbLine
 10
649.0437253543334
 20
109.2820856739401
 30
0.0
 11
629.0437253543334
 21
109.2820856739401
 31
0.0
  0
LINE
  5
127EE
330
2
100
AcDbEntity
  8
A1
 62
     7
370
    50
100
AcDbLine
 10
629.0437253543334
 20
109.2820856739401
 30
0.0
 11
626.0188497324429
 21
116.8820856739402
 31
0.0
  0
LINE
  5
127EF
330
2
100
AcDbEntity
  8
A1
 62
     7
370
    50
100
AcDbLine
 10
626.0188497324429
 20
116.8820856739402
 30
0.0
 11
647.5607985250651
 21
116.8820856739402
 31
0.0
  0
LINE
  5
127F0
330
2
100
AcDbEntity
  8
A1
 62
     7
370
    50
100
AcDbLine
 10
647.5607985250651
 20
116.8820856739402
 30
0.0
 11
649.0437253543334
 21
109.2820856739401
 31
0.0
  0
LINE
  5
127F3
330
2
100
AcDbEntity
  8
A1
 62
     7
370
    30
100
AcDbLine
 10
655.9637916586106
 20
116.886512971267
 30
0.0
 11
655.9637916586106
 21
109.2820856739402
 31
0.0
  0
LWPOLYLINE
  5
127F7
330
2
100
AcDbEntity
  8
A1
 62
     7
100
AcDbPolyline
 90
        6
 70
     0
 43
0.0
 10
655.9637916586106
 20
109.2820856739402
 10
659.5650448055817
 20
109.2820856739402
 10
660.3150448055816
 20
110.0320856739402
 10
660.3150448055816
 20
116.136512971267
 10
659.5650448055817
 20
116.886512971267
 10
655.9637916586106
 20
116.886512971267
  0
INSERT
  5
12917
330
2
100
AcDbEntity
  8
A1
 62
     7
100
AcDbBlockReference
 66
     1
  2
TSFORMB
 10
608.8788159902975
 20
83.1890992328565
 30
0.0
 41
0.665
 42
0.665
 43
0.665
  0
ATTRIB
  5
12918
330
12917
100
AcDbEntity
  8
A1
 62
     1
100
AcDbText
 10
628.7225571254154
 20
83.79856119263662
 30
0.0
 40
0.682017084
  1
JACK ARCH STD/MOD KEY L&R
 72
     1
 11
636.3168246061142
 21
83.79856119263662
 31
0.0
100
AcDbAttribute
  2
XXXXXX
 70
     0
  0
ATTRIB
  5
12919
330
12917
100
AcDbEntity
  8
A1
 62
     1
100
AcDbText
 10
620.1470652821418
 20
84.43598667108679
 30
0.0
 40
0.5586000000000002
  1
TS0434
 72
     2
 11
623.2120413274997
 21
84.43598667108679
 31
0.0
100
AcDbAttribute
  2
XXXXXX
 70
     0
  0
ATTRIB
  5
1291A
330
12917
100
AcDbEntity
  8
A1
 62
     1
100
AcDbText
 10
613.3985345119546
 20
85.26254449650052
 30
0.0
 40
4.07778
  1
TS0434
  7
barcoder
 72
     1
 11
617.4253422619545
 21
85.26254449650052
 31
0.0
100
AcDbAttribute
  2
BARCODE
 70
     0
  0
ATTRIB
  5
1291B
330
12917
100
AcDbEntity
  8
A1
 62
     1
100
AcDbText
 10
671.055830823525
 20
132.0001100939346
 30
0.0
 40
1.382535
  1
TS0434
 72
     1
 11
674.8487386796555
 21
132.0001100939346
 31
0.0
100
AcDbAttribute
  2
TS00XX
 70
     0
  0
ATTRIB
  5
1291C
330
12917
100
AcDbEntity
  8
A1
 62
     1
100
AcDbText
 10
674.6561367047923
 20
89.89163716901176
 30
0.0
 40
0.6284250000000001
  1
32.77"
 72
     1
 11
676.1608382373932
 21
89.89163716901176
 31
0.0
100
AcDbAttribute
  2
XXXXX
 70
     0
  0
ATTRIB
  5
1291D
330
12917
100
AcDbEntity
  8
A1
 62
     1
100
AcDbText
 10
674.8362841963693
 20
87.99009241217319
 30
0.0
 40
0.6284250000000001
  1
29.58
 72
     1
 11
676.1381171340022
 21
87.99009241217319
 31
0.0
100
AcDbAttribute
  2
XXXXX
 70
     0
  0
SEQEND
  5
1291E
330
12917
100
AcDbEntity
  8
A1
 62
     7
  0
ENDSEC
  0
SECTION
  2
OBJECTS
  0
DICTIONARY
  5
8
330
0
100
AcDbDictionary
281
     1
  3
ACAD_GROUP
350
21
  3
ACAD_LAYOUT
350
C
  3
ACAD_MLINESTYLE
350
22
  3
ACAD_PLOTSETTINGS
350
23
  3
ACAD_PLOTSTYLENAME
350
7
  3
ACAD_VBA
350
127E5
  3
AcDbVariableDictionary
350
118DA
  0
DICTIONARY
  5
3
330
2
100
AcDbDictionary
280
     1
281
     1
  3
ACAD_LAYOUTSELFREF
360
12A95
  0
DICTIONARY
  5
12A9A
330
D
100
AcDbDictionary
280
     1
281
     1
  3
ACAD_LAYOUTSELFREF
360
12A9B
  0
DICTIONARY
  5
21
102
{ACAD_REACTORS
330
8
102
}
330
8
100
AcDbDictionary
281
     1
  0
DICTIONARY
  5
C
102
{ACAD_REACTORS
330
8
102
}
330
8
100
AcDbDictionary
281
     1
  3
Layout1
350
10
  3
Model
350
B
  0
DICTIONARY
  5
22
102
{ACAD_REACTORS
330
8
102
}
330
8
100
AcDbDictionary
281
     1
  3
STANDARD
350
25
  0
DICTIONARY
  5
23
102
{ACAD_REACTORS
330
8
102
}
330
8
100
AcDbDictionary
281
     1
  3
EXOT1
350
D3BB
  0
ACDBDICTIONARYWDFLT
  5
7
102
{ACAD_REACTORS
330
8
102
}
330
8
100
AcDbDictionary
281
     1
  3
Normal
350
6
100
AcDbDictionaryWithDefault
340
6
  0
DICTIONARY
  5
127E5
102
{ACAD_REACTORS
330
8
102
}
330
8
100
AcDbDictionary
281
     1
  3
VBAProject
350
127E6
  0
DICTIONARY
  5
118DA
102
{ACAD_REACTORS
330
8
102
}
330
8
100
AcDbDictionary
281
     1
  3
SORTENTS
350
118DB
  0
XRECORD
  5
12A95
102
{ACAD_REACTORS
330
3
102
}
330
3
100
AcDbXrecord
280
     1
340
2
  0
XRECORD
  5
12A9B
102
{ACAD_REACTORS
330
12A9A
102
}
330
12A9A
100
AcDbXrecord
280
     1
340
D
  0
LAYOUT
  5
10
102
{ACAD_REACTORS
330
C
102
}
330
C
100
AcDbPlotSettings
  1

  2
None
  4

  6

 40
0.0
 41
0.0
 42
0.0
 43
0.0
 44
0.0
 45
0.0
 46
0.0
 47
0.0
 48
0.0
 49
0.0
140
0.0
141
0.0
142
1.0
143
1.0
 70
   688
 72
     0
 73
     0
 74
     5
  7

 75
    16
147
1.0
148
0.0
149
0.0
100
AcDbLayout
  1
Layout1
 70
     1
 71
     1
 10
0.0
 20
0.0
 11
12.0
 21
9.0
 12
0.0
 22
0.0
 32
0.0
 14
1.000000000000000E+20
 24
1.000000000000000E+20
 34
1.000000000000000E+20
 15
-1.000000000000000E+20
 25
-1.000000000000000E+20
 35
-1.000000000000000E+20
146
0.0
 13
0.0
 23
0.0
 33
0.0
 16
1.0
 26
0.0
 36
0.0
 17
0.0
 27
1.0
 37
0.0
 76
     0
330
D
  0
LAYOUT
  5
B
102
{ACAD_REACTORS
330
C
102
}
330
C
100
AcDbPlotSettings
  1

  2
HP LaserJet 5.pc3
  4
Letter
  6

 40
7.143749713897705
 41
6.381738662719726
 42
7.14373779296875
 43
6.381744384765625
 44
215.8999938964843
 45
279.3999938964843
 46
0.0
 47
0.0
 48
603.4899851506333
 49
98.90946613042244
140
671.3252102950534
141
149.3722555671251
142
1.0
143
6.718396598063744
 70
 11952
 72
     0
 73
     1
 74
     1
  7

 75
     0
147
0.148845038455783
148
-15465.40588415814
149
-2112.827455920747
100
AcDbLayout
  1
Model
 70
     1
 71
     0
 10
0.0
 20
0.0
 11
12.0
 21
9.0
 12
0.0
 22
0.0
 32
0.0
 14
0.0
 24
0.0
 34
0.0
 15
0.0
 25
0.0
 35
0.0
146
0.0
 13
0.0
 23
0.0
 33
0.0
 16
1.0
 26
0.0
 36
0.0
 17
0.0
 27
1.0
 37
0.0
 76
     0
330
2
  0
MLINESTYLE
  5
25
102
{ACAD_REACTORS
330
22
102
}
330
22
100
AcDbMlineStyle
  2
STANDARD
 70
     0
  3

 62
   256
 51
90.0
 52
90.0
 71
     2
 49
0.5
 62
   256
  6
BYLAYER
 49
-0.5
 62
   256
  6
BYLAYER
  0
PLOTSETTINGS
  5
D3BB
102
{ACAD_REACTORS
330
23
102
}
330
23
100
AcDbPlotSettings
  1
EXOT1
  2
none_device
  4
Letter_(8.50_x_11.00_Inches)
  6

 40
6.349999904632568
 41
6.349999904632568
 42
6.350006103515625
 43
6.350006103515625
 44
215.8999938964843
 45
279.3999938964843
 46
0.0
 47
0.0
 48
103.0850064956629
 49
-9.683547388295792
140
103.9154412227691
141
-9.137474670122287
142
1.0
143
6.008830949410951
 70
  1712
 72
     0
 73
     1
 74
     1
  7

 75
     0
147
0.1664217230305057
148
0.0244351407155108
149
0.0181773607759482
  0
ACDBPLACEHOLDER
  5
6
102
{ACAD_REACTORS
330
7
102
}
330
7
  0
VBA_PROJECT
  5
127E6
102
{ACAD_REACTORS
330
127E5
102
}
330
127E5
100
AcDbVbaProject
 90
     7680
310
D0CF11E0A1B11AE1000000000000000000000000000000003E000300FEFF0900060000000000000000000000010000000100000000000000001000000200000001000000FEFFFFFF0000000000000000FFFFFFFFFFFFFFFFFFFFFFFFFFFFFFFFFFFFFFFFFFFFFFFFFFFFFFFFFFFFFFFFFFFFFFFFFFFFFFFFFFFFFFFFFFFFFF
310
FFFFFFFFFFFFFFFFFFFFFFFFFFFFFFFFFFFFFFFFFFFFFFFFFFFFFFFFFFFFFFFFFFFFFFFFFFFFFFFFFFFFFFFFFFFFFFFFFFFFFFFFFFFFFFFFFFFFFFFFFFFFFFFFFFFFFFFFFFFFFFFFFFFFFFFFFFFFFFFFFFFFFFFFFFFFFFFFFFFFFFFFFFFFFFFFFFFFFFFFFFFFFFFFFFFFFFFFFFFFFFFFFFFFFFFFFFFFFFFFFFFFFFFFFFFFFF
310
FFFFFFFFFFFFFFFFFFFFFFFFFFFFFFFFFFFFFFFFFFFFFFFFFFFFFFFFFFFFFFFFFFFFFFFFFFFFFFFFFFFFFFFFFFFFFFFFFFFFFFFFFFFFFFFFFFFFFFFFFFFFFFFFFFFFFFFFFFFFFFFFFFFFFFFFFFFFFFFFFFFFFFFFFFFFFFFFFFFFFFFFFFFFFFFFFFFFFFFFFFFFFFFFFFFFFFFFFFFFFFFFFFFFFFFFFFFFFFFFFFFFFFFFFFFFFF
310
FFFFFFFFFFFFFFFFFFFFFFFFFFFFFFFFFFFFFFFFFFFFFFFFFFFFFFFFFFFFFFFFFFFFFFFFFFFFFFFFFFFFFFFFFFFFFFFFFFFFFFFFFFFFFFFFFFFFFFFFFFFFFFFFFFFFFFFFFFFFFFFFFFFFFFFFFFFFFFFFFFFFFFFFFFFFFFFFFFFFFFFFFFFFFFFFFFFFFFFFFFFFFFFFFFFFFFFFFFFFFFFFFFFFFFFFFFFFFFFFFFFFFFFFFFFFFF
310
FFFFFFFFFDFFFFFF04000000FEFFFFFF050000000D000000060000000700000008000000090000000A0000000B0000000C000000FEFFFFFFFEFFFFFFFFFFFFFFFFFFFFFFFFFFFFFFFFFFFFFFFFFFFFFFFFFFFFFFFFFFFFFFFFFFFFFFFFFFFFFFFFFFFFFFFFFFFFFFFFFFFFFFFFFFFFFFFFFFFFFFFFFFFFFFFFFFFFFFFFFFFF
310
FFFFFFFFFFFFFFFFFFFFFFFFFFFFFFFFFFFFFFFFFFFFFFFFFFFFFFFFFFFFFFFFFFFFFFFFFFFFFFFFFFFFFFFFFFFFFFFFFFFFFFFFFFFFFFFFFFFFFFFFFFFFFFFFFFFFFFFFFFFFFFFFFFFFFFFFFFFFFFFFFFFFFFFFFFFFFFFFFFFFFFFFFFFFFFFFFFFFFFFFFFFFFFFFFFFFFFFFFFFFFFFFFFFFFFFFFFFFFFFFFFFFFFFFFFFFFF
310
FFFFFFFFFFFFFFFFFFFFFFFFFFFFFFFFFFFFFFFFFFFFFFFFFFFFFFFFFFFFFFFFFFFFFFFFFFFFFFFFFFFFFFFFFFFFFFFFFFFFFFFFFFFFFFFFFFFFFFFFFFFFFFFFFFFFFFFFFFFFFFFFFFFFFFFFFFFFFFFFFFFFFFFFFFFFFFFFFFFFFFFFFFFFFFFFFFFFFFFFFFFFFFFFFFFFFFFFFFFFFFFFFFFFFFFFFFFFFFFFFFFFFFFFFFFFFF
310
FFFFFFFFFFFFFFFFFFFFFFFFFFFFFFFFFFFFFFFFFFFFFFFFFFFFFFFFFFFFFFFFFFFFFFFFFFFFFFFFFFFFFFFFFFFFFFFFFFFFFFFFFFFFFFFFFFFFFFFFFFFFFFFFFFFFFFFFFFFFFFFFFFFFFFFFFFFFFFFFFFFFFFFFFFFFFFFFFFFFFFFFFFFFFFFFFFFFFFFFFFFFFFFFFFFFFFFFFFFFFFFFFFFFFFFFFFFFFFFFFFFFFFFFFFFFFF
310
FFFFFFFFFFFFFFFF52006F006F007400200045006E00740072007900000000000000000000000000000000000000000000000000000000000000000000000000000000000000000016000500FFFFFFFFFFFFFFFF01000000000000000000000000000000000000000000000000000000000000000039A825F7AEBF01030000
310
00C0100000000000005600420041005F00500072006F006A0065006300740000000000000000000000000000000000000000000000000000000000000000000000000000000000000018000101FFFFFFFF080000000600000000000000000000000000000000000000000000000039A825F7AEBF010039A825F7AEBF010000
310
000000000000000000005600420041000000000000000000000000000000000000000000000000000000000000000000000000000000000000000000000000000000000000000000000008000100FFFFFFFFFFFFFFFF0400000000000000000000000000000000000000000000000039A825F7AEBF010039A825F7AEBF0100
310
00000000000000000000006400690072000000000000000000000000000000000000000000000000000000000000000000000000000000000000000000000000000000000000000000000008000200FFFFFFFFFFFFFFFFFFFFFFFF000000000000000000000000000000000000000000000000000000000000000000000000
310
00000000F90100000000000001000000020000000300000004000000050000000600000007000000FEFFFFFF090000000A0000000B0000000C0000000D0000000E0000000F0000001000000011000000120000001300000014000000150000001600000017000000FEFFFFFF190000001A0000001B0000001C0000001D0000
310
001E0000001F000000200000002100000022000000230000002400000025000000260000002700000028000000290000002A0000002B0000002C0000002D0000002E0000002F000000300000003100000032000000330000003400000035000000360000003700000038000000390000003A0000003B000000FEFFFFFF3D00
310
00003E0000003F00000040000000FEFFFFFFFEFFFFFFFEFFFFFFFFFFFFFFFFFFFFFFFFFFFFFFFFFFFFFFFFFFFFFFFFFFFFFFFFFFFFFFFFFFFFFFFFFFFFFFFFFFFFFFFFFFFFFFFFFFFFFFFFFFFFFFFFFFFFFFFFFFFFFFFFFFFFFFFFFFFFFFFFFFFFFFFFFFFFFFFFFFFFFFFFFFFFFFFFFFFFFFFFFFFFFFFFFFFFFFFFFFFFFFFF
310
FFFFFFFFFFFFFFFFFFFFFFFFFFFFFFFFFFFFFFFFFFFFFFFFFFFFFFFFFFFFFFFFFFFFFFFFFFFFFFFFFFFFFFFFFFFFFFFFFFFFFFFFFFFFFFFFFFFFFFFFFFFFFFFFFFFFFFFFFFFFFFFFFFFFFFFFFFFFFFFFFFFFFFFFFFFFFFFFFFFFFFFFFFFFFFFFFFFFFFFFFFFFFFFFFFFFFFFFFFFFFFFFFFFFFFFFFFFFFFFFFFFFFFFFFFFFFF
310
FFFFFFFFFFFFFFFFFFFFFFFFFFFFFFFF01F5B1800100040000000100302A020290090070140648030082020064E40404000B001C004143414450726F6A10656374050038000040D5021406020A3D020A07027401140A0806120902128856C6382869000C024A3C020A16000101727374646F6C653E0102197300740064006F
310
00006C0065000D00660500255C00032A5C477B3000303032303433302D3B0008040443000A020E011230300034367D23322E3023003023433A5C57494E00444F57535C5359530054454D5C5354444F004C45322E544C4223010008204175746F6D613074696F6E005E00011600020780024D53466F726D10733E000E010600
310
53000246004572006D007300682F007A800970800101463600354238343236302D00344131382D31314400312D384439372D348034343535333534014803174604332E545744234D006963726F736F66748A20023D200060204F6201B000204C69627261727947003900011E50300090001372038001015038393136374580
310
30362D35343239275081804A505C5642455C8528044558A728E12E450D8F00E01A10852E02608C284D0BB481940F828F01002213C201D76B198291546800697344726177696E44671A0D04320016C030541000680069805D4400721000610077C0026E006744001C4006000048420131C1C2941F0300001E42020105A22C42
310
19D56B2242082B420102104201000000000000005400680069007300440072006100770069006E006700000000000000000000000000000000000000000000000000000000000000000000000000000000000000180002010300000005000000FFFFFFFF000000000000000000000000000000000000000000000000000000
310
00000000000000000008000000D0030000000000005F005600420041005F00500052004F004A00450043005400000000000000000000000000000000000000000000000000000000000000000000000000000000001A000200FFFFFFFFFFFFFFFFFFFFFFFF0000000000000000000000000000000000000000000000000000
310
0000000000000000000018000000EA08000000000000500052004F004A004500430054000000000000000000000000000000000000000000000000000000000000000000000000000000000000000000000000000000100002010200000007000000FFFFFFFF00000000000000000000000000000000000000000000000000
310
00000000000000000000003C0000002E01000000000000500052004F004A0045004300540077006D000000000000000000000000000000000000000000000000000000000000000000000000000000000000000000000014000200FFFFFFFFFFFFFFFFFFFFFFFF000000000000000000000000000000000000000000000000
310
0000000000000000000000004100000026000000000000000116010000B600FFFF010100000000FFFFFFFF00000000FFFFFFFFFFFF0000000000000000000000000000000000000000000000000000000000000000000000000000000000000000000000000000000010000000030000000500000007000000FFFFFFFFFFFF
310
FFFF010108000000FFFFFFFF78000000DE000000AF020000F5010000FFFFFFFF0000000001000000D76BD56B0000FFFF2300000088000000080000000000000000000000000000000000000000000000000000000000000000FFFF0000CB020000D6000000D60000001F0300000000FFFFFFFF00000000DF00FFFF00000000
310
0C00FFFFFFFFFFFFFFFFFFFFFFFFFFFFFFFFFFFFFFFFFFFFFFFFFFFFFFFFFFFFFFFFFFFFFFFFFFFFFFFFFFFFFFFFFFFFFFFFFFFFFFFFFFFFFFFFFFFFFFFFFFFFFFFFFFFFFFFFFFFFFFFFFFFFFFFFFFFFFFFFFFFFFFFFFFFFFFFFFFFFFFFFFFFFFFFFFFFFFFFFFFFFFFFFFFFFFFFFFFFFFFFFFFFFFFFFFFFFFFFFFFFFFFFFFF
310
FFFFFF280000000200534CFFFFFFFF000001005310FFFFFFFF000001005394FFFFFFFF00000000023CFFFFFFFF0000FFFF01010000000001004E0030007B00380045003700350044003900310033002D0033004400320031002D0031003100440032002D0038003500430034002D0030003800300030003000390041003000
310
43003600320036007D00000000000000DF00000000FFFFFFFF0101380000000281FEFFFFFFFFFFFFFFFFFF280000000000FFFF0000000000000000FFFFFFFFFFFFFFFF5628EAA81D00000024000000FFFFFFFF480000000000FFFF00000100000000000000FFFFFFFFFFFFFFFFFFFFFFFF00000000FFFFFFFFFFFFFFFFFFFF
310
FFFFFFFFFFFF00000000FFFFFFFFFFFFFFFFFFFFFFFFFFFFFFFF0000000001000000FFFFFFFFFFFFFFFF00000000FFFFFFFFFFFFFFFFFFFFFFFFFFFFFFFFFFFFFFFFFFFFFFFFFFFFFFFFFFFF4D450000FFFFFFFFFFFF00000000FFFF00000000FFFF0101000000000000000000000000000000000000000000000000000000
310
00000000000000000000000000000000000000000000000000000000000000000000000000FECA01000000FFFFFFFF010108000000FFFFFFFF7800000001ADB000417474726962757400652056425F4E616D0065203D2022546869007344726177696E6788220D0A0A88426173028800307B3845373544390031332D334432
310
312D00313144322D38354300342D303830303039804130433632367D0D7C00437265617461626C41018646616C73650CBC508072656465636C610006444964008A5472750D22452078706F7365141C5465006D706C6174654465187269760224116543757360746F6D697A0488033200000000000000000000000000000000
310
0000000000000000000000000000000000000000000000000000000000000000CC615E00000100FF0904000009040000E4040100000000000000000001000400020016012A005C0047007B00300030003000320030003400450046002D0030003000300030002D0030003000300030002D0043003000300030002D00300030
310
0030003000300030003000300030003000340036007D00230033002E00300023003900230043003A005C00500052004F004700520041004D002000460049004C00450053005C0043004F004D004D004F004E002000460049004C00450053005C004D004900430052004F0053004F0046005400200053004800410052004500
310
44005C005600420041005C005600420041003300330032002E0044004C004C002300560069007300750061006C00200042006100730069006300200046006F00720020004100700070006C00690063006100740069006F006E007300000000000000000000000000CE002A005C0047007B0043003000390034004300310045
310
0032002D0035003700430036002D0031003100440032002D0038003500450033002D003000380030003000300039004100300043003600320036007D00230031002E00310023003000230043003A005C00500072006F006700720061006D002000460069006C00650073005C004D00440054005C0041004300410044002E00
310
54004C00420023004100750074006F00430041004400200032003000300030002000540079007000650020004C00690062007200610072007900000000000000000000000000B8002A005C0047007B00300030003000320030003400330030002D0030003000300030002D0030003000300030002D0043003000300030002D
310
003000300030003000300030003000300030003000340036007D00230032002E00300023003000230043003A005C00570049004E0044004F00570053005C00530059005300540045004D005C005300540044004F004C00450032002E0054004C00420023004F004C00450020004100750074006F006D006100740069006F00
310
6E00000000000000000000000000E0002A005C0047007B00360035004200380034003200360030002D0034004100310038002D0031003100440031002D0038004400390037002D003400340034003500350033003500340030003000300030007D00230032002E00300023003000230043003A005C00570049004E0044004F
310
00570053005C00530059005300540045004D005C004D00530046006F0072006D0073002E0054005700440023004D006900630072006F0073006F0066007400200046006F0072006D007300200032002E00300020004F0062006A0065006300740020004C00690062007200610072007900000000000000000000000100E400
310
2A005C0047007B00380039003100360037004500300036002D0035003400320039002D0031003100440031002D0038004400390037002D003400340034003500350033003500340030003000300030007D00230032002E00300023003000230043003A005C00570049004E0044004F00570053005C00540045004D0050005C
310
005600420045005C004D00530046006F0072006D0073002E0045005800440023004D006900630072006F0073006F0066007400200046006F0072006D007300200032002E00300020004F0062006A0065006300740020004C006900620072006100720079000000000000000000000001000000E12E450D8FE01A10852E0260
310
8C4D0BB400000100020003000402000006020100080200001002FFFFFFFFFFFF00000000FFFF00008856C6386900FFFFFFFFFFFFFFFFFFFFFFFFFFFFFFFFFFFFFFFFFFFFFFFFFFFFFFFFFFFF0000FFFFFFFFFFFFFFFFFFFFFFFFFFFFFFFFFFFFFFFFFFFFFFFFFFFFFFFFFFFFFFFF0100000000000000000000000000000000
310
000000D76B010016005400680069007300440072006100770069006E0067000A003639333863363536383803002A44011302FFFFD56B00000000000000020000001F030000FFFFFFFFFFFF010120020000FFFFFFFFFFFFFFFFFFFFFFFFFFFFFFFFFFFFFFFFFFFFFFFFFFFFFFFFFFFFFFFFFFFFFFFFFFFFFFFFFFFFFFFFFFFF
310
FFFFFFFFFFFFFFFFFFFFFFFFFFFFFFFFFFFFFFFFFFFFFFFFFFFFFFFFFFFFFFFFFFFFFFFFFFFFFFFFFFFFFFFFFFFFFFFFFFFFFFFFFFFFFFFFFFFFFFFFFFFFFFFFFFFFFFFFFFFFFFFFFFFFFFFFFFFFFFFFFFFFFFFFFFFFFFFFFFFFFFFFFFFFFFFFFFFFFFFFFFFFFFFFFFFFFFFFFFFFFFFFFFFFFFFFFFFFFFFFFFFFFFFFFFFFFF
310
FFFFFFFFFFFFFFFFFFFFFFFFFFFFFFFFFFFFFFFFFFFFFFFFFFFFFFFFFFFFFFFFFFFFFFFFFFFFFFFFFFFFFFFFFFFFFFFFFFFFFFFFFFFFFFFFFFFFFFFFFFFFFFFFFFFFFFFFFFFFFFFFFFFFFFFFFFFFFFFFFFFFFFFFFFFFFFFFFFFFFFFFFFFFFFFFFFFFFFFFFFFFFFFFFFFFFFFFFFFFFFFFFFFFFFFFFFFFFFFFFFFFFFFFFFFFFF
310
FFFFFFFFFFFFFFFFFFFFFFFFFFFFFFFFFFFFFFFFFFFFFFFFFFFFFFFFFFFFFFFFFFFFFFFFFFFFFFFFFFFFFFFFFFFFFFFFFFFFFFFFFFFFFFFFFFFFFFFF00020000FFFFFFFFFFFFFFFFFFFFFFFFFFFFFFFFFFFFFFFFFFFFFFFFFFFFFFFFFFFFFFFFFFFFFFFFFFFFFFFFFFFFFFFFFFFFFFFFFFFFFFFFFFFFFFFFFFFFFFFFFFFFFF
310
FFFFFFFFFFFFFFFFFFFFFFFFFFFFFFFFFFFFFFFFFFFFFFFFFFFFFFFFFFFFFFFFFFFFFFFFFFFFFFFFFFFFFFFFFFFFFFFFFFFFFFFFFFFFFFFFFFFFFFFFFFFFFFFFFFFFFFFFFFFFFFFFFFFFFFFFFFFFFFFFFFFFFFFFFF783D5C69CAF4D3118DA400A0C981A35FFFFFFFFF01000000FFFFFFFF600000008000000000000B010C00
310
FF008825000007044175746F43414422F810000304564241F7E21000050457696E3136C17E1000050457696E3332077F100003044D6163B3B21000080450726F6A656374310A17100006047374646F6C659360100007004D53466F726D73430F10000B044143414450726F6A656374A6D410000B045468697344726177696E
310
67B935100009800000FF03FFFF5F4576616C7561746518D910000C0441636164446F63756D656E741B5A100002FFFF0101480000001002FFFFFFFF130200000100FFFFFFFFFFFFFFFFFFFFFFFF00020100FFFF02020000FFFFFFFFFFFFFFFFFFFFFFFFFFFFFFFFFFFFFFFFFFFFFFFFFFFF0C020200FFFF0E020300FFFF0100
310
0C0000000100120000000000000000000000000000000000000000000000000000000000000000000000000000000000000049443D227B36393543334437412D463443412D313144332D384441342D3030413043393831413335467D220D0A446F63756D656E743D5468697344726177696E672F264830303030303030300D
310
0A4E616D653D224143414450726F6A656374220D0A48656C70436F6E7465787449443D2230220D0A434D473D2234463444413031434530314330343230303432303034323030343230220D0A4450423D2236463644383037433830424341314244413142444131220D0A47433D223846384436303543413035434331354443
310
3135443345220D0A0D0A5B486F737420457874656E64657220496E666F5D0D0A264830303030303030313D7B33383332443634302D434639302D313143462D384534332D3030413043393131303035417D3B5642453B264830303030303030300D0A0000000000000000000000000000000000005468697344726177696E67
310
005400680069007300440072006100770069006E0067000000000000000000000000000000000000000000000000000000000000000F00000000000000000000000000000000000000000000000000000000000000000000000000000000000000000000000000000000000000000000000000000000000000000000000000
310
00000000000000000000000000000000000000000000000000000000000000000000000000000000000000000000000000000000000000000000000000000000000000000000000000000000000000000000000000000000000000000000000000000000000000000000000000000000000000000000000000000000000000
310
00000000000000000000000000000000000000000000000000000000000000000000000000000000000000000000000000000000000000000000000000000000000000000000000000000000000000000000000000000000000000000000000000000000000000000000000000000000000000000000000000000000000000
310
00000000000000000000000000000000000000000000000000000000000000000000000000000000000000000000000000000000000000005600420041005F00500072006F006A006500630074005F00560065007200730069006F006E00000000000000000000000000000000000000000000000000000028000200FFFFFF
310
FFFFFFFFFFFFFFFFFF0000000000000000000000000000000000000000000000000000000000000000000000004200000008000000000000000000000000000000000000000000000000000000000000000000000000000000000000000000000000000000000000000000000000000000000000000000000000000000FFFF
310
FFFFFFFFFFFFFFFFFFFF0000000000000000000000000000000000000000000000000000000000000000000000000000000000000000000000000000000000000000000000000000000000000000000000000000000000000000000000000000000000000000000000000000000000000000000000000000000000000000FF
310
FFFFFFFFFFFFFFFFFFFFFF0000000000000000000000000000000000000000000000000000000000000000000000000000000000000000000000000000000000000000000000000000000000000000000000000000000000000000000000000000000000000000000000000000000000000000000000000000000000000000
310
FFFFFFFFFFFFFFFFFFFFFFFF000000000000000000000000000000000000000000000000000000000000000000000000000000000000000000000000
  0
DICTIONARYVAR
  5
118DB
102
{ACAD_REACTORS
330
118DA
102
}
330
118DA
100
DictionaryVariables
280
     0
  1
96
  0
ENDSEC
  0
EOF
