  0
SECTION
  2
HEADER
  9
$ACADVER
  1
AC1015
  9
$ACADMAINTVER
 70
     6
  9
$DWGCODEPAGE
  3
ANSI_1252
  9
$INSBASE
 10
0.0
 20
0.0
 30
0.0
  9
$EXTMIN
 10
-32.74384810838983
 20
-65.13497307073652
 30
0.0
  9
$EXTMAX
 10
45.26666080769319
 20
-7.102765218528389
 30
0.0
  9
$LIMMIN
 10
0.0
 20
0.0
  9
$LIMMAX
 10
12.0
 20
9.0
  9
$ORTHOMODE
 70
     0
  9
$REGENMODE
 70
     1
  9
$FILLMODE
 70
     1
  9
$QTEXTMODE
 70
     0
  9
$MIRRTEXT
 70
     0
  9
$LTSCALE
 40
1.0
  9
$ATTMODE
 70
     2
  9
$TEXTSIZE
 40
1.0
  9
$TRACEWID
 40
0.05
  9
$TEXTSTYLE
  7
STANDARD
  9
$CLAYER
  8
LINEWORK
  9
$CELTYPE
  6
BYLAYER
  9
$CECOLOR
 62
     7
  9
$CELTSCALE
 40
1.0
  9
$DISPSILH
 70
     0
  9
$DIMSCALE
 40
1.199999999999999
  9
$DIMASZ
 40
0.5
  9
$DIMEXO
 40
1.0
  9
$DIMDLI
 40
0.0625
  9
$DIMRND
 40
0.0
  9
$DIMDLE
 40
0.0
  9
$DIMEXE
 40
0.25
  9
$DIMTP
 40
0.0
  9
$DIMTM
 40
0.0
  9
$DIMTXT
 40
1.0
  9
$DIMCEN
 40
0.0
  9
$DIMTSZ
 40
0.0
  9
$DIMTOL
 70
     0
  9
$DIMLIM
 70
     0
  9
$DIMTIH
 70
     1
  9
$DIMTOH
 70
     1
  9
$DIMSE1
 70
     0
  9
$DIMSE2
 70
     0
  9
$DIMTAD
 70
     0
  9
$DIMZIN
 70
     0
  9
$DIMBLK
  1

  9
$DIMASO
 70
     1
  9
$DIMSHO
 70
     1
  9
$DIMPOST
  1
"
  9
$DIMAPOST
  1

  9
$DIMALT
 70
     0
  9
$DIMALTD
 70
     0
  9
$DIMALTF
 40
25.4
  9
$DIMLFAC
 40
1.0
  9
$DIMTOFL
 70
     0
  9
$DIMTVP
 40
0.0
  9
$DIMTIX
 70
     0
  9
$DIMSOXD
 70
     0
  9
$DIMSAH
 70
     0
  9
$DIMBLK1
  1

  9
$DIMBLK2
  1

  9
$DIMSTYLE
  2
STANDARD
  9
$DIMCLRD
 70
     0
  9
$DIMCLRE
 70
     0
  9
$DIMCLRT
 70
     0
  9
$DIMTFAC
 40
0.125
  9
$DIMGAP
 40
0.5
  9
$DIMJUST
 70
     0
  9
$DIMSD1
 70
     0
  9
$DIMSD2
 70
     0
  9
$DIMTOLJ
 70
     1
  9
$DIMTZIN
 70
     0
  9
$DIMALTZ
 70
     2
  9
$DIMALTTZ
 70
     2
  9
$DIMUPT
 70
     1
  9
$DIMDEC
 70
     4
  9
$DIMTDEC
 70
     4
  9
$DIMALTU
 70
     2
  9
$DIMALTTD
 70
     0
  9
$DIMTXSTY
  7
STANDARD
  9
$DIMAUNIT
 70
     0
  9
$DIMADEC
 70
     0
  9
$DIMALTRND
 40
0.0
  9
$DIMAZIN
 70
     0
  9
$DIMDSEP
 70
    46
  9
$DIMATFIT
 70
     1
  9
$DIMFRAC
 70
     2
  9
$DIMLDRBLK
  1

  9
$DIMLUNIT
 70
     5
  9
$DIMLWD
 70
    -2
  9
$DIMLWE
 70
    -2
  9
$DIMTMOVE
 70
     1
  9
$LUNITS
 70
     5
  9
$LUPREC
 70
     4
  9
$SKETCHINC
 40
0.1
  9
$FILLETRAD
 40
0.03125
  9
$AUNITS
 70
     0
  9
$AUPREC
 70
     1
  9
$MENU
  1
acad
  9
$ELEVATION
 40
0.0
  9
$PELEVATION
 40
0.0
  9
$THICKNESS
 40
0.0
  9
$LIMCHECK
 70
     0
  9
$CHAMFERA
 40
0.75
  9
$CHAMFERB
 40
0.75
  9
$CHAMFERC
 40
0.0
  9
$CHAMFERD
 40
0.0
  9
$SKPOLY
 70
     0
  9
$TDCREATE
 40
2451085.664838310
  9
$TDUCREATE
 40
2451085.831504977
  9
$TDUPDATE
 40
2451661.335982523
  9
$TDUUPDATE
 40
2451661.502649189
  9
$TDINDWG
 40
2.8499395833
  9
$TDUSRTIMER
 40
2.8499395833
  9
$USRTIMER
 70
     1
  9
$ANGBASE
 50
0.0
  9
$ANGDIR
 70
     0
  9
$PDMODE
 70
     0
  9
$PDSIZE
 40
0.0
  9
$PLINEWID
 40
0.12
  9
$SPLFRAME
 70
     0
  9
$SPLINETYPE
 70
     6
  9
$SPLINESEGS
 70
     8
  9
$HANDSEED
  5
1265C
  9
$SURFTAB1
 70
     6
  9
$SURFTAB2
 70
     6
  9
$SURFTYPE
 70
     6
  9
$SURFU
 70
     6
  9
$SURFV
 70
     6
  9
$UCSBASE
  2

  9
$UCSNAME
  2

  9
$UCSORG
 10
0.0
 20
0.0
 30
0.0
  9
$UCSXDIR
 10
1.0
 20
0.0
 30
0.0
  9
$UCSYDIR
 10
0.0
 20
1.0
 30
0.0
  9
$UCSORTHOREF
  2

  9
$UCSORTHOVIEW
 70
     0
  9
$UCSORGTOP
 10
0.0
 20
0.0
 30
0.0
  9
$UCSORGBOTTOM
 10
0.0
 20
0.0
 30
0.0
  9
$UCSORGLEFT
 10
0.0
 20
0.0
 30
0.0
  9
$UCSORGRIGHT
 10
0.0
 20
0.0
 30
0.0
  9
$UCSORGFRONT
 10
0.0
 20
0.0
 30
0.0
  9
$UCSORGBACK
 10
0.0
 20
0.0
 30
0.0
  9
$PUCSBASE
  2

  9
$PUCSNAME
  2

  9
$PUCSORG
 10
0.0
 20
0.0
 30
0.0
  9
$PUCSXDIR
 10
1.0
 20
0.0
 30
0.0
  9
$PUCSYDIR
 10
0.0
 20
1.0
 30
0.0
  9
$PUCSORTHOREF
  2

  9
$PUCSORTHOVIEW
 70
     0
  9
$PUCSORGTOP
 10
0.0
 20
0.0
 30
0.0
  9
$PUCSORGBOTTOM
 10
0.0
 20
0.0
 30
0.0
  9
$PUCSORGLEFT
 10
0.0
 20
0.0
 30
0.0
  9
$PUCSORGRIGHT
 10
0.0
 20
0.0
 30
0.0
  9
$PUCSORGFRONT
 10
0.0
 20
0.0
 30
0.0
  9
$PUCSORGBACK
 10
0.0
 20
0.0
 30
0.0
  9
$USERI1
 70
     0
  9
$USERI2
 70
     0
  9
$USERI3
 70
     0
  9
$USERI4
 70
     0
  9
$USERI5
 70
     0
  9
$USERR1
 40
0.0
  9
$USERR2
 40
0.0
  9
$USERR3
 40
0.0
  9
$USERR4
 40
0.0
  9
$USERR5
 40
0.0
  9
$WORLDVIEW
 70
     1
  9
$SHADEDGE
 70
     1
  9
$SHADEDIF
 70
    70
  9
$TILEMODE
 70
     1
  9
$MAXACTVP
 70
    16
  9
$PINSBASE
 10
0.0
 20
0.0
 30
0.0
  9
$PLIMCHECK
 70
     0
  9
$PEXTMIN
 10
1.000000000000000E+20
 20
1.000000000000000E+20
 30
1.000000000000000E+20
  9
$PEXTMAX
 10
-1.000000000000000E+20
 20
-1.000000000000000E+20
 30
-1.000000000000000E+20
  9
$PLIMMIN
 10
0.0
 20
0.0
  9
$PLIMMAX
 10
12.0
 20
9.0
  9
$UNITMODE
 70
     0
  9
$VISRETAIN
 70
     0
  9
$PLINEGEN
 70
     0
  9
$PSLTSCALE
 70
     1
  9
$TREEDEPTH
 70
  3020
  9
$CMLSTYLE
  2
STANDARD
  9
$CMLJUST
 70
     0
  9
$CMLSCALE
 40
1.0
  9
$PROXYGRAPHICS
 70
     1
  9
$MEASUREMENT
 70
     0
  9
$CELWEIGHT
370
    -1
  9
$ENDCAPS
280
     0
  9
$JOINSTYLE
280
     0
  9
$LWDISPLAY
290
     0
  9
$INSUNITS
 70
     0
  9
$HYPERLINKBASE
  1

  9
$STYLESHEET
  1

  9
$XEDIT
290
     1
  9
$CEPSNTYPE
380
     0
  9
$PSTYLEMODE
290
     1
  9
$FINGERPRINTGUID
  2
{A6232B84-9B2E-11D3-8DA4-00A0C981A35F}
  9
$VERSIONGUID
  2
{970E6E5A-19B4-11D4-8DA4-00A0C981A35F}
  9
$EXTNAMES
290
     1
  9
$PSVPSCALE
 40
0.0
  9
$OLESTARTUP
290
     0
  0
ENDSEC
  0
SECTION
  2
CLASSES
  0
CLASS
  1
DICTIONARYVAR
  2
AcDbDictionaryVar
  3
AutoCAD 2000
 90
    32768
280
     0
281
     0
  0
CLASS
  1
LWPOLYLINE
  2
AcDbPolyline
  3
AutoCAD 2000
 90
    32768
280
     0
281
     1
  0
CLASS
  1
RASTERVARIABLES
  2
AcDbRasterVariables
  3
ISM
 90
    32768
280
     0
281
     0
  0
CLASS
  1
ACDBDICTIONARYWDFLT
  2
AcDbDictionaryWithDefault
  3
AutoCAD 2000
 90
        0
280
     0
281
     0
  0
CLASS
  1
ACDBPLACEHOLDER
  2
AcDbPlaceHolder
  3
AutoCAD 2000
 90
        0
280
     0
281
     0
  0
CLASS
  1
LAYOUT
  2
AcDbLayout
  3
AutoCAD 2000
 90
        0
280
     0
281
     0
  0
CLASS
  1
ACME_DOCUMENT
  2
AcMeDbDoc
  3
AcMeServices
 90
    32768
280
     1
281
     0
  0
CLASS
  1
ACMESCOPE
  2
AcMeScope
  3
AcMeServices
 90
    32768
280
     1
281
     0
  0
CLASS
  1
ACMECOMMANDHISTORY
  2
AcMeCommandHistory
  3
AcMeServices
 90
    32768
280
     1
281
     0
  0
CLASS
  1
ACIMSYSVARMAN
  2
AcImSysVarManager
  3
AcMeServices
 90
    32768
280
     1
281
     0
  0
CLASS
  1
ACIMREALSYSVAR
  2
AcImRealSysVar
  3
AcMeServices
 90
    32768
280
     1
281
     0
  0
CLASS
  1
ACIMINTSYSVAR
  2
AcImIntSysVar
  3
AcMeServices
 90
    32768
280
     1
281
     0
  0
CLASS
  1
ACMEDRAWINGMAN
  2
AcMeDrawingMan
  3
AcMeServices
 90
    32768
280
     1
281
     0
  0
CLASS
  1
ACMEVIEW
  2
AcMeView
  3
AcMeServices
 90
    32768
280
     1
281
     0
  0
CLASS
  1
ACDBENTITYCACHE
  2
AcMeEntityCache
  3
AcMeServices
 90
    32768
280
     1
281
     0
  0
CLASS
  1
GSMANAGER
  2
AcMeGSManager
  3
AcMeServices
 90
    32768
280
     1
281
     0
  0
CLASS
  1
AmdtInternalReactor
  2
AmdtInternalReactor
  3
AcMeServices
 90
    32768
280
     1
281
     0
  0
CLASS
  1
ACMESTATEMGR
  2
AcMeStateMgr
  3
AcMeServices
 90
    32768
280
     1
281
     0
  0
CLASS
  1
ACGREFMASTER
  2
AcGrefMaster
  3
AcAttribServices
 90
    32768
280
     1
281
     0
  0
CLASS
  1
AM_DRAWING_MGR
  2
AcDmDwgMgr
  3
AcMechDwgViewMgmt
 90
    32768
280
     1
281
     0
  0
CLASS
  1
AM_DWG_DOCUMENT
  2
AcDmDwgDocument
  3
AcMechDwgViewMgmt
 90
    32768
280
     1
281
     0
  0
CLASS
  1
AM_DWG_SHEET
  2
AcDmSheet
  3
AcMechDwgViewMgmt
 90
    32768
280
     1
281
     0
  0
CLASS
  1
AM_VIEWDIMPARMAP
  2
AcDmViewDimParMap
  3
AcMechDwgViewMgmt
 90
    32768
280
     1
281
     0
  0
CLASS
  1
AM_DWGMGR_NAME
  2
AcDmDwgMgrName
  3
AcMechDwgViewMgmt
 90
    32768
280
     1
281
     0
  0
CLASS
  1
ACME_DATABASE
  2
AcMeDbDatabase
  3
AcMeServices
 90
    32768
280
     1
281
     0
  0
CLASS
  1
ACRFINSADJUSTERMGR
  2
AcRfInsAdjusterMgr
  3
AcMeServices
 90
    32768
280
     1
281
     0
  0
CLASS
  1
ACGREFMASTER
  2
AcGrefacadMaster
  3
AcGrefServices
 90
    32768
280
     1
281
     0
  0
CLASS
  1
AMDTMENUSTATEMGR
  2
AmdtMenuStateMgr
  3
McadcomServices
 90
    32768
280
     1
281
     0
  0
CLASS
  1
AMDTMCOMMENUSTATE
  2
AmdtMcomMenuState
  3
McadcomServices
 90
    32768
280
     1
281
     0
  0
CLASS
  1
ASAPP
  2
AcAsAppObject
  3
AutoSurfServices
 90
    32768
280
     1
281
     0
  0
CLASS
  1
IM_STATIC_MAN
  2
AcImStaticVarManager
  3
AcMeServices
 90
    32768
280
     1
281
     0
  0
CLASS
  1
ACIMSTRSYSVAR
  2
AcImStrSysVar
  3
AcMeServices
 90
    32768
280
     1
281
     0
  0
CLASS
  1
ACIMDBLSTATICVAR
  2
AcImDblStaticVar
  3
AcMeServices
 90
    32768
280
     1
281
     0
  0
CLASS
  1
ACIMSTRSTATICVAR
  2
AcImStrStaticVar
  3
AcMeServices
 90
    32768
280
     1
281
     0
  0
CLASS
  1
ACIMINTSTATICVAR
  2
AcImIntStaticVar
  3
AcMeServices
 90
    32768
280
     1
281
     0
  0
CLASS
  1
ACADGREFMODULE
  2
AcAdGrefModule
  3
AdGrefServices
 90
    32768
280
     1
281
     0
  0
CLASS
  1
AMIMASTER
  2
AmiMaster
  3
AmiServices
 90
    32768
280
     1
281
     0
  0
CLASS
  1
ACASGREFMASTER
  2
AcAsGrefMaster
  3
AutoSurfResolverServices
 90
    32768
280
     1
281
     0
  0
CLASS
  1
MAPIAMMOUDLE
  2
MApiAmModule
  3
MApiAmServices
 90
    32768
280
     1
281
     0
  0
CLASS
  1
AMDTDMMENUSTATE
  2
AmdtDmMenuState
  3
AcMechDwgViewMgmt
 90
    32768
280
     1
281
     0
  0
CLASS
  1
AMDTADMENUSTATE
  2
AmdtAdMenuState
  3
DesignerServices
 90
    32768
280
     1
281
     0
  0
CLASS
  1
ADAPPL
  2
AcAdAppl
  3
DesignerServices
 90
    32768
280
     1
281
     0
  0
CLASS
  1
DEPMGR
  2
AcAdDepMgr
  3
DesignerServices
 90
    32768
280
     1
281
     0
  0
CLASS
  1
PARAMMGR
  2
AcAdParamMgr
  3
DesignerServices
 90
    32768
280
     1
281
     0
  0
CLASS
  1
PARAMSCOPE
  2
AcAdParamScope
  3
DesignerServices
 90
    32768
280
     1
281
     0
  0
CLASS
  1
NAMEDAPPL
  2
AcAdNamedAppl
  3
DesignerServices
 90
    32768
280
     1
281
     0
  0
CLASS
  1
ADHNTMPLT
  2
AdHoleNoteTemplateMgr
  3
DesignerServices
 90
    32768
280
     1
281
     0
  0
CLASS
  1
AM_HNTEMPLATE_MGR_NAME
  2
AdHoleNoteTemplateMgrName
  3
DesignerServices
 90
    32768
280
     1
281
     0
  0
CLASS
  1
AMDTAMMENUSTATE
  2
AmdtAmMenuState
  3
DesignerAssemblies
 90
    32768
280
     1
281
     0
  0
CLASS
  1
ACAMPROJECT
  2
AcAmProject
  3
DesignerAssemblies
 90
    32768
280
     1
281
     0
  0
CLASS
  1
ACAMGRCOMPDEF
  2
AcAmGrCompDef
  3
DesignerAssemblies
 90
    32768
280
     1
281
     0
  0
CLASS
  1
ACCMCONTEXT
  2
AcCmContext
  3
DesignerAssemblies
 90
    32768
280
     1
281
     0
  0
CLASS
  1
ACAMCOMPDEF
  2
AcAmCompDef
  3
DesignerAssemblies
 90
    32768
280
     1
281
     0
  0
CLASS
  1
ACAMCOMPDEFMGR
  2
AcAmCompDefMgr
  3
DesignerAssemblies
 90
    32768
280
     1
281
     0
  0
CLASS
  1
AMCONTEXTMGR
  2
AcAmContextMgr
  3
DesignerAssemblies
 90
    32768
280
     1
281
     0
  0
CLASS
  1
ACAMCONTEXTMODELER
  2
AcAmContextModeler
  3
DesignerAssemblies
 90
    32768
280
     1
281
     0
  0
CLASS
  1
MAPIADMODULE
  2
MApiAdModule
  3
MApiAdServices
 90
    32768
280
     1
281
     0
  0
CLASS
  1
ACMDATADICTIONARY
  2
AcmDataDictionary
  3
"AcmSymBB|Product Description: AutoCAD Mechanical 2000|Company: Autodesk"
 90
    32768
280
     1
281
     0
  0
CLASS
  1
ACMDATAENTRYBLOCK
  2
AcmDataEntryBlock
  3
"AcmSymBB|Product Description: AutoCAD Mechanical 2000|Company: Autodesk"
 90
    32768
280
     1
281
     0
  0
CLASS
  1
AMDTBROWSERDBTAB
  2
AmdtBrowserDbTab
  3
McadcomServices
 90
    32768
280
     1
281
     0
  0
CLASS
  1
CBROWSERAPPOBJECT
  2
CBrowserAppObject
  3
McadcomServices
 90
    32768
280
     1
281
     0
  0
CLASS
  1
DM_PLACEHOLDER
  2
AcDmSelsetPlaceholder
  3
AcMechDwgViewMgmt
 90
    32768
280
     1
281
     0
  0
CLASS
  1
CATALOGSTATE
  2
AcAmCatalogState
  3
DesignerAssemblies
 90
    32768
280
     1
281
     0
  0
CLASS
  1
ACAMGRCOMPDEFSET
  2
AcAmGrCompDefSet
  3
DesignerAssemblies
 90
    32768
280
     1
281
     0
  0
CLASS
  1
AMGOBJPROPCFG
  2
AmgObjPropCfg
  3
"AmgLay|Product Description: AutoCAD Mechanical 2000|Company: Autodesk"
 90
    32769
280
     1
281
     0
  0
CLASS
  1
LAYER_INDEX
  2
AcDbLayerIndex
  3
AutoCAD 2000
 90
    32768
280
     0
281
     0
  0
CLASS
  1
IDBUFFER
  2
AcDbIdBuffer
  3
AutoCAD 2000
 90
    32768
280
     0
281
     0
  0
CLASS
  1
ACRFATTGENMGR
  2
AcRfAttGeneralMgr
  3
AcAttribServices
 90
    32768
280
     1
281
     0
  0
CLASS
  1
PLOTSETTINGS
  2
AcDbPlotSettings
  3
AutoCAD 2000
 90
    32768
280
     0
281
     0
  0
CLASS
  1
LONG_TRANSACTION
  2
AcDbLongTransaction
  3
AutoCAD 2000
 90
    32768
280
     0
281
     0
  0
CLASS
  1
LWPOLYLINE
  2
AcDbPolyline
  3
AutoCAD 2000
 90
    32768
280
     0
281
     1
  0
CLASS
  1
HATCH
  2
AcDbHatch
  3
AutoCAD 2000
 90
    32768
280
     0
281
     1
  0
CLASS
  1
XRECORD
  2
AcDbXrecord
  3
AutoCAD 2000
 90
    32768
280
     0
281
     0
  0
CLASS
  1
LONG_TRANSACTION
  2
AcDbLongTransaction
  3
AutoCAD 2000
 90
    32768
280
     0
281
     0
  0
CLASS
  1
LWPOLYLINE
  2
AcDbPolyline
  3
AutoCAD 2000
 90
    32768
280
     0
281
     1
  0
CLASS
  1
HATCH
  2
AcDbHatch
  3
AutoCAD 2000
 90
    32768
280
     0
281
     1
  0
CLASS
  1
XRECORD
  2
AcDbXrecord
  3
AutoCAD 2000
 90
    32768
280
     0
281
     0
  0
CLASS
  1
LONG_TRANSACTION
  2
AcDbLongTransaction
  3
AutoCAD 2000
 90
    32768
280
     0
281
     0
  0
CLASS
  1
LWPOLYLINE
  2
AcDbPolyline
  3
AutoCAD 2000
 90
    32768
280
     0
281
     1
  0
CLASS
  1
HATCH
  2
AcDbHatch
  3
AutoCAD 2000
 90
    32768
280
     0
281
     1
  0
CLASS
  1
XRECORD
  2
AcDbXrecord
  3
AutoCAD 2000
 90
    32768
280
     0
281
     0
  0
ENDSEC
  0
SECTION
  2
TABLES
  0
TABLE
  2
VPORT
  5
1B
330
0
100
AcDbSymbolTable
 70
     2
  0
VPORT
  5
1265B
330
1B
100
AcDbSymbolTableRecord
100
AcDbViewportTableRecord
  2
*Active
 70
     0
 10
0.0
 20
0.0
 11
1.0
 21
1.0
 12
71.76098289879547
 22
-68.40857193278299
 13
0.0
 23
0.0
 14
1.0
 24
1.0
 15
0.0
 25
0.0
 16
0.0
 26
0.0
 36
1.0
 17
-64.46234487877643
 27
33.0238264231553
 37
6.148717398612387
 40
59.92074158305705
 41
1.413068844807467
 42
50.0
 43
-6.148717398612387
 44
-6.148717398612387
 50
0.0
 51
0.0
 71
     0
 72
 20000
 73
     1
 74
     1
 75
     0
 76
     0
 77
     0
 78
     2
281
     0
 65
     1
110
0.0
120
0.0
130
0.0
111
1.0
121
0.0
131
0.0
112
0.0
122
1.0
132
0.0
 79
     0
146
0.0
  0
ENDTAB
  0
TABLE
  2
LTYPE
  5
16
330
0
100
AcDbSymbolTable
 70
     1
  0
LTYPE
  5
17
330
16
100
AcDbSymbolTableRecord
100
AcDbLinetypeTableRecord
  2
BYBLOCK
 70
     0
  3

 72
    65
 73
     0
 40
0.0
  0
LTYPE
  5
18
330
16
100
AcDbSymbolTableRecord
100
AcDbLinetypeTableRecord
  2
BYLAYER
 70
     0
  3

 72
    65
 73
     0
 40
0.0
  0
LTYPE
  5
9
330
16
100
AcDbSymbolTableRecord
100
AcDbLinetypeTableRecord
  2
CONTINUOUS
 70
     0
  3
Solid line
 72
    65
 73
     0
 40
0.0
  0
ENDTAB
  0
TABLE
  2
LAYER
  5
11
330
0
100
AcDbSymbolTable
 70
     5
  0
LAYER
  5
5
330
11
100
AcDbSymbolTableRecord
100
AcDbLayerTableRecord
  2
0
 70
     0
 62
     7
  6
CONTINUOUS
370
    -3
390
6
  0
LAYER
  5
24
330
11
100
AcDbSymbolTableRecord
100
AcDbLayerTableRecord
  2
A1
 70
     0
 62
     7
  6
CONTINUOUS
370
    -3
390
6
  0
LAYER
  5
51
330
11
100
AcDbSymbolTableRecord
100
AcDbLayerTableRecord
  2
LINEWORK
 70
     0
 62
     7
  6
CONTINUOUS
370
    -3
390
6
  0
LAYER
  5
A6
330
11
100
AcDbSymbolTableRecord
100
AcDbLayerTableRecord
  2
Defpoints
 70
     0
 62
     7
  6
CONTINUOUS
290
     0
370
    -3
390
6
  0
LAYER
  5
D0AD
330
11
100
AcDbSymbolTableRecord
100
AcDbLayerTableRecord
  2
ASHADE
 70
     4
 62
     7
  6
CONTINUOUS
370
    -3
390
6
  0
ENDTAB
  0
TABLE
  2
STYLE
  5
12
330
0
100
AcDbSymbolTable
 70
     3
  0
STYLE
  5
13
330
12
100
AcDbSymbolTableRecord
100
AcDbTextStyleTableRecord
  2
STANDARD
 70
     0
 40
0.0
 41
1.0
 50
0.0
 71
     0
 42
1.0
  3
unvr55w.ttf
  4

1001
ACAD
1000
Univers
1071
       34
  0
STYLE
  5
52
330
12
100
AcDbSymbolTableRecord
100
AcDbTextStyleTableRecord
  2
ROMANC
 70
     0
 40
0.0
 41
1.0
 50
0.0
 71
     0
 42
0.5
  3
TIMESBD.TTF
  4

1001
ACAD
1000
Times New Roman
1071
 33554450
  0
STYLE
  5
53
330
12
100
AcDbSymbolTableRecord
100
AcDbTextStyleTableRecord
  2
barcoder
 70
     0
 40
0.0
 41
1.0
 50
0.0
 71
     0
 42
4.5625
  3
cw_barcd.ttf
  4

1001
ACAD
1000
Barcoder
1071
 33554434
  0
ENDTAB
  0
TABLE
  2
VIEW
  5
19
330
0
100
AcDbSymbolTable
 70
     0
  0
ENDTAB
  0
TABLE
  2
UCS
  5
1A
330
0
100
AcDbSymbolTable
 70
     0
  0
ENDTAB
  0
TABLE
  2
APPID
  5
1D
330
0
100
AcDbSymbolTable
 70
     8
  0
APPID
  5
14
330
1D
100
AcDbSymbolTableRecord
100
AcDbRegAppTableRecord
  2
ACAD
 70
     0
  0
APPID
  5
54
330
1D
100
AcDbSymbolTableRecord
100
AcDbRegAppTableRecord
  2
DCO15
 70
     0
  0
APPID
  5
D0B4
330
1D
100
AcDbSymbolTableRecord
100
AcDbRegAppTableRecord
  2
AVE_RENDER
 70
     0
  0
APPID
  5
D0B5
330
1D
100
AcDbSymbolTableRecord
100
AcDbRegAppTableRecord
  2
AVE_ENTITY_MATERIAL
 70
     0
  0
APPID
  5
D0B6
330
1D
100
AcDbSymbolTableRecord
100
AcDbRegAppTableRecord
  2
AVE_FINISH
 70
     0
  0
APPID
  5
D0B7
330
1D
100
AcDbSymbolTableRecord
100
AcDbRegAppTableRecord
  2
AVE_MATERIAL
 70
     0
  0
APPID
  5
D0B8
330
1D
100
AcDbSymbolTableRecord
100
AcDbRegAppTableRecord
  2
AVE_GLOBAL
 70
     0
  0
APPID
  5
1252D
330
1D
100
AcDbSymbolTableRecord
100
AcDbRegAppTableRecord
  2
CONTENTBLOCKICON
 70
     0
  0
ENDTAB
  0
TABLE
  2
DIMSTYLE
  5
1E
330
0
100
AcDbSymbolTable
 70
     1
100
AcDbDimStyleTable
 71
     0
  0
DIMSTYLE
105
1F
102
{ACAD_REACTORS
330
12414
330
12430
330
124E2
102
}
330
1E
100
AcDbSymbolTableRecord
100
AcDbDimStyleTableRecord
  2
STANDARD
 70
     0
  3
"
 41
0.5
 42
1.0
 43
0.0625
 44
0.25
 73
     0
 74
     0
 77
     3
140
1.0
141
0.0
146
0.125
147
0.125
171
     0
274
     0
276
     2
277
     5
285
     2
286
     2
289
     0
340
13
  0
ENDTAB
  0
TABLE
  2
BLOCK_RECORD
  5
1
330
0
100
AcDbSymbolTable
 70
    13
  0
BLOCK_RECORD
  5
2
102
{ACAD_XDICTIONARY
360
3
102
}
330
1
100
AcDbSymbolTableRecord
100
AcDbBlockTableRecord
  2
*MODEL_SPACE
340
B
  0
BLOCK_RECORD
  5
D
102
{ACAD_XDICTIONARY
360
12529
102
}
330
1
100
AcDbSymbolTableRecord
100
AcDbBlockTableRecord
  2
*PAPER_SPACE
340
10
  0
BLOCK_RECORD
  5
4E
330
1
100
AcDbSymbolTableRecord
100
AcDbBlockTableRecord
  2
SCF
340
0
  0
BLOCK_RECORD
  5
CF36
330
1
100
AcDbSymbolTableRecord
100
AcDbBlockTableRecord
  2
PROFILE LOGO
340
0
102
{BLKREFS
331
124A9
102
}
  0
BLOCK_RECORD
  5
D0A5
330
1
100
AcDbSymbolTableRecord
100
AcDbBlockTableRecord
  2
AVE_RENDER
340
0
102
{BLKREFS
331
D0CF
331
D0D0
331
D0D1
331
D0D2
331
D0D3
331
D0D4
331
D0D5
331
D0D6
331
D154
331
D155
331
D156
331
D157
331
D158
331
D159
331
D15A
331
D15B
331
12374
331
12375
331
12376
331
12377
331
12378
331
12379
331
1237A
331
1237B
331
1237D
331
1237E
331
1237F
331
12380
331
12381
331
12382
331
12383
331
12384
102
}
  0
BLOCK_RECORD
  5
D0A8
330
1
100
AcDbSymbolTableRecord
100
AcDbBlockTableRecord
  2
AVE_GLOBAL
340
0
102
{BLKREFS
331
D0D7
331
D15C
331
1237C
331
12385
102
}
  0
BLOCK_RECORD
  5
118B3
330
1
100
AcDbSymbolTableRecord
100
AcDbBlockTableRecord
  2
LINK FLAG
340
0
102
{BLKREFS
331
11938
102
}
  0
BLOCK_RECORD
  5
11D11
330
1
100
AcDbSymbolTableRecord
100
AcDbBlockTableRecord
  2
TSFORMB
340
0
102
{BLKREFS
331
11D55
102
}
  0
BLOCK_RECORD
  5
12415
330
1
100
AcDbSymbolTableRecord
100
AcDbBlockTableRecord
  2
*D10
340
0
  0
BLOCK_RECORD
  5
12431
330
1
100
AcDbSymbolTableRecord
100
AcDbBlockTableRecord
  2
*D11
340
0
  0
BLOCK_RECORD
  5
124E3
330
1
100
AcDbSymbolTableRecord
100
AcDbBlockTableRecord
  2
*D12
340
0
  0
ENDTAB
  0
ENDSEC
  0
SECTION
  2
BLOCKS
  0
BLOCK
  5
4
330
2
100
AcDbEntity
  8
0
100
AcDbBlockBegin
  2
*MODEL_SPACE
 70
     2
 10
0.0
 20
0.0
 30
0.0
  3
*MODEL_SPACE
  1

  0
ENDBLK
  5
A
330
2
100
AcDbEntity
  8
0
100
AcDbBlockEnd
  0
BLOCK
  5
E
330
D
100
AcDbEntity
 67
     1
  8
0
100
AcDbBlockBegin
  2
*PAPER_SPACE
 70
     0
 10
0.0
 20
0.0
 30
0.0
  3
*PAPER_SPACE
  1

  0
ENDBLK
  5
F
330
D
100
AcDbEntity
 67
     1
  8
0
100
AcDbBlockEnd
  0
BLOCK
  5
4F
330
4E
100
AcDbEntity
  8
0
 62
     7
100
AcDbBlockBegin
  2
SCF
 70
     0
 10
0.0
 20
0.0
 30
0.0
  3
SCF
  1

  0
ENDBLK
  5
50
330
4E
100
AcDbEntity
  8
0
 62
     7
100
AcDbBlockEnd
  0
BLOCK
  5
CF4F
330
CF36
100
AcDbEntity
  8
0
 62
     7
100
AcDbBlockBegin
  2
PROFILE LOGO
 70
     2
 10
0.0
 20
0.0
 30
0.0
  3
PROFILE LOGO
  1

  0
LINE
  5
CF37
330
CF36
100
AcDbEntity
  8
0
 62
    22
100
AcDbLine
 10
0.7459516636765642
 20
-0.415894330395318
 30
0.0
 11
0.74595166367655
 21
-1.12746688439163
 31
0.0
  0
LINE
  5
CF38
330
CF36
100
AcDbEntity
  8
0
 62
    22
100
AcDbLine
 10
0.5841942848079072
 20
-0.415894330395318
 30
0.0
 11
0.5841942848079072
 21
-1.12746688439163
 31
0.0
  0
HATCH
  5
CF39
330
CF36
100
AcDbEntity
  8
0
 62
    22
100
AcDbHatch
 10
0.0
 20
0.0
 30
0.0
210
0.0
220
0.0
230
1.0
  2
LINE
 70
     0
 71
     0
 91
        1
 92
       33
 93
       38
 72
     1
 10
1.115683196411978
 20
-0.1706330859717084
 11
0.2177636962628071
 21
-0.1706330859717084
 72
     1
 10
0.2177636962628213
 20
-0.1706330859717084
 11
0.2078601968792952
 21
-0.4246889457533243
 72
     1
 10
0.2078601968792952
 20
-0.4246889457533243
 11
0.2375709173007294
 21
-0.4246889457533243
 72
     1
 10
0.2375709173007294
 20
-0.4246889457533243
 11
0.2441732502230991
 21
-0.3817964654080939
 72
     1
 10
0.2441732502230991
 20
-0.3817964654080939
 11
0.254076749606611
 21
-0.3422032805409501
 72
     1
 10
0.2540767496066252
 20
-0.3422032805409501
 11
0.2738837483736916
 21
-0.3092090964125091
 72
     1
 10
0.2738837483736916
 20
-0.3092090964125091
 11
0.2969919136019428
 21
-0.2861130719066693
 72
     1
 10
0.296991913601957
 20
-0.2861130719066764
 11
0.3267026340234338
 21
-0.2663164794731259
 72
     1
 10
0.3267026340234196
 20
-0.2663164794731259
 11
0.356413132174012
 21
-0.2498193191118219
 72
     1
 10
0.356413132174012
 20
-0.2498193191118148
 11
0.3828224638634481
 21
-0.243220591561446
 72
     1
 10
0.3828224638634623
 20
-0.243220591561446
 11
0.4092320178237401
 21
-0.243220591561446
 72
     1
 10
0.4092320178237401
 20
-0.243220591561446
 11
0.4719541805861525
 21
-0.2465198870395469
 72
     1
 10
0.4719541805861525
 20
-0.2465198870395469
 11
0.514869566852326
 21
-0.2729153436176332
 72
     1
 10
0.514869566852326
 20
-0.2729153436176332
 11
0.5742905631535394
 21
-0.3389038484686964
 72
     1
 10
0.5742905631535394
 20
-0.3389038484687106
 11
0.5907966177302626
 21
-0.3916947616248691
 72
     1
 10
0.5907966177302768
 20
-0.3916947616248691
 11
0.5907966177302768
 21
-1.157161773041991
 72
     1
 10
0.5907966177302768
 20
-1.157161773041984
 11
0.5643870637699991
 21
-1.203353685459461
 72
     1
 10
0.5643870637699849
 20
-1.203353685459468
 11
0.4983637345463876
 21
-1.226449709965308
 72
     1
 10
0.4983637345464019
 20
-1.226449709965301
 11
0.4389425159743326
 21
-1.226449709965301
 72
     1
 10
0.4389425159743326
 20
-1.226449709965301
 11
0.4323401830519913
 21
-1.249545734471119
 72
     1
 10
0.4323401830520055
 20
-1.249545734471134
 11
0.8945045989712809
 21
-1.249545734471134
 72
     1
 10
0.8945045989712667
 20
-1.249545734471134
 11
0.8945045989712667
 21
-1.226449709965315
 72
     1
 10
0.8945045989712667
 20
-1.226449709965301
 11
0.8152763816321311
 21
-1.226449709965301
 72
     1
 10
0.8152763816321311
 20
-1.226449709965301
 11
0.7525539965988913
 21
-1.186856661692324
 72
     1
 10
0.7525539965988913
 20
-1.186856661692324
 11
0.7426504972153794
 21
-1.140664612680659
 72
     1
 10
0.7426504972153652
 20
-1.140664612680673
 11
0.7393493307541803
 21
-0.394994193697137
 72
     1
 10
0.7393493307541803
 20
-0.394994193697137
 11
0.7558551630600619
 21
-0.3389038484687106
 72
     1
 10
0.7558551630600761
 20
-0.3389038484687106
 11
0.7987705493262496
 21
-0.2828136398344298
 72
     1
 10
0.7987705493262496
 20
-0.2828136398344227
 11
0.8614929343594894
 21
-0.2498193191118148
 72
     1
 10
0.8614929343594894
 20
-0.2498193191118148
 11
0.9374197629665985
 21
-0.2399211594891923
 72
     1
 10
0.9374197629665985
 20
-0.2399211594891923
 11
1.010045647383407
 21
-0.2663164794731117
 72
     1
 10
1.010045647383407
 20
-0.2663164794731259
 11
1.056262200110722
 21
-0.3092090964125234
 72
     1
 10
1.056262200110722
 20
-0.3092090964125091
 11
1.085972698261343
 21
-0.361999872974522
 72
     1
 10
1.085972698261358
 20
-0.3619998729745291
 11
1.092575031183727
 21
-0.4246889457533243
 72
     1
 10
1.092575031183727
 20
-0.4246889457533243
 11
1.115683196411993
 21
-0.4246889457533243
 72
     1
 10
1.115683196411978
 20
-0.4246889457533243
 11
1.109080863489609
 21
-0.17723195011623
 72
     1
 10
1.109080863489609
 20
-0.17723195011623
 11
1.109080863489609
 21
-0.1739325180439621
 72
     1
 10
1.109080863489609
 20
-0.1739325180439621
 11
1.105779697028424
 21
-0.1739325180439621
 97
        0
 75
     0
 76
     1
 52
0.0
 41
0.078125
 77
     0
 78
     1
 53
0.0
 43
-28.182772630023
 44
-32.9923404580304
 45
0.0
 46
0.009765625
 79
     0
 98
        1
 10
-28.182772630023
 20
-32.9923404580304
  0
LWPOLYLINE
  5
CF3A
330
CF36
100
AcDbEntity
  8
0
 62
    22
100
AcDbPolyline
 90
        4
 70
     1
 43
0.0
 10
0.0262955969727301
 20
-0.0287577800528069
 10
1.307151517972869
 20
-0.0287577800528069
 10
1.307151517972869
 20
-1.731261997456265
 10
0.0262955969727301
 20
-1.731261997456265
  0
LINE
  5
CF3B
330
CF36
100
AcDbEntity
  8
0
 62
    22
100
AcDbLine
 10
0.0262955969727443
 20
-1.4112176328236
 30
0.0
 11
1.307151517972869
 21
-1.4112176328236
 31
0.0
  0
ATTDEF
  5
CF3C
330
CF36
100
AcDbEntity
  8
A1
 62
    22
100
AcDbText
 10
0.6781304052809105
 20
-1.678298248906529
 30
0.0
 40
0.2126953125
  1

 72
     1
 11
0.6781304052809105
 21
-1.678298248906529
 31
0.0
100
AcDbAttributeDefinition
  3
ADD STONE MARKER
  2
XXXX
 70
     0
  0
LINE
  5
CF3D
330
CF36
100
AcDbEntity
  8
0
 62
    22
100
AcDbLine
 10
0.7464576960363587
 20
-1.129021462591367
 30
0.0
 11
0.74595166367655
 21
-1.12746688439163
 31
0.0
  0
ARC
  5
CF3E
330
CF36
100
AcDbEntity
  8
0
 62
    22
100
AcDbCircle
 10
0.8421255873066684
 20
-1.127299146756172
 30
0.0
 40
0.0956833935014068
100
AcDbArc
 50
181.0313885659746
 51
269.7936990713142
  0
LINE
  5
CF3F
330
CF36
100
AcDbEntity
  8
0
 62
    22
100
AcDbLine
 10
0.9011069318936506
 20
-1.22315027789304
 30
0.0
 11
0.841781067510368
 21
-1.22315027789304
 31
0.0
  0
LINE
  5
CF40
330
CF36
100
AcDbEntity
  8
0
 62
    22
100
AcDbLine
 10
0.9011069318936506
 20
-1.256144598615648
 30
0.0
 11
0.9011069318936506
 21
-1.22315027789304
 31
0.0
  0
ARC
  5
CF41
330
CF36
100
AcDbEntity
  8
0
 62
    22
100
AcDbCircle
 10
0.4880203611777887
 20
-1.127299146756172
 30
0.0
 40
0.0956833935014068
100
AcDbArc
 50
270.2063009286848
 51
358.9686114340253
  0
LINE
  5
CF42
330
CF36
100
AcDbEntity
  8
0
 62
    22
100
AcDbLine
 10
0.4290390165908207
 20
-1.256144598615648
 30
0.0
 11
0.4290390165908207
 21
-1.22315027789304
 31
0.0
  0
LINE
  5
CF43
330
CF36
100
AcDbEntity
  8
0
 62
    22
100
AcDbLine
 10
0.4290390165908207
 20
-1.22315027789304
 30
0.0
 11
0.4883648809740891
 21
-1.22315027789304
 31
0.0
  0
LINE
  5
CF44
330
CF36
100
AcDbEntity
  8
0
 62
    22
100
AcDbLine
 10
0.5836882524480984
 20
-1.129021462591367
 30
0.0
 11
0.5841942848079072
 21
-1.12746688439163
 31
0.0
  0
LINE
  5
CF45
330
CF36
100
AcDbEntity
  8
0
 62
    22
100
AcDbLine
 10
0.4290390165908207
 20
-1.256144598615648
 30
0.0
 11
0.9011069318936506
 21
-1.256144598615648
 31
0.0
  0
LINE
  5
CF46
330
CF36
100
AcDbEntity
  8
0
 62
    22
100
AcDbLine
 10
1.085512597630156
 20
-0.415894330395318
 30
0.0
 11
1.085512597630156
 21
-0.4280723832374847
 31
0.0
  0
ARC
  5
CF47
330
CF36
100
AcDbEntity
  8
0
 62
    22
100
AcDbCircle
 10
0.9138550451562537
 20
-0.4147906495365632
 30
0.0
 40
0.1716611005230106
100
AcDbArc
 50
359.6316189828552
 51
90.00081606717127
  0
ARC
  5
CF48
330
CF36
100
AcDbEntity
  8
0
 62
    22
100
AcDbCircle
 10
0.9180888683309831
 20
-0.4147906495365632
 30
0.0
 40
0.1716611005230106
100
AcDbArc
 50
89.99918393282873
 51
180.3683810171443
  0
LINE
  5
CF49
330
CF36
100
AcDbEntity
  8
0
 62
    22
100
AcDbLine
 10
0.2078601968792952
 20
-0.427988377825578
 30
0.0
 11
0.2441732502230991
 21
-0.427988377825578
 31
0.0
  0
LINE
  5
CF4A
330
CF36
100
AcDbEntity
  8
0
 62
    22
100
AcDbLine
 10
0.2446333508543006
 20
-0.415894330395318
 30
0.0
 11
0.2446333508543006
 21
-0.4280723832374847
 31
0.0
  0
ARC
  5
CF4B
330
CF36
100
AcDbEntity
  8
0
 62
    22
100
AcDbCircle
 10
0.4162909033282176
 20
-0.4147906495365632
 30
0.0
 40
0.1716611005230106
100
AcDbArc
 50
89.99918393282873
 51
180.3683810171443
  0
LINE
  5
CF4C
330
CF36
100
AcDbEntity
  8
0
 62
    22
100
AcDbLine
 10
0.2144627520724782
 20
-0.1706330859717156
 30
0.0
 11
0.2078601968792952
 21
-0.427988377825578
 31
0.0
  0
ARC
  5
CF4D
330
CF36
100
AcDbEntity
  8
0
 62
    22
100
AcDbCircle
 10
0.4120570801534882
 20
-0.4147906495365632
 30
0.0
 40
0.1716611005230106
100
AcDbArc
 50
359.6316189828552
 51
90.00081606717127
  0
LWPOLYLINE
  5
CF4E
330
CF36
100
AcDbEntity
  8
0
 62
    22
100
AcDbPolyline
 90
        4
 70
     0
 43
0.0
 10
0.224366029185191
 20
-0.1706330859717084
 10
1.115683196411978
 20
-0.1706330859717084
 10
1.122285751605161
 20
-0.427988377825578
 10
1.085972698261358
 20
-0.427988377825578
  0
ENDBLK
  5
CF50
330
CF36
100
AcDbEntity
  8
0
 62
     7
100
AcDbBlockEnd
  0
BLOCK
  5
D0A6
330
D0A5
100
AcDbEntity
  8
ASHADE
100
AcDbBlockBegin
  2
AVE_RENDER
 70
     0
 10
0.0
 20
0.0
 30
0.0
  3
AVE_RENDER
  1
AVE_RENDER
  0
ENDBLK
  5
D0A7
330
D0A5
100
AcDbEntity
  8
0
100
AcDbBlockEnd
  0
BLOCK
  5
D0A9
330
D0A8
100
AcDbEntity
  8
ASHADE
100
AcDbBlockBegin
  2
AVE_GLOBAL
 70
     0
 10
0.0
 20
0.0
 30
0.0
  3
AVE_GLOBAL
  1
AVE_GLOBAL
  0
ENDBLK
  5
D0AA
330
D0A8
100
AcDbEntity
  8
0
100
AcDbBlockEnd
  0
BLOCK
  5
118BB
330
118B3
100
AcDbEntity
  8
0
 62
     7
100
AcDbBlockBegin
  2
LINK FLAG
 70
     2
 10
0.0
 20
0.0
 30
0.0
  3
LINK FLAG
  1

  0
SOLID
  5
118B4
330
118B3
100
AcDbEntity
  8
A1
 62
     1
100
AcDbTrace
 10
0.408488260029003
 20
0.3001362788183428
 30
0.0
 11
0.2890663177079773
 21
0.4163953751078396
 31
0.0
 12
0.0
 22
0.0
 32
0.0
 13
0.0
 23
0.0
 33
0.0
  0
LINE
  5
118B5
330
118B3
100
AcDbEntity
  8
A1
 62
     1
100
AcDbLine
 10
0.3487772888684901
 20
0.3582658269630912
 30
0.0
 11
4.449644902191081
 21
4.57069815453687
 31
0.0
  0
ATTDEF
  5
118B6
330
118B3
100
AcDbEntity
  8
A1
 62
     1
100
AcDbText
 10
10.75853330829194
 20
4.953467229082193
 30
0.0
 40
1.0
  1

100
AcDbAttributeDefinition
  3
ADD LINK NUMBER (WMF)
  2
XXXXXX
 70
     0
  0
MTEXT
  5
118B7
330
118B3
100
AcDbEntity
  8
0
 62
     1
100
AcDbMText
 10
10.79736583926697
 20
4.206192006567398
 30
0.0
 40
1.0
 41
0.0
 71
     1
 72
     1
  1
TannerStone
 73
     1
 44
1.0
1001
ACAD
1000
MTEXTBEGIN
1070
    73
1070
     1
1070
    44
1040
1.0
1070
    74
1070
     0
1000
MTEXTEND
1000
MTEXTBEGIN
1070
    73
1070
     1
1070
    44
1040
1.0
1070
    74
1070
     0
1000
MTEXTEND
1000
MTEXTBEGIN
1070
    73
1070
     1
1070
    44
1040
1.0
1070
    74
1070
     0
1000
MTEXTEND
  0
MTEXT
  5
118B8
330
118B3
100
AcDbEntity
  8
0
 62
     1
100
AcDbMText
 10
10.87510824661537
 20
2.68903194023958
 30
0.0
 40
0.7386749999999999
 41
0.0
 71
     1
 72
     1
  1
1-800-789-4841
 73
     1
 44
1.0
1001
ACAD
1000
MTEXTBEGIN
1070
    73
1070
     1
1070
    44
1040
1.0
1070
    74
1070
     0
1000
MTEXTEND
1000
MTEXTBEGIN
1070
    73
1070
     1
1070
    44
1040
1.0
1070
    74
1070
     0
1000
MTEXTEND
1000
MTEXTBEGIN
1070
    73
1070
     1
1070
    44
1040
1.0
1070
    74
1070
     0
1000
MTEXTEND
  0
LINE
  5
118B9
330
118B3
100
AcDbEntity
  8
0
 62
     1
100
AcDbLine
 10
4.449644902191081
 20
4.57069815453687
 30
0.0
 11
19.37910172053511
 21
4.57069815453687
 31
0.0
  0
LINE
  5
118BA
330
118B3
100
AcDbEntity
  8
0
 62
     1
100
AcDbLine
 10
10.27170295921419
 20
1.582920602761227
 30
0.0
 11
10.27170295921419
 21
6.137374365587334
 31
0.0
  0
ENDBLK
  5
118BC
330
118B3
100
AcDbEntity
  8
0
 62
     7
100
AcDbBlockEnd
  0
BLOCK
  5
11D42
330
11D11
100
AcDbEntity
  8
0
 62
     7
100
AcDbBlockBegin
  2
TSFORMB
 70
     2
 10
0.0
 20
0.0
 30
0.0
  3
TSFORMB
  1

  0
LINE
  5
11D12
330
11D11
100
AcDbEntity
  8
0
100
AcDbLine
 10
25.97049976153047
 20
12.46470592426126
 30
0.0
 11
105.9925392881562
 21
12.46470592426126
 31
0.0
  0
ATTDEF
  5
11D13
330
11D11
100
AcDbEntity
  8
A1
 62
     1
100
AcDbText
 10
101.1418062311347
 20
7.219538615513812
 30
0.0
 40
0.9450000000000002
  1

 72
     1
 11
101.1418062311347
 21
7.219538615513812
 31
0.0
100
AcDbAttributeDefinition
  3
ADD #/LF
  2
XXXXX
 70
     0
  0
ATTDEF
  5
11D14
330
11D11
100
AcDbEntity
  8
A1
 62
     1
100
AcDbText
 10
101.1759733039033
 20
10.0790044152711
 30
0.0
 40
0.9450000000000002
  1

 72
     1
 11
101.1759733039033
 21
10.0790044152711
 31
0.0
100
AcDbAttributeDefinition
  3
ADD PROFILE AREA
  2
XXXXX
 70
     0
  0
TEXT
  5
11D15
330
11D11
100
AcDbEntity
  8
0
 62
     7
100
AcDbText
 10
96.70022651293081
 20
11.66518473255652
 30
0.0
 40
0.5414062500000001
  1
PROFILE AREA:
100
AcDbText
  0
TEXT
  5
11D16
330
11D11
100
AcDbEntity
  8
0
 62
     7
100
AcDbText
 10
96.74158717246573
 20
2.97910930546476
 30
0.0
 40
0.5414062500000001
  1
DATE:
100
AcDbText
  0
TEXT
  5
11D17
330
11D11
100
AcDbEntity
  8
0
 62
     7
100
AcDbText
 10
96.68542089784601
 20
5.927566558083469
 30
0.0
 40
0.5414062500000001
  1
SCALE:
100
AcDbText
  0
TEXT
  5
11D18
330
11D11
100
AcDbEntity
  8
0
 62
     7
100
AcDbText
 10
98.85330873086449
 20
1.524519923848657
 30
0.0
 40
0.8459472656250001
  1
1-1-2000
100
AcDbText
  0
LINE
  5
11D19
330
11D11
100
AcDbEntity
  8
LINEWORK
 62
     7
100
AcDbLine
 10
96.40991550469019
 20
3.757904136908933
 30
0.0
 11
105.9622680829099
 21
3.757904136909161
 31
0.0
  0
TEXT
  5
11D1A
330
11D11
100
AcDbEntity
  8
0
 62
     7
100
AcDbText
 10
96.66995560986684
 20
8.813345575893578
 30
0.0
 40
0.5414062500000001
  1
LBS/LINEAR FEET:
100
AcDbText
  0
LINE
  5
11D1B
330
11D11
100
AcDbEntity
  8
0
 62
     7
100
AcDbLine
 10
96.44018670993686
 20
9.556745250002336
 30
0.0
 11
105.9925392881562
 21
9.556745250002336
 31
0.0
  0
LINE
  5
11D1C
330
11D11
100
AcDbEntity
  8
0
100
AcDbLine
 10
56.87404547169356
 20
6.648784575743377
 30
0.0
 11
105.9925392881562
 21
6.648784575743377
 31
0.0
  0
TEXT
  5
11D1D
330
11D11
100
AcDbEntity
  8
0
100
AcDbText
 10
59.98363509556093
 20
3.260563711198523
 30
0.0
 40
0.74899296216962
  1
101 JOHNSTON CIRCLE, PALMETTO, GEORGIA 30268
 41
1.1875
 72
     4
 11
76.85158629384145
 21
3.579323650094949
 31
0.0
100
AcDbText
  0
TEXT
  5
11D1E
330
11D11
100
AcDbEntity
  8
0
100
AcDbText
 10
61.57240842020549
 20
1.964543484004154
 30
0.0
 40
0.6552430415498756
  1
http://TannerStone.com ~ Email:Sales@TannerStone.com 
 41
1.1875
 72
     4
 11
77.08342119362365
 21
2.259193880788984
 31
0.0
100
AcDbText
  0
TEXT
  5
11D1F
330
11D11
100
AcDbEntity
  8
0
 62
     7
100
AcDbText
 10
61.23651428794111
 20
7.899354841769707
 30
0.0
 40
3.572100000000002
  1
TannerStone
  7
ROMANC
 72
     1
 11
75.92109734429951
 21
7.899354841769707
 31
0.0
100
AcDbText
  0
TEXT
  5
11D20
330
11D11
100
AcDbEntity
  8
0
100
AcDbText
 10
64.01730751652127
 20
0.6790765005605895
 30
0.0
 40
0.6552430415498756
  1
PHONE: 1-800-789-4841  FAX : 770-463-2635
 41
1.1875
 72
     4
 11
76.73327742292068
 21
1.005769257279467
 31
0.0
100
AcDbText
  0
TEXT
  5
11D21
330
11D11
100
AcDbEntity
  8
0
100
AcDbText
 10
57.83820509574332
 20
4.931128255646459
 30
0.0
 40
1.111564440985976
  1
ARCHITECTURAL CONCRETE CO., INC.
 41
1.25
 72
     4
 11
76.69038922088154
 21
5.404193065577061
 31
0.0
100
AcDbText
  0
LINE
  5
11D22
330
11D11
100
AcDbEntity
  8
0
100
AcDbLine
 10
96.44018670993652
 20
0.0
 30
0.0
 11
96.44018670993691
 21
12.46470592426126
 31
0.0
  0
TEXT
  5
11D23
330
11D11
100
AcDbEntity
  8
0
 62
     7
100
AcDbText
 10
91.59975773655476
 20
7.487990433787814
 30
0.0
 40
0.7875000000000002
  1
R
  7
ROMANC
 72
     1
 11
92.02565639984957
 21
7.487990433787814
 31
0.0
100
AcDbText
  0
ARC
  5
11D24
330
11D11
100
AcDbEntity
  8
0
 62
     7
100
AcDbCircle
 10
92.02173719823603
 20
7.854684255185276
 30
0.0
 40
0.5838368232859408
100
AcDbArc
 50
304.8408806463489
 51
297.555354837207
  0
LINE
  5
11D25
330
11D11
100
AcDbEntity
  8
0
 62
     7
100
AcDbLine
 10
96.44018670993673
 20
6.648784575743377
 30
0.0
 11
95.62662822118031
 21
6.648784575743377
 31
0.0
  0
ARC
  5
11D26
330
11D11
100
AcDbEntity
  8
0
 62
     7
100
AcDbCircle
 10
92.02173719823603
 20
7.854684255185276
 30
0.0
 40
0.5838368232859321
100
AcDbArc
 50
297.555354837207
 51
304.8408806463489
  0
TEXT
  5
11D27
330
11D11
100
AcDbEntity
  8
0
 62
     7
100
AcDbText
 10
101.0916707105179
 20
4.784832420392348
 30
0.0
 40
0.8459472656250001
  1
1:1
100
AcDbText
  0
LINE
  5
11D28
330
11D11
100
AcDbEntity
  8
0
100
AcDbLine
 10
105.9925392881562
 20
78.84810849484799
 30
0.0
 11
0.0
 21
78.84810849484799
 31
0.0
  0
LINE
  5
11D29
330
11D11
100
AcDbEntity
  8
0
100
AcDbLine
 10
105.9925392881562
 20
70.31072004937001
 30
0.0
 11
92.45878286761294
 21
70.31072004937001
 31
0.0
  0
ATTDEF
  5
11D2A
330
11D11
100
AcDbEntity
  8
A1
 62
     1
100
AcDbText
 10
99.20289126219254
 20
73.4000163324483
 30
0.0
 40
2.079
  1

 72
     1
 11
99.20289126219254
 21
73.4000163324483
 31
0.0
100
AcDbAttributeDefinition
  3
ADD PAGE NUMBER
  2
TS00XX
 70
     0
  0
LINE
  5
11D2B
330
11D11
100
AcDbEntity
  8
0
100
AcDbLine
 10
92.45878286761294
 20
70.31072004937001
 30
0.0
 11
92.45878286761294
 21
78.84810849484799
 31
0.0
  0
LINE
  5
11D2C
330
11D11
100
AcDbEntity
  8
0
 62
     7
100
AcDbLine
 10
56.87404547169354
 20
4.753491724833224
 30
0.0
 11
25.97049976153047
 21
4.753491724833224
 31
0.0
  0
LINE
  5
11D2D
330
11D11
100
AcDbEntity
  8
0
 62
     7
100
AcDbLine
 10
56.87404547169354
 20
2.864660228904284
 30
0.0
 11
25.97049976153047
 21
2.864660228904284
 31
0.0
  0
LINE
  5
11D2E
330
11D11
100
AcDbEntity
  8
0
 62
     7
100
AcDbLine
 10
56.87404547169354
 20
10.31505184057846
 30
0.0
 11
25.97049976153047
 21
10.31505184057846
 31
0.0
  0
ATTDEF
  5
11D2F
330
11D11
100
AcDbEntity
  8
A1
 62
     1
100
AcDbText
 10
12.85191920549937
 20
3.11796280247222
 30
0.0
 40
6.132000000000001
  1

  7
barcoder
 72
     1
 11
12.85191920549937
 21
3.11796280247222
 31
0.0
100
AcDbAttributeDefinition
  3
ADD BARCODE NUMBER
  2
BARCODE
 70
     0
  0
LINE
  5
11D30
330
11D11
100
AcDbEntity
  8
0
 62
     7
100
AcDbLine
 10
25.97049976153047
 20
12.46470592426126
 30
0.0
 11
0.0
 21
12.46470592426126
 31
0.0
  0
ATTDEF
  5
11D31
330
11D11
100
AcDbEntity
  8
A1
 62
     1
100
AcDbText
 10
21.55372231158239
 20
1.875018704105684
 30
0.0
 40
0.8400000000000002
  1

 72
     2
 11
21.55372231158239
 21
1.875018704105684
 31
0.0
100
AcDbAttributeDefinition
  3
ADD BARCODE TEXT
  2
XXXXXX
 70
     0
  0
ATTDEF
  5
11D32
330
11D11
100
AcDbEntity
  8
A1
 62
     1
100
AcDbText
 10
41.26016333205515
 20
0.916484150045278
 30
0.0
 40
1.025589599999999
  1

 72
     1
 11
41.26016333205515
 21
0.916484150045278
 31
0.0
100
AcDbAttributeDefinition
  3
ADD CATEGORY NAMES
  2
XXXXXX
 70
     0
  0
LINE
  5
11D33
330
11D11
100
AcDbEntity
  8
0
100
AcDbLine
 10
25.97049976153047
 20
0.0
 30
0.0
 11
25.97049976153047
 21
12.46470592426126
 31
0.0
  0
TEXT
  5
11D34
330
11D11
100
AcDbEntity
  8
0
 62
     7
100
AcDbText
 10
30.57643893100979
 20
5.886467718828555
 30
0.0
 40
1.05
  1
- Unfinished Side
100
AcDbText
  0
TEXT
  5
11D35
330
11D11
100
AcDbEntity
  8
0
 62
     7
100
AcDbText
 10
30.56536100380199
 20
8.165961840384312
 30
0.0
 40
1.05
  1
- Finished Side
100
AcDbText
  0
TEXT
  5
11D36
330
11D11
100
AcDbEntity
  8
0
 62
     7
100
AcDbText
 10
28.62975879980742
 20
6.155120421568796
 30
0.0
 40
0.0065625
  1
TANNERSTONE 0001 TANNERSTONE 0001 TANNERSTONE 0001 TANNERSTONE 0001 TANNERSTONE 0001 TANNERSTONE 0001 TANNERSTONE 0001
 72
     1
 11
28.97869915682372
 21
6.155120421568796
 31
0.0
100
AcDbText
  0
TEXT
  5
11D37
330
11D11
100
AcDbEntity
  8
0
 62
     7
100
AcDbText
 10
26.78569629980744
 20
6.155120421568796
 30
0.0
 40
0.0065625
  1
TANNERSTONE 0001 TANNERSTONE 0001 TANNERSTONE 0001 TANNERSTONE 0001 TANNERSTONE 0001 TANNERSTONE 0001 TANNERSTONE 0001
 72
     1
 11
27.13463665682374
 21
6.155120421568796
 31
0.0
100
AcDbText
  0
LINE
  5
11D38
330
11D11
100
AcDbEntity
  8
0
 62
     7
100
AcDbLine
 10
26.78791925899645
 20
6.408946491460881
 30
0.0
 11
29.32320076794366
 21
6.408946491460881
 31
0.0
  0
TEXT
  5
11D39
330
11D11
100
AcDbEntity
  8
0
 62
     7
100
AcDbText
 10
27.6921018725396
 20
6.155120421568796
 30
0.0
 40
0.0065625
  1
TANNERSTONE 0001 TANNERSTONE 0001 TANNERSTONE 0001 TANNERSTONE 0001 TANNERSTONE 0001 TANNERSTONE 0001 TANNERSTONE 0001
 72
     1
 11
28.0410422295559
 21
6.155120421568796
 31
0.0
100
AcDbText
  0
LINE
  5
11D3A
330
11D11
100
AcDbEntity
  8
0
 62
     7
100
AcDbLine
 10
26.78791925899645
 20
8.549200111339274
 30
0.0
 11
29.32320076794366
 21
8.549200111339274
 31
0.0
  0
TEXT
  5
11D3B
330
11D11
100
AcDbEntity
  8
0
 62
     7
100
AcDbText
 10
38.18320344075359
 20
3.401999220949534
 30
0.0
 40
0.8400000000000002
  1
CATEGORY
 72
     1
 11
41.47652732452397
 21
3.401999220949534
 31
0.0
100
AcDbText
  0
TEXT
  5
11D3C
330
11D11
100
AcDbEntity
  8
0
 62
     7
100
AcDbText
 10
39.28098221173835
 20
10.97304845086645
 30
0.0
 40
0.8085000000000002
  1
LEGEND
100
AcDbText
  0
LINE
  5
11D3D
330
11D11
100
AcDbEntity
  8
0
100
AcDbLine
 10
56.87404547169356
 20
0.0
 30
0.0
 11
56.87404547169356
 21
12.46470592426126
 31
0.0
  0
LINE
  5
11D3E
330
11D11
100
AcDbEntity
  8
0
100
AcDbLine
 10
0.0
 20
78.84810849484799
 30
0.0
 11
0.0
 21
0.0
 31
0.0
  0
LINE
  5
11D3F
330
11D11
100
AcDbEntity
  8
0
100
AcDbLine
 10
0.0
 20
0.0
 30
0.0
 11
105.9925392881562
 21
0.0
 31
0.0
  0
LINE
  5
11D40
330
11D11
100
AcDbEntity
  8
0
100
AcDbLine
 10
105.9925392881562
 20
0.0
 30
0.0
 11
105.9925392881562
 21
78.84810849484799
 31
0.0
  0
LINE
  5
11D41
330
11D11
100
AcDbEntity
  8
0
100
AcDbLine
 10
105.9925392881562
 20
78.84810849484799
 30
0.0
 11
105.9925392881562
 21
70.31072004937001
 31
0.0
  0
ENDBLK
  5
11D43
330
11D11
100
AcDbEntity
  8
0
 62
     7
100
AcDbBlockEnd
  0
BLOCK
  5
12422
330
12415
100
AcDbEntity
  8
0
 62
     7
100
AcDbBlockBegin
  2
*D10
 70
     1
 10
0.0
 20
0.0
 30
0.0
  3
*D10
  1

  0
LINE
  5
12638
330
12415
100
AcDbEntity
  8
LINEWORK
 62
     0
100
AcDbLine
 10
9.219212103954419
 20
-19.86324004091021
 30
0.0
 11
9.219212103954419
 21
-16.4337754116132
 31
0.0
  0
LINE
  5
12639
330
12415
100
AcDbEntity
  8
LINEWORK
 62
     0
100
AcDbLine
 10
1.845212103954423
 20
-19.86324004091021
 30
0.0
 11
1.845212103954423
 21
-16.4337754116132
 31
0.0
  0
LINE
  5
1263A
330
12415
100
AcDbEntity
  8
LINEWORK
 62
     0
100
AcDbLine
 10
8.619212103954419
 20
-16.7337754116132
 30
0.0
 11
2.445212103954423
 21
-16.7337754116132
 31
0.0
  0
LINE
  5
1263B
330
12415
100
AcDbEntity
  8
LINEWORK
 62
     0
100
AcDbLine
 10
-1.251625657267259
 20
-16.7337754116132
 30
0.0
 11
1.845212103954423
 21
-16.7337754116132
 31
0.0
  0
MTEXT
  5
1263C
330
12415
100
AcDbEntity
  8
LINEWORK
 62
     0
100
AcDbMText
 10
-4.579903474418216
 20
-16.7337754116132
 30
0.0
 40
1.199999999999999
 41
0.0
 71
     5
 72
     1
  1
\A1;7 3/8"
 73
     1
 44
1.0
  0
SOLID
  5
1263D
330
12415
100
AcDbEntity
  8
LINEWORK
 62
     0
100
AcDbTrace
 10
8.619212103954419
 20
-16.6337754116132
 30
0.0
 11
8.619212103954419
 21
-16.83377541161321
 31
0.0
 12
9.219212103954419
 22
-16.7337754116132
 32
0.0
 13
9.219212103954419
 23
-16.7337754116132
 33
0.0
  0
SOLID
  5
1263E
330
12415
100
AcDbEntity
  8
LINEWORK
 62
     0
100
AcDbTrace
 10
2.445212103954423
 20
-16.6337754116132
 30
0.0
 11
2.445212103954423
 21
-16.83377541161321
 31
0.0
 12
1.845212103954423
 22
-16.7337754116132
 32
0.0
 13
1.845212103954423
 23
-16.7337754116132
 33
0.0
  0
POINT
  5
1263F
330
12415
100
AcDbEntity
  8
Defpoints
 62
     0
100
AcDbPoint
 10
9.219212103954419
 20
-21.06324004091021
 30
0.0
  0
POINT
  5
12640
330
12415
100
AcDbEntity
  8
Defpoints
 62
     0
100
AcDbPoint
 10
1.845212103954423
 20
-21.06324004091021
 30
0.0
  0
POINT
  5
12641
330
12415
100
AcDbEntity
  8
Defpoints
 62
     0
100
AcDbPoint
 10
1.845212103954423
 20
-16.7337754116132
 30
0.0
  0
ENDBLK
  5
12423
330
12415
100
AcDbEntity
  8
0
 62
     7
100
AcDbBlockEnd
  0
BLOCK
  5
1243E
330
12431
100
AcDbEntity
  8
0
 62
     7
100
AcDbBlockBegin
  2
*D11
 70
     1
 10
0.0
 20
0.0
 30
0.0
  3
*D11
  1

  0
LINE
  5
12642
330
12431
100
AcDbEntity
  8
LINEWORK
 62
     0
100
AcDbLine
 10
1.423341308301644
 20
-48.26324004091022
 30
0.0
 11
1.423341308301644
 21
-51.34098776851321
 31
0.0
  0
LINE
  5
12643
330
12431
100
AcDbEntity
  8
LINEWORK
 62
     0
100
AcDbLine
 10
9.661084717447891
 20
-48.26324004091022
 30
0.0
 11
9.661084717447891
 21
-51.34098776851321
 31
0.0
  0
LINE
  5
12644
330
12431
100
AcDbEntity
  8
LINEWORK
 62
     0
100
AcDbLine
 10
2.023341308301644
 20
-51.04098776851322
 30
0.0
 11
9.061084717447892
 21
-51.04098776851322
 31
0.0
  0
LINE
  5
12645
330
12431
100
AcDbEntity
  8
LINEWORK
 62
     0
100
AcDbLine
 10
12.32072671676544
 20
-51.04098776851322
 30
0.0
 11
9.661084717447891
 21
-51.04098776851322
 31
0.0
  0
MTEXT
  5
12646
330
12431
100
AcDbEntity
  8
LINEWORK
 62
     0
100
AcDbMText
 10
15.67026605057125
 20
-51.04098776851322
 30
0.0
 40
1.199999999999999
 41
0.0
 71
     5
 72
     1
  1
\A1;8 1/4"
 73
     1
 44
1.0
  0
SOLID
  5
12647
330
12431
100
AcDbEntity
  8
LINEWORK
 62
     0
100
AcDbTrace
 10
2.023341308301644
 20
-50.94098776851321
 30
0.0
 11
2.023341308301644
 21
-51.14098776851322
 31
0.0
 12
1.423341308301644
 22
-51.04098776851322
 32
0.0
 13
1.423341308301644
 23
-51.04098776851322
 33
0.0
  0
SOLID
  5
12648
330
12431
100
AcDbEntity
  8
LINEWORK
 62
     0
100
AcDbTrace
 10
9.061084717447892
 20
-50.94098776851321
 30
0.0
 11
9.061084717447892
 21
-51.14098776851322
 31
0.0
 12
9.661084717447891
 22
-51.04098776851322
 32
0.0
 13
9.661084717447891
 23
-51.04098776851322
 33
0.0
  0
POINT
  5
12649
330
12431
100
AcDbEntity
  8
Defpoints
 62
     0
100
AcDbPoint
 10
1.423341308301644
 20
-47.06324004091022
 30
0.0
  0
POINT
  5
1264A
330
12431
100
AcDbEntity
  8
Defpoints
 62
     0
100
AcDbPoint
 10
9.661084717447891
 20
-47.06324004091022
 30
0.0
  0
POINT
  5
1264B
330
12431
100
AcDbEntity
  8
Defpoints
 62
     0
100
AcDbPoint
 10
9.661084717447891
 20
-51.04098776851322
 30
0.0
  0
ENDBLK
  5
1243F
330
12431
100
AcDbEntity
  8
0
 62
     7
100
AcDbBlockEnd
  0
BLOCK
  5
124EE
330
124E3
100
AcDbEntity
  8
0
 62
     7
100
AcDbBlockBegin
  2
*D12
 70
     1
 10
0.0
 20
0.0
 30
0.0
  3
*D12
  1

  0
LINE
  5
1264C
330
124E3
100
AcDbEntity
  8
LINEWORK
 62
     0
100
AcDbLine
 10
0.2215867484281013
 20
-47.06324004091022
 30
0.0
 11
-7.459254740179217
 21
-47.06324004091022
 31
0.0
  0
LINE
  5
1264D
330
124E3
100
AcDbEntity
  8
LINEWORK
 62
     0
100
AcDbLine
 10
0.6452121039544381
 20
-21.06324004091022
 30
0.0
 11
-7.459254740179211
 21
-21.06324004091022
 31
0.0
  0
LINE
  5
1264E
330
124E3
100
AcDbEntity
  8
LINEWORK
 62
     0
100
AcDbLine
 10
-7.159254740179217
 20
-46.46324004091022
 30
0.0
 11
-7.159254740179214
 21
-34.95867097008103
 31
0.0
  0
LINE
  5
1264F
330
124E3
100
AcDbEntity
  8
LINEWORK
 62
     0
100
AcDbLine
 10
-7.159254740179211
 20
-21.66324004091022
 30
0.0
 11
-7.159254740179213
 21
-32.51359655477274
 31
0.0
  0
MTEXT
  5
12650
330
124E3
100
AcDbEntity
  8
LINEWORK
 62
     0
100
AcDbMText
 10
-7.159254740179214
 20
-33.73613376242689
 30
0.0
 40
1.199999999999999
 41
0.0
 71
     5
 72
     1
  1
\A1;26"
 73
     1
 44
1.0
  0
SOLID
  5
12651
330
124E3
100
AcDbEntity
  8
LINEWORK
 62
     0
100
AcDbTrace
 10
-7.259254740179216
 20
-46.46324004091022
 30
0.0
 11
-7.059254740179217
 21
-46.46324004091022
 31
0.0
 12
-7.159254740179217
 22
-47.06324004091022
 32
0.0
 13
-7.159254740179217
 23
-47.06324004091022
 33
0.0
  0
SOLID
  5
12652
330
124E3
100
AcDbEntity
  8
LINEWORK
 62
     0
100
AcDbTrace
 10
-7.25925474017921
 20
-21.66324004091022
 30
0.0
 11
-7.059254740179211
 21
-21.66324004091022
 31
0.0
 12
-7.159254740179211
 22
-21.06324004091022
 32
0.0
 13
-7.159254740179211
 23
-21.06324004091022
 33
0.0
  0
POINT
  5
12653
330
124E3
100
AcDbEntity
  8
Defpoints
 62
     0
100
AcDbPoint
 10
1.421586748428101
 20
-47.06324004091022
 30
0.0
  0
POINT
  5
12654
330
124E3
100
AcDbEntity
  8
Defpoints
 62
     0
100
AcDbPoint
 10
1.845212103954438
 20
-21.06324004091022
 30
0.0
  0
POINT
  5
12655
330
124E3
100
AcDbEntity
  8
Defpoints
 62
     0
100
AcDbPoint
 10
-7.159254740179211
 20
-21.06324004091022
 30
0.0
  0
ENDBLK
  5
124EF
330
124E3
100
AcDbEntity
  8
0
 62
     7
100
AcDbBlockEnd
  0
ENDSEC
  0
SECTION
  2
ENTITIES
  0
INSERT
  5
D0CF
330
2
100
AcDbEntity
  8
ASHADE
 62
     1
100
AcDbBlockReference
  2
AVE_RENDER
 10
4.19208881148063
 20
-49.36188077439897
 30
0.0
1001
AVE_RENDER
1002
{
1070
     7
1000
Pref
1070
    30
1070
    20
1070
     1
1070
     0
1000

1070
    10
1070
     1
1070
    10
1040
1.0
1070
     1
1040
0.3
1040
0.7
1040
0.0
1040
10.0
1010
-1.0
1020
-1.0
1030
-1.0
1040
0.3
1070
    49
1070
     0
1070
     0
1010
1.0
1020
1.0
1030
1.0
1040
45.0
1070
     1
1070
     0
1000
WCS
1040
0.0
1070
     0
1040
10.0
1002
}
  0
INSERT
  5
D0D0
330
2
100
AcDbEntity
  8
ASHADE
 62
     3
100
AcDbBlockReference
  2
AVE_RENDER
 10
4.19208881148063
 20
-49.36188077439897
 30
0.0
1001
AVE_RENDER
1002
{
1070
     0
1000
Full Opt
1070
     0
1070
     1
1070
     1
1070
     1
1070
     0
1070
     0
1070
     0
1070
     1
1070
     1
1040
0.0001
1040
0.0001
1002
}
  0
INSERT
  5
D0D1
330
2
100
AcDbEntity
  8
ASHADE
 62
     4
100
AcDbBlockReference
  2
AVE_RENDER
 10
4.19208881148063
 20
-49.36188077439897
 30
0.0
1001
AVE_RENDER
1002
{
1070
     0
1000
Quick Opt
1070
     0
1070
     1
1070
     1
1070
     1
1070
     0
1070
     0
1070
     1
1002
}
  0
INSERT
  5
D0D2
330
2
100
AcDbEntity
  8
ASHADE
 62
     5
100
AcDbBlockReference
  2
AVE_RENDER
 10
4.19208881148063
 20
-49.36188077439897
 30
0.0
1001
AVE_RENDER
1002
{
1070
     1
1000
Scanl Opt
1070
     2
1070
     0
1070
     2
1040
2.0
1040
4.0
1070
     0
1070
     1
1070
     0
1040
0.03
1002
}
  0
INSERT
  5
D0D3
330
2
100
AcDbEntity
  8
ASHADE
 62
     6
100
AcDbBlockReference
  2
AVE_RENDER
 10
4.19208881148063
 20
-49.36188077439897
 30
0.0
1001
AVE_RENDER
1002
{
1070
     2
1000
Raytr Opt
1070
     2
1070
     0
1070
     2
1040
2.0
1040
4.0
1070
     0
1070
     1
1070
     1
1040
0.03
1070
     3
1040
0.03
1002
}
  0
INSERT
  5
D0D4
330
2
100
AcDbEntity
  8
ASHADE
 62
     7
100
AcDbBlockReference
  2
AVE_RENDER
 10
4.19208881148063
 20
-49.36188077439897
 30
0.0
1001
AVE_RENDER
1002
{
1070
     0
1000
RFile Opt
1070
     1
1070
   640
1070
   480
1070
 10000
1070
     1
1070
     8
1070
     8
1070
     0
1070
     0
1070
     0
1070
     0
1070
     0
1070
     0
1070
     0
1002
}
  0
INSERT
  5
D0D5
330
2
100
AcDbEntity
  8
ASHADE
 62
     8
100
AcDbBlockReference
  2
AVE_RENDER
 10
4.19208881148063
 20
-49.36188077439897
 30
0.0
1001
AVE_RENDER
1002
{
1070
     0
1000
Fog Opt
1070
     0
1070
     0
1040
0.0
1040
1.0
1040
0.0
1040
1.0
1010
0.5
1020
0.5
1030
0.5
1002
}
  0
INSERT
  5
D0D6
330
2
100
AcDbEntity
  8
ASHADE
 62
     9
100
AcDbBlockReference
  2
AVE_RENDER
 10
4.19208881148063
 20
-49.36188077439897
 30
0.0
1001
AVE_RENDER
1002
{
1070
     0
1000
BG Opt
1070
     0
1070
     1
1010
0.0
1020
0.0
1030
0.0
1010
1.0
1020
0.0
1030
0.0
1010
0.0
1020
1.0
1030
0.0
1010
0.0
1020
0.0
1030
1.0
1040
0.5
1040
0.33
1040
0.0
1000

1070
     1
1000

1070
     1
1070
     1
1040
1.0
1040
1.0
1040
0.0
1040
0.0
1070
     0
1002
}
  0
INSERT
  5
D0D7
330
2
100
AcDbEntity
  8
ASHADE
 62
     1
100
AcDbBlockReference
  2
AVE_GLOBAL
 10
4.19208881148063
 20
-49.36188077439897
 30
0.0
1001
AVE_MATERIAL
1002
{
1000
*GLOBAL*
1000
1
1000
Global finish.
1002
{
1002
}
1002
{
1070
    63
1002
{
1002
{
1010
-1.0
1020
-1.0
1030
-1.0
1002
}
1040
0.1000000014901161
1000

1040
0.0
1002
{
1002
}
1040
0.0
1002
{
1002
}
1040
0.0
1002
}
1002
{
1002
{
1010
-1.0
1020
-1.0
1030
-1.0
1002
}
1040
0.6999999880790711
1000

1040
0.0
1002
{
1002
}
1040
0.0
1002
{
1002
}
1040
0.0
1002
}
1002
{
1002
{
1010
-1.0
1020
-1.0
1030
-1.0
1002
}
1040
0.2000000029802322
1000

1040
0.0
1002
{
1002
}
1040
0.0
1002
{
1002
}
1040
0.0
1002
}
1002
{
1070
     0
1002
{
1070
     1
1002
{
1040
1.0
1040
1.0
1000

1040
0.0
1002
{
1002
}
1040
0.0
1002
{
1002
}
1040
0.0
1002
}
1002
}
1040
1.0
1040
0.0
1040
0.0
1002
}
1002
{
1040
1.0
1040
1.0
1000

1040
0.0
1002
{
1002
}
1040
0.0
1002
{
1002
}
1040
0.0
1002
}
1002
{
1040
0.5
1040
1.0
1000

1040
0.0
1002
{
1002
}
1040
0.0
1002
{
1002
}
1040
0.0
1002
}
1002
{
1070
     0
1040
0.0
1002
{
1002
}
1040
1.0
1002
{
1002
}
1040
0.0
1002
}
1002
{
1040
0.0
1002
{
1002
{
1010
0.0
1020
0.0
1030
0.0
1002
}
1040
1.0
1000

1040
0.0
1002
{
1002
}
1040
0.0
1002
{
1002
}
1040
0.0
1002
}
1002
}
1002
{
1002
{
1070
     1
1002
{
1040
0.0
1040
1.0
1000

1040
0.0
1002
{
1002
}
1040
0.0
1002
{
1002
}
1040
0.0
1002
}
1002
}
1040
0.0
1002
{
1002
}
1010
1.0
1020
0.0
1030
0.0
1010
0.0
1020
1.0
1030
0.0
1010
0.0
1020
0.0
1030
1.0
1070
     0
1002
}
1002
{
1002
{
1040
1.0
1040
1.0
1002
{
1070
     1
1002
{
1040
1.0
1040
1.0
1000

1040
0.0
1002
{
1002
}
1040
0.0
1002
{
1002
}
1040
0.0
1002
}
1002
}
1002
}
1070
     0
1040
0.0
1002
{
1002
}
1002
}
1002
{
1002
}
1002
}
1002
{
1071
        3
1070
     3
1070
     0
1002
{
1070
     2
1070
     0
1070
     0
1040
0.0
1002
}
1070
     0
1070
     2
1002
{
1002
}
1002
}
1002
{
1040
8030.0
1040
190.3000030517578
1040
0.3050000071525574
1040
228.0
1040
545.0
1040
14.0
1040
17.39999961853027
1040
0.4560000002384186
1002
}
1002
}
  0
INSERT
  5
D154
330
2
100
AcDbEntity
  8
ASHADE
 62
     1
100
AcDbBlockReference
  2
AVE_RENDER
 10
4.106359864031219
 20
-105.2254158800526
 30
0.0
1001
AVE_RENDER
1002
{
1070
     7
1000
Pref
1070
    60
1070
    20
1070
     1
1070
     0
1000

1070
    10
1070
     1
1070
    10
1040
1.0
1070
     1
1040
0.3
1040
0.7
1040
0.0
1040
10.0
1010
-1.0
1020
-1.0
1030
-1.0
1040
0.3
1070
    49
1070
     0
1070
     0
1010
1.0
1020
1.0
1030
1.0
1040
45.0
1070
     1
1070
     0
1000
WCS
1040
0.0
1070
     0
1040
10.0
1002
}
  0
INSERT
  5
D155
330
2
100
AcDbEntity
  8
ASHADE
 62
     3
100
AcDbBlockReference
  2
AVE_RENDER
 10
4.106359864031219
 20
-105.2254158800526
 30
0.0
1001
AVE_RENDER
1002
{
1070
     0
1000
Full Opt
1070
     0
1070
     1
1070
     1
1070
     1
1070
     0
1070
     0
1070
     0
1070
     1
1070
     1
1040
0.0001
1040
0.0001
1002
}
  0
INSERT
  5
D156
330
2
100
AcDbEntity
  8
ASHADE
 62
     4
100
AcDbBlockReference
  2
AVE_RENDER
 10
4.106359864031219
 20
-105.2254158800526
 30
0.0
1001
AVE_RENDER
1002
{
1070
     0
1000
Quick Opt
1070
     0
1070
     1
1070
     1
1070
     1
1070
     0
1070
     0
1070
     1
1002
}
  0
INSERT
  5
D157
330
2
100
AcDbEntity
  8
ASHADE
 62
     5
100
AcDbBlockReference
  2
AVE_RENDER
 10
4.106359864031219
 20
-105.2254158800526
 30
0.0
1001
AVE_RENDER
1002
{
1070
     1
1000
Scanl Opt
1070
     2
1070
     0
1070
     2
1040
2.0
1040
4.0
1070
     0
1070
     1
1070
     0
1040
0.03
1002
}
  0
INSERT
  5
D158
330
2
100
AcDbEntity
  8
ASHADE
 62
     6
100
AcDbBlockReference
  2
AVE_RENDER
 10
4.106359864031219
 20
-105.2254158800526
 30
0.0
1001
AVE_RENDER
1002
{
1070
     2
1000
Raytr Opt
1070
     2
1070
     0
1070
     2
1040
2.0
1040
4.0
1070
     0
1070
     1
1070
     1
1040
0.03
1070
     3
1040
0.03
1002
}
  0
INSERT
  5
D159
330
2
100
AcDbEntity
  8
ASHADE
 62
     7
100
AcDbBlockReference
  2
AVE_RENDER
 10
4.106359864031219
 20
-105.2254158800526
 30
0.0
1001
AVE_RENDER
1002
{
1070
     0
1000
RFile Opt
1070
     1
1070
   640
1070
   480
1070
 10000
1070
     1
1070
     8
1070
     8
1070
     0
1070
     0
1070
     0
1070
     0
1070
     0
1070
     0
1070
     0
1002
}
  0
INSERT
  5
D15A
330
2
100
AcDbEntity
  8
ASHADE
 62
     8
100
AcDbBlockReference
  2
AVE_RENDER
 10
4.106359864031219
 20
-105.2254158800526
 30
0.0
1001
AVE_RENDER
1002
{
1070
     0
1000
Fog Opt
1070
     0
1070
     0
1040
0.0
1040
1.0
1040
0.0
1040
1.0
1010
0.5
1020
0.5
1030
0.5
1002
}
  0
INSERT
  5
D15B
330
2
100
AcDbEntity
  8
ASHADE
 62
     9
100
AcDbBlockReference
  2
AVE_RENDER
 10
4.106359864031219
 20
-105.2254158800526
 30
0.0
1001
AVE_RENDER
1002
{
1070
     0
1000
BG Opt
1070
     0
1070
     1
1010
0.0
1020
0.0
1030
0.0
1010
1.0
1020
0.0
1030
0.0
1010
0.0
1020
1.0
1030
0.0
1010
0.0
1020
0.0
1030
1.0
1040
0.5
1040
0.33
1040
0.0
1000

1070
     1
1000

1070
     1
1070
     1
1040
1.0
1040
1.0
1040
0.0
1040
0.0
1070
     0
1002
}
  0
INSERT
  5
D15C
330
2
100
AcDbEntity
  8
ASHADE
 62
     1
100
AcDbBlockReference
  2
AVE_GLOBAL
 10
4.106359864031219
 20
-105.2254158800526
 30
0.0
1001
AVE_MATERIAL
1002
{
1000
*GLOBAL*
1000
1
1000
Global finish.
1002
{
1002
}
1002
{
1070
    63
1002
{
1002
{
1010
-1.0
1020
-1.0
1030
-1.0
1002
}
1040
0.1000000014901161
1000

1040
0.0
1002
{
1002
}
1040
0.0
1002
{
1002
}
1040
0.0
1002
}
1002
{
1002
{
1010
-1.0
1020
-1.0
1030
-1.0
1002
}
1040
0.6999999880790711
1000

1040
0.0
1002
{
1002
}
1040
0.0
1002
{
1002
}
1040
0.0
1002
}
1002
{
1002
{
1010
-1.0
1020
-1.0
1030
-1.0
1002
}
1040
0.2000000029802322
1000

1040
0.0
1002
{
1002
}
1040
0.0
1002
{
1002
}
1040
0.0
1002
}
1002
{
1070
     0
1002
{
1070
     1
1002
{
1040
1.0
1040
1.0
1000

1040
0.0
1002
{
1002
}
1040
0.0
1002
{
1002
}
1040
0.0
1002
}
1002
}
1040
1.0
1040
0.0
1040
0.0
1002
}
1002
{
1040
1.0
1040
1.0
1000

1040
0.0
1002
{
1002
}
1040
0.0
1002
{
1002
}
1040
0.0
1002
}
1002
{
1040
0.5
1040
1.0
1000

1040
0.0
1002
{
1002
}
1040
0.0
1002
{
1002
}
1040
0.0
1002
}
1002
{
1070
     0
1040
0.0
1002
{
1002
}
1040
1.0
1002
{
1002
}
1040
0.0
1002
}
1002
{
1040
0.0
1002
{
1002
{
1010
0.0
1020
0.0
1030
0.0
1002
}
1040
1.0
1000

1040
0.0
1002
{
1002
}
1040
0.0
1002
{
1002
}
1040
0.0
1002
}
1002
}
1002
{
1002
{
1070
     1
1002
{
1040
0.0
1040
1.0
1000

1040
0.0
1002
{
1002
}
1040
0.0
1002
{
1002
}
1040
0.0
1002
}
1002
}
1040
0.0
1002
{
1002
}
1010
1.0
1020
0.0
1030
0.0
1010
0.0
1020
1.0
1030
0.0
1010
0.0
1020
0.0
1030
1.0
1070
     0
1002
}
1002
{
1002
{
1040
1.0
1040
1.0
1002
{
1070
     1
1002
{
1040
1.0
1040
1.0
1000

1040
0.0
1002
{
1002
}
1040
0.0
1002
{
1002
}
1040
0.0
1002
}
1002
}
1002
}
1070
     0
1040
0.0
1002
{
1002
}
1002
}
1002
{
1002
}
1002
}
1002
{
1071
        3
1070
     3
1070
     0
1002
{
1070
     2
1070
     0
1070
     0
1040
0.0
1002
}
1070
     0
1070
     2
1002
{
1002
}
1002
}
1002
{
1040
8030.0
1040
190.3000030517578
1040
0.3050000071525574
1040
228.0
1040
545.0
1040
14.0
1040
17.39999961853027
1040
0.4560000002384186
1002
}
1002
}
  0
INSERT
  5
11938
330
2
100
AcDbEntity
  8
A1
 62
     7
100
AcDbBlockReference
 66
     1
  2
LINK FLAG
 10
9.219212103954433
 20
-21.06324004091022
 30
0.0
 41
1.35
 42
1.35
 43
1.35
  0
ATTRIB
  5
11939
330
11938
100
AcDbEntity
  8
A1
 62
     1
100
AcDbText
 10
23.74323207014855
 20
-14.37605928164926
 30
0.0
 40
1.35
  1
TS0989
100
AcDbAttribute
  2
XXXXXX
 70
     0
  0
SEQEND
  5
1193A
330
11938
100
AcDbEntity
  8
A1
 62
     7
  0
INSERT
  5
11D55
330
2
100
AcDbEntity
  8
A1
 62
     7
100
AcDbBlockReference
 66
     1
  2
TSFORMB
 10
-32.74384810838983
 20
-65.13497307073652
 30
0.0
 41
0.7360000000000002
 42
0.7360000000000002
 43
0.7360000000000002
  0
ATTRIB
  5
11D56
330
11D55
100
AcDbEntity
  8
A1
 62
     1
100
AcDbText
 10
39.94663042017754
 20
-59.82139264971837
 30
0.0
 40
0.6955200000000003
  1
143.54
 72
     1
 11
41.69652127772538
 21
-59.82139264971837
 31
0.0
100
AcDbAttribute
  2
XXXXX
 70
     0
  0
ATTRIB
  5
11D57
330
11D55
100
AcDbEntity
  8
A1
 62
     1
100
AcDbText
 10
40.51227184356649
 20
-57.71682582109701
 30
0.0
 40
0.6955200000000003
  1
159"
 72
     1
 11
41.721668243283
 21
-57.71682582109701
 31
0.0
100
AcDbAttribute
  2
XXXXX
 70
     0
  0
ATTRIB
  5
11D58
330
11D55
100
AcDbEntity
  8
A1
 62
     1
100
AcDbText
 10
36.00925965930818
 20
-11.11256105005458
 30
0.0
 40
1.530144
  1
TS0989
 72
     1
 11
40.26947986058387
 21
-11.11256105005458
 31
0.0
100
AcDbAttribute
  2
TS00XX
 70
     0
  0
ATTRIB
  5
11D59
330
11D55
100
AcDbEntity
  8
A1
 62
     1
100
AcDbText
 10
-27.74157317314229
 20
-62.84015244811698
 30
0.0
 40
4.513152000000001
  1
TS0989
  7
barcoder
 72
     1
 11
-23.28483557314229
 21
-62.84015244811698
 31
0.0
100
AcDbAttribute
  2
BARCODE
 70
     0
  0
ATTRIB
  5
11D5A
330
11D55
100
AcDbEntity
  8
A1
 62
     1
100
AcDbText
 10
-20.32291066991423
 20
-63.75495930451475
 30
0.0
 40
0.6182400000000002
  1
TS0989
 72
     2
 11
-16.88030848706518
 21
-63.75495930451475
 31
0.0
100
AcDbAttribute
  2
XXXXXX
 70
     0
  0
ATTRIB
  5
11D5B
330
11D55
100
AcDbEntity
  8
A1
 62
     1
100
AcDbText
 10
-5.154167515081567
 20
-64.46044073630321
 30
0.0
 40
0.7548339456000001
  1
BALUSTER
 72
     1
 11
-2.37636789599723
 21
-64.46044073630321
 31
0.0
100
AcDbAttribute
  2
XXXXXX
 70
     0
  0
SEQEND
  5
11D5C
330
11D55
100
AcDbEntity
  8
A1
 62
     7
  0
POINT
  5
11DA5
330
2
100
AcDbEntity
  8
0
 62
     7
370
    50
100
AcDbPoint
 10
6.164481504231588
 20
-44.89066077098925
 30
0.0
  0
POINT
  5
122D2
330
2
100
AcDbEntity
  8
0
 62
     7
100
AcDbPoint
 10
-15.6554685315348
 20
-44.89066077098925
 30
0.0
  0
INSERT
  5
12374
330
2
100
AcDbEntity
  8
ASHADE
 62
     1
100
AcDbBlockReference
  2
AVE_RENDER
 10
55.28926675166338
 20
-117.0158898597038
 30
0.0
1001
AVE_RENDER
1002
{
1070
     7
1000
Pref
1070
    30
1070
    20
1070
     1
1070
     0
1000

1070
    10
1070
     1
1070
    10
1040
1.0
1070
     1
1040
0.3
1040
0.7
1040
0.0
1040
10.0
1010
-1.0
1020
-1.0
1030
-1.0
1040
0.3
1070
    49
1070
     0
1070
     0
1010
1.0
1020
1.0
1030
1.0
1040
45.0
1070
     1
1070
     0
1000
WCS
1040
0.0
1070
     0
1040
10.0
1002
}
  0
INSERT
  5
12375
330
2
100
AcDbEntity
  8
ASHADE
 62
     3
100
AcDbBlockReference
  2
AVE_RENDER
 10
55.28926675166338
 20
-117.0158898597038
 30
0.0
1001
AVE_RENDER
1002
{
1070
     0
1000
Full Opt
1070
     0
1070
     1
1070
     1
1070
     1
1070
     0
1070
     0
1070
     0
1070
     1
1070
     1
1040
0.0001
1040
0.0001
1002
}
  0
INSERT
  5
12376
330
2
100
AcDbEntity
  8
ASHADE
 62
     4
100
AcDbBlockReference
  2
AVE_RENDER
 10
55.28926675166338
 20
-117.0158898597038
 30
0.0
1001
AVE_RENDER
1002
{
1070
     0
1000
Quick Opt
1070
     0
1070
     1
1070
     1
1070
     1
1070
     0
1070
     0
1070
     1
1002
}
  0
INSERT
  5
12377
330
2
100
AcDbEntity
  8
ASHADE
 62
     5
100
AcDbBlockReference
  2
AVE_RENDER
 10
55.28926675166338
 20
-117.0158898597038
 30
0.0
1001
AVE_RENDER
1002
{
1070
     1
1000
Scanl Opt
1070
     2
1070
     0
1070
     2
1040
2.0
1040
4.0
1070
     0
1070
     1
1070
     0
1040
0.03
1002
}
  0
INSERT
  5
12378
330
2
100
AcDbEntity
  8
ASHADE
 62
     6
100
AcDbBlockReference
  2
AVE_RENDER
 10
55.28926675166338
 20
-117.0158898597038
 30
0.0
1001
AVE_RENDER
1002
{
1070
     2
1000
Raytr Opt
1070
     2
1070
     0
1070
     2
1040
2.0
1040
4.0
1070
     0
1070
     1
1070
     1
1040
0.03
1070
     3
1040
0.03
1002
}
  0
INSERT
  5
12379
330
2
100
AcDbEntity
  8
ASHADE
 62
     7
100
AcDbBlockReference
  2
AVE_RENDER
 10
55.28926675166338
 20
-117.0158898597038
 30
0.0
1001
AVE_RENDER
1002
{
1070
     0
1000
RFile Opt
1070
     1
1070
   640
1070
   480
1070
 10000
1070
     1
1070
     8
1070
     8
1070
     0
1070
     0
1070
     0
1070
     0
1070
     0
1070
     0
1070
     0
1002
}
  0
INSERT
  5
1237A
330
2
100
AcDbEntity
  8
ASHADE
 62
     8
100
AcDbBlockReference
  2
AVE_RENDER
 10
55.28926675166338
 20
-117.0158898597038
 30
0.0
1001
AVE_RENDER
1002
{
1070
     0
1000
Fog Opt
1070
     0
1070
     0
1040
0.0
1040
1.0
1040
0.0
1040
1.0
1010
0.5
1020
0.5
1030
0.5
1002
}
  0
INSERT
  5
1237B
330
2
100
AcDbEntity
  8
ASHADE
 62
     9
100
AcDbBlockReference
  2
AVE_RENDER
 10
55.28926675166338
 20
-117.0158898597038
 30
0.0
1001
AVE_RENDER
1002
{
1070
     0
1000
BG Opt
1070
     0
1070
     1
1010
0.0
1020
0.0
1030
0.0
1010
1.0
1020
0.0
1030
0.0
1010
0.0
1020
1.0
1030
0.0
1010
0.0
1020
0.0
1030
1.0
1040
0.5
1040
0.33
1040
0.0
1000

1070
     1
1000

1070
     1
1070
     1
1040
1.0
1040
1.0
1040
0.0
1040
0.0
1070
     0
1002
}
  0
INSERT
  5
1237C
330
2
100
AcDbEntity
  8
ASHADE
 62
     1
100
AcDbBlockReference
  2
AVE_GLOBAL
 10
55.28926675166338
 20
-117.0158898597038
 30
0.0
1001
AVE_MATERIAL
1002
{
1000
*GLOBAL*
1000
1
1000
Global finish.
1002
{
1002
}
1002
{
1070
    63
1002
{
1002
{
1010
-1.0
1020
-1.0
1030
-1.0
1002
}
1040
0.1000000014901161
1000

1040
0.0
1002
{
1002
}
1040
0.0
1002
{
1002
}
1040
0.0
1002
}
1002
{
1002
{
1010
-1.0
1020
-1.0
1030
-1.0
1002
}
1040
0.6999999880790711
1000

1040
0.0
1002
{
1002
}
1040
0.0
1002
{
1002
}
1040
0.0
1002
}
1002
{
1002
{
1010
-1.0
1020
-1.0
1030
-1.0
1002
}
1040
0.2000000029802322
1000

1040
0.0
1002
{
1002
}
1040
0.0
1002
{
1002
}
1040
0.0
1002
}
1002
{
1070
     0
1002
{
1070
     1
1002
{
1040
1.0
1040
1.0
1000

1040
0.0
1002
{
1002
}
1040
0.0
1002
{
1002
}
1040
0.0
1002
}
1002
}
1040
1.0
1040
0.0
1040
0.0
1002
}
1002
{
1040
1.0
1040
1.0
1000

1040
0.0
1002
{
1002
}
1040
0.0
1002
{
1002
}
1040
0.0
1002
}
1002
{
1040
0.5
1040
1.0
1000

1040
0.0
1002
{
1002
}
1040
0.0
1002
{
1002
}
1040
0.0
1002
}
1002
{
1070
     0
1040
0.0
1002
{
1002
}
1040
1.0
1002
{
1002
}
1040
0.0
1002
}
1002
{
1040
0.0
1002
{
1002
{
1010
0.0
1020
0.0
1030
0.0
1002
}
1040
1.0
1000

1040
0.0
1002
{
1002
}
1040
0.0
1002
{
1002
}
1040
0.0
1002
}
1002
}
1002
{
1002
{
1070
     1
1002
{
1040
0.0
1040
1.0
1000

1040
0.0
1002
{
1002
}
1040
0.0
1002
{
1002
}
1040
0.0
1002
}
1002
}
1040
0.0
1002
{
1002
}
1010
1.0
1020
0.0
1030
0.0
1010
0.0
1020
1.0
1030
0.0
1010
0.0
1020
0.0
1030
1.0
1070
     0
1002
}
1002
{
1002
{
1040
1.0
1040
1.0
1002
{
1070
     1
1002
{
1040
1.0
1040
1.0
1000

1040
0.0
1002
{
1002
}
1040
0.0
1002
{
1002
}
1040
0.0
1002
}
1002
}
1002
}
1070
     0
1040
0.0
1002
{
1002
}
1002
}
1002
{
1002
}
1002
}
1002
{
1071
        3
1070
     3
1070
     0
1002
{
1070
     2
1070
     0
1070
     0
1040
0.0
1002
}
1070
     0
1070
     2
1002
{
1002
}
1002
}
1002
{
1040
8030.0
1040
190.3000030517578
1040
0.3050000071525574
1040
228.0
1040
545.0
1040
14.0
1040
17.39999961853027
1040
0.4560000002384186
1002
}
1002
}
  0
INSERT
  5
1237D
330
2
100
AcDbEntity
  8
ASHADE
 62
     1
100
AcDbBlockReference
  2
AVE_RENDER
 10
55.20353780421396
 20
-172.8794249653575
 30
0.0
1001
AVE_RENDER
1002
{
1070
     7
1000
Pref
1070
    60
1070
    20
1070
     1
1070
     0
1000

1070
    10
1070
     1
1070
    10
1040
1.0
1070
     1
1040
0.3
1040
0.7
1040
0.0
1040
10.0
1010
-1.0
1020
-1.0
1030
-1.0
1040
0.3
1070
    49
1070
     0
1070
     0
1010
1.0
1020
1.0
1030
1.0
1040
45.0
1070
     1
1070
     0
1000
WCS
1040
0.0
1070
     0
1040
10.0
1002
}
  0
INSERT
  5
1237E
330
2
100
AcDbEntity
  8
ASHADE
 62
     3
100
AcDbBlockReference
  2
AVE_RENDER
 10
55.20353780421396
 20
-172.8794249653575
 30
0.0
1001
AVE_RENDER
1002
{
1070
     0
1000
Full Opt
1070
     0
1070
     1
1070
     1
1070
     1
1070
     0
1070
     0
1070
     0
1070
     1
1070
     1
1040
0.0001
1040
0.0001
1002
}
  0
INSERT
  5
1237F
330
2
100
AcDbEntity
  8
ASHADE
 62
     4
100
AcDbBlockReference
  2
AVE_RENDER
 10
55.20353780421396
 20
-172.8794249653575
 30
0.0
1001
AVE_RENDER
1002
{
1070
     0
1000
Quick Opt
1070
     0
1070
     1
1070
     1
1070
     1
1070
     0
1070
     0
1070
     1
1002
}
  0
INSERT
  5
12380
330
2
100
AcDbEntity
  8
ASHADE
 62
     5
100
AcDbBlockReference
  2
AVE_RENDER
 10
55.20353780421396
 20
-172.8794249653575
 30
0.0
1001
AVE_RENDER
1002
{
1070
     1
1000
Scanl Opt
1070
     2
1070
     0
1070
     2
1040
2.0
1040
4.0
1070
     0
1070
     1
1070
     0
1040
0.03
1002
}
  0
INSERT
  5
12381
330
2
100
AcDbEntity
  8
ASHADE
 62
     6
100
AcDbBlockReference
  2
AVE_RENDER
 10
55.20353780421396
 20
-172.8794249653575
 30
0.0
1001
AVE_RENDER
1002
{
1070
     2
1000
Raytr Opt
1070
     2
1070
     0
1070
     2
1040
2.0
1040
4.0
1070
     0
1070
     1
1070
     1
1040
0.03
1070
     3
1040
0.03
1002
}
  0
INSERT
  5
12382
330
2
100
AcDbEntity
  8
ASHADE
 62
     7
100
AcDbBlockReference
  2
AVE_RENDER
 10
55.20353780421396
 20
-172.8794249653575
 30
0.0
1001
AVE_RENDER
1002
{
1070
     0
1000
RFile Opt
1070
     1
1070
   640
1070
   480
1070
 10000
1070
     1
1070
     8
1070
     8
1070
     0
1070
     0
1070
     0
1070
     0
1070
     0
1070
     0
1070
     0
1002
}
  0
INSERT
  5
12383
330
2
100
AcDbEntity
  8
ASHADE
 62
     8
100
AcDbBlockReference
  2
AVE_RENDER
 10
55.20353780421396
 20
-172.8794249653575
 30
0.0
1001
AVE_RENDER
1002
{
1070
     0
1000
Fog Opt
1070
     0
1070
     0
1040
0.0
1040
1.0
1040
0.0
1040
1.0
1010
0.5
1020
0.5
1030
0.5
1002
}
  0
INSERT
  5
12384
330
2
100
AcDbEntity
  8
ASHADE
 62
     9
100
AcDbBlockReference
  2
AVE_RENDER
 10
55.20353780421396
 20
-172.8794249653575
 30
0.0
1001
AVE_RENDER
1002
{
1070
     0
1000
BG Opt
1070
     0
1070
     1
1010
0.0
1020
0.0
1030
0.0
1010
1.0
1020
0.0
1030
0.0
1010
0.0
1020
1.0
1030
0.0
1010
0.0
1020
0.0
1030
1.0
1040
0.5
1040
0.33
1040
0.0
1000

1070
     1
1000

1070
     1
1070
     1
1040
1.0
1040
1.0
1040
0.0
1040
0.0
1070
     0
1002
}
  0
INSERT
  5
12385
330
2
100
AcDbEntity
  8
ASHADE
 62
     1
100
AcDbBlockReference
  2
AVE_GLOBAL
 10
55.20353780421396
 20
-172.8794249653575
 30
0.0
1001
AVE_MATERIAL
1002
{
1000
*GLOBAL*
1000
1
1000
Global finish.
1002
{
1002
}
1002
{
1070
    63
1002
{
1002
{
1010
-1.0
1020
-1.0
1030
-1.0
1002
}
1040
0.1000000014901161
1000

1040
0.0
1002
{
1002
}
1040
0.0
1002
{
1002
}
1040
0.0
1002
}
1002
{
1002
{
1010
-1.0
1020
-1.0
1030
-1.0
1002
}
1040
0.6999999880790711
1000

1040
0.0
1002
{
1002
}
1040
0.0
1002
{
1002
}
1040
0.0
1002
}
1002
{
1002
{
1010
-1.0
1020
-1.0
1030
-1.0
1002
}
1040
0.2000000029802322
1000

1040
0.0
1002
{
1002
}
1040
0.0
1002
{
1002
}
1040
0.0
1002
}
1002
{
1070
     0
1002
{
1070
     1
1002
{
1040
1.0
1040
1.0
1000

1040
0.0
1002
{
1002
}
1040
0.0
1002
{
1002
}
1040
0.0
1002
}
1002
}
1040
1.0
1040
0.0
1040
0.0
1002
}
1002
{
1040
1.0
1040
1.0
1000

1040
0.0
1002
{
1002
}
1040
0.0
1002
{
1002
}
1040
0.0
1002
}
1002
{
1040
0.5
1040
1.0
1000

1040
0.0
1002
{
1002
}
1040
0.0
1002
{
1002
}
1040
0.0
1002
}
1002
{
1070
     0
1040
0.0
1002
{
1002
}
1040
1.0
1002
{
1002
}
1040
0.0
1002
}
1002
{
1040
0.0
1002
{
1002
{
1010
0.0
1020
0.0
1030
0.0
1002
}
1040
1.0
1000

1040
0.0
1002
{
1002
}
1040
0.0
1002
{
1002
}
1040
0.0
1002
}
1002
}
1002
{
1002
{
1070
     1
1002
{
1040
0.0
1040
1.0
1000

1040
0.0
1002
{
1002
}
1040
0.0
1002
{
1002
}
1040
0.0
1002
}
1002
}
1040
0.0
1002
{
1002
}
1010
1.0
1020
0.0
1030
0.0
1010
0.0
1020
1.0
1030
0.0
1010
0.0
1020
0.0
1030
1.0
1070
     0
1002
}
1002
{
1002
{
1040
1.0
1040
1.0
1002
{
1070
     1
1002
{
1040
1.0
1040
1.0
1000

1040
0.0
1002
{
1002
}
1040
0.0
1002
{
1002
}
1040
0.0
1002
}
1002
}
1002
}
1070
     0
1040
0.0
1002
{
1002
}
1002
}
1002
{
1002
}
1002
}
1002
{
1071
        3
1070
     3
1070
     0
1002
{
1070
     2
1070
     0
1070
     0
1040
0.0
1002
}
1070
     0
1070
     2
1002
{
1002
}
1002
}
1002
{
1040
8030.0
1040
190.3000030517578
1040
0.3050000071525574
1040
228.0
1040
545.0
1040
14.0
1040
17.39999961853027
1040
0.4560000002384186
1002
}
1002
}
  0
DIMENSION
  5
12414
330
2
100
AcDbEntity
  8
LINEWORK
 62
     7
100
AcDbDimension
  2
*D10
 10
1.845212103954423
 20
-16.7337754116132
 30
0.0
 11
-4.579903474418216
 21
-16.7337754116132
 31
0.0
 70
   160
 71
     5
 42
-1.0
  3
STANDARD
100
AcDbAlignedDimension
 13
9.219212103954419
 23
-21.06324004091021
 33
0.0
 14
1.845212103954423
 24
-21.06324004091021
 34
0.0
100
AcDbRotatedDimension
1001
ACAD
1000
DSTYLE
1002
{
1070
   287
1070
     4
1070
   287
1070
     4
1070
    40
1040
1.199999999999999
1070
    73
1070
     1
1070
    74
1070
     1
1070
    77
1070
     0
1070
   147
1040
0.5
1070
   279
1070
     1
1070
   288
1070
     1
1070
   289
1070
     3
1002
}
  0
DIMENSION
  5
12430
330
2
100
AcDbEntity
  8
LINEWORK
 62
     7
100
AcDbDimension
  2
*D11
 10
9.661084717447891
 20
-51.04098776851322
 30
0.0
 11
15.67026605057125
 21
-51.04098776851322
 31
0.0
 70
   160
 71
     5
 42
-1.0
  3
STANDARD
100
AcDbAlignedDimension
 13
1.423341308301644
 23
-47.06324004091022
 33
0.0
 14
9.661084717447891
 24
-47.06324004091022
 34
0.0
100
AcDbRotatedDimension
1001
ACAD
1000
DSTYLE
1002
{
1070
   287
1070
     4
1070
   287
1070
     4
1070
    40
1040
1.199999999999999
1070
    73
1070
     1
1070
    74
1070
     1
1070
    77
1070
     0
1070
   147
1040
0.5
1070
   279
1070
     1
1070
   288
1070
     1
1070
   289
1070
     3
1002
}
  0
LINE
  5
12499
330
2
100
AcDbEntity
  8
LINEWORK
 62
     7
370
    50
100
AcDbLine
 10
8.77542730268199
 20
-43.69479314498979
 30
0.0
 11
2.304881918163928
 21
-43.69706373656852
 31
0.0
  0
LINE
  5
1249A
330
2
100
AcDbEntity
  8
LINEWORK
 62
     7
370
    50
100
AcDbLine
 10
8.77542730268199
 20
-43.94379314498979
 30
0.0
 11
2.305056672284322
 21
-43.94606367524522
 31
0.0
  0
LINE
  5
1249B
330
2
100
AcDbEntity
  8
LINEWORK
 62
     7
370
    50
100
AcDbLine
 10
9.661084717447906
 20
-44.1307931449898
 30
0.0
 11
1.419530716682842
 21
-44.13368520462276
 31
0.0
  0
LINE
  5
1249C
330
2
100
AcDbEntity
  8
LINEWORK
 62
     7
370
    50
100
AcDbLine
 10
7.875159205134949
 20
-39.82004314498979
 30
0.0
 11
3.202430402316181
 21
-39.82168286127935
 31
0.0
  0
LINE
  5
1249D
330
2
100
AcDbEntity
  8
LINEWORK
 62
     7
370
    50
100
AcDbLine
 10
7.875159205134949
 20
-40.13254314498978
 30
0.0
 11
3.202649722246363
 21
-40.13418278431736
 31
0.0
  0
LINE
  5
1249E
330
2
100
AcDbEntity
  8
LINEWORK
 62
     7
370
    50
100
AcDbLine
 10
7.874962682105675
 20
-40.75779618602505
 30
0.0
 11
3.203285062677807
 21
-40.75943553344182
 31
0.0
  0
LINE
  5
1249F
330
2
100
AcDbEntity
  8
LINEWORK
 62
     7
370
    50
100
AcDbLine
 10
8.77542730268199
 20
-41.88254314498979
 30
0.0
 11
2.303610038024842
 21
-41.88481418288644
 31
0.0
  0
LINE
  5
124A0
330
2
100
AcDbEntity
  8
LINEWORK
 62
     7
370
    50
100
AcDbLine
 10
8.775427302681904
 20
-42.41379314498979
 30
0.0
 11
2.303982881906236
 21
-42.41606405205107
 31
0.0
  0
LINE
  5
124A1
330
2
100
AcDbEntity
  8
LINEWORK
 62
     7
370
    50
100
AcDbLine
 10
7.602805094358544
 20
-24.51393611373552
 30
0.0
 11
3.464042256176369
 21
-24.51538845499708
 31
0.0
  0
LINE
  5
124A2
330
2
100
AcDbEntity
  8
LINEWORK
 62
     7
370
    50
100
AcDbLine
 10
7.602805094358515
 20
-25.01289236373549
 30
0.0
 11
3.464392435536083
 21
-25.01434458211495
 31
0.0
  0
LINE
  5
124A3
330
2
100
AcDbEntity
  8
LINEWORK
 62
     7
370
    50
100
AcDbLine
 10
7.700586250677972
 20
-27.00871736373553
 30
0.0
 11
3.368012020736884
 21
-27.01023771572692
 31
0.0
  0
LINE
  5
124A4
330
2
100
AcDbEntity
  8
LINEWORK
 62
     7
370
    50
100
AcDbLine
 10
7.700586250677972
 20
-27.47629314499004
 30
0.0
 11
3.368340176537529
 21
-27.47781338182765
 31
0.0
  0
LINE
  5
124A5
330
2
100
AcDbEntity
  8
LINEWORK
 62
     7
370
    50
100
AcDbLine
 10
7.575847188177547
 20
-27.57004314498979
 30
0.0
 11
3.491235978527228
 21
-27.57004314498979
 31
0.0
  0
LINE
  5
124A6
330
2
100
AcDbEntity
  8
LINEWORK
 62
     7
370
    50
100
AcDbLine
 10
1.845212103954438
 20
-23.4382400409102
 30
0.0
 11
9.219212103954433
 21
-23.4382400409102
 31
0.0
  0
LINE
  5
124A7
330
2
100
AcDbEntity
  8
LINEWORK
 62
     7
370
    50
100
AcDbLine
 10
8.460651975287547
 20
-23.54233255485763
 30
0.0
 11
2.605513692037405
 21
-23.54438719274178
 31
0.0
  0
INSERT
  5
124A9
330
2
100
AcDbEntity
  8
LINEWORK
 62
     7
100
AcDbBlockReference
 66
     1
  2
PROFILE LOGO
 10
2.118725272824519
 20
-21.41141547563449
 30
0.0
  0
ATTRIB
  5
124AA
330
124A9
100
AcDbEntity
  8
A1
 62
    22
100
AcDbText
 10
2.40108562639122
 20
-23.08971372454102
 30
0.0
 40
0.2126953125
  1
0989
 72
     1
 11
2.79685567810543
 21
-23.08971372454102
 31
0.0
100
AcDbAttribute
  2
XXXX
 70
     0
  0
SEQEND
  5
124AB
330
124A9
100
AcDbEntity
  8
LINEWORK
 62
     7
  0
LINE
  5
124BA
330
2
100
AcDbEntity
  8
LINEWORK
 62
     7
370
    50
100
AcDbLine
 10
9.219212103954433
 20
-21.06324004091022
 30
0.0
 11
9.219212103954433
 21
-23.43824004091022
 31
0.0
  0
LINE
  5
124BB
330
2
100
AcDbEntity
  8
LINEWORK
 62
     7
370
    50
100
AcDbLine
 10
9.219212103954433
 20
-23.43824004091022
 30
0.0
 11
8.460651975287539
 21
-23.54233255485763
 31
0.0
  0
ARC
  5
124BC
330
2
100
AcDbEntity
  8
LINEWORK
 62
     7
370
    50
100
AcDbCircle
 10
7.311110423050812
 20
-23.39188717991327
 30
0.0
 40
1.159344466136348
100
AcDbArc
 50
284.5723961725117
 51
352.5438356834265
  0
LINE
  5
124BD
330
2
100
AcDbEntity
  8
LINEWORK
 62
     7
370
    50
100
AcDbLine
 10
7.602805094358508
 20
-24.51393611373553
 30
0.0
 11
7.602805094358509
 21
-25.0128923637355
 31
0.0
  0
ARC
  5
124BE
330
2
100
AcDbEntity
  8
LINEWORK
 62
     7
370
    50
100
AcDbCircle
 10
7.767618888835007
 20
-25.3832802101179
 30
0.0
 40
0.4054019531249581
100
AcDbArc
 50
113.9879280927404
 51
227.3960515873886
  0
LINE
  5
124BF
330
2
100
AcDbEntity
  8
LINEWORK
 62
     7
370
    50
100
AcDbLine
 10
7.493191484727035
 20
-25.68167649607349
 30
0.0
 11
7.979085080998204
 21
-26.14009091217365
 31
0.0
  0
ARC
  5
124C0
330
2
100
AcDbEntity
  8
LINEWORK
 62
     7
370
    50
100
AcDbCircle
 10
7.63821671942798
 20
-26.50976111373555
 30
0.0
 40
0.5028392365780457
100
AcDbArc
 50
277.1250163489018
 51
47.32122648830432
  0
LINE
  5
124C1
330
2
100
AcDbEntity
  8
LINEWORK
 62
     7
370
    50
100
AcDbLine
 10
7.700586250677979
 20
-27.00871736373554
 30
0.0
 11
7.700586250677979
 21
-27.47629314499005
 31
0.0
  0
LINE
  5
124C2
330
2
100
AcDbEntity
  8
LINEWORK
 62
     7
370
    50
100
AcDbLine
 10
7.700586250677979
 20
-27.47629314499005
 30
0.0
 11
7.575847188177561
 21
-27.57004314498979
 31
0.0
  0
ARC
  5
124C3
330
2
100
AcDbEntity
  8
LINEWORK
 62
     7
370
    50
100
AcDbCircle
 10
20.27894056119842
 20
-28.66270903917386
 30
0.0
 40
12.74999999999998
100
AcDbArc
 50
175.0837622692382
 51
208.3196601840838
  0
ARC
  5
124C4
330
2
100
AcDbEntity
  8
LINEWORK
 62
     7
370
    50
100
AcDbCircle
 10
5.53221167768197
 20
-36.58834597382684
 30
0.0
 40
3.991650000000085
100
AcDbArc
 50
305.941729286554
 51
28.05194325720933
  0
LINE
  5
124C5
330
2
100
AcDbEntity
  8
LINEWORK
 62
     7
370
    50
100
AcDbLine
 10
7.875159205134947
 20
-39.82004314498979
 30
0.0
 11
7.875159205134949
 21
-40.13254314498979
 31
0.0
  0
ARC
  5
124C6
330
2
100
AcDbEntity
  8
LINEWORK
 62
     7
370
    50
100
AcDbCircle
 10
7.875159205199806
 20
-40.44516969639198
 30
0.0
 40
0.3126265514021895
100
AcDbArc
 50
269.9639827629427
 51
90.00000001188658
  0
ARC
  5
124C7
330
2
100
AcDbEntity
  8
LINEWORK
 62
     7
370
    50
100
AcDbCircle
 10
9.179097956986847
 20
-40.63654086981015
 30
0.0
 40
1.309760156249903
100
AcDbArc
 50
185.3119499627504
 51
252.0490940633961
  0
LINE
  5
124C8
330
2
100
AcDbEntity
  8
LINEWORK
 62
     7
370
    50
100
AcDbLine
 10
8.77542730268199
 20
-41.8825431449898
 30
0.0
 11
8.775427302681897
 21
-42.4137931449898
 31
0.0
  0
ARC
  5
124C9
330
2
100
AcDbEntity
  8
LINEWORK
 62
     7
370
    50
100
AcDbCircle
 10
8.775427302681944
 20
-43.0542931449898
 30
0.0
 40
0.640500000000003
100
AcDbArc
 50
270.0000000000041
 51
90.00000000000412
  0
LINE
  5
124CA
330
2
100
AcDbEntity
  8
LINEWORK
 62
     7
370
    50
100
AcDbLine
 10
8.77542730268199
 20
-43.6947931449898
 30
0.0
 11
8.77542730268199
 21
-43.9437931449898
 31
0.0
  0
LINE
  5
124CB
330
2
100
AcDbEntity
  8
LINEWORK
 62
     7
370
    50
100
AcDbLine
 10
8.77542730268199
 20
-43.9437931449898
 30
0.0
 11
9.661084717447902
 21
-44.1307931449898
 31
0.0
  0
LINE
  5
124CC
330
2
100
AcDbEntity
  8
LINEWORK
 62
     7
370
    50
100
AcDbLine
 10
9.661084717447902
 20
-44.1307931449898
 30
0.0
 11
9.6610847174479
 21
-47.06324004091022
 31
0.0
  0
LINE
  5
124CD
330
2
100
AcDbEntity
  8
LINEWORK
 62
     7
370
    30
100
AcDbLine
 10
9.6610847174479
 20
-47.06324004091022
 30
0.0
 11
1.421586748428094
 21
-47.06324004091022
 31
0.0
  0
LINE
  5
124CE
330
2
100
AcDbEntity
  8
LINEWORK
 62
     7
370
    50
100
AcDbLine
 10
1.421586748428094
 20
-47.06324004091022
 30
0.0
 11
1.419530716682849
 21
-44.13368520462276
 31
0.0
  0
LINE
  5
124CF
330
2
100
AcDbEntity
  8
LINEWORK
 62
     7
370
    50
100
AcDbLine
 10
1.419530716682849
 20
-44.13368520462276
 30
0.0
 11
2.305056672284312
 21
-43.94606367524523
 31
0.0
  0
LINE
  5
124D0
330
2
100
AcDbEntity
  8
LINEWORK
 62
     7
370
    50
100
AcDbLine
 10
2.305056672284312
 20
-43.94606367524523
 30
0.0
 11
2.304881918163946
 21
-43.69706373656853
 31
0.0
  0
ARC
  5
124D1
330
2
100
AcDbEntity
  8
LINEWORK
 62
     7
370
    50
100
AcDbCircle
 10
2.304432400035097
 20
-43.05656389430981
 30
0.0
 40
0.6405000000000018
100
AcDbArc
 50
90.04021154365663
 51
270.0402115436566
  0
LINE
  5
124D2
330
2
100
AcDbEntity
  8
LINEWORK
 62
     7
370
    50
100
AcDbLine
 10
2.303982881906247
 20
-42.41606405205108
 30
0.0
 11
2.303610038024849
 21
-41.88481418288644
 31
0.0
  0
ARC
  5
124D3
330
2
100
AcDbEntity
  8
LINEWORK
 62
     7
370
    50
100
AcDbCircle
 10
1.899065009112936
 20
-40.63909552023327
 30
0.0
 40
1.309760156249904
100
AcDbArc
 50
287.9911174802647
 51
354.7282615809105
  0
ARC
  5
124D4
330
2
100
AcDbEntity
  8
LINEWORK
 62
     7
370
    50
100
AcDbCircle
 10
3.202869130928458
 20
-40.44680925872646
 30
0.0
 40
0.3126265514021966
100
AcDbArc
 50
90.04021153177358
 51
270.0762287807174
  0
LINE
  5
124D5
330
2
100
AcDbEntity
  8
LINEWORK
 62
     7
370
    50
100
AcDbLine
 10
3.202649722246356
 20
-40.13418278431737
 30
0.0
 11
3.202430402316174
 21
-39.82168286127935
 31
0.0
  0
ARC
  5
124D6
330
2
100
AcDbEntity
  8
LINEWORK
 62
     7
370
    50
100
AcDbCircle
 10
5.54310927083851
 20
-36.58834214973137
 30
0.0
 40
3.991650000000076
100
AcDbArc
 50
151.9882682864515
 51
234.0984822571068
  0
ARC
  5
124D7
330
2
100
AcDbEntity
  8
LINEWORK
 62
     7
370
    50
100
AcDbCircle
 10
-9.209178381323315
 20
-28.67305677194823
 30
0.0
 40
12.74999999999999
100
AcDbArc
 50
331.7205513595768
 51
4.956449274422467
  0
LINE
  5
124D8
330
2
100
AcDbEntity
  8
LINEWORK
 62
     7
370
    50
100
AcDbLine
 10
3.493145004296456
 20
-27.57147581389887
 30
0.0
 11
3.368340176537515
 21
-27.47781338182765
 31
0.0
  0
LINE
  5
124D9
330
2
100
AcDbEntity
  8
LINEWORK
 62
     7
370
    50
100
AcDbLine
 10
3.368340176537515
 20
-27.47781338182765
 30
0.0
 11
3.36801202073688
 21
-27.01023771572693
 31
0.0
  0
ARC
  5
124DA
330
2
100
AcDbEntity
  8
LINEWORK
 62
     7
370
    50
100
AcDbCircle
 10
3.430031357266895
 20
-26.51123781618909
 30
0.0
 40
0.5028392365780473
100
AcDbArc
 50
132.7189850553565
 51
262.9151951947587
  0
LINE
  5
124DB
330
2
100
AcDbEntity
  8
LINEWORK
 62
     7
370
    50
100
AcDbLine
 10
3.088903636308216
 20
-26.14180693518978
 30
0.0
 11
3.574475386777574
 21
-25.68305162030842
 31
0.0
  0
ARC
  5
124DC
330
2
100
AcDbEntity
  8
LINEWORK
 62
     7
370
    50
100
AcDbCircle
 10
3.299838628646803
 20
-25.38484800751851
 30
0.0
 40
0.4054019531249592
100
AcDbArc
 50
312.6441599562718
 51
66.05228345092003
  0
LINE
  5
124DD
330
2
100
AcDbEntity
  8
LINEWORK
 62
     7
370
    50
100
AcDbLine
 10
3.46439243553609
 20
-25.01434458211495
 30
0.0
 11
3.464042256176369
 21
-24.5153884549971
 31
0.0
  0
ARC
  5
124DE
330
2
100
AcDbEntity
  8
LINEWORK
 62
     7
370
    50
100
AcDbCircle
 10
3.754949375025752
 20
-23.39313507925536
 30
0.0
 40
1.159344466136349
100
AcDbArc
 50
187.496375860234
 51
255.4678153711489
  0
LINE
  5
124DF
330
2
100
AcDbEntity
  8
LINEWORK
 62
     7
370
    50
100
AcDbLine
 10
2.605513692037416
 20
-23.5443871927418
 30
0.0
 11
1.845212103954434
 21
-23.43824004091022
 31
0.0
  0
LINE
  5
124E0
330
2
100
AcDbEntity
  8
LINEWORK
 62
     7
370
    50
100
AcDbLine
 10
1.845212103954434
 20
-23.43824004091022
 30
0.0
 11
1.845212103954434
 21
-21.06324004091022
 31
0.0
  0
LINE
  5
124E1
330
2
100
AcDbEntity
  8
LINEWORK
 62
     7
370
    50
100
AcDbLine
 10
1.845212103954434
 20
-21.06324004091022
 30
0.0
 11
9.219212103954433
 21
-21.06324004091022
 31
0.0
  0
DIMENSION
  5
124E2
330
2
100
AcDbEntity
  8
LINEWORK
 62
     7
100
AcDbDimension
  2
*D12
 10
-7.159254740179211
 20
-21.06324004091022
 30
0.0
 11
-7.159254740179214
 21
-33.73613376242689
 31
0.0
 70
   160
 71
     5
 42
-1.0
  3
STANDARD
100
AcDbAlignedDimension
 13
1.421586748428101
 23
-47.06324004091022
 33
0.0
 14
1.845212103954438
 24
-21.06324004091022
 34
0.0
 50
90.0
100
AcDbRotatedDimension
1001
ACAD
1000
DSTYLE
1002
{
1070
   287
1070
     4
1070
   287
1070
     4
1070
    40
1040
1.199999999999999
1070
    73
1070
     1
1070
    74
1070
     1
1070
    77
1070
     0
1070
   147
1040
0.5
1070
   279
1070
     1
1070
   288
1070
     1
1070
   289
1070
     3
1002
}
  0
ENDSEC
  0
SECTION
  2
OBJECTS
  0
DICTIONARY
  5
8
330
0
100
AcDbDictionary
281
     1
  3
ACAD_GROUP
350
21
  3
ACAD_LAYOUT
350
C
  3
ACAD_MLINESTYLE
350
22
  3
ACAD_PLOTSETTINGS
350
23
  3
ACAD_PLOTSTYLENAME
350
7
  0
DICTIONARY
  5
3
330
2
100
AcDbDictionary
280
     1
281
     1
  3
ACAD_LAYOUTSELFREF
360
12632
  0
DICTIONARY
  5
12529
330
D
100
AcDbDictionary
280
     1
281
     1
  3
ACAD_LAYOUTSELFREF
360
12635
  0
DICTIONARY
  5
21
102
{ACAD_REACTORS
330
8
102
}
330
8
100
AcDbDictionary
281
     1
  0
DICTIONARY
  5
C
102
{ACAD_REACTORS
330
8
102
}
330
8
100
AcDbDictionary
281
     1
  3
Layout1
350
10
  3
Model
350
B
  0
DICTIONARY
  5
22
102
{ACAD_REACTORS
330
8
102
}
330
8
100
AcDbDictionary
281
     1
  3
STANDARD
350
25
  0
DICTIONARY
  5
23
102
{ACAD_REACTORS
330
8
102
}
330
8
100
AcDbDictionary
281
     1
  0
ACDBDICTIONARYWDFLT
  5
7
102
{ACAD_REACTORS
330
8
102
}
330
8
100
AcDbDictionary
281
     1
  3
Normal
350
6
100
AcDbDictionaryWithDefault
340
6
  0
XRECORD
  5
12632
102
{ACAD_REACTORS
330
3
102
}
330
3
100
AcDbXrecord
280
     1
340
2
  0
XRECORD
  5
12635
102
{ACAD_REACTORS
330
12529
102
}
330
12529
100
AcDbXrecord
280
     1
340
D
  0
LAYOUT
  5
10
102
{ACAD_REACTORS
330
C
102
}
330
C
100
AcDbPlotSettings
  1

  2
None
  4

  6

 40
0.0
 41
0.0
 42
0.0
 43
0.0
 44
0.0
 45
0.0
 46
0.0
 47
0.0
 48
0.0
 49
0.0
140
0.0
141
0.0
142
1.0
143
1.0
 70
   688
 72
     0
 73
     0
 74
     5
  7

 75
    16
147
1.0
148
0.0
149
0.0
100
AcDbLayout
  1
Layout1
 70
     1
 71
     1
 10
0.0
 20
0.0
 11
12.0
 21
9.0
 12
0.0
 22
0.0
 32
0.0
 14
1.000000000000000E+20
 24
1.000000000000000E+20
 34
1.000000000000000E+20
 15
-1.000000000000000E+20
 25
-1.000000000000000E+20
 35
-1.000000000000000E+20
146
0.0
 13
0.0
 23
0.0
 33
0.0
 16
1.0
 26
0.0
 36
0.0
 17
0.0
 27
1.0
 37
0.0
 76
     0
330
D
  0
LAYOUT
  5
B
102
{ACAD_REACTORS
330
C
102
}
330
C
100
AcDbPlotSettings
  1

  2
HP LaserJet 5.pc3
  4
Letter
  6

 40
7.143749713897705
 41
6.381738662719726
 42
7.14373779296875
 43
6.381744384765625
 44
215.8999938964843
 45
279.3999938964843
 46
0.0
 47
0.0
 48
18.1150952218613
 49
-29.58841144098672
140
108.9658431831381
141
37.99568155459724
142
1.0
143
7.432210607879966
 70
 11952
 72
     0
 73
     1
 74
     1
  7

 75
     0
147
0.1345494702396828
148
831.8506080398467
149
1654.458066928119
100
AcDbLayout
  1
Model
 70
     1
 71
     0
 10
0.0
 20
0.0
 11
12.0
 21
9.0
 12
0.0
 22
0.0
 32
0.0
 14
0.0
 24
0.0
 34
0.0
 15
0.0
 25
0.0
 35
0.0
146
0.0
 13
0.0
 23
0.0
 33
0.0
 16
1.0
 26
0.0
 36
0.0
 17
0.0
 27
1.0
 37
0.0
 76
     0
330
2
  0
MLINESTYLE
  5
25
102
{ACAD_REACTORS
330
22
102
}
330
22
100
AcDbMlineStyle
  2
STANDARD
 70
     0
  3

 62
   256
 51
90.0
 52
90.0
 71
     2
 49
0.5
 62
   256
  6
BYLAYER
 49
-0.5
 62
   256
  6
BYLAYER
  0
ACDBPLACEHOLDER
  5
6
102
{ACAD_REACTORS
330
7
102
}
330
7
  0
ENDSEC
  0
EOF
