  0
SECTION
  2
HEADER
  9
$ACADVER
  1
AC1015
  9
$ACADMAINTVER
 70
     6
  9
$DWGCODEPAGE
  3
ANSI_1252
  9
$INSBASE
 10
0.0
 20
0.0
 30
0.0
  9
$EXTMIN
 10
449.6974331187787
 20
63.80708754382546
 30
0.0
  9
$EXTMAX
 10
506.6116412686869
 20
106.145705801684
 30
0.0
  9
$LIMMIN
 10
0.0
 20
0.0
  9
$LIMMAX
 10
12.0
 20
9.0
  9
$ORTHOMODE
 70
     0
  9
$REGENMODE
 70
     1
  9
$FILLMODE
 70
     1
  9
$QTEXTMODE
 70
     0
  9
$MIRRTEXT
 70
     0
  9
$LTSCALE
 40
1.0
  9
$ATTMODE
 70
     2
  9
$TEXTSIZE
 40
2.0
  9
$TRACEWID
 40
0.05
  9
$TEXTSTYLE
  7
STANDARD
  9
$CLAYER
  8
A1
  9
$CELTYPE
  6
BYLAYER
  9
$CECOLOR
 62
     7
  9
$CELTSCALE
 40
1.0
  9
$DISPSILH
 70
     0
  9
$DIMSCALE
 40
1.0
  9
$DIMASZ
 40
0.5
  9
$DIMEXO
 40
1.0
  9
$DIMDLI
 40
0.0625
  9
$DIMRND
 40
0.0
  9
$DIMDLE
 40
0.0
  9
$DIMEXE
 40
0.25
  9
$DIMTP
 40
0.0
  9
$DIMTM
 40
0.0
  9
$DIMTXT
 40
1.0
  9
$DIMCEN
 40
0.0
  9
$DIMTSZ
 40
0.0
  9
$DIMTOL
 70
     0
  9
$DIMLIM
 70
     0
  9
$DIMTIH
 70
     1
  9
$DIMTOH
 70
     1
  9
$DIMSE1
 70
     0
  9
$DIMSE2
 70
     0
  9
$DIMTAD
 70
     0
  9
$DIMZIN
 70
     0
  9
$DIMBLK
  1

  9
$DIMASO
 70
     1
  9
$DIMSHO
 70
     1
  9
$DIMPOST
  1
"
  9
$DIMAPOST
  1

  9
$DIMALT
 70
     0
  9
$DIMALTD
 70
     0
  9
$DIMALTF
 40
25.4
  9
$DIMLFAC
 40
1.0
  9
$DIMTOFL
 70
     0
  9
$DIMTVP
 40
0.0
  9
$DIMTIX
 70
     0
  9
$DIMSOXD
 70
     0
  9
$DIMSAH
 70
     0
  9
$DIMBLK1
  1

  9
$DIMBLK2
  1

  9
$DIMSTYLE
  2
STANDARD
  9
$DIMCLRD
 70
     0
  9
$DIMCLRE
 70
     0
  9
$DIMCLRT
 70
     0
  9
$DIMTFAC
 40
0.125
  9
$DIMGAP
 40
0.5
  9
$DIMJUST
 70
     0
  9
$DIMSD1
 70
     0
  9
$DIMSD2
 70
     0
  9
$DIMTOLJ
 70
     1
  9
$DIMTZIN
 70
     0
  9
$DIMALTZ
 70
     2
  9
$DIMALTTZ
 70
     2
  9
$DIMUPT
 70
     1
  9
$DIMDEC
 70
     4
  9
$DIMTDEC
 70
     4
  9
$DIMALTU
 70
     2
  9
$DIMALTTD
 70
     0
  9
$DIMTXSTY
  7
STANDARD
  9
$DIMAUNIT
 70
     0
  9
$DIMADEC
 70
     0
  9
$DIMALTRND
 40
0.0
  9
$DIMAZIN
 70
     0
  9
$DIMDSEP
 70
    46
  9
$DIMATFIT
 70
     1
  9
$DIMFRAC
 70
     2
  9
$DIMLDRBLK
  1

  9
$DIMLUNIT
 70
     5
  9
$DIMLWD
 70
    -2
  9
$DIMLWE
 70
    -2
  9
$DIMTMOVE
 70
     1
  9
$LUNITS
 70
     5
  9
$LUPREC
 70
     4
  9
$SKETCHINC
 40
0.1
  9
$FILLETRAD
 40
0.0
  9
$AUNITS
 70
     0
  9
$AUPREC
 70
     1
  9
$MENU
  1
acad
  9
$ELEVATION
 40
0.0
  9
$PELEVATION
 40
0.0
  9
$THICKNESS
 40
0.0
  9
$LIMCHECK
 70
     0
  9
$CHAMFERA
 40
0.75
  9
$CHAMFERB
 40
0.75
  9
$CHAMFERC
 40
0.0
  9
$CHAMFERD
 40
0.0
  9
$SKPOLY
 70
     0
  9
$TDCREATE
 40
2451085.664838310
  9
$TDUCREATE
 40
2451085.831504977
  9
$TDUPDATE
 40
2451660.576868287
  9
$TDUUPDATE
 40
2451660.743534954
  9
$TDINDWG
 40
2.2893840278
  9
$TDUSRTIMER
 40
2.2893840278
  9
$USRTIMER
 70
     1
  9
$ANGBASE
 50
0.0
  9
$ANGDIR
 70
     0
  9
$PDMODE
 70
     0
  9
$PDSIZE
 40
0.0
  9
$PLINEWID
 40
0.0
  9
$SPLFRAME
 70
     0
  9
$SPLINETYPE
 70
     6
  9
$SPLINESEGS
 70
     8
  9
$HANDSEED
  5
6FC
  9
$SURFTAB1
 70
     6
  9
$SURFTAB2
 70
     6
  9
$SURFTYPE
 70
     6
  9
$SURFU
 70
     6
  9
$SURFV
 70
     6
  9
$UCSBASE
  2

  9
$UCSNAME
  2

  9
$UCSORG
 10
0.0
 20
0.0
 30
0.0
  9
$UCSXDIR
 10
1.0
 20
0.0
 30
0.0
  9
$UCSYDIR
 10
0.0
 20
1.0
 30
0.0
  9
$UCSORTHOREF
  2

  9
$UCSORTHOVIEW
 70
     0
  9
$UCSORGTOP
 10
0.0
 20
0.0
 30
0.0
  9
$UCSORGBOTTOM
 10
0.0
 20
0.0
 30
0.0
  9
$UCSORGLEFT
 10
0.0
 20
0.0
 30
0.0
  9
$UCSORGRIGHT
 10
0.0
 20
0.0
 30
0.0
  9
$UCSORGFRONT
 10
0.0
 20
0.0
 30
0.0
  9
$UCSORGBACK
 10
0.0
 20
0.0
 30
0.0
  9
$PUCSBASE
  2

  9
$PUCSNAME
  2

  9
$PUCSORG
 10
0.0
 20
0.0
 30
0.0
  9
$PUCSXDIR
 10
1.0
 20
0.0
 30
0.0
  9
$PUCSYDIR
 10
0.0
 20
1.0
 30
0.0
  9
$PUCSORTHOREF
  2

  9
$PUCSORTHOVIEW
 70
     0
  9
$PUCSORGTOP
 10
0.0
 20
0.0
 30
0.0
  9
$PUCSORGBOTTOM
 10
0.0
 20
0.0
 30
0.0
  9
$PUCSORGLEFT
 10
0.0
 20
0.0
 30
0.0
  9
$PUCSORGRIGHT
 10
0.0
 20
0.0
 30
0.0
  9
$PUCSORGFRONT
 10
0.0
 20
0.0
 30
0.0
  9
$PUCSORGBACK
 10
0.0
 20
0.0
 30
0.0
  9
$USERI1
 70
     0
  9
$USERI2
 70
     0
  9
$USERI3
 70
     0
  9
$USERI4
 70
     0
  9
$USERI5
 70
     0
  9
$USERR1
 40
0.0
  9
$USERR2
 40
0.0
  9
$USERR3
 40
0.0
  9
$USERR4
 40
0.0
  9
$USERR5
 40
0.0
  9
$WORLDVIEW
 70
     1
  9
$SHADEDGE
 70
     1
  9
$SHADEDIF
 70
    70
  9
$TILEMODE
 70
     1
  9
$MAXACTVP
 70
    16
  9
$PINSBASE
 10
0.0
 20
0.0
 30
0.0
  9
$PLIMCHECK
 70
     0
  9
$PEXTMIN
 10
1.000000000000000E+20
 20
1.000000000000000E+20
 30
1.000000000000000E+20
  9
$PEXTMAX
 10
-1.000000000000000E+20
 20
-1.000000000000000E+20
 30
-1.000000000000000E+20
  9
$PLIMMIN
 10
0.0
 20
0.0
  9
$PLIMMAX
 10
12.0
 20
9.0
  9
$UNITMODE
 70
     0
  9
$VISRETAIN
 70
     0
  9
$PLINEGEN
 70
     0
  9
$PSLTSCALE
 70
     1
  9
$TREEDEPTH
 70
  3020
  9
$CMLSTYLE
  2
STANDARD
  9
$CMLJUST
 70
     0
  9
$CMLSCALE
 40
1.0
  9
$PROXYGRAPHICS
 70
     1
  9
$MEASUREMENT
 70
     0
  9
$CELWEIGHT
370
    -1
  9
$ENDCAPS
280
     0
  9
$JOINSTYLE
280
     0
  9
$LWDISPLAY
290
     0
  9
$INSUNITS
 70
     0
  9
$HYPERLINKBASE
  1

  9
$STYLESHEET
  1

  9
$XEDIT
290
     1
  9
$CEPSNTYPE
380
     0
  9
$PSTYLEMODE
290
     1
  9
$FINGERPRINTGUID
  2
{A6232B84-9B2E-11D3-8DA4-00A0C981A35F}
  9
$VERSIONGUID
  2
{FEF9DEB2-E8FB-11D3-8DA4-00A0C981A35F}
  9
$EXTNAMES
290
     1
  9
$PSVPSCALE
 40
0.0
  9
$OLESTARTUP
290
     0
  0
ENDSEC
  0
SECTION
  2
CLASSES
  0
CLASS
  1
DICTIONARYVAR
  2
AcDbDictionaryVar
  3
AutoCAD 2000
 90
    32768
280
     0
281
     0
  0
CLASS
  1
LWPOLYLINE
  2
AcDbPolyline
  3
AutoCAD 2000
 90
    32768
280
     0
281
     1
  0
CLASS
  1
RASTERVARIABLES
  2
AcDbRasterVariables
  3
ISM
 90
    32768
280
     0
281
     0
  0
CLASS
  1
ACDBDICTIONARYWDFLT
  2
AcDbDictionaryWithDefault
  3
AutoCAD 2000
 90
        0
280
     0
281
     0
  0
CLASS
  1
ACDBPLACEHOLDER
  2
AcDbPlaceHolder
  3
AutoCAD 2000
 90
        0
280
     0
281
     0
  0
CLASS
  1
LAYOUT
  2
AcDbLayout
  3
AutoCAD 2000
 90
        0
280
     0
281
     0
  0
CLASS
  1
ACME_DOCUMENT
  2
AcMeDbDoc
  3
AcMeServices
 90
    32768
280
     1
281
     0
  0
CLASS
  1
ACMESCOPE
  2
AcMeScope
  3
AcMeServices
 90
    32768
280
     1
281
     0
  0
CLASS
  1
ACMECOMMANDHISTORY
  2
AcMeCommandHistory
  3
AcMeServices
 90
    32768
280
     1
281
     0
  0
CLASS
  1
ACIMSYSVARMAN
  2
AcImSysVarManager
  3
AcMeServices
 90
    32768
280
     1
281
     0
  0
CLASS
  1
ACIMREALSYSVAR
  2
AcImRealSysVar
  3
AcMeServices
 90
    32768
280
     1
281
     0
  0
CLASS
  1
ACIMINTSYSVAR
  2
AcImIntSysVar
  3
AcMeServices
 90
    32768
280
     1
281
     0
  0
CLASS
  1
ACMEDRAWINGMAN
  2
AcMeDrawingMan
  3
AcMeServices
 90
    32768
280
     1
281
     0
  0
CLASS
  1
ACMEVIEW
  2
AcMeView
  3
AcMeServices
 90
    32768
280
     1
281
     0
  0
CLASS
  1
ACDBENTITYCACHE
  2
AcMeEntityCache
  3
AcMeServices
 90
    32768
280
     1
281
     0
  0
CLASS
  1
GSMANAGER
  2
AcMeGSManager
  3
AcMeServices
 90
    32768
280
     1
281
     0
  0
CLASS
  1
AmdtInternalReactor
  2
AmdtInternalReactor
  3
AcMeServices
 90
    32768
280
     1
281
     0
  0
CLASS
  1
ACMESTATEMGR
  2
AcMeStateMgr
  3
AcMeServices
 90
    32768
280
     1
281
     0
  0
CLASS
  1
ACGREFMASTER
  2
AcGrefMaster
  3
AcAttribServices
 90
    32768
280
     1
281
     0
  0
CLASS
  1
AM_DRAWING_MGR
  2
AcDmDwgMgr
  3
AcMechDwgViewMgmt
 90
    32768
280
     1
281
     0
  0
CLASS
  1
AM_DWG_DOCUMENT
  2
AcDmDwgDocument
  3
AcMechDwgViewMgmt
 90
    32768
280
     1
281
     0
  0
CLASS
  1
AM_DWG_SHEET
  2
AcDmSheet
  3
AcMechDwgViewMgmt
 90
    32768
280
     1
281
     0
  0
CLASS
  1
AM_VIEWDIMPARMAP
  2
AcDmViewDimParMap
  3
AcMechDwgViewMgmt
 90
    32768
280
     1
281
     0
  0
CLASS
  1
AM_DWGMGR_NAME
  2
AcDmDwgMgrName
  3
AcMechDwgViewMgmt
 90
    32768
280
     1
281
     0
  0
CLASS
  1
ACME_DATABASE
  2
AcMeDbDatabase
  3
AcMeServices
 90
    32768
280
     1
281
     0
  0
CLASS
  1
ACRFINSADJUSTERMGR
  2
AcRfInsAdjusterMgr
  3
AcMeServices
 90
    32768
280
     1
281
     0
  0
CLASS
  1
ACGREFMASTER
  2
AcGrefacadMaster
  3
AcGrefServices
 90
    32768
280
     1
281
     0
  0
CLASS
  1
AMDTMENUSTATEMGR
  2
AmdtMenuStateMgr
  3
McadcomServices
 90
    32768
280
     1
281
     0
  0
CLASS
  1
AMDTMCOMMENUSTATE
  2
AmdtMcomMenuState
  3
McadcomServices
 90
    32768
280
     1
281
     0
  0
CLASS
  1
ASAPP
  2
AcAsAppObject
  3
AutoSurfServices
 90
    32768
280
     1
281
     0
  0
CLASS
  1
IM_STATIC_MAN
  2
AcImStaticVarManager
  3
AcMeServices
 90
    32768
280
     1
281
     0
  0
CLASS
  1
ACIMSTRSYSVAR
  2
AcImStrSysVar
  3
AcMeServices
 90
    32768
280
     1
281
     0
  0
CLASS
  1
ACIMDBLSTATICVAR
  2
AcImDblStaticVar
  3
AcMeServices
 90
    32768
280
     1
281
     0
  0
CLASS
  1
ACIMSTRSTATICVAR
  2
AcImStrStaticVar
  3
AcMeServices
 90
    32768
280
     1
281
     0
  0
CLASS
  1
ACIMINTSTATICVAR
  2
AcImIntStaticVar
  3
AcMeServices
 90
    32768
280
     1
281
     0
  0
CLASS
  1
ACADGREFMODULE
  2
AcAdGrefModule
  3
AdGrefServices
 90
    32768
280
     1
281
     0
  0
CLASS
  1
AMIMASTER
  2
AmiMaster
  3
AmiServices
 90
    32768
280
     1
281
     0
  0
CLASS
  1
ACASGREFMASTER
  2
AcAsGrefMaster
  3
AutoSurfResolverServices
 90
    32768
280
     1
281
     0
  0
CLASS
  1
MAPIAMMOUDLE
  2
MApiAmModule
  3
MApiAmServices
 90
    32768
280
     1
281
     0
  0
CLASS
  1
AMDTDMMENUSTATE
  2
AmdtDmMenuState
  3
AcMechDwgViewMgmt
 90
    32768
280
     1
281
     0
  0
CLASS
  1
AMDTADMENUSTATE
  2
AmdtAdMenuState
  3
DesignerServices
 90
    32768
280
     1
281
     0
  0
CLASS
  1
ADAPPL
  2
AcAdAppl
  3
DesignerServices
 90
    32768
280
     1
281
     0
  0
CLASS
  1
DEPMGR
  2
AcAdDepMgr
  3
DesignerServices
 90
    32768
280
     1
281
     0
  0
CLASS
  1
PARAMMGR
  2
AcAdParamMgr
  3
DesignerServices
 90
    32768
280
     1
281
     0
  0
CLASS
  1
PARAMSCOPE
  2
AcAdParamScope
  3
DesignerServices
 90
    32768
280
     1
281
     0
  0
CLASS
  1
NAMEDAPPL
  2
AcAdNamedAppl
  3
DesignerServices
 90
    32768
280
     1
281
     0
  0
CLASS
  1
ADHNTMPLT
  2
AdHoleNoteTemplateMgr
  3
DesignerServices
 90
    32768
280
     1
281
     0
  0
CLASS
  1
AM_HNTEMPLATE_MGR_NAME
  2
AdHoleNoteTemplateMgrName
  3
DesignerServices
 90
    32768
280
     1
281
     0
  0
CLASS
  1
AMDTAMMENUSTATE
  2
AmdtAmMenuState
  3
DesignerAssemblies
 90
    32768
280
     1
281
     0
  0
CLASS
  1
ACAMPROJECT
  2
AcAmProject
  3
DesignerAssemblies
 90
    32768
280
     1
281
     0
  0
CLASS
  1
ACAMGRCOMPDEF
  2
AcAmGrCompDef
  3
DesignerAssemblies
 90
    32768
280
     1
281
     0
  0
CLASS
  1
ACCMCONTEXT
  2
AcCmContext
  3
DesignerAssemblies
 90
    32768
280
     1
281
     0
  0
CLASS
  1
ACAMCOMPDEF
  2
AcAmCompDef
  3
DesignerAssemblies
 90
    32768
280
     1
281
     0
  0
CLASS
  1
ACAMCOMPDEFMGR
  2
AcAmCompDefMgr
  3
DesignerAssemblies
 90
    32768
280
     1
281
     0
  0
CLASS
  1
AMCONTEXTMGR
  2
AcAmContextMgr
  3
DesignerAssemblies
 90
    32768
280
     1
281
     0
  0
CLASS
  1
ACAMCONTEXTMODELER
  2
AcAmContextModeler
  3
DesignerAssemblies
 90
    32768
280
     1
281
     0
  0
CLASS
  1
MAPIADMODULE
  2
MApiAdModule
  3
MApiAdServices
 90
    32768
280
     1
281
     0
  0
CLASS
  1
ACMDATADICTIONARY
  2
AcmDataDictionary
  3
"AcmSymBB|Product Description: AutoCAD Mechanical 2000|Company: Autodesk"
 90
    32768
280
     1
281
     0
  0
CLASS
  1
ACMDATAENTRYBLOCK
  2
AcmDataEntryBlock
  3
"AcmSymBB|Product Description: AutoCAD Mechanical 2000|Company: Autodesk"
 90
    32768
280
     1
281
     0
  0
CLASS
  1
AMDTBROWSERDBTAB
  2
AmdtBrowserDbTab
  3
McadcomServices
 90
    32768
280
     1
281
     0
  0
CLASS
  1
CBROWSERAPPOBJECT
  2
CBrowserAppObject
  3
McadcomServices
 90
    32768
280
     1
281
     0
  0
CLASS
  1
DM_PLACEHOLDER
  2
AcDmSelsetPlaceholder
  3
AcMechDwgViewMgmt
 90
    32768
280
     1
281
     0
  0
CLASS
  1
CATALOGSTATE
  2
AcAmCatalogState
  3
DesignerAssemblies
 90
    32768
280
     1
281
     0
  0
CLASS
  1
ACAMGRCOMPDEFSET
  2
AcAmGrCompDefSet
  3
DesignerAssemblies
 90
    32768
280
     1
281
     0
  0
CLASS
  1
AMGOBJPROPCFG
  2
AmgObjPropCfg
  3
"AmgLay|Product Description: AutoCAD Mechanical 2000|Company: Autodesk"
 90
    32769
280
     1
281
     0
  0
CLASS
  1
LAYER_INDEX
  2
AcDbLayerIndex
  3
AutoCAD 2000
 90
    32768
280
     0
281
     0
  0
CLASS
  1
IDBUFFER
  2
AcDbIdBuffer
  3
AutoCAD 2000
 90
    32768
280
     0
281
     0
  0
CLASS
  1
ACRFATTGENMGR
  2
AcRfAttGeneralMgr
  3
AcAttribServices
 90
    32768
280
     1
281
     0
  0
CLASS
  1
PLOTSETTINGS
  2
AcDbPlotSettings
  3
AutoCAD 2000
 90
    32768
280
     0
281
     0
  0
CLASS
  1
LONG_TRANSACTION
  2
AcDbLongTransaction
  3
AutoCAD 2000
 90
    32768
280
     0
281
     0
  0
CLASS
  1
LWPOLYLINE
  2
AcDbPolyline
  3
AutoCAD 2000
 90
    32768
280
     0
281
     1
  0
CLASS
  1
HATCH
  2
AcDbHatch
  3
AutoCAD 2000
 90
    32768
280
     0
281
     1
  0
CLASS
  1
XRECORD
  2
AcDbXrecord
  3
AutoCAD 2000
 90
    32768
280
     0
281
     0
  0
ENDSEC
  0
SECTION
  2
TABLES
  0
TABLE
  2
VPORT
  5
1B
330
0
100
AcDbSymbolTable
 70
     2
  0
VPORT
  5
6FB
330
1B
100
AcDbSymbolTableRecord
100
AcDbViewportTableRecord
  2
*Active
 70
     0
 10
0.0
 20
0.0
 11
1.0
 21
1.0
 12
543.8486845493752
 22
53.8609527871271
 13
0.0
 23
0.0
 14
1.0
 24
1.0
 15
0.0
 25
0.0
 16
0.0
 26
0.0
 36
1.0
 17
-64.46234487877643
 27
33.0238264231553
 37
6.148717398612387
 40
46.4710102106358
 41
1.413068844807467
 42
50.0
 43
-6.148717398612387
 44
-6.148717398612387
 50
0.0
 51
0.0
 71
     0
 72
 20000
 73
     1
 74
     1
 75
     0
 76
     0
 77
     0
 78
     0
281
     0
 65
     1
110
0.0
120
0.0
130
0.0
111
1.0
121
0.0
131
0.0
112
0.0
122
1.0
132
0.0
 79
     0
146
0.0
  0
ENDTAB
  0
TABLE
  2
LTYPE
  5
16
330
0
100
AcDbSymbolTable
 70
     1
  0
LTYPE
  5
17
330
16
100
AcDbSymbolTableRecord
100
AcDbLinetypeTableRecord
  2
BYBLOCK
 70
     0
  3

 72
    65
 73
     0
 40
0.0
  0
LTYPE
  5
18
330
16
100
AcDbSymbolTableRecord
100
AcDbLinetypeTableRecord
  2
BYLAYER
 70
     0
  3

 72
    65
 73
     0
 40
0.0
  0
LTYPE
  5
9
330
16
100
AcDbSymbolTableRecord
100
AcDbLinetypeTableRecord
  2
CONTINUOUS
 70
     0
  3
Solid line
 72
    65
 73
     0
 40
0.0
  0
ENDTAB
  0
TABLE
  2
LAYER
  5
11
330
0
100
AcDbSymbolTable
 70
     5
  0
LAYER
  5
5
330
11
100
AcDbSymbolTableRecord
100
AcDbLayerTableRecord
  2
0
 70
     0
 62
     7
  6
CONTINUOUS
370
    -3
390
6
  0
LAYER
  5
24
330
11
100
AcDbSymbolTableRecord
100
AcDbLayerTableRecord
  2
A1
 70
     0
 62
     7
  6
CONTINUOUS
370
    -3
390
6
  0
LAYER
  5
59D
330
11
100
AcDbSymbolTableRecord
100
AcDbLayerTableRecord
  2
LINEWORK
 70
     0
 62
    41
  6
CONTINUOUS
370
    -3
390
6
  0
LAYER
  5
59E
330
11
100
AcDbSymbolTableRecord
100
AcDbLayerTableRecord
  2
DEFPOINTS
 70
     0
 62
     7
  6
CONTINUOUS
290
     0
370
    -3
390
6
  0
LAYER
  5
59F
330
11
100
AcDbSymbolTableRecord
100
AcDbLayerTableRecord
  2
TAG
 70
     0
 62
     1
  6
CONTINUOUS
370
    -3
390
6
  0
ENDTAB
  0
TABLE
  2
STYLE
  5
12
330
0
100
AcDbSymbolTable
 70
     3
  0
STYLE
  5
13
330
12
100
AcDbSymbolTableRecord
100
AcDbTextStyleTableRecord
  2
STANDARD
 70
     0
 40
0.0
 41
1.0
 50
0.0
 71
     0
 42
2.0
  3
unvr55w.ttf
  4

1001
ACAD
1000
Univers
1071
       34
  0
STYLE
  5
5A0
330
12
100
AcDbSymbolTableRecord
100
AcDbTextStyleTableRecord
  2
ROMANC
 70
     0
 40
0.0
 41
1.0
 50
0.0
 71
     0
 42
0.5
  3
TIMESBD.TTF
  4

1001
ACAD
1000
Times New Roman
1071
 33554450
  0
STYLE
  5
5A1
330
12
100
AcDbSymbolTableRecord
100
AcDbTextStyleTableRecord
  2
barcoder
 70
     0
 40
0.0
 41
1.0
 50
0.0
 71
     0
 42
4.5625
  3
cw_barcd.ttf
  4

1001
ACAD
1000
Barcoder
1071
 33554434
  0
ENDTAB
  0
TABLE
  2
VIEW
  5
19
330
0
100
AcDbSymbolTable
 70
     0
  0
ENDTAB
  0
TABLE
  2
UCS
  5
1A
330
0
100
AcDbSymbolTable
 70
     0
  0
ENDTAB
  0
TABLE
  2
APPID
  5
1D
330
0
100
AcDbSymbolTable
 70
     2
  0
APPID
  5
14
330
1D
100
AcDbSymbolTableRecord
100
AcDbRegAppTableRecord
  2
ACAD
 70
     0
  0
APPID
  5
5E3
330
1D
100
AcDbSymbolTableRecord
100
AcDbRegAppTableRecord
  2
DCO15
 70
     0
  0
ENDTAB
  0
TABLE
  2
DIMSTYLE
  5
1E
330
0
100
AcDbSymbolTable
 70
     1
100
AcDbDimStyleTable
 71
     0
  0
DIMSTYLE
105
1F
102
{ACAD_REACTORS
330
607
330
615
330
651
102
}
330
1E
100
AcDbSymbolTableRecord
100
AcDbDimStyleTableRecord
  2
STANDARD
 70
     0
  3
"
 41
0.5
 42
1.0
 43
0.0625
 44
0.25
 73
     0
 74
     0
 77
     3
140
1.0
141
0.0
146
0.125
147
0.125
171
     0
274
     0
276
     2
277
     5
285
     2
286
     2
289
     0
340
13
  0
ENDTAB
  0
TABLE
  2
BLOCK_RECORD
  5
1
330
0
100
AcDbSymbolTable
 70
     7
  0
BLOCK_RECORD
  5
2
102
{ACAD_XDICTIONARY
360
3
102
}
330
1
100
AcDbSymbolTableRecord
100
AcDbBlockTableRecord
  2
*MODEL_SPACE
340
B
  0
BLOCK_RECORD
  5
D
102
{ACAD_XDICTIONARY
360
6CF
102
}
330
1
100
AcDbSymbolTableRecord
100
AcDbBlockTableRecord
  2
*PAPER_SPACE
340
10
  0
BLOCK_RECORD
  5
29
330
1
100
AcDbSymbolTableRecord
100
AcDbBlockTableRecord
  2
PROFILE LOGO
340
0
102
{BLKREFS
331
27
102
}
  0
BLOCK_RECORD
  5
313
330
1
100
AcDbSymbolTableRecord
100
AcDbBlockTableRecord
  2
SCF
340
0
102
{BLKREFS
331
5A3
102
}
  0
BLOCK_RECORD
  5
34C
330
1
100
AcDbSymbolTableRecord
100
AcDbBlockTableRecord
  2
LINK FLAG
340
0
102
{BLKREFS
331
62D
102
}
  0
BLOCK_RECORD
  5
5A2
330
1
100
AcDbSymbolTableRecord
100
AcDbBlockTableRecord
  2
TSFORMA
340
0
102
{BLKREFS
331
5D9
102
}
  0
BLOCK_RECORD
  5
608
330
1
100
AcDbSymbolTableRecord
100
AcDbBlockTableRecord
  2
*D4
340
0
  0
BLOCK_RECORD
  5
616
330
1
100
AcDbSymbolTableRecord
100
AcDbBlockTableRecord
  2
*D5
340
0
  0
BLOCK_RECORD
  5
652
330
1
100
AcDbSymbolTableRecord
100
AcDbBlockTableRecord
  2
*D6
340
0
  0
ENDTAB
  0
ENDSEC
  0
SECTION
  2
BLOCKS
  0
BLOCK
  5
4
330
2
100
AcDbEntity
  8
0
100
AcDbBlockBegin
  2
*MODEL_SPACE
 70
     2
 10
0.0
 20
0.0
 30
0.0
  3
*MODEL_SPACE
  1

  0
ENDBLK
  5
A
330
2
100
AcDbEntity
  8
0
100
AcDbBlockEnd
  0
BLOCK
  5
E
330
D
100
AcDbEntity
 67
     1
  8
0
100
AcDbBlockBegin
  2
*PAPER_SPACE
 70
     0
 10
0.0
 20
0.0
 30
0.0
  3
*PAPER_SPACE
  1

  0
ENDBLK
  5
F
330
D
100
AcDbEntity
 67
     1
  8
0
100
AcDbBlockEnd
  0
BLOCK
  5
42
330
29
100
AcDbEntity
  8
0
 62
     7
100
AcDbBlockBegin
  2
PROFILE LOGO
 70
     2
 10
0.0
 20
0.0
 30
0.0
  3
PROFILE LOGO
  1

  0
LINE
  5
2A
330
29
100
AcDbEntity
  8
0
 62
    22
100
AcDbLine
 10
0.7459516636765642
 20
-0.415894330395318
 30
0.0
 11
0.74595166367655
 21
-1.12746688439163
 31
0.0
  0
LINE
  5
2B
330
29
100
AcDbEntity
  8
0
 62
    22
100
AcDbLine
 10
0.5841942848079072
 20
-0.415894330395318
 30
0.0
 11
0.5841942848079072
 21
-1.12746688439163
 31
0.0
  0
HATCH
  5
2C
330
29
100
AcDbEntity
  8
0
 62
    22
100
AcDbHatch
 10
0.0
 20
0.0
 30
0.0
210
0.0
220
0.0
230
1.0
  2
LINE
 70
     0
 71
     0
 91
        1
 92
       33
 93
       38
 72
     1
 10
1.115683196411978
 20
-0.1706330859717084
 11
0.2177636962628071
 21
-0.1706330859717084
 72
     1
 10
0.2177636962628213
 20
-0.1706330859717084
 11
0.2078601968792952
 21
-0.4246889457533243
 72
     1
 10
0.2078601968792952
 20
-0.4246889457533243
 11
0.2375709173007294
 21
-0.4246889457533243
 72
     1
 10
0.2375709173007294
 20
-0.4246889457533243
 11
0.2441732502230991
 21
-0.3817964654080939
 72
     1
 10
0.2441732502230991
 20
-0.3817964654080939
 11
0.254076749606611
 21
-0.3422032805409501
 72
     1
 10
0.2540767496066252
 20
-0.3422032805409501
 11
0.2738837483736916
 21
-0.3092090964125091
 72
     1
 10
0.2738837483736916
 20
-0.3092090964125091
 11
0.2969919136019428
 21
-0.2861130719066693
 72
     1
 10
0.296991913601957
 20
-0.2861130719066764
 11
0.3267026340234338
 21
-0.2663164794731259
 72
     1
 10
0.3267026340234196
 20
-0.2663164794731259
 11
0.356413132174012
 21
-0.2498193191118219
 72
     1
 10
0.356413132174012
 20
-0.2498193191118148
 11
0.3828224638634481
 21
-0.243220591561446
 72
     1
 10
0.3828224638634623
 20
-0.243220591561446
 11
0.4092320178237401
 21
-0.243220591561446
 72
     1
 10
0.4092320178237401
 20
-0.243220591561446
 11
0.4719541805861525
 21
-0.2465198870395469
 72
     1
 10
0.4719541805861525
 20
-0.2465198870395469
 11
0.514869566852326
 21
-0.2729153436176332
 72
     1
 10
0.514869566852326
 20
-0.2729153436176332
 11
0.5742905631535394
 21
-0.3389038484686964
 72
     1
 10
0.5742905631535394
 20
-0.3389038484687106
 11
0.5907966177302626
 21
-0.3916947616248691
 72
     1
 10
0.5907966177302768
 20
-0.3916947616248691
 11
0.5907966177302768
 21
-1.157161773041991
 72
     1
 10
0.5907966177302768
 20
-1.157161773041984
 11
0.5643870637699991
 21
-1.203353685459461
 72
     1
 10
0.5643870637699849
 20
-1.203353685459468
 11
0.4983637345463876
 21
-1.226449709965308
 72
     1
 10
0.4983637345464019
 20
-1.226449709965301
 11
0.4389425159743326
 21
-1.226449709965301
 72
     1
 10
0.4389425159743326
 20
-1.226449709965301
 11
0.4323401830519913
 21
-1.249545734471119
 72
     1
 10
0.4323401830520055
 20
-1.249545734471134
 11
0.8945045989712809
 21
-1.249545734471134
 72
     1
 10
0.8945045989712667
 20
-1.249545734471134
 11
0.8945045989712667
 21
-1.226449709965315
 72
     1
 10
0.8945045989712667
 20
-1.226449709965301
 11
0.8152763816321311
 21
-1.226449709965301
 72
     1
 10
0.8152763816321311
 20
-1.226449709965301
 11
0.7525539965988913
 21
-1.186856661692324
 72
     1
 10
0.7525539965988913
 20
-1.186856661692324
 11
0.7426504972153794
 21
-1.140664612680659
 72
     1
 10
0.7426504972153652
 20
-1.140664612680673
 11
0.7393493307541803
 21
-0.394994193697137
 72
     1
 10
0.7393493307541803
 20
-0.394994193697137
 11
0.7558551630600619
 21
-0.3389038484687106
 72
     1
 10
0.7558551630600761
 20
-0.3389038484687106
 11
0.7987705493262496
 21
-0.2828136398344298
 72
     1
 10
0.7987705493262496
 20
-0.2828136398344227
 11
0.8614929343594894
 21
-0.2498193191118148
 72
     1
 10
0.8614929343594894
 20
-0.2498193191118148
 11
0.9374197629665985
 21
-0.2399211594891923
 72
     1
 10
0.9374197629665985
 20
-0.2399211594891923
 11
1.010045647383407
 21
-0.2663164794731117
 72
     1
 10
1.010045647383407
 20
-0.2663164794731259
 11
1.056262200110722
 21
-0.3092090964125234
 72
     1
 10
1.056262200110722
 20
-0.3092090964125091
 11
1.085972698261343
 21
-0.361999872974522
 72
     1
 10
1.085972698261358
 20
-0.3619998729745291
 11
1.092575031183727
 21
-0.4246889457533243
 72
     1
 10
1.092575031183727
 20
-0.4246889457533243
 11
1.115683196411993
 21
-0.4246889457533243
 72
     1
 10
1.115683196411978
 20
-0.4246889457533243
 11
1.109080863489609
 21
-0.17723195011623
 72
     1
 10
1.109080863489609
 20
-0.17723195011623
 11
1.109080863489609
 21
-0.1739325180439621
 72
     1
 10
1.109080863489609
 20
-0.1739325180439621
 11
1.105779697028424
 21
-0.1739325180439621
 97
        0
 75
     0
 76
     1
 52
0.0
 41
0.078125
 77
     0
 78
     1
 53
0.0
 43
-28.182772630023
 44
-32.9923404580304
 45
0.0
 46
0.009765625
 79
     0
 98
        1
 10
-28.182772630023
 20
-32.9923404580304
  0
LWPOLYLINE
  5
2D
330
29
100
AcDbEntity
  8
0
 62
    22
100
AcDbPolyline
 90
        4
 70
     1
 43
0.0
 10
0.0262955969727301
 20
-0.0287577800528069
 10
1.307151517972869
 20
-0.0287577800528069
 10
1.307151517972869
 20
-1.731261997456265
 10
0.0262955969727301
 20
-1.731261997456265
  0
LINE
  5
2E
330
29
100
AcDbEntity
  8
0
 62
    22
100
AcDbLine
 10
0.0262955969727443
 20
-1.4112176328236
 30
0.0
 11
1.307151517972869
 21
-1.4112176328236
 31
0.0
  0
ATTDEF
  5
2F
330
29
100
AcDbEntity
  8
A1
 62
    22
100
AcDbText
 10
0.6781304052809105
 20
-1.678298248906529
 30
0.0
 40
0.2126953125
  1

 72
     1
 11
0.6781304052809105
 21
-1.678298248906529
 31
0.0
100
AcDbAttributeDefinition
  3
ADD STONE MARKER
  2
XXXX
 70
     0
  0
LINE
  5
30
330
29
100
AcDbEntity
  8
0
 62
    22
100
AcDbLine
 10
0.7464576960363587
 20
-1.129021462591367
 30
0.0
 11
0.74595166367655
 21
-1.12746688439163
 31
0.0
  0
ARC
  5
31
330
29
100
AcDbEntity
  8
0
 62
    22
100
AcDbCircle
 10
0.8421255873066684
 20
-1.127299146756172
 30
0.0
 40
0.0956833935014068
100
AcDbArc
 50
181.0313885659746
 51
269.7936990713142
  0
LINE
  5
32
330
29
100
AcDbEntity
  8
0
 62
    22
100
AcDbLine
 10
0.9011069318936506
 20
-1.22315027789304
 30
0.0
 11
0.841781067510368
 21
-1.22315027789304
 31
0.0
  0
LINE
  5
33
330
29
100
AcDbEntity
  8
0
 62
    22
100
AcDbLine
 10
0.9011069318936506
 20
-1.256144598615648
 30
0.0
 11
0.9011069318936506
 21
-1.22315027789304
 31
0.0
  0
ARC
  5
34
330
29
100
AcDbEntity
  8
0
 62
    22
100
AcDbCircle
 10
0.4880203611777887
 20
-1.127299146756172
 30
0.0
 40
0.0956833935014068
100
AcDbArc
 50
270.2063009286848
 51
358.9686114340253
  0
LINE
  5
35
330
29
100
AcDbEntity
  8
0
 62
    22
100
AcDbLine
 10
0.4290390165908207
 20
-1.256144598615648
 30
0.0
 11
0.4290390165908207
 21
-1.22315027789304
 31
0.0
  0
LINE
  5
36
330
29
100
AcDbEntity
  8
0
 62
    22
100
AcDbLine
 10
0.4290390165908207
 20
-1.22315027789304
 30
0.0
 11
0.4883648809740891
 21
-1.22315027789304
 31
0.0
  0
LINE
  5
37
330
29
100
AcDbEntity
  8
0
 62
    22
100
AcDbLine
 10
0.5836882524480984
 20
-1.129021462591367
 30
0.0
 11
0.5841942848079072
 21
-1.12746688439163
 31
0.0
  0
LINE
  5
38
330
29
100
AcDbEntity
  8
0
 62
    22
100
AcDbLine
 10
0.4290390165908207
 20
-1.256144598615648
 30
0.0
 11
0.9011069318936506
 21
-1.256144598615648
 31
0.0
  0
LINE
  5
39
330
29
100
AcDbEntity
  8
0
 62
    22
100
AcDbLine
 10
1.085512597630156
 20
-0.415894330395318
 30
0.0
 11
1.085512597630156
 21
-0.4280723832374847
 31
0.0
  0
ARC
  5
3A
330
29
100
AcDbEntity
  8
0
 62
    22
100
AcDbCircle
 10
0.9138550451562537
 20
-0.4147906495365632
 30
0.0
 40
0.1716611005230106
100
AcDbArc
 50
359.6316189828552
 51
90.00081606717127
  0
ARC
  5
3B
330
29
100
AcDbEntity
  8
0
 62
    22
100
AcDbCircle
 10
0.9180888683309831
 20
-0.4147906495365632
 30
0.0
 40
0.1716611005230106
100
AcDbArc
 50
89.99918393282873
 51
180.3683810171443
  0
LINE
  5
3C
330
29
100
AcDbEntity
  8
0
 62
    22
100
AcDbLine
 10
0.2078601968792952
 20
-0.427988377825578
 30
0.0
 11
0.2441732502230991
 21
-0.427988377825578
 31
0.0
  0
LINE
  5
3D
330
29
100
AcDbEntity
  8
0
 62
    22
100
AcDbLine
 10
0.2446333508543006
 20
-0.415894330395318
 30
0.0
 11
0.2446333508543006
 21
-0.4280723832374847
 31
0.0
  0
ARC
  5
3E
330
29
100
AcDbEntity
  8
0
 62
    22
100
AcDbCircle
 10
0.4162909033282176
 20
-0.4147906495365632
 30
0.0
 40
0.1716611005230106
100
AcDbArc
 50
89.99918393282873
 51
180.3683810171443
  0
LINE
  5
3F
330
29
100
AcDbEntity
  8
0
 62
    22
100
AcDbLine
 10
0.2144627520724782
 20
-0.1706330859717156
 30
0.0
 11
0.2078601968792952
 21
-0.427988377825578
 31
0.0
  0
ARC
  5
40
330
29
100
AcDbEntity
  8
0
 62
    22
100
AcDbCircle
 10
0.4120570801534882
 20
-0.4147906495365632
 30
0.0
 40
0.1716611005230106
100
AcDbArc
 50
359.6316189828552
 51
90.00081606717127
  0
LWPOLYLINE
  5
41
330
29
100
AcDbEntity
  8
0
 62
    22
100
AcDbPolyline
 90
        4
 70
     0
 43
0.0
 10
0.224366029185191
 20
-0.1706330859717084
 10
1.115683196411978
 20
-0.1706330859717084
 10
1.122285751605161
 20
-0.427988377825578
 10
1.085972698261358
 20
-0.427988377825578
  0
ENDBLK
  5
43
330
29
100
AcDbEntity
  8
0
 62
     7
100
AcDbBlockEnd
  0
BLOCK
  5
314
330
313
100
AcDbEntity
  8
0
 62
     7
100
AcDbBlockBegin
  2
SCF
 70
     0
 10
0.0
 20
0.0
 30
0.0
  3
SCF
  1

  0
ENDBLK
  5
315
330
313
100
AcDbEntity
  8
0
 62
     7
100
AcDbBlockEnd
  0
BLOCK
  5
354
330
34C
100
AcDbEntity
  8
0
 62
     7
100
AcDbBlockBegin
  2
LINK FLAG
 70
     2
 10
0.0
 20
0.0
 30
0.0
  3
LINK FLAG
  1

  0
SOLID
  5
34D
330
34C
100
AcDbEntity
  8
A1
 62
     1
100
AcDbTrace
 10
0.408488260029003
 20
0.3001362788183428
 30
0.0
 11
0.2890663177079773
 21
0.4163953751078396
 31
0.0
 12
0.0
 22
0.0
 32
0.0
 13
0.0
 23
0.0
 33
0.0
  0
LINE
  5
34E
330
34C
100
AcDbEntity
  8
A1
 62
     1
100
AcDbLine
 10
0.3487772888684901
 20
0.3582658269630912
 30
0.0
 11
4.449644902191081
 21
4.57069815453687
 31
0.0
  0
ATTDEF
  5
34F
330
34C
100
AcDbEntity
  8
A1
 62
     1
100
AcDbText
 10
10.75853330829194
 20
4.953467229082193
 30
0.0
 40
1.0
  1

100
AcDbAttributeDefinition
  3
ADD LINK NUMBER (WMF)
  2
XXXXXX
 70
     0
  0
MTEXT
  5
350
330
34C
100
AcDbEntity
  8
0
 62
     1
100
AcDbMText
 10
10.79736583926697
 20
4.206192006567398
 30
0.0
 40
1.0
 41
0.0
 71
     1
 72
     1
  1
TannerStone
 73
     1
 44
1.0
1001
ACAD
1000
MTEXTBEGIN
1070
    73
1070
     1
1070
    44
1040
1.0
1070
    74
1070
     0
1000
MTEXTEND
  0
MTEXT
  5
351
330
34C
100
AcDbEntity
  8
0
 62
     1
100
AcDbMText
 10
10.87510824661537
 20
2.68903194023958
 30
0.0
 40
0.7386749999999999
 41
0.0
 71
     1
 72
     1
  1
1-800-789-4841
 73
     1
 44
1.0
1001
ACAD
1000
MTEXTBEGIN
1070
    73
1070
     1
1070
    44
1040
1.0
1070
    74
1070
     0
1000
MTEXTEND
  0
LINE
  5
352
330
34C
100
AcDbEntity
  8
0
 62
     1
100
AcDbLine
 10
4.449644902191081
 20
4.57069815453687
 30
0.0
 11
19.37910172053511
 21
4.57069815453687
 31
0.0
  0
LINE
  5
353
330
34C
100
AcDbEntity
  8
0
 62
     1
100
AcDbLine
 10
10.27170295921419
 20
1.582920602761227
 30
0.0
 11
10.27170295921419
 21
6.137374365587334
 31
0.0
  0
ENDBLK
  5
355
330
34C
100
AcDbEntity
  8
0
 62
     7
100
AcDbBlockEnd
  0
BLOCK
  5
5D5
330
5A2
100
AcDbEntity
  8
0
 62
     7
100
AcDbBlockBegin
  2
TSFORMA
 70
     2
 10
0.0
 20
0.0
 30
0.0
  3
TSFORMA
  1

  0
INSERT
  5
5A3
330
5A2
100
AcDbEntity
  8
A1
 62
     7
100
AcDbBlockReference
  2
SCF
 10
0.0
 20
0.0
 30
0.0
  0
LINE
  5
5A4
330
5A2
100
AcDbEntity
  8
0
 62
     7
100
AcDbLine
 10
33.85359849505566
 20
6.139911809868134
 30
0.0
 11
15.45863081043479
 21
6.139911809868134
 31
0.0
  0
LINE
  5
5A5
330
5A2
100
AcDbEntity
  8
0
 62
     7
100
AcDbLine
 10
33.85359849505566
 20
1.705154898157314
 30
0.0
 11
15.45863081043479
 21
1.705154898157314
 31
0.0
  0
LINE
  5
5A6
330
5A2
100
AcDbEntity
  8
0
 62
     7
100
AcDbLine
 10
33.85359849505566
 20
2.829459360019779
 30
0.0
 11
15.45863081043479
 21
2.829459360019779
 31
0.0
  0
LINE
  5
5A7
330
5A2
100
AcDbEntity
  8
0
100
AcDbLine
 10
15.45863081043479
 20
7.419467812060279
 30
0.0
 11
63.0907971953311
 21
7.419467812060275
 31
0.0
  0
LINE
  5
5A8
330
5A2
100
AcDbEntity
  8
0
100
AcDbLine
 10
0.0
 20
0.0
 30
0.0
 11
63.0907971953311
 21
0.0
 31
0.0
  0
LINE
  5
5A9
330
5A2
100
AcDbEntity
  8
0
100
AcDbLine
 10
0.0
 20
46.93339791359997
 30
0.0
 11
0.0
 21
0.0
 31
0.0
  0
ATTDEF
  5
5AA
330
5A2
100
AcDbEntity
  8
A1
 62
     1
100
AcDbText
 10
12.82959661403713
 20
1.116082561967672
 30
0.0
 40
0.5
  1

 72
     2
 11
12.82959661403713
 21
1.116082561967672
 31
0.0
100
AcDbAttributeDefinition
  3
ADD BARCODE TEXT
  2
XXXXXX
 70
     0
  0
ATTDEF
  5
5AB
330
5A2
100
AcDbEntity
  8
A1
 62
     1
100
AcDbText
 10
7.602187176088335
 20
1.863125907903508
 30
0.0
 40
4.5625
  1

  7
barcoder
 72
     1
 11
7.602187176088335
 21
1.863125907903508
 31
0.0
100
AcDbAttributeDefinition
  3
ADD BARCODE NUMBER
  2
BARCODE
 70
     0
  0
LINE
  5
5AC
330
5A2
100
AcDbEntity
  8
0
 62
     7
100
AcDbLine
 10
15.45863081043479
 20
7.419467812060279
 30
0.0
 11
0.0
 21
7.419467812060279
 31
0.0
  0
TEXT
  5
5AD
330
5A2
100
AcDbEntity
  8
0
 62
     7
100
AcDbText
 10
18.19366726416784
 20
4.860691571657334
 30
0.0
 40
0.625
  1
- Finished Side
100
AcDbText
  0
TEXT
  5
5AE
330
5A2
100
AcDbEntity
  8
0
 62
     7
100
AcDbText
 10
18.20026126845819
 20
3.503849832636042
 30
0.0
 40
0.625
  1
- Unfinished Side
100
AcDbText
  0
LINE
  5
5AF
330
5A2
100
AcDbEntity
  8
0
100
AcDbLine
 10
15.45863081043479
 20
0.0
 30
0.0
 11
15.45863081043479
 21
7.419467812060279
 31
0.0
  0
LINE
  5
5B0
330
5A2
100
AcDbEntity
  8
0
 62
     7
100
AcDbLine
 10
15.94519003511693
 20
5.088809590082902
 30
0.0
 11
17.45428617139502
 21
5.088809590082902
 31
0.0
  0
TEXT
  5
5B1
330
5A2
100
AcDbEntity
  8
0
 62
     7
100
AcDbText
 10
16.48339397174975
 20
3.663762155695707
 30
0.0
 40
0.00390625
  1
TANNERSTONE 0001 TANNERSTONE 0001 TANNERSTONE 0001 TANNERSTONE 0001 TANNERSTONE 0001 TANNERSTONE 0001 TANNERSTONE 0001
 72
     1
 11
16.69109656521183
 21
3.663762155695707
 31
0.0
100
AcDbText
  0
LINE
  5
5B2
330
5A2
100
AcDbEntity
  8
0
 62
     7
100
AcDbLine
 10
15.94519003511693
 20
3.814849102060051
 30
0.0
 11
17.45428617139502
 21
3.814849102060051
 31
0.0
  0
TEXT
  5
5B3
330
5A2
100
AcDbEntity
  8
0
 62
     7
100
AcDbText
 10
15.94386684512347
 20
3.663762155695707
 30
0.0
 40
0.00390625
  1
TANNERSTONE 0001 TANNERSTONE 0001 TANNERSTONE 0001 TANNERSTONE 0001 TANNERSTONE 0001 TANNERSTONE 0001 TANNERSTONE 0001
 72
     1
 11
16.15156943858555
 21
3.663762155695707
 31
0.0
100
AcDbText
  0
TEXT
  5
5B4
330
5A2
100
AcDbEntity
  8
0
 62
     7
100
AcDbText
 10
17.04152309512345
 20
3.663762155695707
 30
0.0
 40
0.00390625
  1
TANNERSTONE 0001 TANNERSTONE 0001 TANNERSTONE 0001 TANNERSTONE 0001 TANNERSTONE 0001 TANNERSTONE 0001 TANNERSTONE 0001
 72
     1
 11
17.24922568858554
 21
3.663762155695707
 31
0.0
100
AcDbText
  0
ATTDEF
  5
5B5
330
5A2
100
AcDbEntity
  8
A1
 62
     1
100
AcDbText
 10
24.55771846427264
 20
0.6162142197210088
 30
0.0
 40
0.7559999999999999
  1

 72
     1
 11
24.55771846427264
 21
0.6162142197210088
 31
0.0
100
AcDbAttributeDefinition
  3
ADD CATEGORY NAMES
  2
XXXXXX
 70
     0
  0
TEXT
  5
5B6
330
5A2
100
AcDbEntity
  8
0
 62
     7
100
AcDbText
 10
22.72809728616285
 20
2.02499953627948
 30
0.0
 40
0.5
  1
CATEGORY
 72
     1
 11
24.68840912174046
 21
2.02499953627948
 31
0.0
100
AcDbText
  0
TEXT
  5
5B7
330
5A2
100
AcDbEntity
  8
0
 62
     7
100
AcDbText
 10
23.38153703079662
 20
6.531576458849073
 30
0.0
 40
0.4812500000000001
  1
LEGEND
100
AcDbText
  0
LINE
  5
5B8
330
5A2
100
AcDbEntity
  8
0
100
AcDbLine
 10
63.0907971953311
 20
0.0
 30
0.0
 11
63.0907971953311
 21
46.93339791359997
 31
0.0
  0
LINE
  5
5B9
330
5A2
100
AcDbEntity
  8
0
100
AcDbLine
 10
33.85359849505567
 20
3.957609866513919
 30
0.0
 11
63.0907971953311
 21
3.957609866513919
 31
0.0
  0
TEXT
  5
5BA
330
5A2
100
AcDbEntity
  8
0
100
AcDbText
 10
34.42750303318053
 20
2.935195390265757
 30
0.0
 40
0.6616455005868908
  1
ARCHITECTURAL CONCRETE CO., INC.
 41
1.25
 72
     4
 11
45.64904120290566
 21
3.21678158665302
 31
0.0
100
AcDbText
  0
TEXT
  5
5BB
330
5A2
100
AcDbEntity
  8
0
100
AcDbText
 10
38.10554018840551
 20
0.4042122027146437
 30
0.0
 40
0.3900256199701639
  1
PHONE: 1-800-789-4841  FAX : 770-463-2635
 41
1.1875
 72
     4
 11
45.67456989459564
 21
0.5986721769520713
 31
0.0
100
AcDbText
  0
TEXT
  5
5BC
330
5A2
100
AcDbEntity
  8
0
 62
     7
100
AcDbText
 10
36.45030612377447
 20
4.701996929624826
 30
0.0
 40
2.12625
  1
TannerStone
  7
ROMANC
 72
     1
 11
45.19112937160684
 21
4.701996929624826
 31
0.0
100
AcDbText
  0
TEXT
  5
5BD
330
5A2
100
AcDbEntity
  8
0
100
AcDbText
 10
36.65024310726515
 20
1.16937112143105
 30
0.0
 40
0.3900256199701639
  1
http://TannerStone.com ~ Email:Sales@TannerStone.com 
 41
1.1875
 72
     4
 11
45.88298880572835
 21
1.344758262374401
 31
0.0
100
AcDbText
  0
TEXT
  5
5BE
330
5A2
100
AcDbEntity
  8
0
100
AcDbText
 10
35.70454469973866
 20
1.940811732856256
 30
0.0
 40
0.4458291441485832
  1
101 JOHNSTON CIRCLE, PALMETTO, GEORGIA 30268
 41
1.1875
 72
     4
 11
45.7449918415723
 21
2.130549791723176
 31
0.0
100
AcDbText
  0
LINE
  5
5BF
330
5A2
100
AcDbEntity
  8
0
100
AcDbLine
 10
33.85359849505567
 20
0.0
 30
0.0
 11
33.85359849505567
 21
7.419467812060275
 31
0.0
  0
LINE
  5
5C0
330
5A2
100
AcDbEntity
  8
0
 62
     7
100
AcDbLine
 10
45.8804728588951
 20
4.302323642481653
 30
0.0
 11
45.8804728588951
 21
4.302323642481653
 31
0.0
  0
ATTDEF
  5
5C1
330
5A2
100
AcDbEntity
  8
A1
 62
     1
100
AcDbText
 10
60.24601051143854
 20
5.923645198888223
 30
0.0
 40
0.703125
  1

 72
     1
 11
60.24601051143854
 21
5.923645198888223
 31
0.0
100
AcDbAttributeDefinition
  3
ADD PROFILE AREA
  2
XXXXX
 70
     0
  0
ATTDEF
  5
5C2
330
5A2
100
AcDbEntity
  8
A1
 62
     1
100
AcDbText
 10
60.22058858229524
 20
4.231165867870629
 30
0.0
 40
0.703125
  1

 72
     1
 11
60.22058858229524
 21
4.231165867870629
 31
0.0
100
AcDbAttributeDefinition
  3
ADD #/LF
  2
XXXXX
 70
     0
  0
LINE
  5
5C3
330
5A2
100
AcDbEntity
  8
0
 62
     7
100
AcDbLine
 10
57.40487304162906
 20
5.688538839287097
 30
0.0
 11
63.0907971953311
 21
5.688538839287097
 31
0.0
  0
TEXT
  5
5C4
330
5A2
100
AcDbEntity
  8
0
 62
     7
100
AcDbText
 10
57.54164024396835
 20
5.24603903326999
 30
0.0
 40
0.322265625
  1
LBS/LINEAR FEET:
100
AcDbText
  0
LINE
  5
5C5
330
5A2
100
AcDbEntity
  8
LINEWORK
 62
     7
100
AcDbLine
 10
57.38685446707747
 20
2.236847700541034
 30
0.0
 11
63.07277862077971
 21
2.236847700541161
 31
0.0
  0
TEXT
  5
5C6
330
5A2
100
AcDbEntity
  8
0
 62
     7
100
AcDbText
 10
58.84125519694314
 20
0.9074523356241925
 30
0.0
 40
0.5035400390625
  1
1-1-2000
100
AcDbText
  0
LINE
  5
5C7
330
5A2
100
AcDbEntity
  8
0
100
AcDbLine
 10
57.40487304162886
 20
0.0
 30
0.0
 11
57.40487304162911
 21
7.419467812060275
 31
0.0
  0
ARC
  5
5C8
330
5A2
100
AcDbEntity
  8
0
 62
     7
100
AcDbCircle
 10
54.77484357037856
 20
4.675407294753147
 30
0.0
 40
0.3475219186225837
100
AcDbArc
 50
304.840880646349
 51
297.5553548372075
  0
TEXT
  5
5C9
330
5A2
100
AcDbEntity
  8
0
 62
     7
100
AcDbText
 10
54.52366531937782
 20
4.457137162968933
 30
0.0
 40
0.46875
  1
R
  7
ROMANC
 72
     1
 11
54.77717642848187
 21
4.457137162968933
 31
0.0
100
AcDbText
  0
ARC
  5
5CA
330
5A2
100
AcDbEntity
  8
0
 62
     7
100
AcDbCircle
 10
54.77484357037857
 20
4.675407294753146
 30
0.0
 40
0.3475219186225785
100
AcDbArc
 50
297.5553548372066
 51
304.8408806463482
  0
TEXT
  5
5CB
330
5A2
100
AcDbEntity
  8
0
 62
     7
100
AcDbText
 10
57.55084577252738
 20
3.528313427430639
 30
0.0
 40
0.322265625
  1
SCALE:
100
AcDbText
  0
TEXT
  5
5CC
330
5A2
100
AcDbEntity
  8
0
 62
     7
100
AcDbText
 10
57.58427807884865
 20
1.77327934849093
 30
0.0
 40
0.322265625
  1
DATE:
100
AcDbText
  0
LINE
  5
5CD
330
5A2
100
AcDbEntity
  8
0
 62
     7
100
AcDbLine
 10
57.404873041629
 20
3.957609866513919
 30
0.0
 11
56.92061203641685
 21
3.957609866513919
 31
0.0
  0
TEXT
  5
5CE
330
5A2
100
AcDbEntity
  8
0
 62
     7
100
AcDbText
 10
60.17361351816539
 20
2.848114535947829
 30
0.0
 40
0.5035400390625
  1
1:1
100
AcDbText
  0
TEXT
  5
5CF
330
5A2
100
AcDbEntity
  8
0
 62
     7
100
AcDbText
 10
57.55965863864929
 20
6.943562340807453
 30
0.0
 40
0.322265625
  1
PROFILE AREA:
100
AcDbText
  0
ATTDEF
  5
5D0
330
5A2
100
AcDbEntity
  8
A1
 62
     1
100
AcDbText
 10
59.04934003701934
 20
43.69048591217159
 30
0.0
 40
1.2375
  1

 72
     1
 11
59.04934003701934
 21
43.69048591217159
 31
0.0
100
AcDbAttributeDefinition
  3
ADD PAGE NUMBER
  2
TS00XX
 70
     0
  0
LINE
  5
5D1
330
5A2
100
AcDbEntity
  8
0
100
AcDbLine
 10
63.0907971953311
 20
41.85161907700595
 30
0.0
 11
55.03498980215056
 21
41.85161907700595
 31
0.0
  0
LINE
  5
5D2
330
5A2
100
AcDbEntity
  8
0
100
AcDbLine
 10
55.03498980215056
 20
41.85161907700595
 30
0.0
 11
55.03498980215056
 21
46.93339791359997
 31
0.0
  0
LINE
  5
5D3
330
5A2
100
AcDbEntity
  8
0
100
AcDbLine
 10
63.0907971953311
 20
46.93339791359997
 30
0.0
 11
63.0907971953311
 21
41.85161907700595
 31
0.0
  0
LINE
  5
5D4
330
5A2
100
AcDbEntity
  8
0
100
AcDbLine
 10
63.0907971953311
 20
46.93339791359997
 30
0.0
 11
0.0
 21
46.93339791359997
 31
0.0
  0
ENDBLK
  5
5D6
330
5A2
100
AcDbEntity
  8
0
 62
     7
100
AcDbBlockEnd
  0
BLOCK
  5
613
330
608
100
AcDbEntity
  8
0
 62
     7
100
AcDbBlockBegin
  2
*D4
 70
     1
 10
0.0
 20
0.0
 30
0.0
  3
*D4
  1

  0
LINE
  5
6D7
330
608
100
AcDbEntity
  8
A1
 62
     0
100
AcDbLine
 10
481.3545068565083
 20
83.21532681263407
 30
0.0
 11
489.7330513399705
 21
83.21532681263407
 31
0.0
  0
LINE
  5
6D8
330
608
100
AcDbEntity
  8
A1
 62
     0
100
AcDbLine
 10
478.9142864968607
 20
92.54509645824468
 30
0.0
 11
489.7330513399705
 21
92.54509645824468
 31
0.0
  0
LINE
  5
6D9
330
608
100
AcDbEntity
  8
A1
 62
     0
100
AcDbLine
 10
489.4830513399705
 20
83.71532681263408
 30
0.0
 11
489.4830513399705
 21
86.75299110894817
 31
0.0
  0
LINE
  5
6DA
330
608
100
AcDbEntity
  8
A1
 62
     0
100
AcDbLine
 10
489.4830513399705
 20
92.04509645824467
 30
0.0
 11
489.4830513399705
 21
88.84299819612037
 31
0.0
  0
MTEXT
  5
6DB
330
608
100
AcDbEntity
  8
A1
 62
     0
100
AcDbMText
 10
489.4830513399705
 20
87.79799465253432
 30
0.0
 40
1.0
 41
0.0
 71
     5
 72
     1
  1
\A1;9 5/16"
 73
     1
 44
1.0
  0
SOLID
  5
6DC
330
608
100
AcDbEntity
  8
A1
 62
     0
100
AcDbTrace
 10
489.3997180066372
 20
83.71532681263408
 30
0.0
 11
489.5663846733038
 21
83.71532681263408
 31
0.0
 12
489.4830513399705
 22
83.21532681263407
 32
0.0
 13
489.4830513399705
 23
83.21532681263407
 33
0.0
  0
SOLID
  5
6DD
330
608
100
AcDbEntity
  8
A1
 62
     0
100
AcDbTrace
 10
489.3997180066372
 20
92.04509645824467
 30
0.0
 11
489.5663846733038
 21
92.04509645824467
 31
0.0
 12
489.4830513399705
 22
92.54509645824468
 32
0.0
 13
489.4830513399705
 23
92.54509645824468
 33
0.0
  0
POINT
  5
6DE
330
608
100
AcDbEntity
  8
DEFPOINTS
 62
     0
100
AcDbPoint
 10
480.3545068565084
 20
83.21532681263407
 30
0.0
  0
POINT
  5
6DF
330
608
100
AcDbEntity
  8
DEFPOINTS
 62
     0
100
AcDbPoint
 10
477.9142864968608
 20
92.54509645824468
 30
0.0
  0
POINT
  5
6E0
330
608
100
AcDbEntity
  8
DEFPOINTS
 62
     0
100
AcDbPoint
 10
489.4830513399705
 20
92.54509645824468
 30
0.0
  0
ENDBLK
  5
614
330
608
100
AcDbEntity
  8
0
 62
     7
100
AcDbBlockEnd
  0
BLOCK
  5
621
330
616
100
AcDbEntity
  8
0
 62
     7
100
AcDbBlockBegin
  2
*D5
 70
     1
 10
0.0
 20
0.0
 30
0.0
  3
*D5
  1

  0
LINE
  5
6E1
330
616
100
AcDbEntity
  8
A1
 62
     0
100
AcDbLine
 10
480.3545068565084
 20
81.84032681263408
 30
0.0
 11
480.3545068565084
 21
77.82379123708539
 31
0.0
  0
LINE
  5
6E2
330
616
100
AcDbEntity
  8
A1
 62
     0
100
AcDbLine
 10
475.3545068565082
 20
81.84032681263408
 30
0.0
 11
475.3545068565082
 21
77.82379123708539
 31
0.0
  0
LINE
  5
6E3
330
616
100
AcDbEntity
  8
A1
 62
     0
100
AcDbLine
 10
480.8545068565083
 20
78.07379123708539
 30
0.0
 11
481.3545068565083
 21
78.07379123708539
 31
0.0
  0
LINE
  5
6E4
330
616
100
AcDbEntity
  8
A1
 62
     0
100
AcDbLine
 10
474.8545068565082
 20
78.07379123708539
 30
0.0
 11
474.3545068565082
 21
78.07379123708539
 31
0.0
  0
MTEXT
  5
6E5
330
616
100
AcDbEntity
  8
A1
 62
     0
100
AcDbMText
 10
478.0987651424604
 20
78.07379123708539
 30
0.0
 40
1.0
 41
0.0
 71
     5
 72
     1
  1
\A1;%%C5"
 73
     1
 44
1.0
  0
SOLID
  5
6E6
330
616
100
AcDbEntity
  8
A1
 62
     0
100
AcDbTrace
 10
480.8545068565083
 20
78.15712457041872
 30
0.0
 11
480.8545068565083
 21
77.99045790375206
 31
0.0
 12
480.3545068565084
 22
78.07379123708539
 32
0.0
 13
480.3545068565084
 23
78.07379123708539
 33
0.0
  0
SOLID
  5
6E7
330
616
100
AcDbEntity
  8
A1
 62
     0
100
AcDbTrace
 10
474.8545068565082
 20
78.15712457041872
 30
0.0
 11
474.8545068565082
 21
77.99045790375206
 31
0.0
 12
475.3545068565082
 22
78.07379123708539
 32
0.0
 13
475.3545068565082
 23
78.07379123708539
 33
0.0
  0
POINT
  5
6E8
330
616
100
AcDbEntity
  8
DEFPOINTS
 62
     0
100
AcDbPoint
 10
480.3545068565084
 20
82.84032681263408
 30
0.0
  0
POINT
  5
6E9
330
616
100
AcDbEntity
  8
DEFPOINTS
 62
     0
100
AcDbPoint
 10
475.3545068565082
 20
82.84032681263408
 30
0.0
  0
POINT
  5
6EA
330
616
100
AcDbEntity
  8
DEFPOINTS
 62
     0
100
AcDbPoint
 10
475.3545068565082
 20
78.07379123708539
 30
0.0
  0
ENDBLK
  5
622
330
616
100
AcDbEntity
  8
0
 62
     7
100
AcDbBlockEnd
  0
BLOCK
  5
65D
330
652
100
AcDbEntity
  8
0
 62
     7
100
AcDbBlockBegin
  2
*D6
 70
     1
 10
0.0
 20
0.0
 30
0.0
  3
*D6
  1

  0
LINE
  5
6EB
330
652
100
AcDbEntity
  8
A1
 62
     0
100
AcDbLine
 10
472.854511223631
 20
85.30206225106388
 30
0.0
 11
472.854511223631
 21
74.79601408992326
 31
0.0
  0
LINE
  5
6EC
330
652
100
AcDbEntity
  8
A1
 62
     0
100
AcDbLine
 10
482.8545026935123
 20
85.30190595850983
 30
0.0
 11
482.8545026935123
 21
74.79601408992326
 31
0.0
  0
LINE
  5
6ED
330
652
100
AcDbEntity
  8
A1
 62
     0
100
AcDbLine
 10
473.354511223631
 20
75.04601408992326
 30
0.0
 11
475.5955866741337
 21
75.04601408992326
 31
0.0
  0
LINE
  5
6EE
330
652
100
AcDbEntity
  8
A1
 62
     0
100
AcDbLine
 10
482.3545026935123
 20
75.04601408992326
 30
0.0
 11
480.2327234565575
 21
75.04601408992326
 31
0.0
  0
MTEXT
  5
6EF
330
652
100
AcDbEntity
  8
A1
 62
     0
100
AcDbMText
 10
477.9141550653456
 20
75.04601408992326
 30
0.0
 40
1.0
 41
0.0
 71
     5
 72
     1
  1
\A1;%%c10"
 73
     1
 44
1.0
  0
SOLID
  5
6F0
330
652
100
AcDbEntity
  8
A1
 62
     0
100
AcDbTrace
 10
473.354511223631
 20
75.12934742325659
 30
0.0
 11
473.354511223631
 21
74.96268075658993
 31
0.0
 12
472.854511223631
 22
75.04601408992326
 32
0.0
 13
472.854511223631
 23
75.04601408992326
 33
0.0
  0
SOLID
  5
6F1
330
652
100
AcDbEntity
  8
A1
 62
     0
100
AcDbTrace
 10
482.3545026935123
 20
75.12934742325659
 30
0.0
 11
482.3545026935123
 21
74.96268075658993
 31
0.0
 12
482.8545026935123
 22
75.04601408992326
 32
0.0
 13
482.8545026935123
 23
75.04601408992326
 33
0.0
  0
POINT
  5
6F2
330
652
100
AcDbEntity
  8
DEFPOINTS
 62
     0
100
AcDbPoint
 10
472.854511223631
 20
86.30206225106389
 30
0.0
  0
POINT
  5
6F3
330
652
100
AcDbEntity
  8
DEFPOINTS
 62
     0
100
AcDbPoint
 10
482.8545026935123
 20
86.30190595850983
 30
0.0
  0
POINT
  5
6F4
330
652
100
AcDbEntity
  8
DEFPOINTS
 62
     0
100
AcDbPoint
 10
482.8545026935123
 20
75.04601408992326
 30
0.0
  0
ENDBLK
  5
65E
330
652
100
AcDbEntity
  8
0
 62
     7
100
AcDbBlockEnd
  0
ENDSEC
  0
SECTION
  2
ENTITIES
  0
LWPOLYLINE
  5
26
330
2
100
AcDbEntity
  8
0
100
AcDbPolyline
 90
        2
 70
     1
 43
0.12
 10
480.3545068565084
 20
83.21532681263407
 42
3.732050807568804
 10
475.3545068565082
 20
83.21532681263407
  0
INSERT
  5
27
330
2
100
AcDbEntity
  8
A1
 62
     7
100
AcDbBlockReference
 66
     1
  2
PROFILE LOGO
 10
473.1611022101956
 20
88.37043426503903
 30
0.0
  0
ATTRIB
  5
28
330
27
100
AcDbEntity
  8
A1
 62
    22
100
AcDbText
 10
473.4494921970012
 20
86.6921360161325
 30
0.0
 40
0.2126953125
  1
1531
 72
     1
 11
473.8392326154765
 21
86.6921360161325
 31
0.0
100
AcDbAttribute
  2
XXXX
 70
     0
  0
SEQEND
  5
44
330
27
100
AcDbEntity
  8
A1
 62
     7
  0
INSERT
  5
5D9
330
2
100
AcDbEntity
  8
A1
 62
     7
100
AcDbBlockReference
 66
     1
  2
TSFORMA
 10
449.6974331187787
 20
63.80708754382546
 30
0.0
 41
0.9021
 42
0.9021
 43
0.9021
  0
ATTRIB
  5
5DA
330
5D9
100
AcDbEntity
  8
A1
 62
     1
100
AcDbText
 10
458.7849627204036
 20
64.81390562297651
 30
0.0
 40
0.4510500000000001
  1
TS1531
 72
     2
 11
461.2710122243016
 21
64.81390562297651
 31
0.0
100
AcDbAttribute
  2
XXXXXX
 70
     0
  0
ATTRIB
  5
5DB
330
5D9
100
AcDbEntity
  8
A1
 62
     1
100
AcDbText
 10
452.490982810953
 20
65.48781342534522
 30
0.0
 40
4.11583125
  1
TS1531
  7
barcoder
 72
     1
 11
456.555366170328
 21
65.48781342534522
 31
0.0
100
AcDbAttribute
  2
BARCODE
 70
     0
  0
ATTRIB
  5
5DC
330
5D9
100
AcDbEntity
  8
A1
 62
     1
100
AcDbText
 10
469.6147952888433
 20
64.36297439143578
 30
0.0
 40
0.6819875999999999
  1
10" BALL
 72
     1
 11
471.850950945399
 21
64.36297439143578
 31
0.0
100
AcDbAttribute
  2
XXXXXX
 70
     0
  0
ATTRIB
  5
5DD
330
5D9
100
AcDbEntity
  8
A1
 62
     1
100
AcDbText
 10
502.5216719032425
 20
69.15080787774254
 30
0.0
 40
0.6342890625000001
  1
76.25"
 72
     1
 11
504.0453592011474
 21
69.15080787774254
 31
0.0
100
AcDbAttribute
  2
XXXXX
 70
     0
  0
ATTRIB
  5
5DE
330
5D9
100
AcDbEntity
  8
A1
 62
     1
100
AcDbText
 10
502.7120415167216
 20
67.62402227323157
 30
0.0
 40
0.6342890625000001
  1
68.83
 72
     1
 11
504.0224260788672
 21
67.62402227323157
 31
0.0
100
AcDbAttribute
  2
XXXXX
 70
     0
  0
ATTRIB
  5
5DF
330
5D9
100
AcDbEntity
  8
A1
 62
     1
100
AcDbText
 10
499.8893565051002
 20
103.2202748851954
 30
0.0
 40
1.11634875
  1
TS1531
 72
     1
 11
502.9658427661738
 21
103.2202748851954
 31
0.0
100
AcDbAttribute
  2
TS00XX
 70
     0
  0
SEQEND
  5
5E0
330
5D9
100
AcDbEntity
  8
A1
 62
     7
  0
DIMENSION
  5
607
330
2
100
AcDbEntity
  8
A1
 62
     7
100
AcDbDimension
  2
*D4
 10
489.4830513399705
 20
92.54509645824468
 30
0.0
 11
489.4830513399705
 21
87.79799465253432
 31
0.0
 70
   160
 71
     5
 42
-1.0
  3
STANDARD
100
AcDbAlignedDimension
 13
480.3545068565084
 23
83.21532681263407
 33
0.0
 14
477.9142864968608
 24
92.54509645824468
 34
0.0
 50
90.0
100
AcDbRotatedDimension
1001
ACAD
1000
DSTYLE
1002
{
1070
    73
1070
     1
1070
    74
1070
     1
1070
    77
1070
     0
1070
   147
1040
0.5
1070
   279
1070
     1
1070
   288
1070
     1
1070
   289
1070
     3
1002
}
  0
DIMENSION
  5
615
330
2
100
AcDbEntity
  8
A1
 62
     7
100
AcDbDimension
  2
*D5
 10
475.3545068565082
 20
78.07379123708539
 30
0.0
 11
478.0987651424604
 21
78.07379123708539
 31
0.0
 70
   161
  1
%%C5"
 71
     5
 42
-1.0
  3
STANDARD
100
AcDbAlignedDimension
 13
480.3545068565084
 23
82.84032681263408
 33
0.0
 14
475.3545068565082
 24
82.84032681263408
 34
0.0
1001
ACAD
1000
DSTYLE
1002
{
1070
    73
1070
     1
1070
    74
1070
     1
1070
    77
1070
     0
1070
   147
1040
0.5
1070
   279
1070
     1
1070
   288
1070
     1
1070
   289
1070
     3
1002
}
  0
INSERT
  5
62D
330
2
100
AcDbEntity
  8
A1
 62
     7
100
AcDbBlockReference
 66
     1
  2
LINK FLAG
 10
477.8526596277396
 20
92.54545349033088
 30
0.0
  0
ATTRIB
  5
62E
330
62D
100
AcDbEntity
  8
A1
 62
     1
100
AcDbText
 10
488.6111929360315
 20
97.49892071941308
 30
0.0
 40
1.0
  1
TS1531
100
AcDbAttribute
  2
XXXXXX
 70
     0
  0
SEQEND
  5
62F
330
62D
100
AcDbEntity
  8
A1
 62
     7
  0
DIMENSION
  5
651
330
2
100
AcDbEntity
  8
A1
 62
     7
100
AcDbDimension
  2
*D6
 10
482.8545026935123
 20
75.04601408992326
 30
0.0
 11
477.9141550653456
 21
75.04601408992326
 31
0.0
 70
   160
  1
%%c10"
 71
     5
 42
-1.0
  3
STANDARD
100
AcDbAlignedDimension
 13
472.854511223631
 23
86.30206225106389
 33
0.0
 14
482.8545026935123
 24
86.30190595850983
 34
0.0
100
AcDbRotatedDimension
1001
ACAD
1000
DSTYLE
1002
{
1070
    73
1070
     1
1070
    74
1070
     1
1070
    77
1070
     0
1070
   147
1040
0.5
1070
   279
1070
     1
1070
   288
1070
     1
1070
   289
1070
     3
1002
}
  0
ENDSEC
  0
SECTION
  2
OBJECTS
  0
DICTIONARY
  5
8
330
0
100
AcDbDictionary
281
     1
  3
ACAD_GROUP
350
21
  3
ACAD_LAYOUT
350
C
  3
ACAD_MLINESTYLE
350
22
  3
ACAD_PLOTSETTINGS
350
23
  3
ACAD_PLOTSTYLENAME
350
7
  3
ASE_INDEX_DICTIONARY
350
5E2
  3
DWGPROPS
350
6FA
  0
DICTIONARY
  5
3
330
2
100
AcDbDictionary
280
     1
281
     1
  3
ACAD_LAYOUTSELFREF
360
6CC
  0
DICTIONARY
  5
6CF
330
D
100
AcDbDictionary
280
     1
281
     1
  3
ACAD_LAYOUTSELFREF
360
6D0
  0
DICTIONARY
  5
21
102
{ACAD_REACTORS
330
8
102
}
330
8
100
AcDbDictionary
281
     1
  0
DICTIONARY
  5
C
102
{ACAD_REACTORS
330
8
102
}
330
8
100
AcDbDictionary
281
     1
  3
Layout1
350
10
  3
Model
350
B
  0
DICTIONARY
  5
22
102
{ACAD_REACTORS
330
8
102
}
330
8
100
AcDbDictionary
281
     1
  3
STANDARD
350
25
  0
DICTIONARY
  5
23
102
{ACAD_REACTORS
330
8
102
}
330
8
100
AcDbDictionary
281
     1
  0
ACDBDICTIONARYWDFLT
  5
7
102
{ACAD_REACTORS
330
8
102
}
330
8
100
AcDbDictionary
281
     1
  3
Normal
350
6
100
AcDbDictionaryWithDefault
340
6
  0
DICTIONARY
  5
5E2
102
{ACAD_REACTORS
330
8
102
}
330
8
100
AcDbDictionary
281
     1
  3
ASEBlockHierarchyIndexRecord
350
5E4
1001
DCO15
1040
1362979285.68
  0
XRECORD
  5
6FA
102
{ACAD_REACTORS
330
8
102
}
330
8
100
AcDbXrecord
280
     1
  1
DWGPROPS COOKIE
  2

  3

  4

  6

  7

  8
catalog
  9

300
=
301
=
302
=
303
=
304
=
305
=
306
=
307
=
308
=
309
=
 40
2.289380902777777
 41
2451085.66483831
 42
2451660.576868287
  1

 90
        0
  0
XRECORD
  5
6CC
102
{ACAD_REACTORS
330
3
102
}
330
3
100
AcDbXrecord
280
     1
340
2
  0
XRECORD
  5
6D0
102
{ACAD_REACTORS
330
6CF
102
}
330
6CF
100
AcDbXrecord
280
     1
340
D
  0
LAYOUT
  5
10
102
{ACAD_REACTORS
330
C
102
}
330
C
100
AcDbPlotSettings
  1

  2
None
  4

  6

 40
0.0
 41
0.0
 42
0.0
 43
0.0
 44
0.0
 45
0.0
 46
0.0
 47
0.0
 48
0.0
 49
0.0
140
0.0
141
0.0
142
1.0
143
1.0
 70
   688
 72
     0
 73
     0
 74
     5
  7

 75
    16
147
1.0
148
0.0
149
0.0
100
AcDbLayout
  1
Layout1
 70
     1
 71
     1
 10
0.0
 20
0.0
 11
12.0
 21
9.0
 12
0.0
 22
0.0
 32
0.0
 14
1.000000000000000E+20
 24
1.000000000000000E+20
 34
1.000000000000000E+20
 15
-1.000000000000000E+20
 25
-1.000000000000000E+20
 35
-1.000000000000000E+20
146
0.0
 13
0.0
 23
0.0
 33
0.0
 16
1.0
 26
0.0
 36
0.0
 17
0.0
 27
1.0
 37
0.0
 76
     0
330
D
  0
LAYOUT
  5
B
102
{ACAD_REACTORS
330
C
102
}
330
C
100
AcDbPlotSettings
  1

  2
HP LaserJet 5.pc3
  4
Letter
  6

 40
7.143749713897705
 41
6.381738662719726
 42
7.14373779296875
 43
6.381744384765625
 44
215.8999938964843
 45
279.3999938964843
 46
0.0
 47
0.0
 48
621.3757168041145
 49
474.7940657922356
140
776.0405273297699
141
524.8962291405273
142
1.0
143
5.42380011351217
 70
 11952
 72
     0
 73
     1
 74
     1
  7

 75
     0
147
0.1843725762512388
148
-11421.80337436185
149
-1620.644518730656
100
AcDbLayout
  1
Model
 70
     1
 71
     0
 10
0.0
 20
0.0
 11
12.0
 21
9.0
 12
0.0
 22
0.0
 32
0.0
 14
0.0
 24
0.0
 34
0.0
 15
0.0
 25
0.0
 35
0.0
146
0.0
 13
0.0
 23
0.0
 33
0.0
 16
1.0
 26
0.0
 36
0.0
 17
0.0
 27
1.0
 37
0.0
 76
     0
330
2
  0
MLINESTYLE
  5
25
102
{ACAD_REACTORS
330
22
102
}
330
22
100
AcDbMlineStyle
  2
STANDARD
 70
     0
  3

 62
   256
 51
90.0
 52
90.0
 71
     2
 49
0.5
 62
   256
  6
BYLAYER
 49
-0.5
 62
   256
  6
BYLAYER
  0
ACDBPLACEHOLDER
  5
6
102
{ACAD_REACTORS
330
7
102
}
330
7
  0
XRECORD
  5
5E4
102
{ACAD_REACTORS
330
5E2
102
}
330
5E2
100
AcDbXrecord
280
     1
330
27
330
5D9
330
62D
330
5A3
330
0
330
0
330
0
  0
ENDSEC
  0
EOF
