  0
SECTION
  2
HEADER
  9
$ACADVER
  1
AC1015
  9
$ACADMAINTVER
 70
     6
  9
$DWGCODEPAGE
  3
ANSI_1252
  9
$INSBASE
 10
0.0
 20
0.0
 30
0.0
  9
$EXTMIN
 10
453.6184166905478
 20
64.81626414412153
 30
0.0
  9
$EXTMAX
 10
513.8495604122033
 20
109.6223588638896
 30
0.0
  9
$LIMMIN
 10
0.0
 20
0.0
  9
$LIMMAX
 10
12.0
 20
9.0
  9
$ORTHOMODE
 70
     0
  9
$REGENMODE
 70
     1
  9
$FILLMODE
 70
     1
  9
$QTEXTMODE
 70
     0
  9
$MIRRTEXT
 70
     0
  9
$LTSCALE
 40
1.0
  9
$ATTMODE
 70
     2
  9
$TEXTSIZE
 40
2.0
  9
$TRACEWID
 40
0.05
  9
$TEXTSTYLE
  7
STANDARD
  9
$CLAYER
  8
A1
  9
$CELTYPE
  6
BYLAYER
  9
$CECOLOR
 62
     7
  9
$CELTSCALE
 40
1.0
  9
$DISPSILH
 70
     0
  9
$DIMSCALE
 40
1.0
  9
$DIMASZ
 40
0.5
  9
$DIMEXO
 40
1.0
  9
$DIMDLI
 40
0.0625
  9
$DIMRND
 40
0.0
  9
$DIMDLE
 40
0.0
  9
$DIMEXE
 40
0.25
  9
$DIMTP
 40
0.0
  9
$DIMTM
 40
0.0
  9
$DIMTXT
 40
1.0
  9
$DIMCEN
 40
0.0
  9
$DIMTSZ
 40
0.0
  9
$DIMTOL
 70
     0
  9
$DIMLIM
 70
     0
  9
$DIMTIH
 70
     1
  9
$DIMTOH
 70
     1
  9
$DIMSE1
 70
     0
  9
$DIMSE2
 70
     0
  9
$DIMTAD
 70
     0
  9
$DIMZIN
 70
     0
  9
$DIMBLK
  1

  9
$DIMASO
 70
     1
  9
$DIMSHO
 70
     1
  9
$DIMPOST
  1
"
  9
$DIMAPOST
  1

  9
$DIMALT
 70
     0
  9
$DIMALTD
 70
     0
  9
$DIMALTF
 40
25.4
  9
$DIMLFAC
 40
1.0
  9
$DIMTOFL
 70
     0
  9
$DIMTVP
 40
0.0
  9
$DIMTIX
 70
     0
  9
$DIMSOXD
 70
     0
  9
$DIMSAH
 70
     0
  9
$DIMBLK1
  1

  9
$DIMBLK2
  1

  9
$DIMSTYLE
  2
STANDARD
  9
$DIMCLRD
 70
     0
  9
$DIMCLRE
 70
     0
  9
$DIMCLRT
 70
     0
  9
$DIMTFAC
 40
0.125
  9
$DIMGAP
 40
0.5
  9
$DIMJUST
 70
     0
  9
$DIMSD1
 70
     0
  9
$DIMSD2
 70
     0
  9
$DIMTOLJ
 70
     1
  9
$DIMTZIN
 70
     0
  9
$DIMALTZ
 70
     2
  9
$DIMALTTZ
 70
     2
  9
$DIMUPT
 70
     1
  9
$DIMDEC
 70
     4
  9
$DIMTDEC
 70
     4
  9
$DIMALTU
 70
     2
  9
$DIMALTTD
 70
     0
  9
$DIMTXSTY
  7
STANDARD
  9
$DIMAUNIT
 70
     0
  9
$DIMADEC
 70
     0
  9
$DIMALTRND
 40
0.0
  9
$DIMAZIN
 70
     0
  9
$DIMDSEP
 70
    46
  9
$DIMATFIT
 70
     1
  9
$DIMFRAC
 70
     2
  9
$DIMLDRBLK
  1

  9
$DIMLUNIT
 70
     5
  9
$DIMLWD
 70
    -2
  9
$DIMLWE
 70
    -2
  9
$DIMTMOVE
 70
     1
  9
$LUNITS
 70
     5
  9
$LUPREC
 70
     4
  9
$SKETCHINC
 40
0.1
  9
$FILLETRAD
 40
0.0
  9
$AUNITS
 70
     0
  9
$AUPREC
 70
     1
  9
$MENU
  1
acad
  9
$ELEVATION
 40
0.0
  9
$PELEVATION
 40
0.0
  9
$THICKNESS
 40
0.0
  9
$LIMCHECK
 70
     0
  9
$CHAMFERA
 40
0.75
  9
$CHAMFERB
 40
0.75
  9
$CHAMFERC
 40
0.0
  9
$CHAMFERD
 40
0.0
  9
$SKPOLY
 70
     0
  9
$TDCREATE
 40
2451085.664838310
  9
$TDUCREATE
 40
2451085.831504977
  9
$TDUPDATE
 40
2451660.576701041
  9
$TDUUPDATE
 40
2451660.743367708
  9
$TDINDWG
 40
2.2948149306
  9
$TDUSRTIMER
 40
2.2948149306
  9
$USRTIMER
 70
     1
  9
$ANGBASE
 50
0.0
  9
$ANGDIR
 70
     0
  9
$PDMODE
 70
     0
  9
$PDSIZE
 40
0.0
  9
$PLINEWID
 40
0.0
  9
$SPLFRAME
 70
     0
  9
$SPLINETYPE
 70
     6
  9
$SPLINESEGS
 70
     8
  9
$HANDSEED
  5
79B
  9
$SURFTAB1
 70
     6
  9
$SURFTAB2
 70
     6
  9
$SURFTYPE
 70
     6
  9
$SURFU
 70
     6
  9
$SURFV
 70
     6
  9
$UCSBASE
  2

  9
$UCSNAME
  2

  9
$UCSORG
 10
0.0
 20
0.0
 30
0.0
  9
$UCSXDIR
 10
1.0
 20
0.0
 30
0.0
  9
$UCSYDIR
 10
0.0
 20
1.0
 30
0.0
  9
$UCSORTHOREF
  2

  9
$UCSORTHOVIEW
 70
     0
  9
$UCSORGTOP
 10
0.0
 20
0.0
 30
0.0
  9
$UCSORGBOTTOM
 10
0.0
 20
0.0
 30
0.0
  9
$UCSORGLEFT
 10
0.0
 20
0.0
 30
0.0
  9
$UCSORGRIGHT
 10
0.0
 20
0.0
 30
0.0
  9
$UCSORGFRONT
 10
0.0
 20
0.0
 30
0.0
  9
$UCSORGBACK
 10
0.0
 20
0.0
 30
0.0
  9
$PUCSBASE
  2

  9
$PUCSNAME
  2

  9
$PUCSORG
 10
0.0
 20
0.0
 30
0.0
  9
$PUCSXDIR
 10
1.0
 20
0.0
 30
0.0
  9
$PUCSYDIR
 10
0.0
 20
1.0
 30
0.0
  9
$PUCSORTHOREF
  2

  9
$PUCSORTHOVIEW
 70
     0
  9
$PUCSORGTOP
 10
0.0
 20
0.0
 30
0.0
  9
$PUCSORGBOTTOM
 10
0.0
 20
0.0
 30
0.0
  9
$PUCSORGLEFT
 10
0.0
 20
0.0
 30
0.0
  9
$PUCSORGRIGHT
 10
0.0
 20
0.0
 30
0.0
  9
$PUCSORGFRONT
 10
0.0
 20
0.0
 30
0.0
  9
$PUCSORGBACK
 10
0.0
 20
0.0
 30
0.0
  9
$USERI1
 70
     0
  9
$USERI2
 70
     0
  9
$USERI3
 70
     0
  9
$USERI4
 70
     0
  9
$USERI5
 70
     0
  9
$USERR1
 40
0.0
  9
$USERR2
 40
0.0
  9
$USERR3
 40
0.0
  9
$USERR4
 40
0.0
  9
$USERR5
 40
0.0
  9
$WORLDVIEW
 70
     1
  9
$SHADEDGE
 70
     1
  9
$SHADEDIF
 70
    70
  9
$TILEMODE
 70
     1
  9
$MAXACTVP
 70
    16
  9
$PINSBASE
 10
0.0
 20
0.0
 30
0.0
  9
$PLIMCHECK
 70
     0
  9
$PEXTMIN
 10
1.000000000000000E+20
 20
1.000000000000000E+20
 30
1.000000000000000E+20
  9
$PEXTMAX
 10
-1.000000000000000E+20
 20
-1.000000000000000E+20
 30
-1.000000000000000E+20
  9
$PLIMMIN
 10
0.0
 20
0.0
  9
$PLIMMAX
 10
12.0
 20
9.0
  9
$UNITMODE
 70
     0
  9
$VISRETAIN
 70
     0
  9
$PLINEGEN
 70
     0
  9
$PSLTSCALE
 70
     1
  9
$TREEDEPTH
 70
  3020
  9
$CMLSTYLE
  2
STANDARD
  9
$CMLJUST
 70
     0
  9
$CMLSCALE
 40
1.0
  9
$PROXYGRAPHICS
 70
     1
  9
$MEASUREMENT
 70
     0
  9
$CELWEIGHT
370
    -1
  9
$ENDCAPS
280
     0
  9
$JOINSTYLE
280
     0
  9
$LWDISPLAY
290
     0
  9
$INSUNITS
 70
     0
  9
$HYPERLINKBASE
  1

  9
$STYLESHEET
  1

  9
$XEDIT
290
     1
  9
$CEPSNTYPE
380
     0
  9
$PSTYLEMODE
290
     1
  9
$FINGERPRINTGUID
  2
{A6232B84-9B2E-11D3-8DA4-00A0C981A35F}
  9
$VERSIONGUID
  2
{6AD27751-DFBC-11D3-8DA4-00A0C981A35F}
  9
$EXTNAMES
290
     1
  9
$PSVPSCALE
 40
0.0
  9
$OLESTARTUP
290
     0
  0
ENDSEC
  0
SECTION
  2
CLASSES
  0
CLASS
  1
DICTIONARYVAR
  2
AcDbDictionaryVar
  3
AutoCAD 2000
 90
    32768
280
     0
281
     0
  0
CLASS
  1
LWPOLYLINE
  2
AcDbPolyline
  3
AutoCAD 2000
 90
    32768
280
     0
281
     1
  0
CLASS
  1
RASTERVARIABLES
  2
AcDbRasterVariables
  3
ISM
 90
    32768
280
     0
281
     0
  0
CLASS
  1
ACDBDICTIONARYWDFLT
  2
AcDbDictionaryWithDefault
  3
AutoCAD 2000
 90
        0
280
     0
281
     0
  0
CLASS
  1
ACDBPLACEHOLDER
  2
AcDbPlaceHolder
  3
AutoCAD 2000
 90
        0
280
     0
281
     0
  0
CLASS
  1
LAYOUT
  2
AcDbLayout
  3
AutoCAD 2000
 90
        0
280
     0
281
     0
  0
CLASS
  1
ACME_DOCUMENT
  2
AcMeDbDoc
  3
AcMeServices
 90
    32768
280
     1
281
     0
  0
CLASS
  1
ACMESCOPE
  2
AcMeScope
  3
AcMeServices
 90
    32768
280
     1
281
     0
  0
CLASS
  1
ACMECOMMANDHISTORY
  2
AcMeCommandHistory
  3
AcMeServices
 90
    32768
280
     1
281
     0
  0
CLASS
  1
ACIMSYSVARMAN
  2
AcImSysVarManager
  3
AcMeServices
 90
    32768
280
     1
281
     0
  0
CLASS
  1
ACIMREALSYSVAR
  2
AcImRealSysVar
  3
AcMeServices
 90
    32768
280
     1
281
     0
  0
CLASS
  1
ACIMINTSYSVAR
  2
AcImIntSysVar
  3
AcMeServices
 90
    32768
280
     1
281
     0
  0
CLASS
  1
ACMEDRAWINGMAN
  2
AcMeDrawingMan
  3
AcMeServices
 90
    32768
280
     1
281
     0
  0
CLASS
  1
ACMEVIEW
  2
AcMeView
  3
AcMeServices
 90
    32768
280
     1
281
     0
  0
CLASS
  1
ACDBENTITYCACHE
  2
AcMeEntityCache
  3
AcMeServices
 90
    32768
280
     1
281
     0
  0
CLASS
  1
GSMANAGER
  2
AcMeGSManager
  3
AcMeServices
 90
    32768
280
     1
281
     0
  0
CLASS
  1
AmdtInternalReactor
  2
AmdtInternalReactor
  3
AcMeServices
 90
    32768
280
     1
281
     0
  0
CLASS
  1
ACMESTATEMGR
  2
AcMeStateMgr
  3
AcMeServices
 90
    32768
280
     1
281
     0
  0
CLASS
  1
ACGREFMASTER
  2
AcGrefMaster
  3
AcAttribServices
 90
    32768
280
     1
281
     0
  0
CLASS
  1
AM_DRAWING_MGR
  2
AcDmDwgMgr
  3
AcMechDwgViewMgmt
 90
    32768
280
     1
281
     0
  0
CLASS
  1
AM_DWG_DOCUMENT
  2
AcDmDwgDocument
  3
AcMechDwgViewMgmt
 90
    32768
280
     1
281
     0
  0
CLASS
  1
AM_DWG_SHEET
  2
AcDmSheet
  3
AcMechDwgViewMgmt
 90
    32768
280
     1
281
     0
  0
CLASS
  1
AM_VIEWDIMPARMAP
  2
AcDmViewDimParMap
  3
AcMechDwgViewMgmt
 90
    32768
280
     1
281
     0
  0
CLASS
  1
AM_DWGMGR_NAME
  2
AcDmDwgMgrName
  3
AcMechDwgViewMgmt
 90
    32768
280
     1
281
     0
  0
CLASS
  1
ACME_DATABASE
  2
AcMeDbDatabase
  3
AcMeServices
 90
    32768
280
     1
281
     0
  0
CLASS
  1
ACRFINSADJUSTERMGR
  2
AcRfInsAdjusterMgr
  3
AcMeServices
 90
    32768
280
     1
281
     0
  0
CLASS
  1
ACGREFMASTER
  2
AcGrefacadMaster
  3
AcGrefServices
 90
    32768
280
     1
281
     0
  0
CLASS
  1
AMDTMENUSTATEMGR
  2
AmdtMenuStateMgr
  3
McadcomServices
 90
    32768
280
     1
281
     0
  0
CLASS
  1
AMDTMCOMMENUSTATE
  2
AmdtMcomMenuState
  3
McadcomServices
 90
    32768
280
     1
281
     0
  0
CLASS
  1
ASAPP
  2
AcAsAppObject
  3
AutoSurfServices
 90
    32768
280
     1
281
     0
  0
CLASS
  1
IM_STATIC_MAN
  2
AcImStaticVarManager
  3
AcMeServices
 90
    32768
280
     1
281
     0
  0
CLASS
  1
ACIMSTRSYSVAR
  2
AcImStrSysVar
  3
AcMeServices
 90
    32768
280
     1
281
     0
  0
CLASS
  1
ACIMDBLSTATICVAR
  2
AcImDblStaticVar
  3
AcMeServices
 90
    32768
280
     1
281
     0
  0
CLASS
  1
ACIMSTRSTATICVAR
  2
AcImStrStaticVar
  3
AcMeServices
 90
    32768
280
     1
281
     0
  0
CLASS
  1
ACIMINTSTATICVAR
  2
AcImIntStaticVar
  3
AcMeServices
 90
    32768
280
     1
281
     0
  0
CLASS
  1
ACADGREFMODULE
  2
AcAdGrefModule
  3
AdGrefServices
 90
    32768
280
     1
281
     0
  0
CLASS
  1
AMIMASTER
  2
AmiMaster
  3
AmiServices
 90
    32768
280
     1
281
     0
  0
CLASS
  1
ACASGREFMASTER
  2
AcAsGrefMaster
  3
AutoSurfResolverServices
 90
    32768
280
     1
281
     0
  0
CLASS
  1
MAPIAMMOUDLE
  2
MApiAmModule
  3
MApiAmServices
 90
    32768
280
     1
281
     0
  0
CLASS
  1
AMDTDMMENUSTATE
  2
AmdtDmMenuState
  3
AcMechDwgViewMgmt
 90
    32768
280
     1
281
     0
  0
CLASS
  1
AMDTADMENUSTATE
  2
AmdtAdMenuState
  3
DesignerServices
 90
    32768
280
     1
281
     0
  0
CLASS
  1
ADAPPL
  2
AcAdAppl
  3
DesignerServices
 90
    32768
280
     1
281
     0
  0
CLASS
  1
DEPMGR
  2
AcAdDepMgr
  3
DesignerServices
 90
    32768
280
     1
281
     0
  0
CLASS
  1
PARAMMGR
  2
AcAdParamMgr
  3
DesignerServices
 90
    32768
280
     1
281
     0
  0
CLASS
  1
PARAMSCOPE
  2
AcAdParamScope
  3
DesignerServices
 90
    32768
280
     1
281
     0
  0
CLASS
  1
NAMEDAPPL
  2
AcAdNamedAppl
  3
DesignerServices
 90
    32768
280
     1
281
     0
  0
CLASS
  1
ADHNTMPLT
  2
AdHoleNoteTemplateMgr
  3
DesignerServices
 90
    32768
280
     1
281
     0
  0
CLASS
  1
AM_HNTEMPLATE_MGR_NAME
  2
AdHoleNoteTemplateMgrName
  3
DesignerServices
 90
    32768
280
     1
281
     0
  0
CLASS
  1
AMDTAMMENUSTATE
  2
AmdtAmMenuState
  3
DesignerAssemblies
 90
    32768
280
     1
281
     0
  0
CLASS
  1
ACAMPROJECT
  2
AcAmProject
  3
DesignerAssemblies
 90
    32768
280
     1
281
     0
  0
CLASS
  1
ACAMGRCOMPDEF
  2
AcAmGrCompDef
  3
DesignerAssemblies
 90
    32768
280
     1
281
     0
  0
CLASS
  1
ACCMCONTEXT
  2
AcCmContext
  3
DesignerAssemblies
 90
    32768
280
     1
281
     0
  0
CLASS
  1
ACAMCOMPDEF
  2
AcAmCompDef
  3
DesignerAssemblies
 90
    32768
280
     1
281
     0
  0
CLASS
  1
ACAMCOMPDEFMGR
  2
AcAmCompDefMgr
  3
DesignerAssemblies
 90
    32768
280
     1
281
     0
  0
CLASS
  1
AMCONTEXTMGR
  2
AcAmContextMgr
  3
DesignerAssemblies
 90
    32768
280
     1
281
     0
  0
CLASS
  1
ACAMCONTEXTMODELER
  2
AcAmContextModeler
  3
DesignerAssemblies
 90
    32768
280
     1
281
     0
  0
CLASS
  1
MAPIADMODULE
  2
MApiAdModule
  3
MApiAdServices
 90
    32768
280
     1
281
     0
  0
CLASS
  1
ACMDATADICTIONARY
  2
AcmDataDictionary
  3
"AcmSymBB|Product Description: AutoCAD Mechanical 2000|Company: Autodesk"
 90
    32768
280
     1
281
     0
  0
CLASS
  1
ACMDATAENTRYBLOCK
  2
AcmDataEntryBlock
  3
"AcmSymBB|Product Description: AutoCAD Mechanical 2000|Company: Autodesk"
 90
    32768
280
     1
281
     0
  0
CLASS
  1
AMDTBROWSERDBTAB
  2
AmdtBrowserDbTab
  3
McadcomServices
 90
    32768
280
     1
281
     0
  0
CLASS
  1
CBROWSERAPPOBJECT
  2
CBrowserAppObject
  3
McadcomServices
 90
    32768
280
     1
281
     0
  0
CLASS
  1
DM_PLACEHOLDER
  2
AcDmSelsetPlaceholder
  3
AcMechDwgViewMgmt
 90
    32768
280
     1
281
     0
  0
CLASS
  1
CATALOGSTATE
  2
AcAmCatalogState
  3
DesignerAssemblies
 90
    32768
280
     1
281
     0
  0
CLASS
  1
ACAMGRCOMPDEFSET
  2
AcAmGrCompDefSet
  3
DesignerAssemblies
 90
    32768
280
     1
281
     0
  0
CLASS
  1
AMGOBJPROPCFG
  2
AmgObjPropCfg
  3
"AmgLay|Product Description: AutoCAD Mechanical 2000|Company: Autodesk"
 90
    32769
280
     1
281
     0
  0
CLASS
  1
LAYER_INDEX
  2
AcDbLayerIndex
  3
AutoCAD 2000
 90
    32768
280
     0
281
     0
  0
CLASS
  1
IDBUFFER
  2
AcDbIdBuffer
  3
AutoCAD 2000
 90
    32768
280
     0
281
     0
  0
CLASS
  1
ACRFATTGENMGR
  2
AcRfAttGeneralMgr
  3
AcAttribServices
 90
    32768
280
     1
281
     0
  0
CLASS
  1
PLOTSETTINGS
  2
AcDbPlotSettings
  3
AutoCAD 2000
 90
    32768
280
     0
281
     0
  0
CLASS
  1
LONG_TRANSACTION
  2
AcDbLongTransaction
  3
AutoCAD 2000
 90
    32768
280
     0
281
     0
  0
CLASS
  1
LWPOLYLINE
  2
AcDbPolyline
  3
AutoCAD 2000
 90
    32768
280
     0
281
     1
  0
CLASS
  1
HATCH
  2
AcDbHatch
  3
AutoCAD 2000
 90
    32768
280
     0
281
     1
  0
CLASS
  1
XRECORD
  2
AcDbXrecord
  3
AutoCAD 2000
 90
    32768
280
     0
281
     0
  0
ENDSEC
  0
SECTION
  2
TABLES
  0
TABLE
  2
VPORT
  5
1B
330
0
100
AcDbSymbolTable
 70
     3
  0
VPORT
  5
79A
330
1B
100
AcDbSymbolTableRecord
100
AcDbViewportTableRecord
  2
*Active
 70
     0
 10
0.0
 20
0.0
 11
1.0
 21
1.0
 12
549.1943918882783
 22
57.26495435402239
 13
0.0
 23
0.0
 14
1.0
 24
1.0
 15
0.0
 25
0.0
 16
0.0
 26
0.0
 36
1.0
 17
-64.46234487877643
 27
33.0238264231553
 37
6.148717398612387
 40
51.31403793849642
 41
1.413068844807467
 42
50.0
 43
-6.148717398612387
 44
-6.148717398612387
 50
0.0
 51
0.0
 71
     0
 72
 20000
 73
     1
 74
     1
 75
     0
 76
     0
 77
     0
 78
     0
281
     0
 65
     1
110
0.0
120
0.0
130
0.0
111
1.0
121
0.0
131
0.0
112
0.0
122
1.0
132
0.0
 79
     0
146
0.0
  0
ENDTAB
  0
TABLE
  2
LTYPE
  5
16
330
0
100
AcDbSymbolTable
 70
     2
  0
LTYPE
  5
17
330
16
100
AcDbSymbolTableRecord
100
AcDbLinetypeTableRecord
  2
BYBLOCK
 70
     0
  3

 72
    65
 73
     0
 40
0.0
  0
LTYPE
  5
18
330
16
100
AcDbSymbolTableRecord
100
AcDbLinetypeTableRecord
  2
BYLAYER
 70
     0
  3

 72
    65
 73
     0
 40
0.0
  0
LTYPE
  5
9
330
16
100
AcDbSymbolTableRecord
100
AcDbLinetypeTableRecord
  2
CONTINUOUS
 70
     0
  3
Solid line
 72
    65
 73
     0
 40
0.0
  0
LTYPE
  5
59C
330
16
100
AcDbSymbolTableRecord
100
AcDbLinetypeTableRecord
  2
DOT
 70
     0
  3
Dot . . . . . . . . . . . . . . . . . . . . . .
 72
    65
 73
     2
 40
0.25
 49
0.0
 74
     0
 49
-0.25
 74
     0
  0
ENDTAB
  0
TABLE
  2
LAYER
  5
11
330
0
100
AcDbSymbolTable
 70
     5
  0
LAYER
  5
5
330
11
100
AcDbSymbolTableRecord
100
AcDbLayerTableRecord
  2
0
 70
     0
 62
     7
  6
CONTINUOUS
370
    -3
390
6
  0
LAYER
  5
24
330
11
100
AcDbSymbolTableRecord
100
AcDbLayerTableRecord
  2
A1
 70
     0
 62
     7
  6
CONTINUOUS
370
    -3
390
6
  0
LAYER
  5
59D
330
11
100
AcDbSymbolTableRecord
100
AcDbLayerTableRecord
  2
LINEWORK
 70
     0
 62
    41
  6
CONTINUOUS
370
    -3
390
6
  0
LAYER
  5
59E
330
11
100
AcDbSymbolTableRecord
100
AcDbLayerTableRecord
  2
DEFPOINTS
 70
     0
 62
     7
  6
CONTINUOUS
290
     0
370
    -3
390
6
  0
LAYER
  5
59F
330
11
100
AcDbSymbolTableRecord
100
AcDbLayerTableRecord
  2
TAG
 70
     0
 62
     1
  6
CONTINUOUS
370
    -3
390
6
  0
ENDTAB
  0
TABLE
  2
STYLE
  5
12
330
0
100
AcDbSymbolTable
 70
     3
  0
STYLE
  5
13
330
12
100
AcDbSymbolTableRecord
100
AcDbTextStyleTableRecord
  2
STANDARD
 70
     0
 40
0.0
 41
1.0
 50
0.0
 71
     0
 42
2.0
  3
unvr55w.ttf
  4

1001
ACAD
1000
Univers
1071
       34
  0
STYLE
  5
5A0
330
12
100
AcDbSymbolTableRecord
100
AcDbTextStyleTableRecord
  2
ROMANC
 70
     0
 40
0.0
 41
1.0
 50
0.0
 71
     0
 42
0.5
  3
TIMESBD.TTF
  4

1001
ACAD
1000
Times New Roman
1071
 33554450
  0
STYLE
  5
5A1
330
12
100
AcDbSymbolTableRecord
100
AcDbTextStyleTableRecord
  2
barcoder
 70
     0
 40
0.0
 41
1.0
 50
0.0
 71
     0
 42
4.5625
  3
cw_barcd.ttf
  4

1001
ACAD
1000
Barcoder
1071
 33554434
  0
ENDTAB
  0
TABLE
  2
VIEW
  5
19
330
0
100
AcDbSymbolTable
 70
     0
  0
ENDTAB
  0
TABLE
  2
UCS
  5
1A
330
0
100
AcDbSymbolTable
 70
     0
  0
ENDTAB
  0
TABLE
  2
APPID
  5
1D
330
0
100
AcDbSymbolTable
 70
     2
  0
APPID
  5
14
330
1D
100
AcDbSymbolTableRecord
100
AcDbRegAppTableRecord
  2
ACAD
 70
     0
  0
APPID
  5
5E3
330
1D
100
AcDbSymbolTableRecord
100
AcDbRegAppTableRecord
  2
DCO15
 70
     0
  0
ENDTAB
  0
TABLE
  2
DIMSTYLE
  5
1E
330
0
100
AcDbSymbolTable
 70
     1
100
AcDbDimStyleTable
 71
     0
  0
DIMSTYLE
105
1F
102
{ACAD_REACTORS
330
607
330
615
330
6E0
102
}
330
1E
100
AcDbSymbolTableRecord
100
AcDbDimStyleTableRecord
  2
STANDARD
 70
     0
  3
"
 41
0.5
 42
1.0
 43
0.0625
 44
0.25
 73
     0
 74
     0
 77
     3
140
1.0
141
0.0
146
0.125
147
0.125
171
     0
274
     0
276
     2
277
     5
285
     2
286
     2
289
     0
340
13
  0
ENDTAB
  0
TABLE
  2
BLOCK_RECORD
  5
1
330
0
100
AcDbSymbolTable
 70
    55
  0
BLOCK_RECORD
  5
2
102
{ACAD_XDICTIONARY
360
3
102
}
330
1
100
AcDbSymbolTableRecord
100
AcDbBlockTableRecord
  2
*MODEL_SPACE
340
B
  0
BLOCK_RECORD
  5
D
102
{ACAD_XDICTIONARY
360
76C
102
}
330
1
100
AcDbSymbolTableRecord
100
AcDbBlockTableRecord
  2
*PAPER_SPACE
340
10
  0
BLOCK_RECORD
  5
29
330
1
100
AcDbSymbolTableRecord
100
AcDbBlockTableRecord
  2
PROFILE LOGO
340
0
102
{BLKREFS
331
27
102
}
  0
BLOCK_RECORD
  5
313
330
1
100
AcDbSymbolTableRecord
100
AcDbBlockTableRecord
  2
SCF
340
0
102
{BLKREFS
331
317
331
5A3
102
}
  0
BLOCK_RECORD
  5
316
330
1
100
AcDbSymbolTableRecord
100
AcDbBlockTableRecord
  2
ACF
340
0
  0
BLOCK_RECORD
  5
34C
330
1
100
AcDbSymbolTableRecord
100
AcDbBlockTableRecord
  2
LINK FLAG
340
0
102
{BLKREFS
331
62D
102
}
  0
BLOCK_RECORD
  5
356
330
1
100
AcDbSymbolTableRecord
100
AcDbBlockTableRecord
  2
TSECLINE
340
0
  0
BLOCK_RECORD
  5
372
330
1
100
AcDbSymbolTableRecord
100
AcDbBlockTableRecord
  2
*D5
340
0
  0
BLOCK_RECORD
  5
37F
330
1
100
AcDbSymbolTableRecord
100
AcDbBlockTableRecord
  2
*D6
340
0
  0
BLOCK_RECORD
  5
38C
330
1
100
AcDbSymbolTableRecord
100
AcDbBlockTableRecord
  2
*D7
340
0
  0
BLOCK_RECORD
  5
399
330
1
100
AcDbSymbolTableRecord
100
AcDbBlockTableRecord
  2
42
340
0
  0
BLOCK_RECORD
  5
3A0
330
1
100
AcDbSymbolTableRecord
100
AcDbBlockTableRecord
  2
*D9
340
0
  0
BLOCK_RECORD
  5
3AD
330
1
100
AcDbSymbolTableRecord
100
AcDbBlockTableRecord
  2
*D10
340
0
  0
BLOCK_RECORD
  5
3BA
330
1
100
AcDbSymbolTableRecord
100
AcDbBlockTableRecord
  2
*D11
340
0
  0
BLOCK_RECORD
  5
3C7
330
1
100
AcDbSymbolTableRecord
100
AcDbBlockTableRecord
  2
*D12
340
0
  0
BLOCK_RECORD
  5
3D4
330
1
100
AcDbSymbolTableRecord
100
AcDbBlockTableRecord
  2
43
340
0
  0
BLOCK_RECORD
  5
3DC
330
1
100
AcDbSymbolTableRecord
100
AcDbBlockTableRecord
  2
*D14
340
0
  0
BLOCK_RECORD
  5
3E9
330
1
100
AcDbSymbolTableRecord
100
AcDbBlockTableRecord
  2
*D15
340
0
  0
BLOCK_RECORD
  5
3F6
330
1
100
AcDbSymbolTableRecord
100
AcDbBlockTableRecord
  2
*D16
340
0
  0
BLOCK_RECORD
  5
403
330
1
100
AcDbSymbolTableRecord
100
AcDbBlockTableRecord
  2
44
340
0
  0
BLOCK_RECORD
  5
40A
330
1
100
AcDbSymbolTableRecord
100
AcDbBlockTableRecord
  2
*D18
340
0
  0
BLOCK_RECORD
  5
417
330
1
100
AcDbSymbolTableRecord
100
AcDbBlockTableRecord
  2
*D19
340
0
  0
BLOCK_RECORD
  5
424
330
1
100
AcDbSymbolTableRecord
100
AcDbBlockTableRecord
  2
*D20
340
0
  0
BLOCK_RECORD
  5
431
330
1
100
AcDbSymbolTableRecord
100
AcDbBlockTableRecord
  2
*D21
340
0
  0
BLOCK_RECORD
  5
43D
330
1
100
AcDbSymbolTableRecord
100
AcDbBlockTableRecord
  2
45
340
0
  0
BLOCK_RECORD
  5
445
330
1
100
AcDbSymbolTableRecord
100
AcDbBlockTableRecord
  2
*D23
340
0
  0
BLOCK_RECORD
  5
452
330
1
100
AcDbSymbolTableRecord
100
AcDbBlockTableRecord
  2
*D24
340
0
  0
BLOCK_RECORD
  5
45F
330
1
100
AcDbSymbolTableRecord
100
AcDbBlockTableRecord
  2
46
340
0
  0
BLOCK_RECORD
  5
465
330
1
100
AcDbSymbolTableRecord
100
AcDbBlockTableRecord
  2
*D26
340
0
  0
BLOCK_RECORD
  5
472
330
1
100
AcDbSymbolTableRecord
100
AcDbBlockTableRecord
  2
*D27
340
0
  0
BLOCK_RECORD
  5
47F
330
1
100
AcDbSymbolTableRecord
100
AcDbBlockTableRecord
  2
*D28
340
0
  0
BLOCK_RECORD
  5
48C
330
1
100
AcDbSymbolTableRecord
100
AcDbBlockTableRecord
  2
47
340
0
  0
BLOCK_RECORD
  5
493
330
1
100
AcDbSymbolTableRecord
100
AcDbBlockTableRecord
  2
*D30
340
0
  0
BLOCK_RECORD
  5
4A0
330
1
100
AcDbSymbolTableRecord
100
AcDbBlockTableRecord
  2
*D31
340
0
  0
BLOCK_RECORD
  5
4AD
330
1
100
AcDbSymbolTableRecord
100
AcDbBlockTableRecord
  2
*D32
340
0
  0
BLOCK_RECORD
  5
4BA
330
1
100
AcDbSymbolTableRecord
100
AcDbBlockTableRecord
  2
*D33
340
0
  0
BLOCK_RECORD
  5
4C7
330
1
100
AcDbSymbolTableRecord
100
AcDbBlockTableRecord
  2
48
340
0
  0
BLOCK_RECORD
  5
4CF
330
1
100
AcDbSymbolTableRecord
100
AcDbBlockTableRecord
  2
1TAG
340
0
102
{BLKREFS
331
523
331
595
102
}
  0
BLOCK_RECORD
  5
4D5
330
1
100
AcDbSymbolTableRecord
100
AcDbBlockTableRecord
  2
*D36
340
0
  0
BLOCK_RECORD
  5
4E2
330
1
100
AcDbSymbolTableRecord
100
AcDbBlockTableRecord
  2
*D37
340
0
  0
BLOCK_RECORD
  5
4EF
330
1
100
AcDbSymbolTableRecord
100
AcDbBlockTableRecord
  2
*D38
340
0
  0
BLOCK_RECORD
  5
4FC
330
1
100
AcDbSymbolTableRecord
100
AcDbBlockTableRecord
  2
*D39
340
0
  0
BLOCK_RECORD
  5
509
330
1
100
AcDbSymbolTableRecord
100
AcDbBlockTableRecord
  2
*D40
340
0
  0
BLOCK_RECORD
  5
516
330
1
100
AcDbSymbolTableRecord
100
AcDbBlockTableRecord
  2
*D41
340
0
  0
BLOCK_RECORD
  5
522
330
1
100
AcDbSymbolTableRecord
100
AcDbBlockTableRecord
  2
49
340
0
  0
BLOCK_RECORD
  5
531
330
1
100
AcDbSymbolTableRecord
100
AcDbBlockTableRecord
  2
*D43
340
0
  0
BLOCK_RECORD
  5
53E
330
1
100
AcDbSymbolTableRecord
100
AcDbBlockTableRecord
  2
*D44
340
0
  0
BLOCK_RECORD
  5
54B
330
1
100
AcDbSymbolTableRecord
100
AcDbBlockTableRecord
  2
*D45
340
0
  0
BLOCK_RECORD
  5
558
330
1
100
AcDbSymbolTableRecord
100
AcDbBlockTableRecord
  2
*D46
340
0
  0
BLOCK_RECORD
  5
565
330
1
100
AcDbSymbolTableRecord
100
AcDbBlockTableRecord
  2
*D47
340
0
  0
BLOCK_RECORD
  5
572
330
1
100
AcDbSymbolTableRecord
100
AcDbBlockTableRecord
  2
*D48
340
0
  0
BLOCK_RECORD
  5
57E
330
1
100
AcDbSymbolTableRecord
100
AcDbBlockTableRecord
  2
*D49
340
0
  0
BLOCK_RECORD
  5
58C
330
1
100
AcDbSymbolTableRecord
100
AcDbBlockTableRecord
  2
50
340
0
  0
BLOCK_RECORD
  5
5A2
330
1
100
AcDbSymbolTableRecord
100
AcDbBlockTableRecord
  2
TSFORMA
340
0
102
{BLKREFS
331
668
102
}
  0
BLOCK_RECORD
  5
608
330
1
100
AcDbSymbolTableRecord
100
AcDbBlockTableRecord
  2
*D52
340
0
  0
BLOCK_RECORD
  5
616
330
1
100
AcDbSymbolTableRecord
100
AcDbBlockTableRecord
  2
*D53
340
0
  0
BLOCK_RECORD
  5
6E1
330
1
100
AcDbSymbolTableRecord
100
AcDbBlockTableRecord
  2
*D54
340
0
  0
ENDTAB
  0
ENDSEC
  0
SECTION
  2
BLOCKS
  0
BLOCK
  5
4
330
2
100
AcDbEntity
  8
0
100
AcDbBlockBegin
  2
*MODEL_SPACE
 70
     2
 10
0.0
 20
0.0
 30
0.0
  3
*MODEL_SPACE
  1

  0
ENDBLK
  5
A
330
2
100
AcDbEntity
  8
0
100
AcDbBlockEnd
  0
BLOCK
  5
E
330
D
100
AcDbEntity
 67
     1
  8
0
100
AcDbBlockBegin
  2
*PAPER_SPACE
 70
     0
 10
0.0
 20
0.0
 30
0.0
  3
*PAPER_SPACE
  1

  0
ENDBLK
  5
F
330
D
100
AcDbEntity
 67
     1
  8
0
100
AcDbBlockEnd
  0
BLOCK
  5
42
330
29
100
AcDbEntity
  8
0
 62
     7
100
AcDbBlockBegin
  2
PROFILE LOGO
 70
     2
 10
0.0
 20
0.0
 30
0.0
  3
PROFILE LOGO
  1

  0
LINE
  5
2A
330
29
100
AcDbEntity
  8
0
 62
    22
100
AcDbLine
 10
0.7459516636765642
 20
-0.415894330395318
 30
0.0
 11
0.74595166367655
 21
-1.12746688439163
 31
0.0
  0
LINE
  5
2B
330
29
100
AcDbEntity
  8
0
 62
    22
100
AcDbLine
 10
0.5841942848079072
 20
-0.415894330395318
 30
0.0
 11
0.5841942848079072
 21
-1.12746688439163
 31
0.0
  0
HATCH
  5
2C
330
29
100
AcDbEntity
  8
0
 62
    22
100
AcDbHatch
 10
0.0
 20
0.0
 30
0.0
210
0.0
220
0.0
230
1.0
  2
LINE
 70
     0
 71
     0
 91
        1
 92
       33
 93
       38
 72
     1
 10
1.115683196411978
 20
-0.1706330859717084
 11
0.2177636962628071
 21
-0.1706330859717084
 72
     1
 10
0.2177636962628213
 20
-0.1706330859717084
 11
0.2078601968792952
 21
-0.4246889457533243
 72
     1
 10
0.2078601968792952
 20
-0.4246889457533243
 11
0.2375709173007294
 21
-0.4246889457533243
 72
     1
 10
0.2375709173007294
 20
-0.4246889457533243
 11
0.2441732502230991
 21
-0.3817964654080939
 72
     1
 10
0.2441732502230991
 20
-0.3817964654080939
 11
0.254076749606611
 21
-0.3422032805409501
 72
     1
 10
0.2540767496066252
 20
-0.3422032805409501
 11
0.2738837483736916
 21
-0.3092090964125091
 72
     1
 10
0.2738837483736916
 20
-0.3092090964125091
 11
0.2969919136019428
 21
-0.2861130719066693
 72
     1
 10
0.296991913601957
 20
-0.2861130719066764
 11
0.3267026340234338
 21
-0.2663164794731259
 72
     1
 10
0.3267026340234196
 20
-0.2663164794731259
 11
0.356413132174012
 21
-0.2498193191118219
 72
     1
 10
0.356413132174012
 20
-0.2498193191118148
 11
0.3828224638634481
 21
-0.243220591561446
 72
     1
 10
0.3828224638634623
 20
-0.243220591561446
 11
0.4092320178237401
 21
-0.243220591561446
 72
     1
 10
0.4092320178237401
 20
-0.243220591561446
 11
0.4719541805861525
 21
-0.2465198870395469
 72
     1
 10
0.4719541805861525
 20
-0.2465198870395469
 11
0.514869566852326
 21
-0.2729153436176332
 72
     1
 10
0.514869566852326
 20
-0.2729153436176332
 11
0.5742905631535394
 21
-0.3389038484686964
 72
     1
 10
0.5742905631535394
 20
-0.3389038484687106
 11
0.5907966177302626
 21
-0.3916947616248691
 72
     1
 10
0.5907966177302768
 20
-0.3916947616248691
 11
0.5907966177302768
 21
-1.157161773041991
 72
     1
 10
0.5907966177302768
 20
-1.157161773041984
 11
0.5643870637699991
 21
-1.203353685459461
 72
     1
 10
0.5643870637699849
 20
-1.203353685459468
 11
0.4983637345463876
 21
-1.226449709965308
 72
     1
 10
0.4983637345464019
 20
-1.226449709965301
 11
0.4389425159743326
 21
-1.226449709965301
 72
     1
 10
0.4389425159743326
 20
-1.226449709965301
 11
0.4323401830519913
 21
-1.249545734471119
 72
     1
 10
0.4323401830520055
 20
-1.249545734471134
 11
0.8945045989712809
 21
-1.249545734471134
 72
     1
 10
0.8945045989712667
 20
-1.249545734471134
 11
0.8945045989712667
 21
-1.226449709965315
 72
     1
 10
0.8945045989712667
 20
-1.226449709965301
 11
0.8152763816321311
 21
-1.226449709965301
 72
     1
 10
0.8152763816321311
 20
-1.226449709965301
 11
0.7525539965988913
 21
-1.186856661692324
 72
     1
 10
0.7525539965988913
 20
-1.186856661692324
 11
0.7426504972153794
 21
-1.140664612680659
 72
     1
 10
0.7426504972153652
 20
-1.140664612680673
 11
0.7393493307541803
 21
-0.394994193697137
 72
     1
 10
0.7393493307541803
 20
-0.394994193697137
 11
0.7558551630600619
 21
-0.3389038484687106
 72
     1
 10
0.7558551630600761
 20
-0.3389038484687106
 11
0.7987705493262496
 21
-0.2828136398344298
 72
     1
 10
0.7987705493262496
 20
-0.2828136398344227
 11
0.8614929343594894
 21
-0.2498193191118148
 72
     1
 10
0.8614929343594894
 20
-0.2498193191118148
 11
0.9374197629665985
 21
-0.2399211594891923
 72
     1
 10
0.9374197629665985
 20
-0.2399211594891923
 11
1.010045647383407
 21
-0.2663164794731117
 72
     1
 10
1.010045647383407
 20
-0.2663164794731259
 11
1.056262200110722
 21
-0.3092090964125234
 72
     1
 10
1.056262200110722
 20
-0.3092090964125091
 11
1.085972698261343
 21
-0.361999872974522
 72
     1
 10
1.085972698261358
 20
-0.3619998729745291
 11
1.092575031183727
 21
-0.4246889457533243
 72
     1
 10
1.092575031183727
 20
-0.4246889457533243
 11
1.115683196411993
 21
-0.4246889457533243
 72
     1
 10
1.115683196411978
 20
-0.4246889457533243
 11
1.109080863489609
 21
-0.17723195011623
 72
     1
 10
1.109080863489609
 20
-0.17723195011623
 11
1.109080863489609
 21
-0.1739325180439621
 72
     1
 10
1.109080863489609
 20
-0.1739325180439621
 11
1.105779697028424
 21
-0.1739325180439621
 97
        0
 75
     0
 76
     1
 52
0.0
 41
0.078125
 77
     0
 78
     1
 53
0.0
 43
-28.182772630023
 44
-32.9923404580304
 45
0.0
 46
0.009765625
 79
     0
 98
        1
 10
-28.182772630023
 20
-32.9923404580304
  0
LWPOLYLINE
  5
2D
330
29
100
AcDbEntity
  8
0
 62
    22
100
AcDbPolyline
 90
        4
 70
     1
 43
0.0
 10
0.0262955969727301
 20
-0.0287577800528069
 10
1.307151517972869
 20
-0.0287577800528069
 10
1.307151517972869
 20
-1.731261997456265
 10
0.0262955969727301
 20
-1.731261997456265
  0
LINE
  5
2E
330
29
100
AcDbEntity
  8
0
 62
    22
100
AcDbLine
 10
0.0262955969727443
 20
-1.4112176328236
 30
0.0
 11
1.307151517972869
 21
-1.4112176328236
 31
0.0
  0
ATTDEF
  5
2F
330
29
100
AcDbEntity
  8
A1
 62
    22
100
AcDbText
 10
0.6781304052809105
 20
-1.678298248906529
 30
0.0
 40
0.2126953125
  1

 72
     1
 11
0.6781304052809105
 21
-1.678298248906529
 31
0.0
100
AcDbAttributeDefinition
  3
ADD STONE MARKER
  2
XXXX
 70
     0
  0
LINE
  5
30
330
29
100
AcDbEntity
  8
0
 62
    22
100
AcDbLine
 10
0.7464576960363587
 20
-1.129021462591367
 30
0.0
 11
0.74595166367655
 21
-1.12746688439163
 31
0.0
  0
ARC
  5
31
330
29
100
AcDbEntity
  8
0
 62
    22
100
AcDbCircle
 10
0.8421255873066684
 20
-1.127299146756172
 30
0.0
 40
0.0956833935014068
100
AcDbArc
 50
181.0313885659746
 51
269.7936990713142
  0
LINE
  5
32
330
29
100
AcDbEntity
  8
0
 62
    22
100
AcDbLine
 10
0.9011069318936506
 20
-1.22315027789304
 30
0.0
 11
0.841781067510368
 21
-1.22315027789304
 31
0.0
  0
LINE
  5
33
330
29
100
AcDbEntity
  8
0
 62
    22
100
AcDbLine
 10
0.9011069318936506
 20
-1.256144598615648
 30
0.0
 11
0.9011069318936506
 21
-1.22315027789304
 31
0.0
  0
ARC
  5
34
330
29
100
AcDbEntity
  8
0
 62
    22
100
AcDbCircle
 10
0.4880203611777887
 20
-1.127299146756172
 30
0.0
 40
0.0956833935014068
100
AcDbArc
 50
270.2063009286848
 51
358.9686114340253
  0
LINE
  5
35
330
29
100
AcDbEntity
  8
0
 62
    22
100
AcDbLine
 10
0.4290390165908207
 20
-1.256144598615648
 30
0.0
 11
0.4290390165908207
 21
-1.22315027789304
 31
0.0
  0
LINE
  5
36
330
29
100
AcDbEntity
  8
0
 62
    22
100
AcDbLine
 10
0.4290390165908207
 20
-1.22315027789304
 30
0.0
 11
0.4883648809740891
 21
-1.22315027789304
 31
0.0
  0
LINE
  5
37
330
29
100
AcDbEntity
  8
0
 62
    22
100
AcDbLine
 10
0.5836882524480984
 20
-1.129021462591367
 30
0.0
 11
0.5841942848079072
 21
-1.12746688439163
 31
0.0
  0
LINE
  5
38
330
29
100
AcDbEntity
  8
0
 62
    22
100
AcDbLine
 10
0.4290390165908207
 20
-1.256144598615648
 30
0.0
 11
0.9011069318936506
 21
-1.256144598615648
 31
0.0
  0
LINE
  5
39
330
29
100
AcDbEntity
  8
0
 62
    22
100
AcDbLine
 10
1.085512597630156
 20
-0.415894330395318
 30
0.0
 11
1.085512597630156
 21
-0.4280723832374847
 31
0.0
  0
ARC
  5
3A
330
29
100
AcDbEntity
  8
0
 62
    22
100
AcDbCircle
 10
0.9138550451562537
 20
-0.4147906495365632
 30
0.0
 40
0.1716611005230106
100
AcDbArc
 50
359.6316189828552
 51
90.00081606717127
  0
ARC
  5
3B
330
29
100
AcDbEntity
  8
0
 62
    22
100
AcDbCircle
 10
0.9180888683309831
 20
-0.4147906495365632
 30
0.0
 40
0.1716611005230106
100
AcDbArc
 50
89.99918393282873
 51
180.3683810171443
  0
LINE
  5
3C
330
29
100
AcDbEntity
  8
0
 62
    22
100
AcDbLine
 10
0.2078601968792952
 20
-0.427988377825578
 30
0.0
 11
0.2441732502230991
 21
-0.427988377825578
 31
0.0
  0
LINE
  5
3D
330
29
100
AcDbEntity
  8
0
 62
    22
100
AcDbLine
 10
0.2446333508543006
 20
-0.415894330395318
 30
0.0
 11
0.2446333508543006
 21
-0.4280723832374847
 31
0.0
  0
ARC
  5
3E
330
29
100
AcDbEntity
  8
0
 62
    22
100
AcDbCircle
 10
0.4162909033282176
 20
-0.4147906495365632
 30
0.0
 40
0.1716611005230106
100
AcDbArc
 50
89.99918393282873
 51
180.3683810171443
  0
LINE
  5
3F
330
29
100
AcDbEntity
  8
0
 62
    22
100
AcDbLine
 10
0.2144627520724782
 20
-0.1706330859717156
 30
0.0
 11
0.2078601968792952
 21
-0.427988377825578
 31
0.0
  0
ARC
  5
40
330
29
100
AcDbEntity
  8
0
 62
    22
100
AcDbCircle
 10
0.4120570801534882
 20
-0.4147906495365632
 30
0.0
 40
0.1716611005230106
100
AcDbArc
 50
359.6316189828552
 51
90.00081606717127
  0
LWPOLYLINE
  5
41
330
29
100
AcDbEntity
  8
0
 62
    22
100
AcDbPolyline
 90
        4
 70
     0
 43
0.0
 10
0.224366029185191
 20
-0.1706330859717084
 10
1.115683196411978
 20
-0.1706330859717084
 10
1.122285751605161
 20
-0.427988377825578
 10
1.085972698261358
 20
-0.427988377825578
  0
ENDBLK
  5
43
330
29
100
AcDbEntity
  8
0
 62
     7
100
AcDbBlockEnd
  0
BLOCK
  5
314
330
313
100
AcDbEntity
  8
0
 62
     7
100
AcDbBlockBegin
  2
SCF
 70
     0
 10
0.0
 20
0.0
 30
0.0
  3
SCF
  1

  0
ENDBLK
  5
315
330
313
100
AcDbEntity
  8
0
 62
     7
100
AcDbBlockEnd
  0
BLOCK
  5
34A
330
316
100
AcDbEntity
  8
0
 62
     7
100
AcDbBlockBegin
  2
ACF
 70
     2
 10
0.0
 20
0.0
 30
0.0
  3
ACF
  1

  0
INSERT
  5
317
330
316
100
AcDbEntity
  8
A1
 62
     7
100
AcDbBlockReference
  2
SCF
 10
0.0
 20
0.0
 30
0.0
  0
LINE
  5
318
330
316
100
AcDbEntity
  8
0
 62
     7
100
AcDbLine
 10
33.85359849505566
 20
6.139911809868134
 30
0.0
 11
15.45863081043479
 21
6.139911809868134
 31
0.0
  0
LINE
  5
319
330
316
100
AcDbEntity
  8
0
 62
     7
100
AcDbLine
 10
33.85359849505566
 20
1.705154898157314
 30
0.0
 11
15.45863081043479
 21
1.705154898157314
 31
0.0
  0
LINE
  5
31A
330
316
100
AcDbEntity
  8
0
 62
     7
100
AcDbLine
 10
33.85359849505566
 20
2.829459360019779
 30
0.0
 11
15.45863081043479
 21
2.829459360019779
 31
0.0
  0
LINE
  5
31B
330
316
100
AcDbEntity
  8
0
100
AcDbLine
 10
15.45863081043479
 20
7.419467812060279
 30
0.0
 11
63.0907971953311
 21
7.419467812060275
 31
0.0
  0
LINE
  5
31C
330
316
100
AcDbEntity
  8
0
100
AcDbLine
 10
0.0
 20
0.0
 30
0.0
 11
63.0907971953311
 21
0.0
 31
0.0
  0
LINE
  5
31D
330
316
100
AcDbEntity
  8
0
100
AcDbLine
 10
0.0
 20
46.93339791359997
 30
0.0
 11
0.0
 21
0.0
 31
0.0
  0
ATTDEF
  5
31E
330
316
100
AcDbEntity
  8
A1
 62
     1
100
AcDbText
 10
12.82959661403713
 20
1.116082561967672
 30
0.0
 40
0.5
  1

 72
     2
 11
12.82959661403713
 21
1.116082561967672
 31
0.0
100
AcDbAttributeDefinition
  3
ADD BARCODE TEXT
  2
XXXXXX
 70
     0
  0
ATTDEF
  5
31F
330
316
100
AcDbEntity
  8
A1
 62
     1
100
AcDbText
 10
7.602187176088335
 20
1.863125907903508
 30
0.0
 40
4.5625
  1

  7
barcoder
 72
     1
 11
7.602187176088335
 21
1.863125907903508
 31
0.0
100
AcDbAttributeDefinition
  3
ADD BARCODE NUMBER
  2
BARCODE
 70
     0
  0
LINE
  5
320
330
316
100
AcDbEntity
  8
0
 62
     7
100
AcDbLine
 10
15.45863081043479
 20
7.419467812060279
 30
0.0
 11
0.0
 21
7.419467812060279
 31
0.0
  0
TEXT
  5
321
330
316
100
AcDbEntity
  8
0
 62
     7
100
AcDbText
 10
18.19366726416784
 20
4.860691571657334
 30
0.0
 40
0.625
  1
- Finished Side
100
AcDbText
  0
TEXT
  5
322
330
316
100
AcDbEntity
  8
0
 62
     7
100
AcDbText
 10
18.20026126845819
 20
3.503849832636042
 30
0.0
 40
0.625
  1
- Unfinished Side
100
AcDbText
  0
LINE
  5
323
330
316
100
AcDbEntity
  8
0
100
AcDbLine
 10
15.45863081043479
 20
0.0
 30
0.0
 11
15.45863081043479
 21
7.419467812060279
 31
0.0
  0
LINE
  5
324
330
316
100
AcDbEntity
  8
0
 62
     7
100
AcDbLine
 10
15.94519003511693
 20
5.088809590082902
 30
0.0
 11
17.45428617139502
 21
5.088809590082902
 31
0.0
  0
TEXT
  5
325
330
316
100
AcDbEntity
  8
0
 62
     7
100
AcDbText
 10
16.48339397174975
 20
3.663762155695707
 30
0.0
 40
0.00390625
  1
TANNERSTONE 0001 TANNERSTONE 0001 TANNERSTONE 0001 TANNERSTONE 0001 TANNERSTONE 0001 TANNERSTONE 0001 TANNERSTONE 0001
 72
     1
 11
16.69109656521183
 21
3.663762155695707
 31
0.0
100
AcDbText
  0
LINE
  5
326
330
316
100
AcDbEntity
  8
0
 62
     7
100
AcDbLine
 10
15.94519003511693
 20
3.814849102060051
 30
0.0
 11
17.45428617139502
 21
3.814849102060051
 31
0.0
  0
TEXT
  5
327
330
316
100
AcDbEntity
  8
0
 62
     7
100
AcDbText
 10
15.94386684512347
 20
3.663762155695707
 30
0.0
 40
0.00390625
  1
TANNERSTONE 0001 TANNERSTONE 0001 TANNERSTONE 0001 TANNERSTONE 0001 TANNERSTONE 0001 TANNERSTONE 0001 TANNERSTONE 0001
 72
     1
 11
16.15156943858555
 21
3.663762155695707
 31
0.0
100
AcDbText
  0
TEXT
  5
328
330
316
100
AcDbEntity
  8
0
 62
     7
100
AcDbText
 10
17.04152309512345
 20
3.663762155695707
 30
0.0
 40
0.00390625
  1
TANNERSTONE 0001 TANNERSTONE 0001 TANNERSTONE 0001 TANNERSTONE 0001 TANNERSTONE 0001 TANNERSTONE 0001 TANNERSTONE 0001
 72
     1
 11
17.24922568858554
 21
3.663762155695707
 31
0.0
100
AcDbText
  0
ATTDEF
  5
329
330
316
100
AcDbEntity
  8
A1
 62
     1
100
AcDbText
 10
24.55771846427264
 20
0.6162142197210088
 30
0.0
 40
0.7559999999999999
  1

 72
     1
 11
24.55771846427264
 21
0.6162142197210088
 31
0.0
100
AcDbAttributeDefinition
  3
ADD CATEGORY NAMES
  2
XXXXXX
 70
     0
  0
TEXT
  5
32A
330
316
100
AcDbEntity
  8
0
 62
     7
100
AcDbText
 10
22.72809728616285
 20
2.02499953627948
 30
0.0
 40
0.5
  1
CATEGORY
 72
     1
 11
24.68840912174046
 21
2.02499953627948
 31
0.0
100
AcDbText
  0
TEXT
  5
32B
330
316
100
AcDbEntity
  8
0
 62
     7
100
AcDbText
 10
23.38153703079662
 20
6.531576458849073
 30
0.0
 40
0.4812500000000001
  1
LEGEND
100
AcDbText
  0
LINE
  5
32C
330
316
100
AcDbEntity
  8
0
100
AcDbLine
 10
63.0907971953311
 20
0.0
 30
0.0
 11
63.0907971953311
 21
46.93339791359997
 31
0.0
  0
LINE
  5
32D
330
316
100
AcDbEntity
  8
0
100
AcDbLine
 10
33.85359849505567
 20
3.957609866513919
 30
0.0
 11
63.0907971953311
 21
3.957609866513919
 31
0.0
  0
TEXT
  5
32E
330
316
100
AcDbEntity
  8
0
100
AcDbText
 10
34.42750303318053
 20
2.935195390265757
 30
0.0
 40
0.6616455005868908
  1
ARCHITECTURAL CONCRETE CO., INC.
 41
1.25
 72
     4
 11
45.64904120290566
 21
3.21678158665302
 31
0.0
100
AcDbText
  0
TEXT
  5
32F
330
316
100
AcDbEntity
  8
0
100
AcDbText
 10
38.10554018840551
 20
0.4042122027146437
 30
0.0
 40
0.3900256199701639
  1
PHONE: 1-800-789-4841  FAX : 770-463-2635
 41
1.1875
 72
     4
 11
45.67456989459564
 21
0.5986721769520713
 31
0.0
100
AcDbText
  0
TEXT
  5
330
330
316
100
AcDbEntity
  8
0
 62
     7
100
AcDbText
 10
36.45030612377447
 20
4.701996929624826
 30
0.0
 40
2.12625
  1
TannerStone
  7
ROMANC
 72
     1
 11
45.19112937160684
 21
4.701996929624826
 31
0.0
100
AcDbText
  0
TEXT
  5
331
330
316
100
AcDbEntity
  8
0
100
AcDbText
 10
36.65024310726515
 20
1.16937112143105
 30
0.0
 40
0.3900256199701639
  1
http://TannerStone.com ~ Email:Sales@TannerStone.com 
 41
1.1875
 72
     4
 11
45.88298880572835
 21
1.344758262374401
 31
0.0
100
AcDbText
  0
TEXT
  5
332
330
316
100
AcDbEntity
  8
0
100
AcDbText
 10
35.70454469973866
 20
1.940811732856256
 30
0.0
 40
0.4458291441485832
  1
101 JOHNSTON CIRCLE, PALMETTO, GEORGIA 30268
 41
1.1875
 72
     4
 11
45.7449918415723
 21
2.130549791723176
 31
0.0
100
AcDbText
  0
LINE
  5
333
330
316
100
AcDbEntity
  8
0
100
AcDbLine
 10
33.85359849505567
 20
0.0
 30
0.0
 11
33.85359849505567
 21
7.419467812060275
 31
0.0
  0
LINE
  5
334
330
316
100
AcDbEntity
  8
0
 62
     7
100
AcDbLine
 10
45.8804728588951
 20
4.302323642481653
 30
0.0
 11
45.8804728588951
 21
4.302323642481653
 31
0.0
  0
ATTDEF
  5
335
330
316
100
AcDbEntity
  8
A1
 62
     1
100
AcDbText
 10
60.24601051143854
 20
5.923645198888223
 30
0.0
 40
0.703125
  1

 72
     1
 11
60.24601051143854
 21
5.923645198888223
 31
0.0
100
AcDbAttributeDefinition
  3
ADD PROFILE AREA
  2
XXXXX
 70
     0
  0
ATTDEF
  5
336
330
316
100
AcDbEntity
  8
A1
 62
     1
100
AcDbText
 10
60.22058858229524
 20
4.231165867870629
 30
0.0
 40
0.703125
  1

 72
     1
 11
60.22058858229524
 21
4.231165867870629
 31
0.0
100
AcDbAttributeDefinition
  3
ADD #/LF
  2
XXXXX
 70
     0
  0
LINE
  5
337
330
316
100
AcDbEntity
  8
0
 62
     7
100
AcDbLine
 10
57.40487304162906
 20
5.688538839287097
 30
0.0
 11
63.0907971953311
 21
5.688538839287097
 31
0.0
  0
TEXT
  5
338
330
316
100
AcDbEntity
  8
0
 62
     7
100
AcDbText
 10
57.54164024396835
 20
5.24603903326999
 30
0.0
 40
0.322265625
  1
LBS/LINEAR FEET:
100
AcDbText
  0
LINE
  5
339
330
316
100
AcDbEntity
  8
LINEWORK
 62
     7
100
AcDbLine
 10
57.38685446707747
 20
2.236847700541034
 30
0.0
 11
63.07277862077971
 21
2.236847700541161
 31
0.0
  0
TEXT
  5
33A
330
316
100
AcDbEntity
  8
0
 62
     7
100
AcDbText
 10
58.84125519694314
 20
0.9074523356241925
 30
0.0
 40
0.5035400390625
  1
1-1-2000
100
AcDbText
  0
LINE
  5
33B
330
316
100
AcDbEntity
  8
0
100
AcDbLine
 10
57.40487304162886
 20
0.0
 30
0.0
 11
57.40487304162911
 21
7.419467812060275
 31
0.0
  0
ARC
  5
33C
330
316
100
AcDbEntity
  8
0
 62
     7
100
AcDbCircle
 10
54.77484357037856
 20
4.675407294753147
 30
0.0
 40
0.3475219186225837
100
AcDbArc
 50
304.840880646349
 51
297.5553548372075
  0
TEXT
  5
33D
330
316
100
AcDbEntity
  8
0
 62
     7
100
AcDbText
 10
54.52366531937782
 20
4.457137162968933
 30
0.0
 40
0.46875
  1
R
  7
ROMANC
 72
     1
 11
54.77717642848187
 21
4.457137162968933
 31
0.0
100
AcDbText
  0
ARC
  5
33E
330
316
100
AcDbEntity
  8
0
 62
     7
100
AcDbCircle
 10
54.77484357037857
 20
4.675407294753146
 30
0.0
 40
0.3475219186225785
100
AcDbArc
 50
297.5553548372066
 51
304.8408806463482
  0
TEXT
  5
33F
330
316
100
AcDbEntity
  8
0
 62
     7
100
AcDbText
 10
57.55084577252738
 20
3.528313427430639
 30
0.0
 40
0.322265625
  1
SCALE:
100
AcDbText
  0
TEXT
  5
340
330
316
100
AcDbEntity
  8
0
 62
     7
100
AcDbText
 10
57.58427807884865
 20
1.77327934849093
 30
0.0
 40
0.322265625
  1
DATE:
100
AcDbText
  0
LINE
  5
341
330
316
100
AcDbEntity
  8
0
 62
     7
100
AcDbLine
 10
57.404873041629
 20
3.957609866513919
 30
0.0
 11
56.92061203641685
 21
3.957609866513919
 31
0.0
  0
TEXT
  5
342
330
316
100
AcDbEntity
  8
0
 62
     7
100
AcDbText
 10
60.17361351816539
 20
2.848114535947829
 30
0.0
 40
0.5035400390625
  1
1:1
100
AcDbText
  0
TEXT
  5
343
330
316
100
AcDbEntity
  8
0
 62
     7
100
AcDbText
 10
57.55965863864929
 20
6.943562340807453
 30
0.0
 40
0.322265625
  1
PROFILE AREA:
100
AcDbText
  0
ATTDEF
  5
344
330
316
100
AcDbEntity
  8
A1
 62
     1
100
AcDbText
 10
59.04934003701934
 20
43.69048591217159
 30
0.0
 40
1.2375
  1

 72
     1
 11
59.04934003701934
 21
43.69048591217159
 31
0.0
100
AcDbAttributeDefinition
  3
ADD PAGE NUMBER
  2
TS00XX
 70
     0
  0
LINE
  5
345
330
316
100
AcDbEntity
  8
0
100
AcDbLine
 10
63.0907971953311
 20
41.85161907700595
 30
0.0
 11
55.03498980215056
 21
41.85161907700595
 31
0.0
  0
LINE
  5
346
330
316
100
AcDbEntity
  8
0
100
AcDbLine
 10
55.03498980215056
 20
41.85161907700595
 30
0.0
 11
55.03498980215056
 21
46.93339791359997
 31
0.0
  0
LINE
  5
347
330
316
100
AcDbEntity
  8
0
100
AcDbLine
 10
63.0907971953311
 20
46.93339791359997
 30
0.0
 11
63.0907971953311
 21
41.85161907700595
 31
0.0
  0
LINE
  5
348
330
316
100
AcDbEntity
  8
0
100
AcDbLine
 10
63.0907971953311
 20
46.93339791359997
 30
0.0
 11
0.0
 21
46.93339791359997
 31
0.0
  0
LINE
  5
349
330
316
100
AcDbEntity
  8
A1
  6
DOT
 62
     1
100
AcDbLine
 10
15.45863081043479
 20
7.419467812060279
 30
0.0
 11
15.45863081043479
 21
46.84065216373018
 31
0.0
  0
ENDBLK
  5
34B
330
316
100
AcDbEntity
  8
0
 62
     7
100
AcDbBlockEnd
  0
BLOCK
  5
354
330
34C
100
AcDbEntity
  8
0
 62
     7
100
AcDbBlockBegin
  2
LINK FLAG
 70
     2
 10
0.0
 20
0.0
 30
0.0
  3
LINK FLAG
  1

  0
SOLID
  5
34D
330
34C
100
AcDbEntity
  8
A1
 62
     1
100
AcDbTrace
 10
0.408488260029003
 20
0.3001362788183428
 30
0.0
 11
0.2890663177079773
 21
0.4163953751078396
 31
0.0
 12
0.0
 22
0.0
 32
0.0
 13
0.0
 23
0.0
 33
0.0
  0
LINE
  5
34E
330
34C
100
AcDbEntity
  8
A1
 62
     1
100
AcDbLine
 10
0.3487772888684901
 20
0.3582658269630912
 30
0.0
 11
4.449644902191081
 21
4.57069815453687
 31
0.0
  0
ATTDEF
  5
34F
330
34C
100
AcDbEntity
  8
A1
 62
     1
100
AcDbText
 10
10.75853330829194
 20
4.953467229082193
 30
0.0
 40
1.0
  1

100
AcDbAttributeDefinition
  3
ADD LINK NUMBER (WMF)
  2
XXXXXX
 70
     0
  0
MTEXT
  5
350
330
34C
100
AcDbEntity
  8
0
 62
     1
100
AcDbMText
 10
10.79736583926697
 20
4.206192006567398
 30
0.0
 40
1.0
 41
0.0
 71
     1
 72
     1
  1
TannerStone
 73
     1
 44
1.0
1001
ACAD
1000
MTEXTBEGIN
1070
    73
1070
     1
1070
    44
1040
1.0
1070
    74
1070
     0
1000
MTEXTEND
  0
MTEXT
  5
351
330
34C
100
AcDbEntity
  8
0
 62
     1
100
AcDbMText
 10
10.87510824661537
 20
2.68903194023958
 30
0.0
 40
0.7386749999999999
 41
0.0
 71
     1
 72
     1
  1
1-800-789-4841
 73
     1
 44
1.0
1001
ACAD
1000
MTEXTBEGIN
1070
    73
1070
     1
1070
    44
1040
1.0
1070
    74
1070
     0
1000
MTEXTEND
  0
LINE
  5
352
330
34C
100
AcDbEntity
  8
0
 62
     1
100
AcDbLine
 10
4.449644902191081
 20
4.57069815453687
 30
0.0
 11
19.37910172053511
 21
4.57069815453687
 31
0.0
  0
LINE
  5
353
330
34C
100
AcDbEntity
  8
0
 62
     1
100
AcDbLine
 10
10.27170295921419
 20
1.582920602761227
 30
0.0
 11
10.27170295921419
 21
6.137374365587334
 31
0.0
  0
ENDBLK
  5
355
330
34C
100
AcDbEntity
  8
0
 62
     7
100
AcDbBlockEnd
  0
BLOCK
  5
370
330
356
100
AcDbEntity
  8
0
 62
     7
100
AcDbBlockBegin
  2
TSECLINE
 70
     0
 10
0.0
 20
0.0
 30
0.0
  3
TSECLINE
  1

  0
LINE
  5
357
330
356
100
AcDbEntity
  8
0
100
AcDbLine
 10
0.0
 20
0.0
 30
0.0
 11
14.00000000000011
 21
0.0
 31
0.0
  0
TEXT
  5
358
330
356
100
AcDbEntity
  8
0
 62
     7
100
AcDbText
 10
1.205174110901442
 20
0.0782399431061052
 30
0.0
 40
0.00390625
  1
TANNERSTONE 0001 TANNERSTONE 0001 TANNERSTONE 0001 TANNERSTONE 0001 TANNERSTONE 0001 TANNERSTONE 0001 TANNERSTONE 0001
 72
     1
 11
1.412876704363526
 21
0.0782399431061052
 31
0.0
100
AcDbText
  0
TEXT
  5
359
330
356
100
AcDbEntity
  8
0
 62
     7
100
AcDbText
 10
0.0051741109014399
 20
0.0782399431061052
 30
0.0
 40
0.00390625
  1
TANNERSTONE 0001 TANNERSTONE 0001 TANNERSTONE 0001 TANNERSTONE 0001 TANNERSTONE 0001 TANNERSTONE 0001 TANNERSTONE 0001
 72
     1
 11
0.2128767043635236
 21
0.0782399431061052
 31
0.0
100
AcDbText
  0
TEXT
  5
35A
330
356
100
AcDbEntity
  8
0
 62
     7
100
AcDbText
 10
0.6051741109014414
 20
0.0782399431061052
 30
0.0
 40
0.00390625
  1
TANNERSTONE 0001 TANNERSTONE 0001 TANNERSTONE 0001 TANNERSTONE 0001 TANNERSTONE 0001 TANNERSTONE 0001 TANNERSTONE 0001
 72
     1
 11
0.8128767043635249
 21
0.0782399431061052
 31
0.0
100
AcDbText
  0
TEXT
  5
35B
330
356
100
AcDbEntity
  8
0
 62
     7
100
AcDbText
 10
5.405174110901438
 20
0.0782399431061052
 30
0.0
 40
0.00390625
  1
TANNERSTONE 0001 TANNERSTONE 0001 TANNERSTONE 0001 TANNERSTONE 0001 TANNERSTONE 0001 TANNERSTONE 0001 TANNERSTONE 0001
 72
     1
 11
5.612876704363522
 21
0.0782399431061052
 31
0.0
100
AcDbText
  0
TEXT
  5
35C
330
356
100
AcDbEntity
  8
0
 62
     7
100
AcDbText
 10
2.405174110901438
 20
0.0782399431061052
 30
0.0
 40
0.00390625
  1
TANNERSTONE 0001 TANNERSTONE 0001 TANNERSTONE 0001 TANNERSTONE 0001 TANNERSTONE 0001 TANNERSTONE 0001 TANNERSTONE 0001
 72
     1
 11
2.612876704363522
 21
0.0782399431061052
 31
0.0
100
AcDbText
  0
TEXT
  5
35D
330
356
100
AcDbEntity
  8
0
 62
     7
100
AcDbText
 10
1.805174110901436
 20
0.0782399431061052
 30
0.0
 40
0.00390625
  1
TANNERSTONE 0001 TANNERSTONE 0001 TANNERSTONE 0001 TANNERSTONE 0001 TANNERSTONE 0001 TANNERSTONE 0001 TANNERSTONE 0001
 72
     1
 11
2.01287670436352
 21
0.0782399431061052
 31
0.0
100
AcDbText
  0
TEXT
  5
35E
330
356
100
AcDbEntity
  8
0
 62
     7
100
AcDbText
 10
3.005174110901439
 20
0.0782399431061052
 30
0.0
 40
0.00390625
  1
TANNERSTONE 0001 TANNERSTONE 0001 TANNERSTONE 0001 TANNERSTONE 0001 TANNERSTONE 0001 TANNERSTONE 0001 TANNERSTONE 0001
 72
     1
 11
3.212876704363523
 21
0.0782399431061052
 31
0.0
100
AcDbText
  0
TEXT
  5
35F
330
356
100
AcDbEntity
  8
0
 62
     7
100
AcDbText
 10
4.205174110901443
 20
0.0782399431061052
 30
0.0
 40
0.00390625
  1
TANNERSTONE 0001 TANNERSTONE 0001 TANNERSTONE 0001 TANNERSTONE 0001 TANNERSTONE 0001 TANNERSTONE 0001 TANNERSTONE 0001
 72
     1
 11
4.412876704363526
 21
0.0782399431061052
 31
0.0
100
AcDbText
  0
TEXT
  5
360
330
356
100
AcDbEntity
  8
0
 62
     7
100
AcDbText
 10
3.605174110901441
 20
0.0782399431061052
 30
0.0
 40
0.00390625
  1
TANNERSTONE 0001 TANNERSTONE 0001 TANNERSTONE 0001 TANNERSTONE 0001 TANNERSTONE 0001 TANNERSTONE 0001 TANNERSTONE 0001
 72
     1
 11
3.812876704363524
 21
0.0782399431061052
 31
0.0
100
AcDbText
  0
TEXT
  5
361
330
356
100
AcDbEntity
  8
0
 62
     7
100
AcDbText
 10
4.805174110901437
 20
0.0782399431061052
 30
0.0
 40
0.00390625
  1
TANNERSTONE 0001 TANNERSTONE 0001 TANNERSTONE 0001 TANNERSTONE 0001 TANNERSTONE 0001 TANNERSTONE 0001 TANNERSTONE 0001
 72
     1
 11
5.01287670436352
 21
0.0782399431061052
 31
0.0
100
AcDbText
  0
TEXT
  5
362
330
356
100
AcDbEntity
  8
0
 62
     7
100
AcDbText
 10
7.205174110901443
 20
0.0782399431061052
 30
0.0
 40
0.00390625
  1
TANNERSTONE 0001 TANNERSTONE 0001 TANNERSTONE 0001 TANNERSTONE 0001 TANNERSTONE 0001 TANNERSTONE 0001 TANNERSTONE 0001
 72
     1
 11
7.412876704363526
 21
0.0782399431061052
 31
0.0
100
AcDbText
  0
TEXT
  5
363
330
356
100
AcDbEntity
  8
0
 62
     7
100
AcDbText
 10
6.00517411090144
 20
0.0782399431061052
 30
0.0
 40
0.00390625
  1
TANNERSTONE 0001 TANNERSTONE 0001 TANNERSTONE 0001 TANNERSTONE 0001 TANNERSTONE 0001 TANNERSTONE 0001 TANNERSTONE 0001
 72
     1
 11
6.212876704363523
 21
0.0782399431061052
 31
0.0
100
AcDbText
  0
TEXT
  5
364
330
356
100
AcDbEntity
  8
0
 62
     7
100
AcDbText
 10
6.605174110901434
 20
0.0782399431061052
 30
0.0
 40
0.00390625
  1
TANNERSTONE 0001 TANNERSTONE 0001 TANNERSTONE 0001 TANNERSTONE 0001 TANNERSTONE 0001 TANNERSTONE 0001 TANNERSTONE 0001
 72
     1
 11
6.812876704363517
 21
0.0782399431061052
 31
0.0
100
AcDbText
  0
TEXT
  5
365
330
356
100
AcDbEntity
  8
0
 62
     7
100
AcDbText
 10
8.405174110901445
 20
0.0782399431061052
 30
0.0
 40
0.00390625
  1
TANNERSTONE 0001 TANNERSTONE 0001 TANNERSTONE 0001 TANNERSTONE 0001 TANNERSTONE 0001 TANNERSTONE 0001 TANNERSTONE 0001
 72
     1
 11
8.612876704363529
 21
0.0782399431061052
 31
0.0
100
AcDbText
  0
TEXT
  5
366
330
356
100
AcDbEntity
  8
0
 62
     7
100
AcDbText
 10
7.805174110901437
 20
0.0782399431061052
 30
0.0
 40
0.00390625
  1
TANNERSTONE 0001 TANNERSTONE 0001 TANNERSTONE 0001 TANNERSTONE 0001 TANNERSTONE 0001 TANNERSTONE 0001 TANNERSTONE 0001
 72
     1
 11
8.01287670436352
 21
0.0782399431061052
 31
0.0
100
AcDbText
  0
TEXT
  5
367
330
356
100
AcDbEntity
  8
0
 62
     7
100
AcDbText
 10
9.005174110901439
 20
0.0782399431061052
 30
0.0
 40
0.00390625
  1
TANNERSTONE 0001 TANNERSTONE 0001 TANNERSTONE 0001 TANNERSTONE 0001 TANNERSTONE 0001 TANNERSTONE 0001 TANNERSTONE 0001
 72
     1
 11
9.212876704363523
 21
0.0782399431061052
 31
0.0
100
AcDbText
  0
TEXT
  5
368
330
356
100
AcDbEntity
  8
0
 62
     7
100
AcDbText
 10
13.20517411090144
 20
0.0782399431061052
 30
0.0
 40
0.00390625
  1
TANNERSTONE 0001 TANNERSTONE 0001 TANNERSTONE 0001 TANNERSTONE 0001 TANNERSTONE 0001 TANNERSTONE 0001 TANNERSTONE 0001
 72
     1
 11
13.41287670436352
 21
0.0782399431061052
 31
0.0
100
AcDbText
  0
TEXT
  5
369
330
356
100
AcDbEntity
  8
0
 62
     7
100
AcDbText
 10
11.40517411090144
 20
0.0782399431061052
 30
0.0
 40
0.00390625
  1
TANNERSTONE 0001 TANNERSTONE 0001 TANNERSTONE 0001 TANNERSTONE 0001 TANNERSTONE 0001 TANNERSTONE 0001 TANNERSTONE 0001
 72
     1
 11
11.61287670436353
 21
0.0782399431061052
 31
0.0
100
AcDbText
  0
TEXT
  5
36A
330
356
100
AcDbEntity
  8
0
 62
     7
100
AcDbText
 10
10.20517411090144
 20
0.0782399431061052
 30
0.0
 40
0.00390625
  1
TANNERSTONE 0001 TANNERSTONE 0001 TANNERSTONE 0001 TANNERSTONE 0001 TANNERSTONE 0001 TANNERSTONE 0001 TANNERSTONE 0001
 72
     1
 11
10.41287670436352
 21
0.0782399431061052
 31
0.0
100
AcDbText
  0
TEXT
  5
36B
330
356
100
AcDbEntity
  8
0
 62
     7
100
AcDbText
 10
9.605174110901433
 20
0.0782399431061052
 30
0.0
 40
0.00390625
  1
TANNERSTONE 0001 TANNERSTONE 0001 TANNERSTONE 0001 TANNERSTONE 0001 TANNERSTONE 0001 TANNERSTONE 0001 TANNERSTONE 0001
 72
     1
 11
9.812876704363517
 21
0.0782399431061052
 31
0.0
100
AcDbText
  0
TEXT
  5
36C
330
356
100
AcDbEntity
  8
0
 62
     7
100
AcDbText
 10
10.80517411090143
 20
0.0782399431061052
 30
0.0
 40
0.00390625
  1
TANNERSTONE 0001 TANNERSTONE 0001 TANNERSTONE 0001 TANNERSTONE 0001 TANNERSTONE 0001 TANNERSTONE 0001 TANNERSTONE 0001
 72
     1
 11
11.01287670436352
 21
0.0782399431061052
 31
0.0
100
AcDbText
  0
TEXT
  5
36D
330
356
100
AcDbEntity
  8
0
 62
     7
100
AcDbText
 10
12.00517411090143
 20
0.0782399431061052
 30
0.0
 40
0.00390625
  1
TANNERSTONE 0001 TANNERSTONE 0001 TANNERSTONE 0001 TANNERSTONE 0001 TANNERSTONE 0001 TANNERSTONE 0001 TANNERSTONE 0001
 72
     1
 11
12.21287670436352
 21
0.0782399431061052
 31
0.0
100
AcDbText
  0
TEXT
  5
36E
330
356
100
AcDbEntity
  8
0
 62
     7
100
AcDbText
 10
12.60517411090143
 20
0.0782399431061052
 30
0.0
 40
0.00390625
  1
TANNERSTONE 0001 TANNERSTONE 0001 TANNERSTONE 0001 TANNERSTONE 0001 TANNERSTONE 0001 TANNERSTONE 0001 TANNERSTONE 0001
 72
     1
 11
12.81287670436351
 21
0.0782399431061052
 31
0.0
100
AcDbText
  0
TEXT
  5
36F
330
356
100
AcDbEntity
  8
0
 62
     7
100
AcDbText
 10
13.73472829949027
 20
0.0782399431061052
 30
0.0
 40
0.00390625
  1
TANNERSTONE 0001 TANNERSTONE 0001 TANNERSTONE 0001 TANNERSTONE 0001 TANNERSTONE 0001 TANNERST1
 72
     1
 11
13.90055567147823
 21
0.0782399431061052
 31
0.0
100
AcDbText
  0
ENDBLK
  5
371
330
356
100
AcDbEntity
  8
0
 62
     7
100
AcDbBlockEnd
  0
BLOCK
  5
37D
330
372
100
AcDbEntity
  8
0
100
AcDbBlockBegin
  2
*D5
 70
     1
 10
0.0
 20
0.0
 30
0.0
  3
*D5
  1

  0
LINE
  5
373
330
372
100
AcDbEntity
  8
0
  6
ByBlock
 62
     0
100
AcDbLine
 10
220.9540963207215
 20
-91.89836715731129
 30
0.0
 11
215.8623444345272
 21
-91.89836715731129
 31
0.0
  0
LINE
  5
374
330
372
100
AcDbEntity
  8
0
  6
ByBlock
 62
     0
100
AcDbLine
 10
220.9540963288135
 20
-99.83878585559128
 30
0.0
 11
215.8623444345272
 21
-99.83878585559128
 31
0.0
  0
LINE
  5
375
330
372
100
AcDbEntity
  8
0
  6
ByBlock
 62
     0
100
AcDbLine
 10
216.0623444345272
 20
-92.2983671573113
 30
0.0
 11
216.0623444345272
 21
-95.3685765064513
 31
0.0
  0
LINE
  5
376
330
372
100
AcDbEntity
  8
0
  6
ByBlock
 62
     0
100
AcDbLine
 10
216.0623444345272
 20
-99.43878585559128
 30
0.0
 11
216.0623444345272
 21
-96.36857650645129
 31
0.0
  0
SOLID
  5
377
330
372
100
AcDbEntity
  8
0
  6
ByBlock
 62
     0
100
AcDbTrace
 10
215.9956777678605
 20
-92.2983671573113
 30
0.0
 11
216.1290111011938
 21
-92.2983671573113
 31
0.0
 12
216.0623444345272
 22
-91.89836715731129
 32
0.0
 13
216.0623444345272
 23
-91.89836715731129
 33
0.0
  0
SOLID
  5
378
330
372
100
AcDbEntity
  8
0
  6
ByBlock
 62
     0
100
AcDbTrace
 10
215.9956777678605
 20
-99.43878585559128
 30
0.0
 11
216.1290111011938
 21
-99.43878585559128
 31
0.0
 12
216.0623444345272
 22
-99.83878585559128
 32
0.0
 13
216.0623444345272
 23
-99.83878585559128
 33
0.0
  0
TEXT
  5
379
330
372
100
AcDbEntity
  8
0
  6
ByBlock
 62
     0
100
AcDbText
 10
213.9204369200763
 20
-96.26857650645129
 30
0.0
 40
0.8
  1
7 15/16"
  7
ROMANC
 72
     1
 11
216.0623444345272
 21
-95.86857650645129
 31
0.0
100
AcDbText
 73
     2
  0
POINT
  5
37A
330
372
100
AcDbEntity
  8
DEFPOINTS
  6
ByBlock
 62
     0
100
AcDbPoint
 10
221.7540963207215
 20
-91.89836715731129
 30
0.0
  0
POINT
  5
37B
330
372
100
AcDbEntity
  8
DEFPOINTS
  6
ByBlock
 62
     0
100
AcDbPoint
 10
221.7540963288135
 20
-99.83878585559128
 30
0.0
  0
POINT
  5
37C
330
372
100
AcDbEntity
  8
DEFPOINTS
  6
ByBlock
 62
     0
100
AcDbPoint
 10
216.0623444345272
 20
-99.83878585559128
 30
0.0
  0
ENDBLK
  5
37E
330
372
100
AcDbEntity
  8
0
100
AcDbBlockEnd
  0
BLOCK
  5
38A
330
37F
100
AcDbEntity
  8
0
100
AcDbBlockBegin
  2
*D6
 70
     1
 10
0.0
 20
0.0
 30
0.0
  3
*D6
  1

  0
LINE
  5
380
330
37F
100
AcDbEntity
  8
0
  6
ByBlock
 62
     0
100
AcDbLine
 10
239.7540963288135
 20
-100.6387858555912
 30
0.0
 11
239.7540963288135
 21
-101.8112674444945
 31
0.0
  0
LINE
  5
381
330
37F
100
AcDbEntity
  8
0
  6
ByBlock
 62
     0
100
AcDbLine
 10
221.7540963288135
 20
-100.6387858555912
 30
0.0
 11
221.7540963288135
 21
-101.8112674444945
 31
0.0
  0
LINE
  5
382
330
37F
100
AcDbEntity
  8
0
  6
ByBlock
 62
     0
100
AcDbLine
 10
239.3540963288135
 20
-101.6112674444945
 30
0.0
 11
231.6540963288135
 21
-101.6112674444945
 31
0.0
  0
LINE
  5
383
330
37F
100
AcDbEntity
  8
0
  6
ByBlock
 62
     0
100
AcDbLine
 10
222.1540963288135
 20
-101.6112674444945
 30
0.0
 11
229.8540963288135
 21
-101.6112674444945
 31
0.0
  0
SOLID
  5
384
330
37F
100
AcDbEntity
  8
0
  6
ByBlock
 62
     0
100
AcDbTrace
 10
239.3540963288135
 20
-101.5446007778278
 30
0.0
 11
239.3540963288135
 21
-101.6779341111611
 31
0.0
 12
239.7540963288135
 22
-101.6112674444945
 32
0.0
 13
239.7540963288135
 23
-101.6112674444945
 33
0.0
  0
SOLID
  5
385
330
37F
100
AcDbEntity
  8
0
  6
ByBlock
 62
     0
100
AcDbTrace
 10
222.1540963288135
 20
-101.5446007778278
 30
0.0
 11
222.1540963288135
 21
-101.6779341111611
 31
0.0
 12
221.7540963288135
 22
-101.6112674444945
 32
0.0
 13
221.7540963288135
 23
-101.6112674444945
 33
0.0
  0
TEXT
  5
386
330
37F
100
AcDbEntity
  8
0
  6
ByBlock
 62
     0
100
AcDbText
 10
229.8474489299695
 20
-102.0112674444945
 30
0.0
 40
0.8
  1
18"
  7
ROMANC
 72
     1
 11
230.7540963288135
 21
-101.6112674444945
 31
0.0
100
AcDbText
 73
     2
  0
POINT
  5
387
330
37F
100
AcDbEntity
  8
DEFPOINTS
  6
ByBlock
 62
     0
100
AcDbPoint
 10
239.7540963288135
 20
-99.83878585559128
 30
0.0
  0
POINT
  5
388
330
37F
100
AcDbEntity
  8
DEFPOINTS
  6
ByBlock
 62
     0
100
AcDbPoint
 10
221.7540963288135
 20
-99.83878585559128
 30
0.0
  0
POINT
  5
389
330
37F
100
AcDbEntity
  8
DEFPOINTS
  6
ByBlock
 62
     0
100
AcDbPoint
 10
221.7540963288135
 20
-101.6112674444945
 30
0.0
  0
ENDBLK
  5
38B
330
37F
100
AcDbEntity
  8
0
100
AcDbBlockEnd
  0
BLOCK
  5
397
330
38C
100
AcDbEntity
  8
0
100
AcDbBlockBegin
  2
*D7
 70
     1
 10
0.0
 20
0.0
 30
0.0
  3
*D7
  1

  0
LINE
  5
38D
330
38C
100
AcDbEntity
  8
0
  6
ByBlock
 62
     0
100
AcDbLine
 10
241.0540963288135
 20
-94.33878585559128
 30
0.0
 11
245.0946076251089
 21
-94.33878585559128
 31
0.0
  0
LINE
  5
38E
330
38C
100
AcDbEntity
  8
0
  6
ByBlock
 62
     0
100
AcDbLine
 10
241.0540963288135
 20
-99.83878585559128
 30
0.0
 11
245.0946076251089
 21
-99.83878585559128
 31
0.0
  0
LINE
  5
38F
330
38C
100
AcDbEntity
  8
0
  6
ByBlock
 62
     0
100
AcDbLine
 10
244.8946076251089
 20
-94.73878585559129
 30
0.0
 11
244.8946076251089
 21
-96.58878585559129
 31
0.0
  0
LINE
  5
390
330
38C
100
AcDbEntity
  8
0
  6
ByBlock
 62
     0
100
AcDbLine
 10
244.8946076251089
 20
-99.43878585559128
 30
0.0
 11
244.8946076251089
 21
-97.58878585559129
 31
0.0
  0
SOLID
  5
391
330
38C
100
AcDbEntity
  8
0
  6
ByBlock
 62
     0
100
AcDbTrace
 10
244.8279409584423
 20
-94.73878585559129
 30
0.0
 11
244.9612742917756
 21
-94.73878585559129
 31
0.0
 12
244.8946076251089
 22
-94.33878585559128
 32
0.0
 13
244.8946076251089
 23
-94.33878585559128
 33
0.0
  0
SOLID
  5
392
330
38C
100
AcDbEntity
  8
0
  6
ByBlock
 62
     0
100
AcDbTrace
 10
244.8279409584423
 20
-99.43878585559128
 30
0.0
 11
244.9612742917756
 21
-99.43878585559128
 31
0.0
 12
244.8946076251089
 22
-99.83878585559128
 32
0.0
 13
244.8946076251089
 23
-99.83878585559128
 33
0.0
  0
TEXT
  5
393
330
38C
100
AcDbEntity
  8
0
  6
ByBlock
 62
     0
100
AcDbText
 10
243.3446076251089
 20
-97.48878585559129
 30
0.0
 40
0.8
  1
5 1/2"
  7
ROMANC
 72
     1
 11
244.8946076251089
 21
-97.08878585559128
 31
0.0
100
AcDbText
 73
     2
  0
POINT
  5
394
330
38C
100
AcDbEntity
  8
DEFPOINTS
  6
ByBlock
 62
     0
100
AcDbPoint
 10
240.2540963288135
 20
-94.33878585559128
 30
0.0
  0
POINT
  5
395
330
38C
100
AcDbEntity
  8
DEFPOINTS
  6
ByBlock
 62
     0
100
AcDbPoint
 10
240.2540963288135
 20
-99.83878585559128
 30
0.0
  0
POINT
  5
396
330
38C
100
AcDbEntity
  8
DEFPOINTS
  6
ByBlock
 62
     0
100
AcDbPoint
 10
244.8946076251089
 20
-99.83878585559128
 30
0.0
  0
ENDBLK
  5
398
330
38C
100
AcDbEntity
  8
0
100
AcDbBlockEnd
  0
BLOCK
  5
39E
330
399
100
AcDbEntity
  8
0
 62
     7
100
AcDbBlockBegin
  2
42
 70
     0
 10
0.0
 20
0.0
 30
0.0
  3
42
  1

  0
DIMENSION
  5
39A
330
399
100
AcDbEntity
  8
0
100
AcDbDimension
  2
*D6
 10
7.463857786714186
 20
0.2654534715872643
 30
0.0
 11
16.46385778671418
 21
0.2654534715872643
 31
0.0
 12
-214.2902385420993
 22
101.8767209160818
 32
0.0
 71
     5
 42
-1.0
  3
STANDARD
100
AcDbAlignedDimension
 13
25.46385778671418
 23
2.037935060490511
 33
0.0
 14
7.463857786714186
 24
2.037935060490511
 34
0.0
100
AcDbRotatedDimension
  0
LWPOLYLINE
  5
39B
330
399
100
AcDbEntity
  8
0
100
AcDbPolyline
 90
       10
 70
     1
 43
0.0
 10
16.90922106729686
 20
9.920734199031471
 42
0.1293765408777006
 10
16.01849451981809
 20
9.920734198928869
 10
6.785735451229186
 20
7.500911855978486
 42
0.8135202877249938
 10
6.963857786714186
 20
4.037935060490511
 42
0.4142135623730951
 10
7.463857786714186
 20
3.537935060490511
 10
7.463857786714186
 20
2.037935060490511
 10
25.46385778671418
 20
2.037935060490511
 10
25.46385778671418
 20
3.537935060490511
 42
0.4142135623730951
 10
25.96385778671418
 20
4.037935060490511
 42
0.8135202875696409
 10
26.14198012283981
 20
7.500911855810613
  0
DIMENSION
  5
39C
330
399
100
AcDbEntity
  8
0
100
AcDbDimension
  2
*D5
 10
1.77210589242793
 20
2.037935060490511
 30
0.0
 11
1.77210589242793
 21
6.008144409630503
 31
0.0
 12
-214.2902385420993
 22
101.8767209160818
 32
0.0
 71
     5
 42
-1.0
  3
STANDARD
100
AcDbAlignedDimension
 13
7.463857778622241
 23
9.978353758770509
 33
0.0
 14
7.463857786714186
 24
2.037935060490511
 34
0.0
 50
90.0
100
AcDbRotatedDimension
  0
DIMENSION
  5
39D
330
399
100
AcDbEntity
  8
0
100
AcDbDimension
  2
*D7
 10
30.60436908300966
 20
2.037935060490511
 30
0.0
 11
30.60436908300966
 21
4.787935060490511
 31
0.0
 12
-214.2902385420993
 22
101.8767209160818
 32
0.0
 71
     5
 42
-1.0
  3
STANDARD
100
AcDbAlignedDimension
 13
25.96385778671418
 23
7.537935060490511
 33
0.0
 14
25.96385778671418
 24
2.037935060490511
 34
0.0
 50
90.0
100
AcDbRotatedDimension
  0
ENDBLK
  5
39F
330
399
100
AcDbEntity
  8
0
 62
     7
100
AcDbBlockEnd
  0
BLOCK
  5
3AB
330
3A0
100
AcDbEntity
  8
0
100
AcDbBlockBegin
  2
*D9
 70
     1
 10
0.0
 20
0.0
 30
0.0
  3
*D9
  1

  0
LINE
  5
3A1
330
3A0
100
AcDbEntity
  8
0
  6
ByBlock
 62
     0
100
AcDbLine
 10
152.8771782462953
 20
-125.1954458244755
 30
0.0
 11
152.8771782462953
 21
-126.5453828311796
 31
0.0
  0
LINE
  5
3A2
330
3A0
100
AcDbEntity
  8
0
  6
ByBlock
 62
     0
100
AcDbLine
 10
140.3771782462953
 20
-125.1954458244755
 30
0.0
 11
140.3771782462953
 21
-126.5453828311796
 31
0.0
  0
LINE
  5
3A3
330
3A0
100
AcDbEntity
  8
0
  6
ByBlock
 62
     0
100
AcDbLine
 10
152.4771782462953
 20
-126.3453828311796
 30
0.0
 11
149.1081306272477
 21
-126.3453828311796
 31
0.0
  0
LINE
  5
3A4
330
3A0
100
AcDbEntity
  8
0
  6
ByBlock
 62
     0
100
AcDbLine
 10
140.7771782462953
 20
-126.3453828311796
 30
0.0
 11
144.1462258653429
 21
-126.3453828311796
 31
0.0
  0
SOLID
  5
3A5
330
3A0
100
AcDbEntity
  8
0
  6
ByBlock
 62
     0
100
AcDbTrace
 10
152.4771782462953
 20
-126.278716164513
 30
0.0
 11
152.4771782462953
 21
-126.4120494978463
 31
0.0
 12
152.8771782462953
 22
-126.3453828311796
 32
0.0
 13
152.8771782462953
 23
-126.3453828311796
 33
0.0
  0
SOLID
  5
3A6
330
3A0
100
AcDbEntity
  8
0
  6
ByBlock
 62
     0
100
AcDbTrace
 10
140.7771782462953
 20
-126.278716164513
 30
0.0
 11
140.7771782462953
 21
-126.4120494978463
 31
0.0
 12
140.3771782462953
 22
-126.3453828311796
 32
0.0
 13
140.3771782462953
 23
-126.3453828311796
 33
0.0
  0
TEXT
  5
3A7
330
3A0
100
AcDbEntity
  8
0
  6
ByBlock
 62
     0
100
AcDbText
 10
144.8161955873357
 20
-126.7453828311796
 30
0.0
 40
0.8
  1
12 1/2"
  7
ROMANC
 72
     1
 11
146.6271782462953
 21
-126.3453828311796
 31
0.0
100
AcDbText
 73
     2
  0
POINT
  5
3A8
330
3A0
100
AcDbEntity
  8
DEFPOINTS
  6
ByBlock
 62
     0
100
AcDbPoint
 10
152.8771782462953
 20
-124.3954458244755
 30
0.0
  0
POINT
  5
3A9
330
3A0
100
AcDbEntity
  8
DEFPOINTS
  6
ByBlock
 62
     0
100
AcDbPoint
 10
140.3771782462953
 20
-124.3954458244755
 30
0.0
  0
POINT
  5
3AA
330
3A0
100
AcDbEntity
  8
DEFPOINTS
  6
ByBlock
 62
     0
100
AcDbPoint
 10
140.3771782462953
 20
-126.3453828311796
 30
0.0
  0
ENDBLK
  5
3AC
330
3A0
100
AcDbEntity
  8
0
100
AcDbBlockEnd
  0
BLOCK
  5
3B8
330
3AD
100
AcDbEntity
  8
0
100
AcDbBlockBegin
  2
*D10
 70
     1
 10
0.0
 20
0.0
 30
0.0
  3
*D10
  1

  0
LINE
  5
3AE
330
3AD
100
AcDbEntity
  8
0
  6
ByBlock
 62
     0
100
AcDbLine
 10
139.5771782462953
 20
-120.8954458244755
 30
0.0
 11
137.2758510268053
 21
-120.8954458244755
 31
0.0
  0
LINE
  5
3AF
330
3AD
100
AcDbEntity
  8
0
  6
ByBlock
 62
     0
100
AcDbLine
 10
139.5771782462953
 20
-124.3954458244755
 30
0.0
 11
137.2758510268053
 21
-124.3954458244755
 31
0.0
  0
LINE
  5
3B0
330
3AD
100
AcDbEntity
  8
0
  6
ByBlock
 62
     0
100
AcDbLine
 10
137.4758510268053
 20
-121.2954458244755
 30
0.0
 11
137.4758510268053
 21
-122.1454458244755
 31
0.0
  0
LINE
  5
3B1
330
3AD
100
AcDbEntity
  8
0
  6
ByBlock
 62
     0
100
AcDbLine
 10
137.4758510268053
 20
-123.9954458244755
 30
0.0
 11
137.4758510268053
 21
-123.1454458244755
 31
0.0
  0
SOLID
  5
3B2
330
3AD
100
AcDbEntity
  8
0
  6
ByBlock
 62
     0
100
AcDbTrace
 10
137.4091843601386
 20
-121.2954458244755
 30
0.0
 11
137.5425176934719
 21
-121.2954458244755
 31
0.0
 12
137.4758510268053
 22
-120.8954458244755
 32
0.0
 13
137.4758510268053
 23
-120.8954458244755
 33
0.0
  0
SOLID
  5
3B3
330
3AD
100
AcDbEntity
  8
0
  6
ByBlock
 62
     0
100
AcDbTrace
 10
137.4091843601386
 20
-123.9954458244755
 30
0.0
 11
137.5425176934719
 21
-123.9954458244755
 31
0.0
 12
137.4758510268053
 22
-124.3954458244755
 32
0.0
 13
137.4758510268053
 23
-124.3954458244755
 33
0.0
  0
TEXT
  5
3B4
330
3AD
100
AcDbEntity
  8
0
  6
ByBlock
 62
     0
100
AcDbText
 10
135.9258510268052
 20
-123.0454458244755
 30
0.0
 40
0.8
  1
3 1/2"
  7
ROMANC
 72
     1
 11
137.4758510268053
 21
-122.6454458244755
 31
0.0
100
AcDbText
 73
     2
  0
POINT
  5
3B5
330
3AD
100
AcDbEntity
  8
DEFPOINTS
  6
ByBlock
 62
     0
100
AcDbPoint
 10
140.3771782462953
 20
-120.8954458244755
 30
0.0
  0
POINT
  5
3B6
330
3AD
100
AcDbEntity
  8
DEFPOINTS
  6
ByBlock
 62
     0
100
AcDbPoint
 10
140.3771782462953
 20
-124.3954458244755
 30
0.0
  0
POINT
  5
3B7
330
3AD
100
AcDbEntity
  8
DEFPOINTS
  6
ByBlock
 62
     0
100
AcDbPoint
 10
137.4758510268053
 20
-124.3954458244755
 30
0.0
  0
ENDBLK
  5
3B9
330
3AD
100
AcDbEntity
  8
0
100
AcDbBlockEnd
  0
BLOCK
  5
3C5
330
3BA
100
AcDbEntity
  8
0
100
AcDbBlockBegin
  2
*D11
 70
     1
 10
0.0
 20
0.0
 30
0.0
  3
*D11
  1

  0
LINE
  5
3BB
330
3BA
100
AcDbEntity
  8
0
  6
ByBlock
 62
     0
100
AcDbLine
 10
153.6771782462953
 20
-124.3954458244755
 30
0.0
 11
156.3525171697531
 21
-124.3954458244755
 31
0.0
  0
LINE
  5
3BC
330
3BA
100
AcDbEntity
  8
0
  6
ByBlock
 62
     0
100
AcDbLine
 10
153.6771782462953
 20
-121.6454458244755
 30
0.0
 11
156.3525171697531
 21
-121.6454458244755
 31
0.0
  0
LINE
  5
3BD
330
3BA
100
AcDbEntity
  8
0
  6
ByBlock
 62
     0
100
AcDbLine
 10
156.1525171697532
 20
-123.9954458244755
 30
0.0
 11
156.1525171697532
 21
-123.5204458244755
 31
0.0
  0
LINE
  5
3BE
330
3BA
100
AcDbEntity
  8
0
  6
ByBlock
 62
     0
100
AcDbLine
 10
156.1525171697532
 20
-122.0454458244755
 30
0.0
 11
156.1525171697532
 21
-122.5204458244755
 31
0.0
  0
SOLID
  5
3BF
330
3BA
100
AcDbEntity
  8
0
  6
ByBlock
 62
     0
100
AcDbTrace
 10
156.0858505030865
 20
-123.9954458244755
 30
0.0
 11
156.2191838364198
 21
-123.9954458244755
 31
0.0
 12
156.1525171697532
 22
-124.3954458244755
 32
0.0
 13
156.1525171697532
 23
-124.3954458244755
 33
0.0
  0
SOLID
  5
3C0
330
3BA
100
AcDbEntity
  8
0
  6
ByBlock
 62
     0
100
AcDbTrace
 10
156.0858505030865
 20
-122.0454458244755
 30
0.0
 11
156.2191838364198
 21
-122.0454458244755
 31
0.0
 12
156.1525171697532
 22
-121.6454458244755
 32
0.0
 13
156.1525171697532
 23
-121.6454458244755
 33
0.0
  0
TEXT
  5
3C1
330
3BA
100
AcDbEntity
  8
0
  6
ByBlock
 62
     0
100
AcDbText
 10
154.6025171697531
 20
-123.4204458244755
 30
0.0
 40
0.8
  1
2 3/4"
  7
ROMANC
 72
     1
 11
156.1525171697532
 21
-123.0204458244755
 31
0.0
100
AcDbText
 73
     2
  0
POINT
  5
3C2
330
3BA
100
AcDbEntity
  8
DEFPOINTS
  6
ByBlock
 62
     0
100
AcDbPoint
 10
152.8771782462953
 20
-124.3954458244755
 30
0.0
  0
POINT
  5
3C3
330
3BA
100
AcDbEntity
  8
DEFPOINTS
  6
ByBlock
 62
     0
100
AcDbPoint
 10
152.8771782462953
 20
-121.6454458244755
 30
0.0
  0
POINT
  5
3C4
330
3BA
100
AcDbEntity
  8
DEFPOINTS
  6
ByBlock
 62
     0
100
AcDbPoint
 10
156.1525171697532
 20
-121.6454458244755
 30
0.0
  0
ENDBLK
  5
3C6
330
3BA
100
AcDbEntity
  8
0
100
AcDbBlockEnd
  0
BLOCK
  5
3D2
330
3C7
100
AcDbEntity
  8
0
100
AcDbBlockBegin
  2
*D12
 70
     1
 10
0.0
 20
0.0
 30
0.0
  3
*D12
  1

  0
LINE
  5
3C8
330
3C7
100
AcDbEntity
  8
0
  6
ByBlock
 62
     0
100
AcDbLine
 10
147.8771782462953
 20
-120.0954458244755
 30
0.0
 11
147.8771782462953
 21
-118.7293196348294
 31
0.0
  0
LINE
  5
3C9
330
3C7
100
AcDbEntity
  8
0
  6
ByBlock
 62
     0
100
AcDbLine
 10
140.3771782462953
 20
-120.0954458244755
 30
0.0
 11
140.3771782462953
 21
-118.7293196348294
 31
0.0
  0
LINE
  5
3CA
330
3C7
100
AcDbEntity
  8
0
  6
ByBlock
 62
     0
100
AcDbLine
 10
147.4771782462953
 20
-118.9293196348294
 30
0.0
 11
146.2843211034381
 21
-118.9293196348294
 31
0.0
  0
LINE
  5
3CB
330
3C7
100
AcDbEntity
  8
0
  6
ByBlock
 62
     0
100
AcDbLine
 10
140.7771782462953
 20
-118.9293196348294
 30
0.0
 11
141.9700353891524
 21
-118.9293196348294
 31
0.0
  0
SOLID
  5
3CC
330
3C7
100
AcDbEntity
  8
0
  6
ByBlock
 62
     0
100
AcDbTrace
 10
147.4771782462953
 20
-118.8626529681628
 30
0.0
 11
147.4771782462953
 21
-118.9959863014961
 31
0.0
 12
147.8771782462953
 22
-118.9293196348294
 32
0.0
 13
147.8771782462953
 23
-118.9293196348294
 33
0.0
  0
SOLID
  5
3CD
330
3C7
100
AcDbEntity
  8
0
  6
ByBlock
 62
     0
100
AcDbTrace
 10
140.7771782462953
 20
-118.8626529681628
 30
0.0
 11
140.7771782462953
 21
-118.9959863014961
 31
0.0
 12
140.3771782462953
 22
-118.9293196348294
 32
0.0
 13
140.3771782462953
 23
-118.9293196348294
 33
0.0
  0
TEXT
  5
3CE
330
3C7
100
AcDbEntity
  8
0
  6
ByBlock
 62
     0
100
AcDbText
 10
142.5771782462953
 20
-119.3293196348294
 30
0.0
 40
0.8
  1
7 1/2"
  7
ROMANC
 72
     1
 11
144.1271782462953
 21
-118.9293196348294
 31
0.0
100
AcDbText
 73
     2
  0
POINT
  5
3CF
330
3C7
100
AcDbEntity
  8
DEFPOINTS
  6
ByBlock
 62
     0
100
AcDbPoint
 10
147.8771782462953
 20
-120.8954458244755
 30
0.0
  0
POINT
  5
3D0
330
3C7
100
AcDbEntity
  8
DEFPOINTS
  6
ByBlock
 62
     0
100
AcDbPoint
 10
140.3771782462953
 20
-120.8954458244755
 30
0.0
  0
POINT
  5
3D1
330
3C7
100
AcDbEntity
  8
DEFPOINTS
  6
ByBlock
 62
     0
100
AcDbPoint
 10
140.3771782462953
 20
-118.9293196348294
 30
0.0
  0
ENDBLK
  5
3D3
330
3C7
100
AcDbEntity
  8
0
100
AcDbBlockEnd
  0
BLOCK
  5
3DA
330
3D4
100
AcDbEntity
  8
0
 62
     7
100
AcDbBlockBegin
  2
43
 70
     0
 10
0.0
 20
0.0
 30
0.0
  3
43
  1

  0
DIMENSION
  5
3D5
330
3D4
100
AcDbEntity
  8
0
100
AcDbDimension
  2
*D9
 10
4.354008270770179
 20
0.7527550731973634
 30
0.0
 11
10.60400827077017
 21
0.7527550731973634
 31
0.0
 12
-136.0231699755251
 22
127.098137904377
 32
0.0
 71
     5
 42
-1.0
  3
STANDARD
100
AcDbAlignedDimension
 13
16.85400827077017
 23
2.70269207990151
 33
0.0
 14
4.354008270770179
 24
2.70269207990151
 34
0.0
100
AcDbRotatedDimension
  0
LWPOLYLINE
  5
3D6
330
3D4
100
AcDbEntity
  8
0
100
AcDbPolyline
 90
        5
 70
     1
 43
0.0
 10
4.354008270770179
 20
2.70269207990151
 10
16.85400827077017
 20
2.70269207990151
 10
16.85400827077017
 20
5.45269207990151
 10
11.85400827077017
 20
6.20269207990151
 10
4.354008270770179
 20
6.20269207990151
  0
DIMENSION
  5
3D7
330
3D4
100
AcDbEntity
  8
0
100
AcDbDimension
  2
*D10
 10
1.452681051280194
 20
2.70269207990151
 30
0.0
 11
1.452681051280194
 21
4.45269207990151
 31
0.0
 12
-136.0231699755251
 22
127.098137904377
 32
0.0
 71
     5
 42
-1.0
  3
STANDARD
100
AcDbAlignedDimension
 13
4.354008270770179
 23
6.20269207990151
 33
0.0
 14
4.354008270770179
 24
2.70269207990151
 34
0.0
 50
90.0
100
AcDbRotatedDimension
  0
DIMENSION
  5
3D8
330
3D4
100
AcDbEntity
  8
0
100
AcDbDimension
  2
*D12
 10
4.354008270770179
 20
8.168818269547543
 30
0.0
 11
8.104008270770179
 21
8.168818269547543
 31
0.0
 12
-136.0231699755251
 22
127.098137904377
 32
0.0
 71
     5
 42
-1.0
  3
STANDARD
100
AcDbAlignedDimension
 13
11.85400827077017
 23
6.20269207990151
 33
0.0
 14
4.354008270770179
 24
6.20269207990151
 34
0.0
100
AcDbRotatedDimension
  0
DIMENSION
  5
3D9
330
3D4
100
AcDbEntity
  8
0
100
AcDbDimension
  2
*D11
 10
20.12934719422804
 20
5.45269207990151
 30
0.0
 11
20.12934719422804
 21
4.07769207990151
 31
0.0
 12
-136.0231699755251
 22
127.098137904377
 32
0.0
 71
     5
 42
-1.0
  3
STANDARD
100
AcDbAlignedDimension
 13
16.85400827077017
 23
2.70269207990151
 33
0.0
 14
16.85400827077017
 24
5.45269207990151
 34
0.0
 50
90.0
100
AcDbRotatedDimension
  0
ENDBLK
  5
3DB
330
3D4
100
AcDbEntity
  8
0
 62
     7
100
AcDbBlockEnd
  0
BLOCK
  5
3E7
330
3DC
100
AcDbEntity
  8
0
100
AcDbBlockBegin
  2
*D14
 70
     1
 10
0.0
 20
0.0
 30
0.0
  3
*D14
  1

  0
LINE
  5
3DD
330
3DC
100
AcDbEntity
  8
0
  6
ByBlock
 62
     0
100
AcDbLine
 10
181.8516958130081
 20
-120.243087351494
 30
0.0
 11
181.8516958130081
 21
-119.1977579105138
 31
0.0
  0
LINE
  5
3DE
330
3DC
100
AcDbEntity
  8
0
  6
ByBlock
 62
     0
100
AcDbLine
 10
194.8516958130081
 20
-120.243087351494
 30
0.0
 11
194.8516958130081
 21
-119.1977579105138
 31
0.0
  0
LINE
  5
3DF
330
3DC
100
AcDbEntity
  8
0
  6
ByBlock
 62
     0
100
AcDbLine
 10
182.1516958130081
 20
-119.3477579105138
 30
0.0
 11
187.6766958130081
 21
-119.3477579105138
 31
0.0
  0
LINE
  5
3E0
330
3DC
100
AcDbEntity
  8
0
  6
ByBlock
 62
     0
100
AcDbLine
 10
194.5516958130081
 20
-119.3477579105138
 30
0.0
 11
189.0266958130082
 21
-119.3477579105138
 31
0.0
  0
SOLID
  5
3E1
330
3DC
100
AcDbEntity
  8
0
  6
ByBlock
 62
     0
100
AcDbTrace
 10
182.1516958130081
 20
-119.2977579105138
 30
0.0
 11
182.1516958130081
 21
-119.3977579105138
 31
0.0
 12
181.8516958130081
 22
-119.3477579105138
 32
0.0
 13
181.8516958130081
 23
-119.3477579105138
 33
0.0
  0
SOLID
  5
3E2
330
3DC
100
AcDbEntity
  8
0
  6
ByBlock
 62
     0
100
AcDbTrace
 10
194.5516958130081
 20
-119.2977579105138
 30
0.0
 11
194.5516958130081
 21
-119.3977579105138
 31
0.0
 12
194.8516958130081
 22
-119.3477579105138
 32
0.0
 13
194.8516958130081
 23
-119.3477579105138
 33
0.0
  0
TEXT
  5
3E3
330
3DC
100
AcDbEntity
  8
0
  6
ByBlock
 62
     0
100
AcDbText
 10
187.6717102638752
 20
-119.6477579105138
 30
0.0
 40
0.6
  1
13"
  7
ROMANC
 72
     1
 11
188.3516958130081
 21
-119.3477579105138
 31
0.0
100
AcDbText
 73
     2
  0
POINT
  5
3E4
330
3DC
100
AcDbEntity
  8
DEFPOINTS
  6
ByBlock
 62
     0
100
AcDbPoint
 10
181.8516958130081
 20
-120.843087351494
 30
0.0
  0
POINT
  5
3E5
330
3DC
100
AcDbEntity
  8
DEFPOINTS
  6
ByBlock
 62
     0
100
AcDbPoint
 10
194.8516958130081
 20
-120.843087351494
 30
0.0
  0
POINT
  5
3E6
330
3DC
100
AcDbEntity
  8
DEFPOINTS
  6
ByBlock
 62
     0
100
AcDbPoint
 10
194.8516958130081
 20
-119.3477579105138
 30
0.0
  0
ENDBLK
  5
3E8
330
3DC
100
AcDbEntity
  8
0
100
AcDbBlockEnd
  0
BLOCK
  5
3F4
330
3E9
100
AcDbEntity
  8
0
100
AcDbBlockBegin
  2
*D15
 70
     1
 10
0.0
 20
0.0
 30
0.0
  3
*D15
  1

  0
LINE
  5
3EA
330
3E9
100
AcDbEntity
  8
0
  6
ByBlock
 62
     0
100
AcDbLine
 10
181.2516958130082
 20
-120.843087351494
 30
0.0
 11
179.3962379141399
 21
-120.843087351494
 31
0.0
  0
LINE
  5
3EB
330
3E9
100
AcDbEntity
  8
0
  6
ByBlock
 62
     0
100
AcDbLine
 10
181.2516958130082
 20
-126.843087351494
 30
0.0
 11
179.3962379141399
 21
-126.843087351494
 31
0.0
  0
LINE
  5
3EC
330
3E9
100
AcDbEntity
  8
0
  6
ByBlock
 62
     0
100
AcDbLine
 10
179.5462379141399
 20
-121.143087351494
 30
0.0
 11
179.5462379141399
 21
-123.468087351494
 31
0.0
  0
LINE
  5
3ED
330
3E9
100
AcDbEntity
  8
0
  6
ByBlock
 62
     0
100
AcDbLine
 10
179.5462379141399
 20
-126.543087351494
 30
0.0
 11
179.5462379141399
 21
-124.218087351494
 31
0.0
  0
SOLID
  5
3EE
330
3E9
100
AcDbEntity
  8
0
  6
ByBlock
 62
     0
100
AcDbTrace
 10
179.4962379141399
 20
-121.143087351494
 30
0.0
 11
179.5962379141399
 21
-121.143087351494
 31
0.0
 12
179.5462379141399
 22
-120.843087351494
 32
0.0
 13
179.5462379141399
 23
-120.843087351494
 33
0.0
  0
SOLID
  5
3EF
330
3E9
100
AcDbEntity
  8
0
  6
ByBlock
 62
     0
100
AcDbTrace
 10
179.4962379141399
 20
-126.543087351494
 30
0.0
 11
179.5962379141399
 21
-126.543087351494
 31
0.0
 12
179.5462379141399
 22
-126.843087351494
 32
0.0
 13
179.5462379141399
 23
-126.843087351494
 33
0.0
  0
TEXT
  5
3F0
330
3E9
100
AcDbEntity
  8
0
  6
ByBlock
 62
     0
100
AcDbText
 10
179.0619893592266
 20
-124.143087351494
 30
0.0
 40
0.6
  1
6"
  7
ROMANC
 72
     1
 11
179.5462379141399
 21
-123.843087351494
 31
0.0
100
AcDbText
 73
     2
  0
POINT
  5
3F1
330
3E9
100
AcDbEntity
  8
DEFPOINTS
  6
ByBlock
 62
     0
100
AcDbPoint
 10
181.8516958130081
 20
-120.843087351494
 30
0.0
  0
POINT
  5
3F2
330
3E9
100
AcDbEntity
  8
DEFPOINTS
  6
ByBlock
 62
     0
100
AcDbPoint
 10
181.8516958130081
 20
-126.843087351494
 30
0.0
  0
POINT
  5
3F3
330
3E9
100
AcDbEntity
  8
DEFPOINTS
  6
ByBlock
 62
     0
100
AcDbPoint
 10
179.5462379141399
 20
-126.843087351494
 30
0.0
  0
ENDBLK
  5
3F5
330
3E9
100
AcDbEntity
  8
0
100
AcDbBlockEnd
  0
BLOCK
  5
401
330
3F6
100
AcDbEntity
  8
0
100
AcDbBlockBegin
  2
*D16
 70
     1
 10
0.0
 20
0.0
 30
0.0
  3
*D16
  1

  0
LINE
  5
3F7
330
3F6
100
AcDbEntity
  8
0
  6
ByBlock
 62
     0
100
AcDbLine
 10
195.4516958130081
 20
-120.843087351494
 30
0.0
 11
196.7051418638369
 21
-120.843087351494
 31
0.0
  0
LINE
  5
3F8
330
3F6
100
AcDbEntity
  8
0
  6
ByBlock
 62
     0
100
AcDbLine
 10
195.4516958130081
 20
-124.843087351494
 30
0.0
 11
196.7051418638369
 21
-124.843087351494
 31
0.0
  0
LINE
  5
3F9
330
3F6
100
AcDbEntity
  8
0
  6
ByBlock
 62
     0
100
AcDbLine
 10
196.5551418638369
 20
-121.143087351494
 30
0.0
 11
196.5551418638369
 21
-122.468087351494
 31
0.0
  0
LINE
  5
3FA
330
3F6
100
AcDbEntity
  8
0
  6
ByBlock
 62
     0
100
AcDbLine
 10
196.5551418638369
 20
-124.543087351494
 30
0.0
 11
196.5551418638369
 21
-123.218087351494
 31
0.0
  0
SOLID
  5
3FB
330
3F6
100
AcDbEntity
  8
0
  6
ByBlock
 62
     0
100
AcDbTrace
 10
196.5051418638369
 20
-121.143087351494
 30
0.0
 11
196.6051418638369
 21
-121.143087351494
 31
0.0
 12
196.5551418638369
 22
-120.843087351494
 32
0.0
 13
196.5551418638369
 23
-120.843087351494
 33
0.0
  0
SOLID
  5
3FC
330
3F6
100
AcDbEntity
  8
0
  6
ByBlock
 62
     0
100
AcDbTrace
 10
196.5051418638369
 20
-124.543087351494
 30
0.0
 11
196.6051418638369
 21
-124.543087351494
 31
0.0
 12
196.5551418638369
 22
-124.843087351494
 32
0.0
 13
196.5551418638369
 23
-124.843087351494
 33
0.0
  0
TEXT
  5
3FD
330
3F6
100
AcDbEntity
  8
0
  6
ByBlock
 62
     0
100
AcDbText
 10
196.0708933089236
 20
-123.143087351494
 30
0.0
 40
0.6
  1
4"
  7
ROMANC
 72
     1
 11
196.5551418638369
 21
-122.843087351494
 31
0.0
100
AcDbText
 73
     2
  0
POINT
  5
3FE
330
3F6
100
AcDbEntity
  8
DEFPOINTS
  6
ByBlock
 62
     0
100
AcDbPoint
 10
194.8516958130081
 20
-120.843087351494
 30
0.0
  0
POINT
  5
3FF
330
3F6
100
AcDbEntity
  8
DEFPOINTS
  6
ByBlock
 62
     0
100
AcDbPoint
 10
194.8516958130081
 20
-124.843087351494
 30
0.0
  0
POINT
  5
400
330
3F6
100
AcDbEntity
  8
DEFPOINTS
  6
ByBlock
 62
     0
100
AcDbPoint
 10
196.5551418638369
 20
-124.843087351494
 30
0.0
  0
ENDBLK
  5
402
330
3F6
100
AcDbEntity
  8
0
100
AcDbBlockEnd
  0
BLOCK
  5
408
330
403
100
AcDbEntity
  8
0
 62
     7
100
AcDbBlockBegin
  2
44
 70
     0
 10
0.0
 20
0.0
 30
0.0
  3
44
  1

  0
DIMENSION
  5
404
330
403
100
AcDbEntity
  8
0
100
AcDbDimension
  2
*D16
 10
18.4758967569607
 20
3.252507748860566
 30
0.0
 11
18.4758967569607
 21
5.252507748860566
 31
0.0
 12
-178.0792451068762
 22
128.0955951003546
 32
0.0
 71
     5
 42
-1.0
  3
STANDARD
100
AcDbAlignedDimension
 13
16.77245070613196
 23
7.252507748860566
 33
0.0
 14
16.77245070613196
 24
3.252507748860566
 34
0.0
 50
90.0
100
AcDbRotatedDimension
  0
DIMENSION
  5
405
330
403
100
AcDbEntity
  8
0
100
AcDbDimension
  2
*D15
 10
1.46699280726375
 20
1.252507748860566
 30
0.0
 11
1.46699280726375
 21
4.252507748860566
 31
0.0
 12
-178.0792451068762
 22
128.0955951003546
 32
0.0
 71
     5
 42
-1.0
  3
STANDARD
100
AcDbAlignedDimension
 13
3.772450706131962
 23
7.252507748860566
 33
0.0
 14
3.772450706131962
 24
1.252507748860566
 34
0.0
 50
90.0
100
AcDbRotatedDimension
  0
LWPOLYLINE
  5
406
330
403
100
AcDbEntity
  8
0
100
AcDbPolyline
 90
       15
 70
     1
 43
0.0
 10
14.27245070613196
 20
3.252507748860566
 10
14.27245070613196
 20
3.752507748860566
 10
14.77245070613196
 20
3.752507748860566
 42
-0.4142135623730951
 10
16.27245070613196
 20
5.252507748860566
 10
16.27245070613196
 20
5.752507748860566
 10
16.77245070613196
 20
5.810824836660628
 10
16.77245070613196
 20
7.252507748860566
 10
3.772450706131962
 20
7.252507748860566
 10
3.772450706131962
 20
1.252507748860566
 42
0.4142135623730951
 10
4.584950706131962
 20
2.065007748860566
 10
7.522450706131962
 20
2.065007748860566
 10
7.584950706131962
 20
2.315007748860566
 42
0.4142135623730951
 10
8.084950706131962
 20
2.815007748860566
 10
8.272450706131962
 20
2.815007748860566
 10
8.272450706131962
 20
3.252507748860566
  0
DIMENSION
  5
407
330
403
100
AcDbEntity
  8
0
100
AcDbDimension
  2
*D14
 10
16.77245070613196
 20
8.747837189840794
 30
0.0
 11
10.27245070613196
 21
8.747837189840794
 31
0.0
 12
-178.0792451068762
 22
128.0955951003546
 32
0.0
 71
     5
 42
-1.0
  3
STANDARD
100
AcDbAlignedDimension
 13
3.772450706131962
 23
7.252507748860566
 33
0.0
 14
16.77245070613196
 24
7.252507748860566
 34
0.0
100
AcDbRotatedDimension
  0
ENDBLK
  5
409
330
403
100
AcDbEntity
  8
0
 62
     7
100
AcDbBlockEnd
  0
BLOCK
  5
415
330
40A
100
AcDbEntity
  8
0
100
AcDbBlockBegin
  2
*D18
 70
     1
 10
0.0
 20
0.0
 30
0.0
  3
*D18
  1

  0
LINE
  5
40B
330
40A
100
AcDbEntity
  8
0
  6
ByBlock
 62
     0
100
AcDbLine
 10
497.1014162156838
 20
4.134490417322297
 30
0.0
 11
493.5627047127196
 21
4.134490417322297
 31
0.0
  0
LINE
  5
40C
330
40A
100
AcDbEntity
  8
0
  6
ByBlock
 62
     0
100
AcDbLine
 10
497.1014162156838
 20
-11.1155095826777
 30
0.0
 11
493.5627047127196
 21
-11.1155095826777
 31
0.0
  0
LINE
  5
40D
330
40A
100
AcDbEntity
  8
0
  6
ByBlock
 62
     0
100
AcDbLine
 10
493.7502047127196
 20
3.759490417322297
 30
0.0
 11
493.7502047127196
 21
-2.825331011249131
 31
0.0
  0
LINE
  5
40E
330
40A
100
AcDbEntity
  8
0
  6
ByBlock
 62
     0
100
AcDbLine
 10
493.7502047127196
 20
-10.7405095826777
 30
0.0
 11
493.7502047127196
 21
-4.155688154106274
 31
0.0
  0
SOLID
  5
40F
330
40A
100
AcDbEntity
  8
0
  6
ByBlock
 62
     0
100
AcDbTrace
 10
493.6877047127196
 20
3.759490417322297
 30
0.0
 11
493.8127047127196
 21
3.759490417322297
 31
0.0
 12
493.7502047127196
 22
4.134490417322297
 32
0.0
 13
493.7502047127196
 23
4.134490417322297
 33
0.0
  0
SOLID
  5
410
330
40A
100
AcDbEntity
  8
0
  6
ByBlock
 62
     0
100
AcDbTrace
 10
493.6877047127196
 20
-10.7405095826777
 30
0.0
 11
493.8127047127196
 21
-10.7405095826777
 31
0.0
 12
493.7502047127196
 22
-11.1155095826777
 32
0.0
 13
493.7502047127196
 23
-11.1155095826777
 33
0.0
  0
MTEXT
  5
411
330
40A
100
AcDbEntity
  8
0
  6
ByBlock
 62
     0
100
AcDbMText
 10
493.7502047127196
 20
-3.490509582677702
 30
0.0
 40
0.75
 41
0.0
 71
     5
 72
     1
  1
\A1;1'-3 1/4"
  7
ROMANC
 73
     1
 44
1.0
1001
ACAD
1000
MTEXTBEGIN
1070
    73
1070
     1
1070
    44
1040
1.0
1070
    74
1070
     0
1000
MTEXTEND
  0
POINT
  5
412
330
40A
100
AcDbEntity
  8
DEFPOINTS
  6
ByBlock
 62
     0
100
AcDbPoint
 10
497.8514162156837
 20
4.134490417322297
 30
0.0
  0
POINT
  5
413
330
40A
100
AcDbEntity
  8
DEFPOINTS
  6
ByBlock
 62
     0
100
AcDbPoint
 10
497.8514162156837
 20
-11.1155095826777
 30
0.0
  0
POINT
  5
414
330
40A
100
AcDbEntity
  8
DEFPOINTS
  6
ByBlock
 62
     0
100
AcDbPoint
 10
493.7502047127196
 20
-11.1155095826777
 30
0.0
  0
ENDBLK
  5
416
330
40A
100
AcDbEntity
  8
0
100
AcDbBlockEnd
  0
BLOCK
  5
422
330
417
100
AcDbEntity
  8
0
100
AcDbBlockBegin
  2
*D19
 70
     1
 10
0.0
 20
0.0
 30
0.0
  3
*D19
  1

  0
LINE
  5
418
330
417
100
AcDbEntity
  8
0
  6
ByBlock
 62
     0
100
AcDbLine
 10
503.1014162156838
 20
4.884490417322297
 30
0.0
 11
504.6020269066707
 21
4.884490417322297
 31
0.0
  0
LINE
  5
419
330
417
100
AcDbEntity
  8
0
  6
ByBlock
 62
     0
100
AcDbLine
 10
503.1014162156838
 20
-11.1155095826777
 30
0.0
 11
504.6020269066707
 21
-11.1155095826777
 31
0.0
  0
LINE
  5
41A
330
417
100
AcDbEntity
  8
0
  6
ByBlock
 62
     0
100
AcDbLine
 10
504.4145269066707
 20
4.509490417322297
 30
0.0
 11
504.4145269066707
 21
-2.575331011249132
 31
0.0
  0
LINE
  5
41B
330
417
100
AcDbEntity
  8
0
  6
ByBlock
 62
     0
100
AcDbLine
 10
504.4145269066707
 20
-10.7405095826777
 30
0.0
 11
504.4145269066707
 21
-3.655688154106275
 31
0.0
  0
SOLID
  5
41C
330
417
100
AcDbEntity
  8
0
  6
ByBlock
 62
     0
100
AcDbTrace
 10
504.3520269066708
 20
4.509490417322297
 30
0.0
 11
504.4770269066708
 21
4.509490417322297
 31
0.0
 12
504.4145269066707
 22
4.884490417322297
 32
0.0
 13
504.4145269066707
 23
4.884490417322297
 33
0.0
  0
SOLID
  5
41D
330
417
100
AcDbEntity
  8
0
  6
ByBlock
 62
     0
100
AcDbTrace
 10
504.3520269066708
 20
-10.7405095826777
 30
0.0
 11
504.4770269066708
 21
-10.7405095826777
 31
0.0
 12
504.4145269066707
 22
-11.1155095826777
 32
0.0
 13
504.4145269066707
 23
-11.1155095826777
 33
0.0
  0
MTEXT
  5
41E
330
417
100
AcDbEntity
  8
0
  6
ByBlock
 62
     0
100
AcDbMText
 10
504.4145269066707
 20
-3.115509582677703
 30
0.0
 40
0.75
 41
0.0
 71
     5
 72
     1
  1
\A1;1'-4"
  7
ROMANC
 73
     1
 44
1.0
1001
ACAD
1000
MTEXTBEGIN
1070
    73
1070
     1
1070
    44
1040
1.0
1070
    74
1070
     0
1000
MTEXTEND
  0
POINT
  5
41F
330
417
100
AcDbEntity
  8
DEFPOINTS
  6
ByBlock
 62
     0
100
AcDbPoint
 10
502.3514162156837
 20
4.884490417322297
 30
0.0
  0
POINT
  5
420
330
417
100
AcDbEntity
  8
DEFPOINTS
  6
ByBlock
 62
     0
100
AcDbPoint
 10
502.3514162156837
 20
-11.1155095826777
 30
0.0
  0
POINT
  5
421
330
417
100
AcDbEntity
  8
DEFPOINTS
  6
ByBlock
 62
     0
100
AcDbPoint
 10
504.4145269066707
 20
-11.1155095826777
 30
0.0
  0
ENDBLK
  5
423
330
417
100
AcDbEntity
  8
0
100
AcDbBlockEnd
  0
BLOCK
  5
42F
330
424
100
AcDbEntity
  8
0
100
AcDbBlockBegin
  2
*D20
 70
     1
 10
0.0
 20
0.0
 30
0.0
  3
*D20
  1

  0
LINE
  5
425
330
424
100
AcDbEntity
  8
0
  6
ByBlock
 62
     0
100
AcDbLine
 10
497.8514162156837
 20
-11.8655095826777
 30
0.0
 11
497.8514162156837
 21
-14.22117360534417
 31
0.0
  0
LINE
  5
426
330
424
100
AcDbEntity
  8
0
  6
ByBlock
 62
     0
100
AcDbLine
 10
502.3514162156837
 20
-11.8655095826777
 30
0.0
 11
502.3514162156837
 21
-14.22117360534417
 31
0.0
  0
LINE
  5
427
330
424
100
AcDbEntity
  8
0
  6
ByBlock
 62
     0
100
AcDbLine
 10
497.4764162156837
 20
-14.03367360534417
 30
0.0
 11
497.1014162156838
 21
-14.03367360534417
 31
0.0
  0
LINE
  5
428
330
424
100
AcDbEntity
  8
0
  6
ByBlock
 62
     0
100
AcDbLine
 10
502.7264162156837
 20
-14.03367360534417
 30
0.0
 11
503.1014162156838
 21
-14.03367360534417
 31
0.0
  0
SOLID
  5
429
330
424
100
AcDbEntity
  8
0
  6
ByBlock
 62
     0
100
AcDbTrace
 10
497.4764162156837
 20
-13.97117360534417
 30
0.0
 11
497.4764162156837
 21
-14.09617360534417
 31
0.0
 12
497.8514162156837
 22
-14.03367360534417
 32
0.0
 13
497.8514162156837
 23
-14.03367360534417
 33
0.0
  0
SOLID
  5
42A
330
424
100
AcDbEntity
  8
0
  6
ByBlock
 62
     0
100
AcDbTrace
 10
502.7264162156837
 20
-13.97117360534417
 30
0.0
 11
502.7264162156837
 21
-14.09617360534417
 31
0.0
 12
502.3514162156837
 22
-14.03367360534417
 32
0.0
 13
502.3514162156837
 23
-14.03367360534417
 33
0.0
  0
MTEXT
  5
42B
330
424
100
AcDbEntity
  8
0
  6
ByBlock
 62
     0
100
AcDbMText
 10
500.1014162156837
 20
-14.03367360534417
 30
0.0
 40
0.75
 41
0.0
 71
     5
 72
     1
  1
\A1;4 1/2"
  7
ROMANC
 73
     1
 44
1.0
1001
ACAD
1000
MTEXTBEGIN
1070
    73
1070
     1
1070
    44
1040
1.0
1070
    74
1070
     0
1000
MTEXTEND
  0
POINT
  5
42C
330
424
100
AcDbEntity
  8
DEFPOINTS
  6
ByBlock
 62
     0
100
AcDbPoint
 10
497.8514162156837
 20
-11.1155095826777
 30
0.0
  0
POINT
  5
42D
330
424
100
AcDbEntity
  8
DEFPOINTS
  6
ByBlock
 62
     0
100
AcDbPoint
 10
502.3514162156837
 20
-11.1155095826777
 30
0.0
  0
POINT
  5
42E
330
424
100
AcDbEntity
  8
DEFPOINTS
  6
ByBlock
 62
     0
100
AcDbPoint
 10
502.3514162156837
 20
-14.03367360534417
 30
0.0
  0
ENDBLK
  5
430
330
424
100
AcDbEntity
  8
0
100
AcDbBlockEnd
  0
BLOCK
  5
43B
330
431
100
AcDbEntity
  8
0
100
AcDbBlockBegin
  2
*D21
 70
     1
 10
0.0
 20
0.0
 30
0.0
  3
*D21
  1

  0
LINE
  5
432
330
431
100
AcDbEntity
  8
0
  6
ByBlock
 62
     0
100
AcDbLine
 10
498.6014162156838
 20
5.634490417322297
 30
0.0
 11
498.6014162156838
 21
7.877614282473416
 31
0.0
  0
LINE
  5
433
330
431
100
AcDbEntity
  8
0
  6
ByBlock
 62
     0
100
AcDbLine
 10
502.3514162156837
 20
5.634490417322297
 30
0.0
 11
502.3514162156837
 21
7.877614282473416
 31
0.0
  0
LINE
  5
434
330
431
100
AcDbEntity
  8
0
  6
ByBlock
 62
     0
100
AcDbLine
 10
498.9764162156838
 20
7.690114282473416
 30
0.0
 11
501.9764162156838
 21
7.690114282473416
 31
0.0
  0
MTEXT
  5
435
330
431
100
AcDbEntity
  8
0
  6
ByBlock
 62
     0
100
AcDbMText
 10
500.4764162156837
 20
8.589667853901987
 30
0.0
 40
0.75
 41
0.0
 71
     5
 72
     1
  1
\A1;3 3/4"
  7
ROMANC
 73
     1
 44
1.0
1001
ACAD
1000
MTEXTBEGIN
1070
    73
1070
     1
1070
    44
1040
1.0
1070
    74
1070
     0
1000
MTEXTEND
  0
SOLID
  5
436
330
431
100
AcDbEntity
  8
0
  6
ByBlock
 62
     0
100
AcDbTrace
 10
498.9764162156838
 20
7.752614282473416
 30
0.0
 11
498.9764162156838
 21
7.627614282473416
 31
0.0
 12
498.6014162156838
 22
7.690114282473416
 32
0.0
 13
498.6014162156838
 23
7.690114282473416
 33
0.0
  0
SOLID
  5
437
330
431
100
AcDbEntity
  8
0
  6
ByBlock
 62
     0
100
AcDbTrace
 10
501.9764162156838
 20
7.752614282473416
 30
0.0
 11
501.9764162156838
 21
7.627614282473416
 31
0.0
 12
502.3514162156837
 22
7.690114282473416
 32
0.0
 13
502.3514162156837
 23
7.690114282473416
 33
0.0
  0
POINT
  5
438
330
431
100
AcDbEntity
  8
DEFPOINTS
  6
ByBlock
 62
     0
100
AcDbPoint
 10
498.6014162156838
 20
4.884490417322297
 30
0.0
  0
POINT
  5
439
330
431
100
AcDbEntity
  8
DEFPOINTS
  6
ByBlock
 62
     0
100
AcDbPoint
 10
502.3514162156837
 20
4.884490417322297
 30
0.0
  0
POINT
  5
43A
330
431
100
AcDbEntity
  8
DEFPOINTS
  6
ByBlock
 62
     0
100
AcDbPoint
 10
502.3514162156837
 20
7.690114282473416
 30
0.0
  0
ENDBLK
  5
43C
330
431
100
AcDbEntity
  8
0
100
AcDbBlockEnd
  0
BLOCK
  5
443
330
43D
100
AcDbEntity
  8
0
 62
     7
100
AcDbBlockBegin
  2
45
 70
     0
 10
0.0
 20
0.0
 30
0.0
  3
45
  1

  0
DIMENSION
  5
43E
330
43D
100
AcDbEntity
  8
0
100
AcDbDimension
  2
*D21
 10
10.42695934661617
 20
21.20948599903192
 30
0.0
 11
8.551959346616172
 21
22.10903957046049
 31
0.0
 12
-491.9244568690676
 22
13.51937171655851
 32
0.0
  1
3 3/4"
 71
     5
 42
-1.0
  3
STANDARD
100
AcDbAlignedDimension
 13
6.676959346616172
 23
18.4038621338808
 33
0.0
 14
10.42695934661617
 24
18.4038621338808
 34
0.0
 50
180.0
100
AcDbRotatedDimension
1001
ACAD
1000
DSTYLE
1002
{
1070
   140
1040
1.0
1070
   146
1040
0.125
1070
    40
1040
0.75
1070
     3
1000
"
1070
   147
1040
0.125
1070
    42
1040
1.0
1070
    44
1040
0.25
1070
    43
1040
0.0625
1070
   141
1040
0.0
1070
    41
1040
0.5
1002
}
  0
LWPOLYLINE
  5
43F
330
43D
100
AcDbEntity
  8
0
100
AcDbPolyline
 90
        5
 70
     1
 43
0.0
 10
10.42695934661617
 20
2.403862133880807
 10
5.926959346616172
 20
2.403862133880807
 10
5.926959346616172
 20
17.6538621338808
 10
6.676959346616172
 20
18.4038621338808
 10
10.42695934661617
 20
18.4038621338808
  0
DIMENSION
  5
440
330
43D
100
AcDbEntity
  8
0
100
AcDbDimension
  2
*D20
 10
10.42695934661617
 20
-0.514301888785667
 30
0.0
 11
8.176959346616172
 21
-0.514301888785667
 31
0.0
 12
-491.9244568690676
 22
13.51937171655851
 32
0.0
  1
4 1/2"
 71
     5
 42
-1.0
  3
STANDARD
100
AcDbAlignedDimension
 13
5.926959346616172
 23
2.403862133880807
 33
0.0
 14
10.42695934661617
 24
2.403862133880807
 34
0.0
 50
180.0
100
AcDbRotatedDimension
1001
ACAD
1000
DSTYLE
1002
{
1070
   140
1040
1.0
1070
   146
1040
0.125
1070
    40
1040
0.75
1070
     3
1000
"
1070
   147
1040
0.125
1070
    42
1040
1.0
1070
    44
1040
0.25
1070
    43
1040
0.0625
1070
   141
1040
0.0
1070
    41
1040
0.5
1002
}
  0
DIMENSION
  5
441
330
43D
100
AcDbEntity
  8
0
100
AcDbDimension
  2
*D18
 10
1.825747843652038
 20
2.403862133880807
 30
0.0
 11
1.825747843652038
 21
10.0288621338808
 31
0.0
 12
-491.9244568690676
 22
13.51937171655851
 32
0.0
  1
1'-3 1/4"
 71
     5
 42
-1.0
  3
STANDARD
100
AcDbAlignedDimension
 13
5.926959346616172
 23
17.6538621338808
 33
0.0
 14
5.926959346616172
 24
2.403862133880807
 34
0.0
 50
90.0
100
AcDbRotatedDimension
1001
ACAD
1000
DSTYLE
1002
{
1070
   140
1040
1.0
1070
   146
1040
0.125
1070
    40
1040
0.75
1070
     3
1000
"
1070
   147
1040
0.125
1070
    42
1040
1.0
1070
    44
1040
0.25
1070
    43
1040
0.0625
1070
   141
1040
0.0
1070
    41
1040
0.5
1002
}
  0
DIMENSION
  5
442
330
43D
100
AcDbEntity
  8
0
100
AcDbDimension
  2
*D19
 10
12.49007003760317
 20
2.403862133880807
 30
0.0
 11
12.49007003760317
 21
10.4038621338808
 31
0.0
 12
-491.9244568690676
 22
13.51937171655851
 32
0.0
  1
1'-4"
 71
     5
 42
-1.0
  3
STANDARD
100
AcDbAlignedDimension
 13
10.42695934661617
 23
18.4038621338808
 33
0.0
 14
10.42695934661617
 24
2.403862133880807
 34
0.0
 50
90.0
100
AcDbRotatedDimension
1001
ACAD
1000
DSTYLE
1002
{
1070
   140
1040
1.0
1070
   146
1040
0.125
1070
    40
1040
0.75
1070
     3
1000
"
1070
   147
1040
0.125
1070
    42
1040
1.0
1070
    44
1040
0.25
1070
    43
1040
0.0625
1070
   141
1040
0.0
1070
    41
1040
0.5
1002
}
  0
ENDBLK
  5
444
330
43D
100
AcDbEntity
  8
0
 62
     7
100
AcDbBlockEnd
  0
BLOCK
  5
450
330
445
100
AcDbEntity
  8
0
100
AcDbBlockBegin
  2
*D23
 70
     1
 10
0.0
 20
0.0
 30
0.0
  3
*D23
  1

  0
LINE
  5
446
330
445
100
AcDbEntity
  8
0
  6
ByBlock
 62
     0
100
AcDbLine
 10
144.7550996574685
 20
-150.8569340694897
 30
0.0
 11
143.7643475987337
 21
-150.8569340694897
 31
0.0
  0
LINE
  5
447
330
445
100
AcDbEntity
  8
0
  6
ByBlock
 62
     0
100
AcDbLine
 10
144.7550996574685
 20
-145.8569340694898
 30
0.0
 11
143.7643475987337
 21
-145.8569340694898
 31
0.0
  0
LINE
  5
448
330
445
100
AcDbEntity
  8
0
  6
ByBlock
 62
     0
100
AcDbLine
 10
143.9143475987337
 20
-150.5569340694897
 30
0.0
 11
143.9143475987337
 21
-148.7319340694897
 31
0.0
  0
LINE
  5
449
330
445
100
AcDbEntity
  8
0
  6
ByBlock
 62
     0
100
AcDbLine
 10
143.9143475987337
 20
-146.1569340694898
 30
0.0
 11
143.9143475987337
 21
-147.9819340694898
 31
0.0
  0
SOLID
  5
44A
330
445
100
AcDbEntity
  8
0
  6
ByBlock
 62
     0
100
AcDbTrace
 10
143.8643475987336
 20
-150.5569340694897
 30
0.0
 11
143.9643475987337
 21
-150.5569340694897
 31
0.0
 12
143.9143475987337
 22
-150.8569340694897
 32
0.0
 13
143.9143475987337
 23
-150.8569340694897
 33
0.0
  0
SOLID
  5
44B
330
445
100
AcDbEntity
  8
0
  6
ByBlock
 62
     0
100
AcDbTrace
 10
143.8643475987336
 20
-146.1569340694898
 30
0.0
 11
143.9643475987337
 21
-146.1569340694898
 31
0.0
 12
143.9143475987337
 22
-145.8569340694898
 32
0.0
 13
143.9143475987337
 23
-145.8569340694898
 33
0.0
  0
TEXT
  5
44C
330
445
100
AcDbEntity
  8
0
  6
ByBlock
 62
     0
100
AcDbText
 10
143.4300990438203
 20
-148.6569340694898
 30
0.0
 40
0.6
  1
5"
  7
ROMANC
 72
     1
 11
143.9143475987337
 21
-148.3569340694898
 31
0.0
100
AcDbText
 73
     2
  0
POINT
  5
44D
330
445
100
AcDbEntity
  8
DEFPOINTS
  6
ByBlock
 62
     0
100
AcDbPoint
 10
145.3550996574685
 20
-150.8569340694897
 30
0.0
  0
POINT
  5
44E
330
445
100
AcDbEntity
  8
DEFPOINTS
  6
ByBlock
 62
     0
100
AcDbPoint
 10
145.3550996574685
 20
-145.8569340694898
 30
0.0
  0
POINT
  5
44F
330
445
100
AcDbEntity
  8
DEFPOINTS
  6
ByBlock
 62
     0
100
AcDbPoint
 10
143.9143475987337
 20
-145.8569340694898
 30
0.0
  0
ENDBLK
  5
451
330
445
100
AcDbEntity
  8
0
100
AcDbBlockEnd
  0
BLOCK
  5
45D
330
452
100
AcDbEntity
  8
0
100
AcDbBlockBegin
  2
*D24
 70
     1
 10
0.0
 20
0.0
 30
0.0
  3
*D24
  1

  0
LINE
  5
453
330
452
100
AcDbEntity
  8
0
  6
ByBlock
 62
     0
100
AcDbLine
 10
145.3550996574685
 20
-151.4569340694897
 30
0.0
 11
145.3550996574685
 21
-152.4673362572922
 31
0.0
  0
LINE
  5
454
330
452
100
AcDbEntity
  8
0
  6
ByBlock
 62
     0
100
AcDbLine
 10
149.8550996574685
 20
-151.4569340694897
 30
0.0
 11
149.8550996574685
 21
-152.4673362572922
 31
0.0
  0
LINE
  5
455
330
452
100
AcDbEntity
  8
0
  6
ByBlock
 62
     0
100
AcDbLine
 10
145.6550996574685
 20
-152.3173362572922
 30
0.0
 11
145.9729568003257
 21
-152.3173362572922
 31
0.0
  0
LINE
  5
456
330
452
100
AcDbEntity
  8
0
  6
ByBlock
 62
     0
100
AcDbLine
 10
149.5550996574685
 20
-152.3173362572922
 30
0.0
 11
149.2372425146114
 21
-152.3173362572922
 31
0.0
  0
SOLID
  5
457
330
452
100
AcDbEntity
  8
0
  6
ByBlock
 62
     0
100
AcDbTrace
 10
145.6550996574685
 20
-152.2673362572922
 30
0.0
 11
145.6550996574685
 21
-152.3673362572922
 31
0.0
 12
145.3550996574685
 22
-152.3173362572922
 32
0.0
 13
145.3550996574685
 23
-152.3173362572922
 33
0.0
  0
SOLID
  5
458
330
452
100
AcDbEntity
  8
0
  6
ByBlock
 62
     0
100
AcDbTrace
 10
149.5550996574685
 20
-152.2673362572922
 30
0.0
 11
149.5550996574685
 21
-152.3673362572922
 31
0.0
 12
149.8550996574685
 22
-152.3173362572922
 32
0.0
 13
149.8550996574685
 23
-152.3173362572922
 33
0.0
  0
TEXT
  5
459
330
452
100
AcDbEntity
  8
0
  6
ByBlock
 62
     0
100
AcDbText
 10
146.4425996574685
 20
-152.6173362572922
 30
0.0
 40
0.6
  1
4 1/2"
  7
ROMANC
 72
     1
 11
147.6050996574685
 21
-152.3173362572922
 31
0.0
100
AcDbText
 73
     2
  0
POINT
  5
45A
330
452
100
AcDbEntity
  8
DEFPOINTS
  6
ByBlock
 62
     0
100
AcDbPoint
 10
145.3550996574685
 20
-150.8569340694897
 30
0.0
  0
POINT
  5
45B
330
452
100
AcDbEntity
  8
DEFPOINTS
  6
ByBlock
 62
     0
100
AcDbPoint
 10
149.8550996574685
 20
-150.8569340694897
 30
0.0
  0
POINT
  5
45C
330
452
100
AcDbEntity
  8
DEFPOINTS
  6
ByBlock
 62
     0
100
AcDbPoint
 10
149.8550996574685
 20
-152.3173362572922
 30
0.0
  0
ENDBLK
  5
45E
330
452
100
AcDbEntity
  8
0
100
AcDbBlockEnd
  0
BLOCK
  5
463
330
45F
100
AcDbEntity
  8
0
 62
     7
100
AcDbBlockBegin
  2
46
 70
     0
 10
0.0
 20
0.0
 30
0.0
  3
46
  1

  0
DIMENSION
  5
460
330
45F
100
AcDbEntity
  8
0
100
AcDbDimension
  2
*D23
 10
2.399938395034723
 20
7.317584334439388
 30
0.0
 11
2.399938395034723
 21
4.817584334439388
 31
0.0
 12
-141.5144092036989
 22
153.1745184039291
 32
0.0
 71
     5
 42
-1.0
  3
STANDARD
100
AcDbAlignedDimension
 13
3.840690453769639
 23
2.317584334439388
 33
0.0
 14
3.840690453769639
 24
7.317584334439388
 34
0.0
 50
90.0
100
AcDbRotatedDimension
  0
LWPOLYLINE
  5
461
330
45F
100
AcDbEntity
  8
0
100
AcDbPolyline
 90
        6
 70
     1
 43
0.0
 10
3.840690453769639
 20
7.317584334439388
 10
3.840690453769639
 20
2.317584334439388
 10
7.590690453769639
 20
2.317584334439388
 10
8.340690453769639
 20
3.067584334439388
 10
8.340690453769639
 20
6.317584334439416
 10
7.590690453769639
 20
7.067584334439359
  0
DIMENSION
  5
462
330
45F
100
AcDbEntity
  8
0
100
AcDbDimension
  2
*D24
 10
8.340690453769639
 20
0.85718214663693
 30
0.0
 11
6.090690453769639
 21
0.85718214663693
 31
0.0
 12
-141.5144092036989
 22
153.1745184039291
 32
0.0
 71
     5
 42
-1.0
  3
STANDARD
100
AcDbAlignedDimension
 13
3.840690453769639
 23
2.317584334439388
 33
0.0
 14
8.340690453769639
 24
2.317584334439388
 34
0.0
 50
180.0
100
AcDbRotatedDimension
  0
ENDBLK
  5
464
330
45F
100
AcDbEntity
  8
0
 62
     7
100
AcDbBlockEnd
  0
BLOCK
  5
470
330
465
100
AcDbEntity
  8
0
100
AcDbBlockBegin
  2
*D26
 70
     1
 10
0.0
 20
0.0
 30
0.0
  3
*D26
  1

  0
LINE
  5
466
330
465
100
AcDbEntity
  8
0
  6
ByBlock
 62
     0
100
AcDbLine
 10
183.7438019807797
 20
-135.6524649079875
 30
0.0
 11
183.7438019807797
 21
-134.2855293473943
 31
0.0
  0
LINE
  5
467
330
465
100
AcDbEntity
  8
0
  6
ByBlock
 62
     0
100
AcDbLine
 10
194.7438019807352
 20
-135.6524649079875
 30
0.0
 11
194.7438019807352
 21
-134.2855293473943
 31
0.0
  0
LINE
  5
468
330
465
100
AcDbEntity
  8
0
  6
ByBlock
 62
     0
100
AcDbLine
 10
184.2438019807797
 20
-134.5355293473943
 30
0.0
 11
188.1188019807574
 21
-134.5355293473943
 31
0.0
  0
LINE
  5
469
330
465
100
AcDbEntity
  8
0
  6
ByBlock
 62
     0
100
AcDbLine
 10
194.2438019807352
 20
-134.5355293473943
 30
0.0
 11
190.3688019807574
 21
-134.5355293473943
 31
0.0
  0
SOLID
  5
46A
330
465
100
AcDbEntity
  8
0
  6
ByBlock
 62
     0
100
AcDbTrace
 10
184.2438019807797
 20
-134.452196014061
 30
0.0
 11
184.2438019807797
 21
-134.6188626807277
 31
0.0
 12
183.7438019807797
 22
-134.5355293473943
 32
0.0
 13
183.7438019807797
 23
-134.5355293473943
 33
0.0
  0
SOLID
  5
46B
330
465
100
AcDbEntity
  8
0
  6
ByBlock
 62
     0
100
AcDbTrace
 10
194.2438019807352
 20
-134.452196014061
 30
0.0
 11
194.2438019807352
 21
-134.6188626807277
 31
0.0
 12
194.7438019807352
 22
-134.5355293473943
 32
0.0
 13
194.7438019807352
 23
-134.5355293473943
 33
0.0
  0
TEXT
  5
46C
330
465
100
AcDbEntity
  8
0
  6
ByBlock
 62
     0
100
AcDbText
 10
188.1104927322025
 20
-135.0355293473943
 30
0.0
 40
1.0
  1
11"
  7
ROMANC
 72
     1
 11
189.2438019807574
 21
-134.5355293473943
 31
0.0
100
AcDbText
 73
     2
  0
POINT
  5
46D
330
465
100
AcDbEntity
  8
DEFPOINTS
  6
ByBlock
 62
     0
100
AcDbPoint
 10
183.7438019807797
 20
-136.6524649079875
 30
0.0
  0
POINT
  5
46E
330
465
100
AcDbEntity
  8
DEFPOINTS
  6
ByBlock
 62
     0
100
AcDbPoint
 10
194.7438019807352
 20
-136.6524649079875
 30
0.0
  0
POINT
  5
46F
330
465
100
AcDbEntity
  8
DEFPOINTS
  6
ByBlock
 62
     0
100
AcDbPoint
 10
194.7438019807352
 20
-134.5355293473943
 30
0.0
  0
ENDBLK
  5
471
330
465
100
AcDbEntity
  8
0
100
AcDbBlockEnd
  0
BLOCK
  5
47D
330
472
100
AcDbEntity
  8
0
100
AcDbBlockBegin
  2
*D27
 70
     1
 10
0.0
 20
0.0
 30
0.0
  3
*D27
  1

  0
LINE
  5
473
330
472
100
AcDbEntity
  8
0
  6
ByBlock
 62
     0
100
AcDbLine
 10
183.7438019807797
 20
-156.3399649079124
 30
0.0
 11
183.7438019807797
 21
-158.0815903806028
 31
0.0
  0
LINE
  5
474
330
472
100
AcDbEntity
  8
0
  6
ByBlock
 62
     0
100
AcDbLine
 10
190.4938019807524
 20
-156.3399649079124
 30
0.0
 11
190.4938019807524
 21
-158.0815903806028
 31
0.0
  0
LINE
  5
475
330
472
100
AcDbEntity
  8
0
  6
ByBlock
 62
     0
100
AcDbLine
 10
184.2438019807797
 20
-157.8315903806028
 30
0.0
 11
184.4368819561857
 21
-157.8315903806028
 31
0.0
  0
LINE
  5
476
330
472
100
AcDbEntity
  8
0
  6
ByBlock
 62
     0
100
AcDbLine
 10
189.9938019807525
 20
-157.8315903806028
 30
0.0
 11
189.8297390990429
 21
-157.8315903806028
 31
0.0
  0
SOLID
  5
477
330
472
100
AcDbEntity
  8
0
  6
ByBlock
 62
     0
100
AcDbTrace
 10
184.2438019807797
 20
-157.7482570472695
 30
0.0
 11
184.2438019807797
 21
-157.9149237139362
 31
0.0
 12
183.7438019807797
 22
-157.8315903806028
 32
0.0
 13
183.7438019807797
 23
-157.8315903806028
 33
0.0
  0
SOLID
  5
478
330
472
100
AcDbEntity
  8
0
  6
ByBlock
 62
     0
100
AcDbTrace
 10
189.9938019807525
 20
-157.7482570472695
 30
0.0
 11
189.9938019807525
 21
-157.9149237139362
 31
0.0
 12
190.4938019807524
 22
-157.8315903806028
 32
0.0
 13
190.4938019807524
 23
-157.8315903806028
 33
0.0
  0
TEXT
  5
479
330
472
100
AcDbEntity
  8
0
  6
ByBlock
 62
     0
100
AcDbText
 10
185.1958105276143
 20
-158.3315903806028
 30
0.0
 40
1.0
  1
6 3/4"
  7
ROMANC
 72
     1
 11
187.1333105276143
 21
-157.8315903806028
 31
0.0
100
AcDbText
 73
     2
  0
POINT
  5
47A
330
472
100
AcDbEntity
  8
DEFPOINTS
  6
ByBlock
 62
     0
100
AcDbPoint
 10
183.7438019807797
 20
-155.3399649079124
 30
0.0
  0
POINT
  5
47B
330
472
100
AcDbEntity
  8
DEFPOINTS
  6
ByBlock
 62
     0
100
AcDbPoint
 10
190.4938019807524
 20
-155.3399649079124
 30
0.0
  0
POINT
  5
47C
330
472
100
AcDbEntity
  8
DEFPOINTS
  6
ByBlock
 62
     0
100
AcDbPoint
 10
190.4938019807524
 20
-157.8315903806028
 30
0.0
  0
ENDBLK
  5
47E
330
472
100
AcDbEntity
  8
0
100
AcDbBlockEnd
  0
BLOCK
  5
48A
330
47F
100
AcDbEntity
  8
0
100
AcDbBlockBegin
  2
*D28
 70
     1
 10
0.0
 20
0.0
 30
0.0
  3
*D28
  1

  0
LINE
  5
480
330
47F
100
AcDbEntity
  8
0
  6
ByBlock
 62
     0
100
AcDbLine
 10
182.7438019807797
 20
-136.6524649079875
 30
0.0
 11
179.023201967736
 21
-136.6524649079875
 31
0.0
  0
LINE
  5
481
330
47F
100
AcDbEntity
  8
0
  6
ByBlock
 62
     0
100
AcDbLine
 10
182.7438019807797
 20
-155.3399649079124
 30
0.0
 11
179.023201967736
 21
-155.3399649079124
 31
0.0
  0
LINE
  5
482
330
47F
100
AcDbEntity
  8
0
  6
ByBlock
 62
     0
100
AcDbLine
 10
179.273201967736
 20
-137.1524649079875
 30
0.0
 11
179.273201967736
 21
-145.37121490795
 31
0.0
  0
LINE
  5
483
330
47F
100
AcDbEntity
  8
0
  6
ByBlock
 62
     0
100
AcDbLine
 10
179.273201967736
 20
-154.8399649079124
 30
0.0
 11
179.273201967736
 21
-146.6212149079499
 31
0.0
  0
SOLID
  5
484
330
47F
100
AcDbEntity
  8
0
  6
ByBlock
 62
     0
100
AcDbTrace
 10
179.1898686344027
 20
-137.1524649079875
 30
0.0
 11
179.3565353010694
 21
-137.1524649079875
 31
0.0
 12
179.273201967736
 22
-136.6524649079875
 32
0.0
 13
179.273201967736
 23
-136.6524649079875
 33
0.0
  0
SOLID
  5
485
330
47F
100
AcDbEntity
  8
0
  6
ByBlock
 62
     0
100
AcDbTrace
 10
179.1898686344027
 20
-154.8399649079124
 30
0.0
 11
179.3565353010694
 21
-154.8399649079124
 31
0.0
 12
179.273201967736
 22
-155.3399649079124
 32
0.0
 13
179.273201967736
 23
-155.3399649079124
 33
0.0
  0
TEXT
  5
486
330
47F
100
AcDbEntity
  8
0
  6
ByBlock
 62
     0
100
AcDbText
 10
176.269589250973
 20
-146.4962149079499
 30
0.0
 40
1.0
  1
18 11/16"
  7
ROMANC
 72
     1
 11
179.273201967736
 21
-145.9962149079499
 31
0.0
100
AcDbText
 73
     2
  0
POINT
  5
487
330
47F
100
AcDbEntity
  8
DEFPOINTS
  6
ByBlock
 62
     0
100
AcDbPoint
 10
183.7438019807797
 20
-136.6524649079875
 30
0.0
  0
POINT
  5
488
330
47F
100
AcDbEntity
  8
DEFPOINTS
  6
ByBlock
 62
     0
100
AcDbPoint
 10
183.7438019807797
 20
-155.3399649079124
 30
0.0
  0
POINT
  5
489
330
47F
100
AcDbEntity
  8
DEFPOINTS
  6
ByBlock
 62
     0
100
AcDbPoint
 10
179.273201967736
 20
-155.3399649079124
 30
0.0
  0
ENDBLK
  5
48B
330
47F
100
AcDbEntity
  8
0
100
AcDbBlockEnd
  0
BLOCK
  5
491
330
48C
100
AcDbEntity
  8
0
 62
     7
100
AcDbBlockBegin
  2
47
 70
     0
 10
0.0
 20
0.0
 30
0.0
  3
47
  1

  0
DIMENSION
  5
48D
330
48C
100
AcDbEntity
  8
0
100
AcDbDimension
  2
*D28
 10
2.191897378444423
 20
2.964333160625486
 30
0.0
 11
2.191897378444423
 21
12.30808316058794
 31
0.0
 12
-177.0813045892916
 22
158.3042980685379
 32
0.0
 71
     5
 42
-1.0
  3
STANDARD
100
AcDbAlignedDimension
 13
6.662497391488102
 23
21.65183316055039
 33
0.0
 14
6.662497391488102
 24
2.964333160625486
 34
0.0
 50
90.0
100
AcDbRotatedDimension
  0
LWPOLYLINE
  5
48E
330
48C
100
AcDbEntity
  8
0
100
AcDbPolyline
 90
       10
 70
     1
 43
0.0
 10
6.662497391488102
 20
2.964333160625486
 10
13.41249739146081
 20
2.964333160625486
 10
13.41249739146081
 20
13.96433316058131
 10
14.41249739145672
 20
13.96433316058131
 10
14.40418702889013
 20
14.95353847179571
 42
-0.3943226820358349
 10
17.66249739144353
 20
17.9643331605654
 10
17.66249739144353
 20
18.9643331605613
 10
10.66250704333646
 20
20.96433094455518
 10
10.66250704333646
 20
21.65183316055039
 10
6.662497391488102
 20
21.65183316055039
  0
DIMENSION
  5
48F
330
48C
100
AcDbEntity
  8
0
100
AcDbDimension
  2
*D27
 10
13.41249739146081
 20
0.4727076879350563
 30
0.0
 11
10.05200593832267
 21
0.4727076879350563
 31
0.0
 12
-177.0813045892916
 22
158.3042980685379
 32
0.0
 70
   128
 71
     5
 42
-1.0
  3
STANDARD
100
AcDbAlignedDimension
 13
6.662497391488102
 23
2.964333160625486
 33
0.0
 14
13.41249739146081
 24
2.964333160625486
 34
0.0
100
AcDbRotatedDimension
  0
DIMENSION
  5
490
330
48C
100
AcDbEntity
  8
0
100
AcDbDimension
  2
*D26
 10
17.66249739144353
 20
23.76876872114356
 30
0.0
 11
12.16249739146582
 21
23.76876872114356
 31
0.0
 12
-177.0813045892916
 22
158.3042980685379
 32
0.0
 71
     5
 42
-1.0
  3
STANDARD
100
AcDbAlignedDimension
 13
6.662497391488102
 23
21.65183316055039
 33
0.0
 14
17.66249739144353
 24
21.65183316055039
 34
0.0
100
AcDbRotatedDimension
  0
ENDBLK
  5
492
330
48C
100
AcDbEntity
  8
0
 62
     7
100
AcDbBlockEnd
  0
BLOCK
  5
49E
330
493
100
AcDbEntity
  8
0
100
AcDbBlockBegin
  2
*D30
 70
     1
 10
0.0
 20
0.0
 30
0.0
  3
*D30
  1

  0
LINE
  5
494
330
493
100
AcDbEntity
  8
0
  6
ByBlock
 62
     0
100
AcDbLine
 10
228.1282231129302
 20
-144.9914480178993
 30
0.0
 11
228.1282231129302
 21
-144.3260551021278
 31
0.0
  0
LINE
  5
495
330
493
100
AcDbEntity
  8
0
  6
ByBlock
 62
     0
100
AcDbLine
 10
227.1282231129302
 20
-144.9914480178993
 30
0.0
 11
227.1282231129302
 21
-144.3260551021278
 31
0.0
  0
LINE
  5
496
330
493
100
AcDbEntity
  8
0
  6
ByBlock
 62
     0
100
AcDbLine
 10
228.4782231129302
 20
-144.5010551021278
 30
0.0
 11
228.8282231129302
 21
-144.5010551021278
 31
0.0
  0
LINE
  5
497
330
493
100
AcDbEntity
  8
0
  6
ByBlock
 62
     0
100
AcDbLine
 10
226.7782231129302
 20
-144.5010551021278
 30
0.0
 11
226.4282231129302
 21
-144.5010551021278
 31
0.0
  0
SOLID
  5
498
330
493
100
AcDbEntity
  8
0
  6
ByBlock
 62
     0
100
AcDbTrace
 10
228.4782231129302
 20
-144.4427217687944
 30
0.0
 11
228.4782231129302
 21
-144.5593884354611
 31
0.0
 12
228.1282231129302
 22
-144.5010551021278
 32
0.0
 13
228.1282231129302
 23
-144.5010551021278
 33
0.0
  0
SOLID
  5
499
330
493
100
AcDbEntity
  8
0
  6
ByBlock
 62
     0
100
AcDbTrace
 10
226.7782231129302
 20
-144.4427217687944
 30
0.0
 11
226.7782231129302
 21
-144.5593884354611
 31
0.0
 12
227.1282231129302
 22
-144.5010551021278
 32
0.0
 13
227.1282231129302
 23
-144.5010551021278
 33
0.0
  0
TEXT
  5
49A
330
493
100
AcDbEntity
  8
0
  6
ByBlock
 62
     0
100
AcDbText
 10
225.4396995098474
 20
-144.8510551021278
 30
0.0
 40
0.7
  1
1"
  7
ROMANC
 72
     1
 11
225.9740564462636
 21
-144.5010551021278
 31
0.0
100
AcDbText
 73
     2
  0
POINT
  5
49B
330
493
100
AcDbEntity
  8
DEFPOINTS
  6
ByBlock
 62
     0
100
AcDbPoint
 10
228.1282231129302
 20
-145.6914480178993
 30
0.0
  0
POINT
  5
49C
330
493
100
AcDbEntity
  8
DEFPOINTS
  6
ByBlock
 62
     0
100
AcDbPoint
 10
227.1282231129302
 20
-145.6914480178993
 30
0.0
  0
POINT
  5
49D
330
493
100
AcDbEntity
  8
DEFPOINTS
  6
ByBlock
 62
     0
100
AcDbPoint
 10
227.1282231129302
 20
-144.5010551021278
 30
0.0
  0
ENDBLK
  5
49F
330
493
100
AcDbEntity
  8
0
100
AcDbBlockEnd
  0
BLOCK
  5
4AB
330
4A0
100
AcDbEntity
  8
0
100
AcDbBlockBegin
  2
*D31
 70
     1
 10
0.0
 20
0.0
 30
0.0
  3
*D31
  1

  0
LINE
  5
4A1
330
4A0
100
AcDbEntity
  8
0
  6
ByBlock
 62
     0
100
AcDbLine
 10
226.4282231129302
 20
-145.6914480178993
 30
0.0
 11
225.1905247681713
 21
-145.6914480178993
 31
0.0
  0
LINE
  5
4A2
330
4A0
100
AcDbEntity
  8
0
  6
ByBlock
 62
     0
100
AcDbLine
 10
226.4282231129302
 20
-150.6914480178993
 30
0.0
 11
225.1905247681713
 21
-150.6914480178993
 31
0.0
  0
LINE
  5
4A3
330
4A0
100
AcDbEntity
  8
0
  6
ByBlock
 62
     0
100
AcDbLine
 10
225.3655247681713
 20
-146.0414480178993
 30
0.0
 11
225.3655247681713
 21
-147.7539480178993
 31
0.0
  0
LINE
  5
4A4
330
4A0
100
AcDbEntity
  8
0
  6
ByBlock
 62
     0
100
AcDbLine
 10
225.3655247681713
 20
-150.3414480178993
 30
0.0
 11
225.3655247681713
 21
-148.6289480178993
 31
0.0
  0
SOLID
  5
4A5
330
4A0
100
AcDbEntity
  8
0
  6
ByBlock
 62
     0
100
AcDbTrace
 10
225.307191434838
 20
-146.0414480178993
 30
0.0
 11
225.4238581015047
 21
-146.0414480178993
 31
0.0
 12
225.3655247681713
 22
-145.6914480178993
 32
0.0
 13
225.3655247681713
 23
-145.6914480178993
 33
0.0
  0
SOLID
  5
4A6
330
4A0
100
AcDbEntity
  8
0
  6
ByBlock
 62
     0
100
AcDbTrace
 10
225.307191434838
 20
-150.3414480178993
 30
0.0
 11
225.4238581015047
 21
-150.3414480178993
 31
0.0
 12
225.3655247681713
 22
-150.6914480178993
 32
0.0
 13
225.3655247681713
 23
-150.6914480178993
 33
0.0
  0
TEXT
  5
4A7
330
4A0
100
AcDbEntity
  8
0
  6
ByBlock
 62
     0
100
AcDbText
 10
224.8005681207725
 20
-148.5414480178993
 30
0.0
 40
0.7
  1
5"
  7
ROMANC
 72
     1
 11
225.3655247681713
 21
-148.1914480178993
 31
0.0
100
AcDbText
 73
     2
  0
POINT
  5
4A8
330
4A0
100
AcDbEntity
  8
DEFPOINTS
  6
ByBlock
 62
     0
100
AcDbPoint
 10
227.1282231129302
 20
-145.6914480178993
 30
0.0
  0
POINT
  5
4A9
330
4A0
100
AcDbEntity
  8
DEFPOINTS
  6
ByBlock
 62
     0
100
AcDbPoint
 10
227.1282231129302
 20
-150.6914480178993
 30
0.0
  0
POINT
  5
4AA
330
4A0
100
AcDbEntity
  8
DEFPOINTS
  6
ByBlock
 62
     0
100
AcDbPoint
 10
225.3655247681713
 20
-150.6914480178993
 30
0.0
  0
ENDBLK
  5
4AC
330
4A0
100
AcDbEntity
  8
0
100
AcDbBlockEnd
  0
BLOCK
  5
4B8
330
4AD
100
AcDbEntity
  8
0
100
AcDbBlockBegin
  2
*D32
 70
     1
 10
0.0
 20
0.0
 30
0.0
  3
*D32
  1

  0
LINE
  5
4AE
330
4AD
100
AcDbEntity
  8
0
  6
ByBlock
 62
     0
100
AcDbLine
 10
231.8782231129302
 20
-151.3914480178993
 30
0.0
 11
231.8782231129302
 21
-152.3338781948379
 31
0.0
  0
LINE
  5
4AF
330
4AD
100
AcDbEntity
  8
0
  6
ByBlock
 62
     0
100
AcDbLine
 10
227.1282231129302
 20
-151.3914480178993
 30
0.0
 11
227.1282231129302
 21
-152.3338781948379
 31
0.0
  0
LINE
  5
4B0
330
4AD
100
AcDbEntity
  8
0
  6
ByBlock
 62
     0
100
AcDbLine
 10
231.5282231129302
 20
-152.1588781948379
 30
0.0
 11
231.4073897795969
 21
-152.1588781948379
 31
0.0
  0
LINE
  5
4B1
330
4AD
100
AcDbEntity
  8
0
  6
ByBlock
 62
     0
100
AcDbLine
 10
227.4782231129302
 20
-152.1588781948379
 30
0.0
 11
227.5990564462635
 21
-152.1588781948379
 31
0.0
  0
SOLID
  5
4B2
330
4AD
100
AcDbEntity
  8
0
  6
ByBlock
 62
     0
100
AcDbTrace
 10
231.5282231129302
 20
-152.1005448615046
 30
0.0
 11
231.5282231129302
 21
-152.2172115281713
 31
0.0
 12
231.8782231129302
 22
-152.1588781948379
 32
0.0
 13
231.8782231129302
 23
-152.1588781948379
 33
0.0
  0
SOLID
  5
4B3
330
4AD
100
AcDbEntity
  8
0
  6
ByBlock
 62
     0
100
AcDbTrace
 10
227.4782231129302
 20
-152.1005448615046
 30
0.0
 11
227.4782231129302
 21
-152.2172115281713
 31
0.0
 12
227.1282231129302
 22
-152.1588781948379
 32
0.0
 13
227.1282231129302
 23
-152.1588781948379
 33
0.0
  0
TEXT
  5
4B4
330
4AD
100
AcDbEntity
  8
0
  6
ByBlock
 62
     0
100
AcDbText
 10
228.1469731129302
 20
-152.5088781948379
 30
0.0
 40
0.7
  1
4 3/4"
  7
ROMANC
 72
     1
 11
229.5032231129302
 21
-152.1588781948379
 31
0.0
100
AcDbText
 73
     2
  0
POINT
  5
4B5
330
4AD
100
AcDbEntity
  8
DEFPOINTS
  6
ByBlock
 62
     0
100
AcDbPoint
 10
231.8782231129302
 20
-150.6914480178993
 30
0.0
  0
POINT
  5
4B6
330
4AD
100
AcDbEntity
  8
DEFPOINTS
  6
ByBlock
 62
     0
100
AcDbPoint
 10
227.1282231129302
 20
-150.6914480178993
 30
0.0
  0
POINT
  5
4B7
330
4AD
100
AcDbEntity
  8
DEFPOINTS
  6
ByBlock
 62
     0
100
AcDbPoint
 10
227.1282231129302
 20
-152.1588781948379
 30
0.0
  0
ENDBLK
  5
4B9
330
4AD
100
AcDbEntity
  8
0
100
AcDbBlockEnd
  0
BLOCK
  5
4C5
330
4BA
100
AcDbEntity
  8
0
100
AcDbBlockBegin
  2
*D33
 70
     1
 10
0.0
 20
0.0
 30
0.0
  3
*D33
  1

  0
LINE
  5
4BB
330
4BA
100
AcDbEntity
  8
0
  6
ByBlock
 62
     0
100
AcDbLine
 10
232.5782231129302
 20
-150.6914480178993
 30
0.0
 11
233.6126434207217
 21
-150.6914480178993
 31
0.0
  0
LINE
  5
4BC
330
4BA
100
AcDbEntity
  8
0
  6
ByBlock
 62
     0
100
AcDbLine
 10
232.5782231129302
 20
-146.6914480178993
 30
0.0
 11
233.6126434207217
 21
-146.6914480178993
 31
0.0
  0
LINE
  5
4BD
330
4BA
100
AcDbEntity
  8
0
  6
ByBlock
 62
     0
100
AcDbLine
 10
233.4376434207217
 20
-150.3414480178993
 30
0.0
 11
233.4376434207217
 21
-149.1289480178993
 31
0.0
  0
LINE
  5
4BE
330
4BA
100
AcDbEntity
  8
0
  6
ByBlock
 62
     0
100
AcDbLine
 10
233.4376434207217
 20
-147.0414480178993
 30
0.0
 11
233.4376434207217
 21
-148.2539480178993
 31
0.0
  0
SOLID
  5
4BF
330
4BA
100
AcDbEntity
  8
0
  6
ByBlock
 62
     0
100
AcDbTrace
 10
233.3793100873883
 20
-150.3414480178993
 30
0.0
 11
233.495976754055
 21
-150.3414480178993
 31
0.0
 12
233.4376434207217
 22
-150.6914480178993
 32
0.0
 13
233.4376434207217
 23
-150.6914480178993
 33
0.0
  0
SOLID
  5
4C0
330
4BA
100
AcDbEntity
  8
0
  6
ByBlock
 62
     0
100
AcDbTrace
 10
233.3793100873883
 20
-147.0414480178993
 30
0.0
 11
233.495976754055
 21
-147.0414480178993
 31
0.0
 12
233.4376434207217
 22
-146.6914480178993
 32
0.0
 13
233.4376434207217
 23
-146.6914480178993
 33
0.0
  0
TEXT
  5
4C1
330
4BA
100
AcDbEntity
  8
0
  6
ByBlock
 62
     0
100
AcDbText
 10
232.8726867733228
 20
-149.0414480178993
 30
0.0
 40
0.7
  1
4"
  7
ROMANC
 72
     1
 11
233.4376434207217
 21
-148.6914480178993
 31
0.0
100
AcDbText
 73
     2
  0
POINT
  5
4C2
330
4BA
100
AcDbEntity
  8
DEFPOINTS
  6
ByBlock
 62
     0
100
AcDbPoint
 10
231.8782231129302
 20
-150.6914480178993
 30
0.0
  0
POINT
  5
4C3
330
4BA
100
AcDbEntity
  8
DEFPOINTS
  6
ByBlock
 62
     0
100
AcDbPoint
 10
231.8782231129302
 20
-146.6914480178993
 30
0.0
  0
POINT
  5
4C4
330
4BA
100
AcDbEntity
  8
DEFPOINTS
  6
ByBlock
 62
     0
100
AcDbPoint
 10
233.4376434207217
 20
-146.6914480178993
 30
0.0
  0
ENDBLK
  5
4C6
330
4BA
100
AcDbEntity
  8
0
100
AcDbBlockEnd
  0
BLOCK
  5
4CD
330
4C7
100
AcDbEntity
  8
0
 62
     7
100
AcDbBlockBegin
  2
48
 70
     0
 10
0.0
 20
0.0
 30
0.0
  3
48
  1

  0
DIMENSION
  5
4C8
330
4C7
100
AcDbEntity
  8
0
100
AcDbDimension
  2
*D31
 10
0.4602014861504813
 20
1.770600840080149
 30
0.0
 11
0.4602014861504813
 21
4.270600840080149
 31
0.0
 12
-224.9053232820208
 22
152.4620488579794
 32
0.0
 71
     5
 42
-1.0
  3
STANDARD
100
AcDbAlignedDimension
 13
2.222899830909398
 23
6.770600840080149
 33
0.0
 14
2.222899830909398
 24
1.770600840080149
 34
0.0
 50
90.0
100
AcDbRotatedDimension
  0
DIMENSION
  5
4C9
330
4C7
100
AcDbEntity
  8
0
100
AcDbDimension
  2
*D33
 10
8.532320138700811
 20
5.770600840080149
 30
0.0
 11
8.532320138700811
 21
3.770600840080149
 31
0.0
 12
-224.9053232820208
 22
152.4620488579794
 32
0.0
 71
     5
 42
-1.0
  3
STANDARD
100
AcDbAlignedDimension
 13
6.972899830909398
 23
1.770600840080149
 33
0.0
 14
6.972899830909398
 24
5.770600840080149
 34
0.0
 50
90.0
100
AcDbRotatedDimension
  0
LWPOLYLINE
  5
4CA
330
4C7
100
AcDbEntity
  8
0
100
AcDbPolyline
 90
        5
 70
     1
 43
0.0
 10
2.222899830909398
 20
1.770600840080149
 10
6.972899830909398
 20
1.770600840080149
 10
6.972899830909398
 20
5.770600840080149
 10
3.222899830909398
 20
6.770600840080149
 10
2.222899830909398
 20
6.770600840080149
  0
DIMENSION
  5
4CB
330
4C7
100
AcDbEntity
  8
0
100
AcDbDimension
  2
*D32
 10
2.222899830909398
 20
0.3031706631415005
 30
0.0
 11
4.597899830909398
 21
0.3031706631415005
 31
0.0
 12
-224.9053232820208
 22
152.4620488579794
 32
0.0
 71
     5
 42
-1.0
  3
STANDARD
100
AcDbAlignedDimension
 13
6.972899830909398
 23
1.770600840080149
 33
0.0
 14
2.222899830909398
 24
1.770600840080149
 34
0.0
100
AcDbRotatedDimension
  0
DIMENSION
  5
4CC
330
4C7
100
AcDbEntity
  8
0
100
AcDbDimension
  2
*D30
 10
2.222899830909398
 20
7.960993755851646
 30
0.0
 11
1.068733164242757
 21
7.960993755851646
 31
0.0
 12
-224.9053232820208
 22
152.4620488579794
 32
0.0
 71
     5
 42
-1.0
  3
STANDARD
100
AcDbAlignedDimension
 13
3.222899830909398
 23
6.770600840080149
 33
0.0
 14
2.222899830909398
 24
6.770600840080149
 34
0.0
100
AcDbRotatedDimension
  0
ENDBLK
  5
4CE
330
4C7
100
AcDbEntity
  8
0
 62
     7
100
AcDbBlockEnd
  0
BLOCK
  5
4D3
330
4CF
100
AcDbEntity
  8
0
100
AcDbBlockBegin
  2
1TAG
 70
     2
 10
0.0
 20
0.0
 30
0.0
  3
1TAG
  1

  0
ATTDEF
  5
4D0
330
4CF
100
AcDbEntity
  8
TAG
100
AcDbText
 10
-0.0249711999480675
 20
3.469940758643338
 30
0.0
 40
1.0
  1
#
  7
ROMANC
100
AcDbAttributeDefinition
  3
ENTER:DWG#
  2
#
 70
     0
  0
ATTDEF
  5
4D1
330
4CF
100
AcDbEntity
  8
TAG
100
AcDbText
 10
-0.0249711999480675
 20
2.178164137202304
 30
0.0
 40
1.0
  1
DWG
  7
ROMANC
100
AcDbAttributeDefinition
  3
ENTER:DWGNAME
  2
NAME
 70
     0
  0
ATTDEF
  5
4D2
330
4CF
100
AcDbEntity
  8
TAG
100
AcDbText
 10
-0.0249711999480675
 20
0.8641154829538585
 30
0.0
 40
1.0
  1
AREA
  7
ROMANC
100
AcDbAttributeDefinition
  3
ENTER:AREA
  2
AREA
 70
     0
  0
ENDBLK
  5
4D4
330
4CF
100
AcDbEntity
  8
0
100
AcDbBlockEnd
  0
BLOCK
  5
4E0
330
4D5
100
AcDbEntity
  8
0
100
AcDbBlockBegin
  2
*D36
 70
     1
 10
0.0
 20
0.0
 30
0.0
  3
*D36
  1

  0
LINE
  5
4D6
330
4D5
100
AcDbEntity
  8
0
  6
ByBlock
 62
     0
100
AcDbLine
 10
19.66284228617291
 20
47.7499736578506
 30
0.0
 11
19.66284228617291
 21
46.37590238786402
 31
0.0
  0
LINE
  5
4D7
330
4D5
100
AcDbEntity
  8
0
  6
ByBlock
 62
     0
100
AcDbLine
 10
7.412842286172914
 20
47.7499736578506
 30
0.0
 11
7.412842286172914
 21
46.37590238786402
 31
0.0
  0
LINE
  5
4D8
330
4D5
100
AcDbEntity
  8
0
  6
ByBlock
 62
     0
100
AcDbLine
 10
19.38784228617291
 20
46.51340238786402
 30
0.0
 11
14.33992561950624
 21
46.51340238786402
 31
0.0
  0
LINE
  5
4D9
330
4D5
100
AcDbEntity
  8
0
  6
ByBlock
 62
     0
100
AcDbLine
 10
7.687842286172914
 20
46.51340238786402
 30
0.0
 11
12.73575895283958
 21
46.51340238786402
 31
0.0
  0
SOLID
  5
4DA
330
4D5
100
AcDbEntity
  8
0
  6
ByBlock
 62
     0
100
AcDbTrace
 10
19.38784228617291
 20
46.55923572119736
 30
0.0
 11
19.38784228617291
 21
46.46756905453069
 31
0.0
 12
19.66284228617291
 22
46.51340238786402
 32
0.0
 13
19.66284228617291
 23
46.51340238786402
 33
0.0
  0
SOLID
  5
4DB
330
4D5
100
AcDbEntity
  8
0
  6
ByBlock
 62
     0
100
AcDbTrace
 10
7.687842286172914
 20
46.55923572119736
 30
0.0
 11
7.687842286172914
 21
46.46756905453069
 31
0.0
 12
7.412842286172914
 22
46.51340238786402
 32
0.0
 13
7.412842286172914
 23
46.51340238786402
 33
0.0
  0
MTEXT
  5
4DC
330
4D5
100
AcDbEntity
  8
0
  6
ByBlock
 62
     0
100
AcDbMText
 10
13.53784228617291
 20
46.51340238786402
 30
0.0
 40
0.55
 41
0.0
 71
     5
 72
     1
  1
\A1;12{\H0.250000x;\S1/4;}"
  7
ROMANC
 73
     1
 44
1.0
1001
ACAD
1000
MTEXTBEGIN
1070
    73
1070
     1
1070
    44
1040
1.0
1070
    74
1070
     0
1000
MTEXTEND
  0
POINT
  5
4DD
330
4D5
100
AcDbEntity
  8
DEFPOINTS
  6
ByBlock
 62
     0
100
AcDbPoint
 10
19.66284228617291
 20
48.29997365785061
 30
0.0
  0
POINT
  5
4DE
330
4D5
100
AcDbEntity
  8
DEFPOINTS
  6
ByBlock
 62
     0
100
AcDbPoint
 10
7.412842286172914
 20
48.29997365785061
 30
0.0
  0
POINT
  5
4DF
330
4D5
100
AcDbEntity
  8
DEFPOINTS
  6
ByBlock
 62
     0
100
AcDbPoint
 10
7.412842286172914
 20
46.51340238786402
 30
0.0
  0
ENDBLK
  5
4E1
330
4D5
100
AcDbEntity
  8
0
100
AcDbBlockEnd
  0
BLOCK
  5
4ED
330
4E2
100
AcDbEntity
  8
0
100
AcDbBlockBegin
  2
*D37
 70
     1
 10
0.0
 20
0.0
 30
0.0
  3
*D37
  1

  0
LINE
  5
4E3
330
4E2
100
AcDbEntity
  8
0
  6
ByBlock
 62
     0
100
AcDbLine
 10
11.66284228617291
 20
53.84997365785061
 30
0.0
 11
11.66284228617291
 21
55.02625692484095
 31
0.0
  0
LINE
  5
4E4
330
4E2
100
AcDbEntity
  8
0
  6
ByBlock
 62
     0
100
AcDbLine
 10
7.412842286172914
 20
53.84997365785061
 30
0.0
 11
7.412842286172914
 21
55.02625692484095
 31
0.0
  0
LINE
  5
4E5
330
4E2
100
AcDbEntity
  8
0
  6
ByBlock
 62
     0
100
AcDbLine
 10
11.38784228617291
 20
54.88875692484095
 30
0.0
 11
10.13040180998243
 21
54.88875692484095
 31
0.0
  0
LINE
  5
4E6
330
4E2
100
AcDbEntity
  8
0
  6
ByBlock
 62
     0
100
AcDbLine
 10
7.687842286172914
 20
54.88875692484095
 30
0.0
 11
8.94528276236339
 21
54.88875692484095
 31
0.0
  0
SOLID
  5
4E7
330
4E2
100
AcDbEntity
  8
0
  6
ByBlock
 62
     0
100
AcDbTrace
 10
11.38784228617291
 20
54.93459025817428
 30
0.0
 11
11.38784228617291
 21
54.84292359150761
 31
0.0
 12
11.66284228617291
 22
54.88875692484095
 32
0.0
 13
11.66284228617291
 23
54.88875692484095
 33
0.0
  0
SOLID
  5
4E8
330
4E2
100
AcDbEntity
  8
0
  6
ByBlock
 62
     0
100
AcDbTrace
 10
7.687842286172914
 20
54.93459025817428
 30
0.0
 11
7.687842286172914
 21
54.84292359150761
 31
0.0
 12
7.412842286172914
 22
54.88875692484095
 32
0.0
 13
7.412842286172914
 23
54.88875692484095
 33
0.0
  0
MTEXT
  5
4E9
330
4E2
100
AcDbEntity
  8
0
  6
ByBlock
 62
     0
100
AcDbMText
 10
9.537842286172914
 20
54.88875692484095
 30
0.0
 40
0.55
 41
0.0
 71
     5
 72
     1
  1
\A1;4{\H0.250000x;\S1/4;}"
  7
ROMANC
 73
     1
 44
1.0
1001
ACAD
1000
MTEXTBEGIN
1070
    73
1070
     1
1070
    44
1040
1.0
1070
    74
1070
     0
1000
MTEXTEND
  0
POINT
  5
4EA
330
4E2
100
AcDbEntity
  8
DEFPOINTS
  6
ByBlock
 62
     0
100
AcDbPoint
 10
11.66284228617291
 20
53.29997365785061
 30
0.0
  0
POINT
  5
4EB
330
4E2
100
AcDbEntity
  8
DEFPOINTS
  6
ByBlock
 62
     0
100
AcDbPoint
 10
7.412842286172914
 20
53.29997365785061
 30
0.0
  0
POINT
  5
4EC
330
4E2
100
AcDbEntity
  8
DEFPOINTS
  6
ByBlock
 62
     0
100
AcDbPoint
 10
7.412842286172914
 20
54.88875692484095
 30
0.0
  0
ENDBLK
  5
4EE
330
4E2
100
AcDbEntity
  8
0
100
AcDbBlockEnd
  0
BLOCK
  5
4FA
330
4EF
100
AcDbEntity
  8
0
100
AcDbBlockBegin
  2
*D38
 70
     1
 10
0.0
 20
0.0
 30
0.0
  3
*D38
  1

  0
LINE
  5
4F0
330
4EF
100
AcDbEntity
  8
0
  6
ByBlock
 62
     0
100
AcDbLine
 10
6.862842286172914
 20
53.29997365785061
 30
0.0
 11
5.08453838374132
 21
53.29997365785061
 31
0.0
  0
LINE
  5
4F1
330
4EF
100
AcDbEntity
  8
0
  6
ByBlock
 62
     0
100
AcDbLine
 10
6.862842286172914
 20
48.29997365785061
 30
0.0
 11
5.084538383741319
 21
48.29997365785061
 31
0.0
  0
LINE
  5
4F2
330
4EF
100
AcDbEntity
  8
0
  6
ByBlock
 62
     0
100
AcDbLine
 10
5.22203838374132
 20
53.02497365785061
 30
0.0
 11
5.22203838374132
 21
51.26485461023156
 31
0.0
  0
LINE
  5
4F3
330
4EF
100
AcDbEntity
  8
0
  6
ByBlock
 62
     0
100
AcDbLine
 10
5.22203838374132
 20
48.57497365785061
 30
0.0
 11
5.22203838374132
 21
50.33509270546965
 31
0.0
  0
SOLID
  5
4F4
330
4EF
100
AcDbEntity
  8
0
  6
ByBlock
 62
     0
100
AcDbTrace
 10
5.176205050407987
 20
53.02497365785061
 30
0.0
 11
5.267871717074654
 21
53.02497365785061
 31
0.0
 12
5.22203838374132
 22
53.29997365785061
 32
0.0
 13
5.22203838374132
 23
53.29997365785061
 33
0.0
  0
SOLID
  5
4F5
330
4EF
100
AcDbEntity
  8
0
  6
ByBlock
 62
     0
100
AcDbTrace
 10
5.176205050407986
 20
48.57497365785061
 30
0.0
 11
5.267871717074653
 21
48.57497365785061
 31
0.0
 12
5.22203838374132
 22
48.29997365785061
 32
0.0
 13
5.22203838374132
 23
48.29997365785061
 33
0.0
  0
MTEXT
  5
4F6
330
4EF
100
AcDbEntity
  8
0
  6
ByBlock
 62
     0
100
AcDbMText
 10
5.22203838374132
 20
50.79997365785061
 30
0.0
 40
0.55
 41
0.0
 71
     5
 72
     1
  1
\A1;5"
  7
ROMANC
 73
     1
 44
1.0
1001
ACAD
1000
MTEXTBEGIN
1070
    73
1070
     1
1070
    44
1040
1.0
1070
    74
1070
     0
1000
MTEXTEND
  0
POINT
  5
4F7
330
4EF
100
AcDbEntity
  8
DEFPOINTS
  6
ByBlock
 62
     0
100
AcDbPoint
 10
7.412842286172914
 20
53.29997365785061
 30
0.0
  0
POINT
  5
4F8
330
4EF
100
AcDbEntity
  8
DEFPOINTS
  6
ByBlock
 62
     0
100
AcDbPoint
 10
7.412842286172914
 20
48.29997365785061
 30
0.0
  0
POINT
  5
4F9
330
4EF
100
AcDbEntity
  8
DEFPOINTS
  6
ByBlock
 62
     0
100
AcDbPoint
 10
5.22203838374132
 20
48.29997365785061
 30
0.0
  0
ENDBLK
  5
4FB
330
4EF
100
AcDbEntity
  8
0
100
AcDbBlockEnd
  0
BLOCK
  5
507
330
4FC
100
AcDbEntity
  8
0
100
AcDbBlockBegin
  2
*D39
 70
     1
 10
0.0
 20
0.0
 30
0.0
  3
*D39
  1

  0
LINE
  5
4FD
330
4FC
100
AcDbEntity
  8
0
  6
ByBlock
 62
     0
100
AcDbLine
 10
20.21284228617291
 20
48.29997365785061
 30
0.0
 11
23.72253641599136
 21
48.29997365785061
 31
0.0
  0
LINE
  5
4FE
330
4FC
100
AcDbEntity
  8
0
  6
ByBlock
 62
     0
100
AcDbLine
 10
20.21284228617291
 20
51.79997365785061
 30
0.0
 11
23.72253641599136
 21
51.79997365785061
 31
0.0
  0
LINE
  5
4FF
330
4FC
100
AcDbEntity
  8
0
  6
ByBlock
 62
     0
100
AcDbLine
 10
23.58503641599136
 20
48.57497365785061
 30
0.0
 11
23.58503641599136
 21
49.58509270546966
 31
0.0
  0
LINE
  5
500
330
4FC
100
AcDbEntity
  8
0
  6
ByBlock
 62
     0
100
AcDbLine
 10
23.58503641599136
 20
51.52497365785061
 30
0.0
 11
23.58503641599136
 21
50.51485461023156
 31
0.0
  0
SOLID
  5
501
330
4FC
100
AcDbEntity
  8
0
  6
ByBlock
 62
     0
100
AcDbTrace
 10
23.53920308265802
 20
48.57497365785061
 30
0.0
 11
23.63086974932469
 21
48.57497365785061
 31
0.0
 12
23.58503641599136
 22
48.29997365785061
 32
0.0
 13
23.58503641599136
 23
48.29997365785061
 33
0.0
  0
SOLID
  5
502
330
4FC
100
AcDbEntity
  8
0
  6
ByBlock
 62
     0
100
AcDbTrace
 10
23.53920308265802
 20
51.52497365785061
 30
0.0
 11
23.63086974932469
 21
51.52497365785061
 31
0.0
 12
23.58503641599136
 22
51.79997365785061
 32
0.0
 13
23.58503641599136
 23
51.79997365785061
 33
0.0
  0
MTEXT
  5
503
330
4FC
100
AcDbEntity
  8
0
  6
ByBlock
 62
     0
100
AcDbMText
 10
23.58503641599136
 20
50.04997365785061
 30
0.0
 40
0.55
 41
0.0
 71
     5
 72
     1
  1
\A1;3{\H0.250000x;\S1/2;}"
  7
ROMANC
 73
     1
 44
1.0
1001
ACAD
1000
MTEXTBEGIN
1070
    73
1070
     1
1070
    44
1040
1.0
1070
    74
1070
     0
1000
MTEXTEND
  0
POINT
  5
504
330
4FC
100
AcDbEntity
  8
DEFPOINTS
  6
ByBlock
 62
     0
100
AcDbPoint
 10
19.66284228617291
 20
48.29997365785061
 30
0.0
  0
POINT
  5
505
330
4FC
100
AcDbEntity
  8
DEFPOINTS
  6
ByBlock
 62
     0
100
AcDbPoint
 10
19.66284228617291
 20
51.79997365785061
 30
0.0
  0
POINT
  5
506
330
4FC
100
AcDbEntity
  8
DEFPOINTS
  6
ByBlock
 62
     0
100
AcDbPoint
 10
23.58503641599136
 20
51.79997365785061
 30
0.0
  0
ENDBLK
  5
508
330
4FC
100
AcDbEntity
  8
0
100
AcDbBlockEnd
  0
BLOCK
  5
514
330
509
100
AcDbEntity
  8
0
100
AcDbBlockBegin
  2
*D40
 70
     1
 10
0.0
 20
0.0
 30
0.0
  3
*D40
  1

  0
LINE
  5
50A
330
509
100
AcDbEntity
  8
0
  6
ByBlock
 62
     0
100
AcDbLine
 10
20.21284228617291
 20
51.79997365785061
 30
0.0
 11
23.72253641599136
 21
51.79997365785061
 31
0.0
  0
LINE
  5
50B
330
509
100
AcDbEntity
  8
0
  6
ByBlock
 62
     0
100
AcDbLine
 10
20.21284228617291
 20
53.29997365785061
 30
0.0
 11
23.72253641599136
 21
53.29997365785061
 31
0.0
  0
LINE
  5
50C
330
509
100
AcDbEntity
  8
0
  6
ByBlock
 62
     0
100
AcDbLine
 10
23.58503641599136
 20
51.52497365785061
 30
0.0
 11
23.58503641599136
 21
51.24997365785061
 31
0.0
  0
LINE
  5
50D
330
509
100
AcDbEntity
  8
0
  6
ByBlock
 62
     0
100
AcDbLine
 10
23.58503641599136
 20
53.57497365785061
 30
0.0
 11
23.58503641599136
 21
53.84997365785061
 31
0.0
  0
SOLID
  5
50E
330
509
100
AcDbEntity
  8
0
  6
ByBlock
 62
     0
100
AcDbTrace
 10
23.53920308265802
 20
51.52497365785061
 30
0.0
 11
23.63086974932469
 21
51.52497365785061
 31
0.0
 12
23.58503641599136
 22
51.79997365785061
 32
0.0
 13
23.58503641599136
 23
51.79997365785061
 33
0.0
  0
SOLID
  5
50F
330
509
100
AcDbEntity
  8
0
  6
ByBlock
 62
     0
100
AcDbTrace
 10
23.53920308265802
 20
53.57497365785061
 30
0.0
 11
23.63086974932469
 21
53.57497365785061
 31
0.0
 12
23.58503641599136
 22
53.29997365785061
 32
0.0
 13
23.58503641599136
 23
53.29997365785061
 33
0.0
  0
MTEXT
  5
510
330
509
100
AcDbEntity
  8
0
  6
ByBlock
 62
     0
100
AcDbMText
 10
23.58503641599136
 20
52.54997365785061
 30
0.0
 40
0.55
 41
0.0
 71
     5
 72
     1
  1
\A1;1{\H0.250000x;\S1/2;}"
  7
ROMANC
 73
     1
 44
1.0
1001
ACAD
1000
MTEXTBEGIN
1070
    73
1070
     1
1070
    44
1040
1.0
1070
    74
1070
     0
1000
MTEXTEND
  0
POINT
  5
511
330
509
100
AcDbEntity
  8
DEFPOINTS
  6
ByBlock
 62
     0
100
AcDbPoint
 10
19.66284228617291
 20
51.79997365785061
 30
0.0
  0
POINT
  5
512
330
509
100
AcDbEntity
  8
DEFPOINTS
  6
ByBlock
 62
     0
100
AcDbPoint
 10
19.66284228617291
 20
53.29997365785061
 30
0.0
  0
POINT
  5
513
330
509
100
AcDbEntity
  8
DEFPOINTS
  6
ByBlock
 62
     0
100
AcDbPoint
 10
23.58503641599136
 20
53.29997365785061
 30
0.0
  0
ENDBLK
  5
515
330
509
100
AcDbEntity
  8
0
100
AcDbBlockEnd
  0
BLOCK
  5
520
330
516
100
AcDbEntity
  8
0
100
AcDbBlockBegin
  2
*D41
 70
     1
 10
0.0
 20
0.0
 30
0.0
  3
*D41
  1

  0
LINE
  5
517
330
516
100
AcDbEntity
  8
0
  6
ByBlock
 62
     0
100
AcDbLine
 10
12.21284228617291
 20
52.2999736578506
 30
0.0
 11
14.2736145761896
 21
52.2999736578506
 31
0.0
  0
LINE
  5
518
330
516
100
AcDbEntity
  8
0
  6
ByBlock
 62
     0
100
AcDbLine
 10
12.21284228617291
 20
53.29997365785061
 30
0.0
 11
14.2736145761896
 21
53.29997365785061
 31
0.0
  0
LINE
  5
519
330
516
100
AcDbEntity
  8
0
  6
ByBlock
 62
     0
100
AcDbLine
 10
14.1361145761896
 20
52.5749736578506
 30
0.0
 11
14.1361145761896
 21
53.02497365785061
 31
0.0
  0
MTEXT
  5
51A
330
516
100
AcDbEntity
  8
0
  6
ByBlock
 62
     0
100
AcDbMText
 10
15.40992409999912
 20
52.86916750235973
 30
0.0
 40
0.55
 41
0.0
 71
     5
 72
     1
  1
\A1;1"
  7
ROMANC
 73
     1
 44
1.0
1001
ACAD
1000
MTEXTBEGIN
1070
    73
1070
     1
1070
    44
1040
1.0
1070
    74
1070
     0
1000
MTEXTEND
  0
SOLID
  5
51B
330
516
100
AcDbEntity
  8
0
  6
ByBlock
 62
     0
100
AcDbTrace
 10
14.09028124285627
 20
52.5749736578506
 30
0.0
 11
14.18194790952293
 21
52.5749736578506
 31
0.0
 12
14.1361145761896
 22
52.2999736578506
 32
0.0
 13
14.1361145761896
 23
52.2999736578506
 33
0.0
  0
SOLID
  5
51C
330
516
100
AcDbEntity
  8
0
  6
ByBlock
 62
     0
100
AcDbTrace
 10
14.09028124285627
 20
53.02497365785061
 30
0.0
 11
14.18194790952293
 21
53.02497365785061
 31
0.0
 12
14.1361145761896
 22
53.29997365785061
 32
0.0
 13
14.1361145761896
 23
53.29997365785061
 33
0.0
  0
POINT
  5
51D
330
516
100
AcDbEntity
  8
DEFPOINTS
  6
ByBlock
 62
     0
100
AcDbPoint
 10
11.66284228617291
 20
52.2999736578506
 30
0.0
  0
POINT
  5
51E
330
516
100
AcDbEntity
  8
DEFPOINTS
  6
ByBlock
 62
     0
100
AcDbPoint
 10
11.66284228617291
 20
53.29997365785061
 30
0.0
  0
POINT
  5
51F
330
516
100
AcDbEntity
  8
DEFPOINTS
  6
ByBlock
 62
     0
100
AcDbPoint
 10
14.1361145761896
 20
53.29997365785061
 30
0.0
  0
ENDBLK
  5
521
330
516
100
AcDbEntity
  8
0
100
AcDbBlockEnd
  0
BLOCK
  5
52F
330
522
100
AcDbEntity
  8
0
 62
     7
100
AcDbBlockBegin
  2
49
 70
     0
 10
0.0
 20
0.0
 30
0.0
  3
49
  1

  0
INSERT
  5
523
330
522
100
AcDbEntity
  8
TAG
100
AcDbBlockReference
 66
     1
  2
1TAG
 10
-1.698736795030185
 20
6.30009957394455
 30
0.0
  0
ATTRIB
  5
524
330
523
100
AcDbEntity
  8
0
100
AcDbText
 10
-1.723707994978212
 20
9.77004033258791
 30
0.0
 40
1.0
  1
49
  7
ROMANC
100
AcDbAttribute
  2
#
 70
     1
  0
ATTRIB
  5
525
330
523
100
AcDbEntity
  8
0
100
AcDbText
 10
-1.723707994978212
 20
8.478263711146865
 30
0.0
 40
1.0
  1
SANFORD HALL D
  7
ROMANC
100
AcDbAttribute
  2
NAME
 70
     1
  0
ATTRIB
  5
526
330
523
100
AcDbEntity
  8
0
100
AcDbText
 10
-1.723707994978212
 20
7.164215056898427
 30
0.0
 40
1.0
  1
51.25
  7
ROMANC
100
AcDbAttribute
  2
AREA
 70
     1
  0
SEQEND
  5
527
330
523
100
AcDbEntity
  8
TAG
  0
DIMENSION
  5
528
330
522
100
AcDbEntity
  8
0
100
AcDbDimension
  2
*D36
 10
-2.662675074280741
 20
-3.293403643894009
 30
0.0
 11
3.462324925719258
 21
-3.293403643894009
 31
0.0
 12
-10.07551736045366
 22
-49.80680603175804
 32
0.0
 71
     5
 42
-1.0
  3
STANDARD
100
AcDbAlignedDimension
 13
9.587324925719258
 23
-1.506832373907428
 33
0.0
 14
-2.662675074280741
 24
-1.506832373907428
 34
0.0
100
AcDbRotatedDimension
1001
ACAD
1000
DSTYLE
1002
{
1070
   140
1040
1.0
1070
   146
1040
0.25
1070
    40
1040
0.55
1070
     3
1000
"
1070
   147
1040
0.25
1070
    42
1040
1.0
1070
    44
1040
0.25
1070
    43
1040
0.125
1070
   141
1040
0.0
1070
    41
1040
0.5
1002
}
  0
LWPOLYLINE
  5
529
330
522
100
AcDbEntity
  8
0
100
AcDbPolyline
 90
        6
 70
     1
 43
0.0
 10
9.587324925719258
 20
-1.506832373907428
 10
-2.662675074280741
 20
-1.506832373907428
 10
-2.662675074280741
 20
3.493167626092571
 10
1.587324925719258
 20
3.493167626092571
 10
1.587324925719258
 20
2.493167626092571
 10
9.587324925719258
 20
1.993167626092571
  0
DIMENSION
  5
52A
330
522
100
AcDbEntity
  8
0
100
AcDbDimension
  2
*D37
 10
-2.662675074280741
 20
5.081950893082904
 30
0.0
 11
-0.5376750742807417
 21
5.081950893082904
 31
0.0
 12
-10.07551736045366
 22
-49.80680603175804
 32
0.0
 71
     5
 42
-1.0
  3
STANDARD
100
AcDbAlignedDimension
 13
1.587324925719258
 23
3.493167626092571
 33
0.0
 14
-2.662675074280741
 24
3.493167626092571
 34
0.0
100
AcDbRotatedDimension
1001
ACAD
1000
DSTYLE
1002
{
1070
   140
1040
1.0
1070
   146
1040
0.25
1070
    40
1040
0.55
1070
     3
1000
"
1070
   147
1040
0.25
1070
    42
1040
1.0
1070
    44
1040
0.25
1070
    43
1040
0.125
1070
   141
1040
0.0
1070
    41
1040
0.5
1002
}
  0
DIMENSION
  5
52B
330
522
100
AcDbEntity
  8
0
100
AcDbDimension
  2
*D38
 10
-4.853478976712324
 20
-1.506832373907428
 30
0.0
 11
-4.853478976712324
 21
0.9931676260925712
 31
0.0
 12
-10.07551736045366
 22
-49.80680603175804
 32
0.0
 71
     5
 42
-1.0
  3
STANDARD
100
AcDbAlignedDimension
 13
-2.662675074280741
 23
3.493167626092571
 33
0.0
 14
-2.662675074280741
 24
-1.506832373907428
 34
0.0
 50
90.0
100
AcDbRotatedDimension
1001
ACAD
1000
DSTYLE
1002
{
1070
   140
1040
1.0
1070
   146
1040
0.25
1070
    40
1040
0.55
1070
     3
1000
"
1070
   147
1040
0.25
1070
    42
1040
1.0
1070
    44
1040
0.25
1070
    43
1040
0.125
1070
   141
1040
0.0
1070
    41
1040
0.5
1002
}
  0
DIMENSION
  5
52C
330
522
100
AcDbEntity
  8
0
100
AcDbDimension
  2
*D39
 10
13.50951905553768
 20
1.993167626092571
 30
0.0
 11
13.50951905553768
 21
0.2431676260925712
 31
0.0
 12
-10.07551736045366
 22
-49.80680603175804
 32
0.0
 71
     5
 42
-1.0
  3
STANDARD
100
AcDbAlignedDimension
 13
9.587324925719258
 23
-1.506832373907428
 33
0.0
 14
9.587324925719258
 24
1.993167626092571
 34
0.0
 50
90.0
100
AcDbRotatedDimension
1001
ACAD
1000
DSTYLE
1002
{
1070
   140
1040
1.0
1070
   146
1040
0.25
1070
    40
1040
0.55
1070
     3
1000
"
1070
   147
1040
0.25
1070
    42
1040
1.0
1070
    44
1040
0.25
1070
    43
1040
0.125
1070
   141
1040
0.0
1070
    41
1040
0.5
1002
}
  0
DIMENSION
  5
52D
330
522
100
AcDbEntity
  8
0
100
AcDbDimension
  2
*D40
 10
13.50951905553768
 20
3.493167626092571
 30
0.0
 11
13.50951905553768
 21
2.743167626092571
 31
0.0
 12
-10.07551736045366
 22
-49.80680603175804
 32
0.0
 71
     5
 42
-1.0
  3
STANDARD
100
AcDbAlignedDimension
 13
9.587324925719258
 23
1.993167626092571
 33
0.0
 14
9.587324925719258
 24
3.493167626092571
 34
0.0
 50
90.0
100
AcDbRotatedDimension
1001
ACAD
1000
DSTYLE
1002
{
1070
   140
1040
1.0
1070
   146
1040
0.25
1070
    40
1040
0.55
1070
     3
1000
"
1070
   147
1040
0.25
1070
    42
1040
1.0
1070
    44
1040
0.25
1070
    43
1040
0.125
1070
   141
1040
0.0
1070
    41
1040
0.5
1002
}
  0
DIMENSION
  5
52E
330
522
100
AcDbEntity
  8
0
100
AcDbDimension
  2
*D41
 10
4.060597215735924
 20
3.493167626092571
 30
0.0
 11
5.334406739545443
 21
3.0623614706017
 31
0.0
 12
-10.07551736045366
 22
-49.80680603175804
 32
0.0
 70
   128
 71
     5
 42
-1.0
  3
STANDARD
100
AcDbAlignedDimension
 13
1.587324925719258
 23
2.493167626092571
 33
0.0
 14
1.587324925719258
 24
3.493167626092571
 34
0.0
 50
90.0
100
AcDbRotatedDimension
1001
ACAD
1000
DSTYLE
1002
{
1070
   140
1040
1.0
1070
   146
1040
0.25
1070
    40
1040
0.55
1070
     3
1000
"
1070
   147
1040
0.25
1070
    42
1040
1.0
1070
    44
1040
0.25
1070
    43
1040
0.125
1070
   141
1040
0.0
1070
    41
1040
0.5
1002
}
  0
ENDBLK
  5
530
330
522
100
AcDbEntity
  8
0
 62
     7
100
AcDbBlockEnd
  0
BLOCK
  5
53C
330
531
100
AcDbEntity
  8
0
100
AcDbBlockBegin
  2
*D43
 70
     1
 10
0.0
 20
0.0
 30
0.0
  3
*D43
  1

  0
LINE
  5
532
330
531
100
AcDbEntity
  8
0
  6
ByBlock
 62
     0
100
AcDbLine
 10
51.18624126373401
 20
44.16685781873478
 30
0.0
 11
51.18624126373401
 21
43.0401386825833
 31
0.0
  0
LINE
  5
533
330
531
100
AcDbEntity
  8
0
  6
ByBlock
 62
     0
100
AcDbLine
 10
59.93624126373401
 20
44.16685781873478
 30
0.0
 11
59.93624126373401
 21
43.0401386825833
 31
0.0
  0
LINE
  5
534
330
531
100
AcDbEntity
  8
0
  6
ByBlock
 62
     0
100
AcDbLine
 10
51.461241263734
 20
43.17763868258331
 30
0.0
 11
54.98177697801971
 21
43.17763868258331
 31
0.0
  0
LINE
  5
535
330
531
100
AcDbEntity
  8
0
  6
ByBlock
 62
     0
100
AcDbLine
 10
59.66124126373401
 20
43.17763868258331
 30
0.0
 11
56.14070554944829
 21
43.17763868258331
 31
0.0
  0
SOLID
  5
536
330
531
100
AcDbEntity
  8
0
  6
ByBlock
 62
     0
100
AcDbTrace
 10
51.461241263734
 20
43.22347201591663
 30
0.0
 11
51.461241263734
 21
43.13180534924997
 31
0.0
 12
51.18624126373401
 22
43.17763868258331
 32
0.0
 13
51.18624126373401
 23
43.17763868258331
 33
0.0
  0
SOLID
  5
537
330
531
100
AcDbEntity
  8
0
  6
ByBlock
 62
     0
100
AcDbTrace
 10
59.66124126373401
 20
43.22347201591663
 30
0.0
 11
59.66124126373401
 21
43.13180534924997
 31
0.0
 12
59.93624126373401
 22
43.17763868258331
 32
0.0
 13
59.93624126373401
 23
43.17763868258331
 33
0.0
  0
MTEXT
  5
538
330
531
100
AcDbEntity
  8
0
  6
ByBlock
 62
     0
100
AcDbMText
 10
55.56124126373401
 20
43.17763868258331
 30
0.0
 40
0.55
 41
0.0
 71
     5
 72
     1
  1
\A1;8{\H0.250000x;\S3/4;}"
  7
ROMANC
 73
     1
 44
1.0
1001
ACAD
1000
MTEXTBEGIN
1070
    73
1070
     1
1070
    44
1040
1.0
1070
    74
1070
     0
1000
MTEXTEND
  0
POINT
  5
539
330
531
100
AcDbEntity
  8
DEFPOINTS
  6
ByBlock
 62
     0
100
AcDbPoint
 10
51.18624126373401
 20
44.71685781873477
 30
0.0
  0
POINT
  5
53A
330
531
100
AcDbEntity
  8
DEFPOINTS
  6
ByBlock
 62
     0
100
AcDbPoint
 10
59.93624126373401
 20
44.71685781873477
 30
0.0
  0
POINT
  5
53B
330
531
100
AcDbEntity
  8
DEFPOINTS
  6
ByBlock
 62
     0
100
AcDbPoint
 10
59.93624126373401
 20
43.17763868258331
 30
0.0
  0
ENDBLK
  5
53D
330
531
100
AcDbEntity
  8
0
100
AcDbBlockEnd
  0
BLOCK
  5
549
330
53E
100
AcDbEntity
  8
0
100
AcDbBlockBegin
  2
*D44
 70
     1
 10
0.0
 20
0.0
 30
0.0
  3
*D44
  1

  0
LINE
  5
53F
330
53E
100
AcDbEntity
  8
0
  6
ByBlock
 62
     0
100
AcDbLine
 10
51.18624126373401
 20
44.16685781873478
 30
0.0
 11
51.18624126373401
 21
41.63542365541463
 31
0.0
  0
LINE
  5
540
330
53E
100
AcDbEntity
  8
0
  6
ByBlock
 62
     0
100
AcDbLine
 10
60.811241263734
 20
44.16685781873478
 30
0.0
 11
60.811241263734
 21
41.63542365541463
 31
0.0
  0
LINE
  5
541
330
53E
100
AcDbEntity
  8
0
  6
ByBlock
 62
     0
100
AcDbLine
 10
51.461241263734
 20
41.77292365541464
 30
0.0
 11
55.42582459706734
 21
41.77292365541464
 31
0.0
  0
LINE
  5
542
330
53E
100
AcDbEntity
  8
0
  6
ByBlock
 62
     0
100
AcDbLine
 10
60.536241263734
 20
41.77292365541464
 30
0.0
 11
56.57165793040067
 21
41.77292365541464
 31
0.0
  0
SOLID
  5
543
330
53E
100
AcDbEntity
  8
0
  6
ByBlock
 62
     0
100
AcDbTrace
 10
51.461241263734
 20
41.81875698874796
 30
0.0
 11
51.461241263734
 21
41.7270903220813
 31
0.0
 12
51.18624126373401
 22
41.77292365541464
 32
0.0
 13
51.18624126373401
 23
41.77292365541464
 33
0.0
  0
SOLID
  5
544
330
53E
100
AcDbEntity
  8
0
  6
ByBlock
 62
     0
100
AcDbTrace
 10
60.536241263734
 20
41.81875698874796
 30
0.0
 11
60.536241263734
 21
41.7270903220813
 31
0.0
 12
60.811241263734
 22
41.77292365541464
 32
0.0
 13
60.811241263734
 23
41.77292365541464
 33
0.0
  0
MTEXT
  5
545
330
53E
100
AcDbEntity
  8
0
  6
ByBlock
 62
     0
100
AcDbMText
 10
55.998741263734
 20
41.77292365541464
 30
0.0
 40
0.55
 41
0.0
 71
     5
 72
     1
  1
\A1;9{\H0.250000x;\S5/8;}"
  7
ROMANC
 73
     1
 44
1.0
1001
ACAD
1000
MTEXTBEGIN
1070
    73
1070
     1
1070
    44
1040
1.0
1070
    74
1070
     0
1000
MTEXTEND
  0
POINT
  5
546
330
53E
100
AcDbEntity
  8
DEFPOINTS
  6
ByBlock
 62
     0
100
AcDbPoint
 10
51.18624126373401
 20
44.71685781873477
 30
0.0
  0
POINT
  5
547
330
53E
100
AcDbEntity
  8
DEFPOINTS
  6
ByBlock
 62
     0
100
AcDbPoint
 10
60.811241263734
 20
44.71685781873477
 30
0.0
  0
POINT
  5
548
330
53E
100
AcDbEntity
  8
DEFPOINTS
  6
ByBlock
 62
     0
100
AcDbPoint
 10
60.811241263734
 20
41.77292365541464
 30
0.0
  0
ENDBLK
  5
54A
330
53E
100
AcDbEntity
  8
0
100
AcDbBlockEnd
  0
BLOCK
  5
556
330
54B
100
AcDbEntity
  8
0
100
AcDbBlockBegin
  2
*D45
 70
     1
 10
0.0
 20
0.0
 30
0.0
  3
*D45
  1

  0
LINE
  5
54C
330
54B
100
AcDbEntity
  8
0
  6
ByBlock
 62
     0
100
AcDbLine
 10
53.811241263734
 20
56.89185781873478
 30
0.0
 11
53.811241263734
 21
58.27881679859249
 31
0.0
  0
LINE
  5
54D
330
54B
100
AcDbEntity
  8
0
  6
ByBlock
 62
     0
100
AcDbLine
 10
51.18624126373401
 20
56.89185781873478
 30
0.0
 11
51.18624126373401
 21
58.27881679859249
 31
0.0
  0
LINE
  5
54E
330
54B
100
AcDbEntity
  8
0
  6
ByBlock
 62
     0
100
AcDbLine
 10
53.536241263734
 20
58.14131679859248
 30
0.0
 11
53.07165793040066
 21
58.14131679859248
 31
0.0
  0
LINE
  5
54F
330
54B
100
AcDbEntity
  8
0
  6
ByBlock
 62
     0
100
AcDbLine
 10
51.461241263734
 20
58.14131679859248
 30
0.0
 11
51.92582459706734
 21
58.14131679859248
 31
0.0
  0
SOLID
  5
550
330
54B
100
AcDbEntity
  8
0
  6
ByBlock
 62
     0
100
AcDbTrace
 10
53.536241263734
 20
58.18715013192582
 30
0.0
 11
53.536241263734
 21
58.09548346525915
 31
0.0
 12
53.811241263734
 22
58.14131679859248
 32
0.0
 13
53.811241263734
 23
58.14131679859248
 33
0.0
  0
SOLID
  5
551
330
54B
100
AcDbEntity
  8
0
  6
ByBlock
 62
     0
100
AcDbTrace
 10
51.461241263734
 20
58.18715013192582
 30
0.0
 11
51.461241263734
 21
58.09548346525915
 31
0.0
 12
51.18624126373401
 22
58.14131679859248
 32
0.0
 13
51.18624126373401
 23
58.14131679859248
 33
0.0
  0
MTEXT
  5
552
330
54B
100
AcDbEntity
  8
0
  6
ByBlock
 62
     0
100
AcDbMText
 10
52.498741263734
 20
58.14131679859248
 30
0.0
 40
0.55
 41
0.0
 71
     5
 72
     1
  1
\A1;2{\H0.250000x;\S5/8;}"
  7
ROMANC
 73
     1
 44
1.0
1001
ACAD
1000
MTEXTBEGIN
1070
    73
1070
     1
1070
    44
1040
1.0
1070
    74
1070
     0
1000
MTEXTEND
  0
POINT
  5
553
330
54B
100
AcDbEntity
  8
DEFPOINTS
  6
ByBlock
 62
     0
100
AcDbPoint
 10
53.811241263734
 20
56.34185781873478
 30
0.0
  0
POINT
  5
554
330
54B
100
AcDbEntity
  8
DEFPOINTS
  6
ByBlock
 62
     0
100
AcDbPoint
 10
51.18624126373401
 20
56.34185781873478
 30
0.0
  0
POINT
  5
555
330
54B
100
AcDbEntity
  8
DEFPOINTS
  6
ByBlock
 62
     0
100
AcDbPoint
 10
51.18624126373401
 20
58.14131679859248
 30
0.0
  0
ENDBLK
  5
557
330
54B
100
AcDbEntity
  8
0
100
AcDbBlockEnd
  0
BLOCK
  5
563
330
558
100
AcDbEntity
  8
0
100
AcDbBlockBegin
  2
*D46
 70
     1
 10
0.0
 20
0.0
 30
0.0
  3
*D46
  1

  0
LINE
  5
559
330
558
100
AcDbEntity
  8
0
  6
ByBlock
 62
     0
100
AcDbLine
 10
53.811241263734
 20
56.89185781873478
 30
0.0
 11
53.811241263734
 21
57.8143561576779
 31
0.0
  0
LINE
  5
55A
330
558
100
AcDbEntity
  8
0
  6
ByBlock
 62
     0
100
AcDbLine
 10
54.811241263734
 20
56.89185781873478
 30
0.0
 11
54.811241263734
 21
57.8143561576779
 31
0.0
  0
LINE
  5
55B
330
558
100
AcDbEntity
  8
0
  6
ByBlock
 62
     0
100
AcDbLine
 10
53.536241263734
 20
57.6768561576779
 30
0.0
 11
53.261241263734
 21
57.6768561576779
 31
0.0
  0
LINE
  5
55C
330
558
100
AcDbEntity
  8
0
  6
ByBlock
 62
     0
100
AcDbLine
 10
55.086241263734
 20
57.6768561576779
 30
0.0
 11
55.361241263734
 21
57.6768561576779
 31
0.0
  0
SOLID
  5
55D
330
558
100
AcDbEntity
  8
0
  6
ByBlock
 62
     0
100
AcDbTrace
 10
53.536241263734
 20
57.72268949101124
 30
0.0
 11
53.536241263734
 21
57.63102282434457
 31
0.0
 12
53.811241263734
 22
57.6768561576779
 32
0.0
 13
53.811241263734
 23
57.6768561576779
 33
0.0
  0
SOLID
  5
55E
330
558
100
AcDbEntity
  8
0
  6
ByBlock
 62
     0
100
AcDbTrace
 10
55.086241263734
 20
57.72268949101124
 30
0.0
 11
55.086241263734
 21
57.63102282434457
 31
0.0
 12
54.811241263734
 22
57.6768561576779
 32
0.0
 13
54.811241263734
 23
57.6768561576779
 33
0.0
  0
MTEXT
  5
55F
330
558
100
AcDbEntity
  8
0
  6
ByBlock
 62
     0
100
AcDbMText
 10
54.31124126373401
 20
57.6768561576779
 30
0.0
 40
0.55
 41
0.0
 71
     5
 72
     1
  1
\A1;1"
  7
ROMANC
 73
     1
 44
1.0
1001
ACAD
1000
MTEXTBEGIN
1070
    73
1070
     1
1070
    44
1040
1.0
1070
    74
1070
     0
1000
MTEXTEND
  0
POINT
  5
560
330
558
100
AcDbEntity
  8
DEFPOINTS
  6
ByBlock
 62
     0
100
AcDbPoint
 10
53.811241263734
 20
56.34185781873478
 30
0.0
  0
POINT
  5
561
330
558
100
AcDbEntity
  8
DEFPOINTS
  6
ByBlock
 62
     0
100
AcDbPoint
 10
54.811241263734
 20
56.34185781873478
 30
0.0
  0
POINT
  5
562
330
558
100
AcDbEntity
  8
DEFPOINTS
  6
ByBlock
 62
     0
100
AcDbPoint
 10
54.811241263734
 20
57.6768561576779
 30
0.0
  0
ENDBLK
  5
564
330
558
100
AcDbEntity
  8
0
100
AcDbBlockEnd
  0
BLOCK
  5
570
330
565
100
AcDbEntity
  8
0
100
AcDbBlockBegin
  2
*D47
 70
     1
 10
0.0
 20
0.0
 30
0.0
  3
*D47
  1

  0
LINE
  5
566
330
565
100
AcDbEntity
  8
0
  6
ByBlock
 62
     0
100
AcDbLine
 10
50.63624126373401
 20
44.71685781873477
 30
0.0
 11
47.97512122584384
 21
44.71685781873477
 31
0.0
  0
LINE
  5
567
330
565
100
AcDbEntity
  8
0
  6
ByBlock
 62
     0
100
AcDbLine
 10
50.63624126373401
 20
56.34185781873478
 30
0.0
 11
47.97512122584384
 21
56.34185781873478
 31
0.0
  0
LINE
  5
568
330
565
100
AcDbEntity
  8
0
  6
ByBlock
 62
     0
100
AcDbLine
 10
48.11262122584384
 20
44.99185781873477
 30
0.0
 11
48.11262122584384
 21
50.06447686635382
 31
0.0
  0
LINE
  5
569
330
565
100
AcDbEntity
  8
0
  6
ByBlock
 62
     0
100
AcDbLine
 10
48.11262122584384
 20
56.06685781873478
 30
0.0
 11
48.11262122584384
 21
50.99423877111573
 31
0.0
  0
SOLID
  5
56A
330
565
100
AcDbEntity
  8
0
  6
ByBlock
 62
     0
100
AcDbTrace
 10
48.06678789251051
 20
44.99185781873477
 30
0.0
 11
48.15845455917718
 21
44.99185781873477
 31
0.0
 12
48.11262122584384
 22
44.71685781873477
 32
0.0
 13
48.11262122584384
 23
44.71685781873477
 33
0.0
  0
SOLID
  5
56B
330
565
100
AcDbEntity
  8
0
  6
ByBlock
 62
     0
100
AcDbTrace
 10
48.06678789251051
 20
56.06685781873478
 30
0.0
 11
48.15845455917718
 21
56.06685781873478
 31
0.0
 12
48.11262122584384
 22
56.34185781873478
 32
0.0
 13
48.11262122584384
 23
56.34185781873478
 33
0.0
  0
MTEXT
  5
56C
330
565
100
AcDbEntity
  8
0
  6
ByBlock
 62
     0
100
AcDbMText
 10
48.11262122584384
 20
50.52935781873478
 30
0.0
 40
0.55
 41
0.0
 71
     5
 72
     1
  1
\A1;11{\H0.250000x;\S5/8;}"
  7
ROMANC
 73
     1
 44
1.0
1001
ACAD
1000
MTEXTBEGIN
1070
    73
1070
     1
1070
    44
1040
1.0
1070
    74
1070
     0
1000
MTEXTEND
  0
POINT
  5
56D
330
565
100
AcDbEntity
  8
DEFPOINTS
  6
ByBlock
 62
     0
100
AcDbPoint
 10
51.18624126373401
 20
44.71685781873477
 30
0.0
  0
POINT
  5
56E
330
565
100
AcDbEntity
  8
DEFPOINTS
  6
ByBlock
 62
     0
100
AcDbPoint
 10
51.18624126373401
 20
56.34185781873478
 30
0.0
  0
POINT
  5
56F
330
565
100
AcDbEntity
  8
DEFPOINTS
  6
ByBlock
 62
     0
100
AcDbPoint
 10
48.11262122584384
 20
56.34185781873478
 30
0.0
  0
ENDBLK
  5
571
330
565
100
AcDbEntity
  8
0
100
AcDbBlockEnd
  0
BLOCK
  5
57C
330
572
100
AcDbEntity
  8
0
100
AcDbBlockBegin
  2
*D48
 70
     1
 10
0.0
 20
0.0
 30
0.0
  3
*D48
  1

  0
LINE
  5
573
330
572
100
AcDbEntity
  8
0
  6
ByBlock
 62
     0
100
AcDbLine
 10
55.361241263734
 20
56.34185781873478
 30
0.0
 11
56.18054569974962
 21
56.34185781873478
 31
0.0
  0
LINE
  5
574
330
572
100
AcDbEntity
  8
0
  6
ByBlock
 62
     0
100
AcDbLine
 10
55.361241263734
 20
55.34185781873478
 30
0.0
 11
56.18054569974962
 21
55.34185781873478
 31
0.0
  0
LINE
  5
575
330
572
100
AcDbEntity
  8
0
  6
ByBlock
 62
     0
100
AcDbLine
 10
56.04304569974962
 20
56.06685781873478
 30
0.0
 11
56.04304569974962
 21
55.61685781873478
 31
0.0
  0
MTEXT
  5
576
330
572
100
AcDbEntity
  8
0
  6
ByBlock
 62
     0
100
AcDbMText
 10
57.06209331879724
 20
55.79172040012331
 30
0.0
 40
0.55
 41
0.0
 71
     5
 72
     1
  1
\A1;1"
  7
ROMANC
 73
     1
 44
1.0
1001
ACAD
1000
MTEXTBEGIN
1070
    73
1070
     1
1070
    44
1040
1.0
1070
    74
1070
     0
1000
MTEXTEND
  0
SOLID
  5
577
330
572
100
AcDbEntity
  8
0
  6
ByBlock
 62
     0
100
AcDbTrace
 10
55.99721236641628
 20
56.06685781873478
 30
0.0
 11
56.08887903308295
 21
56.06685781873478
 31
0.0
 12
56.04304569974962
 22
56.34185781873478
 32
0.0
 13
56.04304569974962
 23
56.34185781873478
 33
0.0
  0
SOLID
  5
578
330
572
100
AcDbEntity
  8
0
  6
ByBlock
 62
     0
100
AcDbTrace
 10
55.99721236641628
 20
55.61685781873478
 30
0.0
 11
56.08887903308295
 21
55.61685781873478
 31
0.0
 12
56.04304569974962
 22
55.34185781873478
 32
0.0
 13
56.04304569974962
 23
55.34185781873478
 33
0.0
  0
POINT
  5
579
330
572
100
AcDbEntity
  8
DEFPOINTS
  6
ByBlock
 62
     0
100
AcDbPoint
 10
54.811241263734
 20
56.34185781873478
 30
0.0
  0
POINT
  5
57A
330
572
100
AcDbEntity
  8
DEFPOINTS
  6
ByBlock
 62
     0
100
AcDbPoint
 10
54.811241263734
 20
55.34185781873478
 30
0.0
  0
POINT
  5
57B
330
572
100
AcDbEntity
  8
DEFPOINTS
  6
ByBlock
 62
     0
100
AcDbPoint
 10
56.04304569974962
 20
55.34185781873478
 30
0.0
  0
ENDBLK
  5
57D
330
572
100
AcDbEntity
  8
0
100
AcDbBlockEnd
  0
BLOCK
  5
58A
330
57E
100
AcDbEntity
  8
0
100
AcDbBlockBegin
  2
*D49
 70
     1
 10
0.0
 20
0.0
 30
0.0
  3
*D49
  1

  0
LINE
  5
57F
330
57E
100
AcDbEntity
  8
0
  6
ByBlock
 62
     0
100
AcDbLine
 10
61.36124126373401
 20
44.71685781873477
 30
0.0
 11
62.33747550639519
 21
44.71685781873477
 31
0.0
  0
LINE
  5
580
330
57E
100
AcDbEntity
  8
0
  6
ByBlock
 62
     0
100
AcDbLine
 10
61.36124126373401
 20
45.34185781873478
 30
0.0
 11
62.33747550639519
 21
45.34185781873478
 31
0.0
  0
LINE
  5
581
330
57E
100
AcDbEntity
  8
0
  6
ByBlock
 62
     0
100
AcDbLine
 10
62.19997550639519
 20
44.44185781873478
 30
0.0
 11
62.19997550639519
 21
44.16685781873478
 31
0.0
  0
LINE
  5
582
330
57E
100
AcDbEntity
  8
0
  6
ByBlock
 62
     0
100
AcDbLine
 10
62.19997550639519
 20
45.61685781873478
 30
0.0
 11
62.19997550639519
 21
45.89185781873478
 31
0.0
  0
MTEXT
  5
583
330
57E
100
AcDbEntity
  8
0
  6
ByBlock
 62
     0
100
AcDbMText
 10
62.75652312544281
 20
45.02935781873478
 30
0.0
 40
0.55
 41
0.0
 71
     5
 72
     1
  1
\A1;{\H0.250000x;\S5/8;}"
  7
ROMANC
 73
     1
 44
1.0
1001
ACAD
1000
MTEXTBEGIN
1070
    73
1070
     1
1070
    44
1040
1.0
1070
    74
1070
     0
1000
MTEXTEND
  0
LINE
  5
584
330
57E
100
AcDbEntity
  8
0
  6
ByBlock
 62
     0
100
AcDbLine
 10
62.19997550639519
 20
44.71685781873477
 30
0.0
 11
62.19997550639519
 21
45.34185781873478
 31
0.0
  0
SOLID
  5
585
330
57E
100
AcDbEntity
  8
0
  6
ByBlock
 62
     0
100
AcDbTrace
 10
62.15414217306185
 20
44.44185781873478
 30
0.0
 11
62.24580883972851
 21
44.44185781873478
 31
0.0
 12
62.19997550639519
 22
44.71685781873477
 32
0.0
 13
62.19997550639519
 23
44.71685781873477
 33
0.0
  0
SOLID
  5
586
330
57E
100
AcDbEntity
  8
0
  6
ByBlock
 62
     0
100
AcDbTrace
 10
62.15414217306185
 20
45.61685781873478
 30
0.0
 11
62.24580883972851
 21
45.61685781873478
 31
0.0
 12
62.19997550639519
 22
45.34185781873478
 32
0.0
 13
62.19997550639519
 23
45.34185781873478
 33
0.0
  0
POINT
  5
587
330
57E
100
AcDbEntity
  8
DEFPOINTS
  6
ByBlock
 62
     0
100
AcDbPoint
 10
60.81124126373401
 20
44.71685781873477
 30
0.0
  0
POINT
  5
588
330
57E
100
AcDbEntity
  8
DEFPOINTS
  6
ByBlock
 62
     0
100
AcDbPoint
 10
60.81124126373401
 20
45.34185781873478
 30
0.0
  0
POINT
  5
589
330
57E
100
AcDbEntity
  8
DEFPOINTS
  6
ByBlock
 62
     0
100
AcDbPoint
 10
62.19997550639519
 20
45.34185781873478
 30
0.0
  0
ENDBLK
  5
58B
330
57E
100
AcDbEntity
  8
0
100
AcDbBlockEnd
  0
BLOCK
  5
59A
330
58C
100
AcDbEntity
  8
0
 62
     7
100
AcDbBlockBegin
  2
50
 70
     0
 10
0.0
 20
0.0
 30
0.0
  3
50
  1

  0
DIMENSION
  5
58D
330
58C
100
AcDbEntity
  8
0
100
AcDbDimension
  2
*D45
 10
-3.583079087185922
 20
6.997933286229113
 30
0.0
 11
-2.270579087185922
 21
6.997933286229113
 31
0.0
 12
-54.76932035091991
 22
-51.14338351236336
 32
0.0
 71
     5
 42
-1.0
  3
STANDARD
100
AcDbAlignedDimension
 13
-0.9580790871859221
 23
5.198474306371423
 33
0.0
 14
-3.583079087185922
 24
5.198474306371423
 34
0.0
100
AcDbRotatedDimension
1001
ACAD
1000
DSTYLE
1002
{
1070
   140
1040
1.0
1070
   146
1040
0.25
1070
    40
1040
0.55
1070
     3
1000
"
1070
   147
1040
0.25
1070
    42
1040
1.0
1070
    44
1040
0.25
1070
    43
1040
0.125
1070
   141
1040
0.0
1070
    41
1040
0.5
1002
}
  0
DIMENSION
  5
58E
330
58C
100
AcDbEntity
  8
0
100
AcDbDimension
  2
*D43
 10
5.166920912814077
 20
-7.965744829780049
 30
0.0
 11
0.7919209128140779
 21
-7.965744829780049
 31
0.0
 12
-54.76932035091991
 22
-51.14338351236336
 32
0.0
 71
     5
 42
-1.0
  3
STANDARD
100
AcDbAlignedDimension
 13
-3.583079087185922
 23
-6.426525693628576
 33
0.0
 14
5.166920912814077
 24
-6.426525693628576
 34
0.0
100
AcDbRotatedDimension
1001
ACAD
1000
DSTYLE
1002
{
1070
   140
1040
1.0
1070
   146
1040
0.25
1070
    40
1040
0.55
1070
     3
1000
"
1070
   147
1040
0.25
1070
    42
1040
1.0
1070
    44
1040
0.25
1070
    43
1040
0.125
1070
   141
1040
0.0
1070
    41
1040
0.5
1002
}
  0
DIMENSION
  5
58F
330
58C
100
AcDbEntity
  8
0
100
AcDbDimension
  2
*D44
 10
6.041920912814077
 20
-9.370459856948713
 30
0.0
 11
1.229420912814077
 21
-9.370459856948713
 31
0.0
 12
-54.76932035091991
 22
-51.14338351236336
 32
0.0
 71
     5
 42
-1.0
  3
STANDARD
100
AcDbAlignedDimension
 13
-3.583079087185922
 23
-6.426525693628576
 33
0.0
 14
6.041920912814077
 24
-6.426525693628576
 34
0.0
100
AcDbRotatedDimension
1001
ACAD
1000
DSTYLE
1002
{
1070
   140
1040
1.0
1070
   146
1040
0.25
1070
    40
1040
0.55
1070
     3
1000
"
1070
   147
1040
0.25
1070
    42
1040
1.0
1070
    44
1040
0.25
1070
    43
1040
0.125
1070
   141
1040
0.0
1070
    41
1040
0.5
1002
}
  0
LWPOLYLINE
  5
590
330
58C
100
AcDbEntity
  8
0
100
AcDbPolyline
 90
        7
 70
     1
 43
0.0
 10
6.041920912814077
 20
-5.801525693628576
 10
0.0419209128140778
 20
4.198474306371423
 10
-0.9580790871859221
 20
4.198474306371423
 10
-0.9580790871859221
 20
5.198474306371423
 10
-3.583079087185922
 20
5.198474306371423
 10
-3.583079087185922
 20
-6.426525693628576
 10
5.166920912814077
 20
-6.426525693628576
  0
DIMENSION
  5
591
330
58C
100
AcDbEntity
  8
0
100
AcDbDimension
  2
*D47
 10
-6.656699125076045
 20
5.198474306371423
 30
0.0
 11
-6.656699125076045
 21
-0.6140256936285767
 31
0.0
 12
-54.76932035091991
 22
-51.14338351236336
 32
0.0
 71
     5
 42
-1.0
  3
STANDARD
100
AcDbAlignedDimension
 13
-3.583079087185922
 23
-6.426525693628576
 33
0.0
 14
-3.583079087185922
 24
5.198474306371423
 34
0.0
 50
270.0
100
AcDbRotatedDimension
1001
ACAD
1000
DSTYLE
1002
{
1070
   140
1040
1.0
1070
   146
1040
0.25
1070
    40
1040
0.55
1070
     3
1000
"
1070
   147
1040
0.25
1070
    42
1040
1.0
1070
    44
1040
0.25
1070
    43
1040
0.125
1070
   141
1040
0.0
1070
    41
1040
0.5
1002
}
  0
DIMENSION
  5
592
330
58C
100
AcDbEntity
  8
0
100
AcDbDimension
  2
*D49
 10
7.430655155475278
 20
-5.801525693628576
 30
0.0
 11
7.98720277452287
 21
-6.114025693628576
 31
0.0
 12
-54.76932035091991
 22
-51.14338351236336
 32
0.0
 71
     5
 42
-1.0
  3
STANDARD
100
AcDbAlignedDimension
 13
6.041920912814077
 23
-6.426525693628576
 33
0.0
 14
6.041920912814077
 24
-5.801525693628576
 34
0.0
 50
90.0
100
AcDbRotatedDimension
1001
ACAD
1000
DSTYLE
1002
{
1070
   140
1040
1.0
1070
   146
1040
0.25
1070
    40
1040
0.55
1070
     3
1000
"
1070
   147
1040
0.25
1070
    42
1040
1.0
1070
    44
1040
0.25
1070
    43
1040
0.125
1070
   141
1040
0.0
1070
    41
1040
0.5
1002
}
  0
DIMENSION
  5
593
330
58C
100
AcDbEntity
  8
0
100
AcDbDimension
  2
*D46
 10
0.0419209128140778
 20
6.533472645314532
 30
0.0
 11
-0.4580790871859222
 21
6.533472645314532
 31
0.0
 12
-54.76932035091991
 22
-51.14338351236336
 32
0.0
 71
     5
 42
-1.0
  3
STANDARD
100
AcDbAlignedDimension
 13
-0.9580790871859221
 23
5.198474306371423
 33
0.0
 14
0.0419209128140778
 24
5.198474306371423
 34
0.0
100
AcDbRotatedDimension
1001
ACAD
1000
DSTYLE
1002
{
1070
   140
1040
1.0
1070
   146
1040
0.25
1070
    40
1040
0.55
1070
     3
1000
"
1070
   147
1040
0.25
1070
    42
1040
1.0
1070
    44
1040
0.25
1070
    43
1040
0.125
1070
   141
1040
0.0
1070
    41
1040
0.5
1002
}
  0
DIMENSION
  5
594
330
58C
100
AcDbEntity
  8
0
100
AcDbDimension
  2
*D48
 10
1.273725348829714
 20
4.198474306371423
 30
0.0
 11
2.29277296787734
 21
4.648336887759967
 31
0.0
 12
-54.76932035091991
 22
-51.14338351236336
 32
0.0
 70
   128
 71
     5
 42
-1.0
  3
STANDARD
100
AcDbAlignedDimension
 13
0.0419209128140778
 23
5.198474306371423
 33
0.0
 14
0.0419209128140778
 24
4.198474306371423
 34
0.0
 50
270.0
100
AcDbRotatedDimension
1001
ACAD
1000
DSTYLE
1002
{
1070
   140
1040
1.0
1070
   146
1040
0.25
1070
    40
1040
0.55
1070
     3
1000
"
1070
   147
1040
0.25
1070
    42
1040
1.0
1070
    44
1040
0.25
1070
    43
1040
0.125
1070
   141
1040
0.0
1070
    41
1040
0.5
1002
}
  0
INSERT
  5
595
330
58C
100
AcDbEntity
  8
TAG
100
AcDbBlockReference
 66
     1
  2
1TAG
 10
-5.835163661737851
 20
8.098458299583029
 30
0.0
  0
ATTRIB
  5
596
330
595
100
AcDbEntity
  8
0
100
AcDbText
 10
-5.860134861685935
 20
11.56839905822639
 30
0.0
 40
1.0
  1
50
  7
ROMANC
100
AcDbAttribute
  2
#
 70
     1
  0
ATTRIB
  5
597
330
595
100
AcDbEntity
  8
0
100
AcDbText
 10
-5.860134861685935
 20
10.27662243678534
 30
0.0
 40
1.0
  1
THE COVENANT
  7
ROMANC
100
AcDbAttribute
  2
NAME
 70
     1
  0
ATTRIB
  5
598
330
595
100
AcDbEntity
  8
0
100
AcDbText
 10
-5.860134861685935
 20
8.962573782536907
 30
0.0
 40
1.0
  1
74.63
  7
ROMANC
100
AcDbAttribute
  2
AREA
 70
     1
  0
SEQEND
  5
599
330
595
100
AcDbEntity
  8
TAG
  0
ENDBLK
  5
59B
330
58C
100
AcDbEntity
  8
0
 62
     7
100
AcDbBlockEnd
  0
BLOCK
  5
5D5
330
5A2
100
AcDbEntity
  8
0
 62
     7
100
AcDbBlockBegin
  2
TSFORMA
 70
     2
 10
0.0
 20
0.0
 30
0.0
  3
TSFORMA
  1

  0
INSERT
  5
5A3
330
5A2
100
AcDbEntity
  8
A1
 62
     7
100
AcDbBlockReference
  2
SCF
 10
0.0
 20
0.0
 30
0.0
  0
LINE
  5
5A4
330
5A2
100
AcDbEntity
  8
0
 62
     7
100
AcDbLine
 10
33.85359849505566
 20
6.139911809868134
 30
0.0
 11
15.45863081043479
 21
6.139911809868134
 31
0.0
  0
LINE
  5
5A5
330
5A2
100
AcDbEntity
  8
0
 62
     7
100
AcDbLine
 10
33.85359849505566
 20
1.705154898157314
 30
0.0
 11
15.45863081043479
 21
1.705154898157314
 31
0.0
  0
LINE
  5
5A6
330
5A2
100
AcDbEntity
  8
0
 62
     7
100
AcDbLine
 10
33.85359849505566
 20
2.829459360019779
 30
0.0
 11
15.45863081043479
 21
2.829459360019779
 31
0.0
  0
LINE
  5
5A7
330
5A2
100
AcDbEntity
  8
0
100
AcDbLine
 10
15.45863081043479
 20
7.419467812060279
 30
0.0
 11
63.0907971953311
 21
7.419467812060275
 31
0.0
  0
LINE
  5
5A8
330
5A2
100
AcDbEntity
  8
0
100
AcDbLine
 10
0.0
 20
0.0
 30
0.0
 11
63.0907971953311
 21
0.0
 31
0.0
  0
LINE
  5
5A9
330
5A2
100
AcDbEntity
  8
0
100
AcDbLine
 10
0.0
 20
46.93339791359997
 30
0.0
 11
0.0
 21
0.0
 31
0.0
  0
ATTDEF
  5
5AA
330
5A2
100
AcDbEntity
  8
A1
 62
     1
100
AcDbText
 10
12.82959661403713
 20
1.116082561967672
 30
0.0
 40
0.5
  1

 72
     2
 11
12.82959661403713
 21
1.116082561967672
 31
0.0
100
AcDbAttributeDefinition
  3
ADD BARCODE TEXT
  2
XXXXXX
 70
     0
  0
ATTDEF
  5
5AB
330
5A2
100
AcDbEntity
  8
A1
 62
     1
100
AcDbText
 10
7.602187176088335
 20
1.863125907903508
 30
0.0
 40
4.5625
  1

  7
barcoder
 72
     1
 11
7.602187176088335
 21
1.863125907903508
 31
0.0
100
AcDbAttributeDefinition
  3
ADD BARCODE NUMBER
  2
BARCODE
 70
     0
  0
LINE
  5
5AC
330
5A2
100
AcDbEntity
  8
0
 62
     7
100
AcDbLine
 10
15.45863081043479
 20
7.419467812060279
 30
0.0
 11
0.0
 21
7.419467812060279
 31
0.0
  0
TEXT
  5
5AD
330
5A2
100
AcDbEntity
  8
0
 62
     7
100
AcDbText
 10
18.19366726416784
 20
4.860691571657334
 30
0.0
 40
0.625
  1
- Finished Side
100
AcDbText
  0
TEXT
  5
5AE
330
5A2
100
AcDbEntity
  8
0
 62
     7
100
AcDbText
 10
18.20026126845819
 20
3.503849832636042
 30
0.0
 40
0.625
  1
- Unfinished Side
100
AcDbText
  0
LINE
  5
5AF
330
5A2
100
AcDbEntity
  8
0
100
AcDbLine
 10
15.45863081043479
 20
0.0
 30
0.0
 11
15.45863081043479
 21
7.419467812060279
 31
0.0
  0
LINE
  5
5B0
330
5A2
100
AcDbEntity
  8
0
 62
     7
100
AcDbLine
 10
15.94519003511693
 20
5.088809590082902
 30
0.0
 11
17.45428617139502
 21
5.088809590082902
 31
0.0
  0
TEXT
  5
5B1
330
5A2
100
AcDbEntity
  8
0
 62
     7
100
AcDbText
 10
16.48339397174975
 20
3.663762155695707
 30
0.0
 40
0.00390625
  1
TANNERSTONE 0001 TANNERSTONE 0001 TANNERSTONE 0001 TANNERSTONE 0001 TANNERSTONE 0001 TANNERSTONE 0001 TANNERSTONE 0001
 72
     1
 11
16.69109656521183
 21
3.663762155695707
 31
0.0
100
AcDbText
  0
LINE
  5
5B2
330
5A2
100
AcDbEntity
  8
0
 62
     7
100
AcDbLine
 10
15.94519003511693
 20
3.814849102060051
 30
0.0
 11
17.45428617139502
 21
3.814849102060051
 31
0.0
  0
TEXT
  5
5B3
330
5A2
100
AcDbEntity
  8
0
 62
     7
100
AcDbText
 10
15.94386684512347
 20
3.663762155695707
 30
0.0
 40
0.00390625
  1
TANNERSTONE 0001 TANNERSTONE 0001 TANNERSTONE 0001 TANNERSTONE 0001 TANNERSTONE 0001 TANNERSTONE 0001 TANNERSTONE 0001
 72
     1
 11
16.15156943858555
 21
3.663762155695707
 31
0.0
100
AcDbText
  0
TEXT
  5
5B4
330
5A2
100
AcDbEntity
  8
0
 62
     7
100
AcDbText
 10
17.04152309512345
 20
3.663762155695707
 30
0.0
 40
0.00390625
  1
TANNERSTONE 0001 TANNERSTONE 0001 TANNERSTONE 0001 TANNERSTONE 0001 TANNERSTONE 0001 TANNERSTONE 0001 TANNERSTONE 0001
 72
     1
 11
17.24922568858554
 21
3.663762155695707
 31
0.0
100
AcDbText
  0
ATTDEF
  5
5B5
330
5A2
100
AcDbEntity
  8
A1
 62
     1
100
AcDbText
 10
24.55771846427264
 20
0.6162142197210088
 30
0.0
 40
0.7559999999999999
  1

 72
     1
 11
24.55771846427264
 21
0.6162142197210088
 31
0.0
100
AcDbAttributeDefinition
  3
ADD CATEGORY NAMES
  2
XXXXXX
 70
     0
  0
TEXT
  5
5B6
330
5A2
100
AcDbEntity
  8
0
 62
     7
100
AcDbText
 10
22.72809728616285
 20
2.02499953627948
 30
0.0
 40
0.5
  1
CATEGORY
 72
     1
 11
24.68840912174046
 21
2.02499953627948
 31
0.0
100
AcDbText
  0
TEXT
  5
5B7
330
5A2
100
AcDbEntity
  8
0
 62
     7
100
AcDbText
 10
23.38153703079662
 20
6.531576458849073
 30
0.0
 40
0.4812500000000001
  1
LEGEND
100
AcDbText
  0
LINE
  5
5B8
330
5A2
100
AcDbEntity
  8
0
100
AcDbLine
 10
63.0907971953311
 20
0.0
 30
0.0
 11
63.0907971953311
 21
46.93339791359997
 31
0.0
  0
LINE
  5
5B9
330
5A2
100
AcDbEntity
  8
0
100
AcDbLine
 10
33.85359849505567
 20
3.957609866513919
 30
0.0
 11
63.0907971953311
 21
3.957609866513919
 31
0.0
  0
TEXT
  5
5BA
330
5A2
100
AcDbEntity
  8
0
100
AcDbText
 10
34.42750303318053
 20
2.935195390265757
 30
0.0
 40
0.6616455005868908
  1
ARCHITECTURAL CONCRETE CO., INC.
 41
1.25
 72
     4
 11
45.64904120290566
 21
3.21678158665302
 31
0.0
100
AcDbText
  0
TEXT
  5
5BB
330
5A2
100
AcDbEntity
  8
0
100
AcDbText
 10
38.10554018840551
 20
0.4042122027146437
 30
0.0
 40
0.3900256199701639
  1
PHONE: 1-800-789-4841  FAX : 770-463-2635
 41
1.1875
 72
     4
 11
45.67456989459564
 21
0.5986721769520713
 31
0.0
100
AcDbText
  0
TEXT
  5
5BC
330
5A2
100
AcDbEntity
  8
0
 62
     7
100
AcDbText
 10
36.45030612377447
 20
4.701996929624826
 30
0.0
 40
2.12625
  1
TannerStone
  7
ROMANC
 72
     1
 11
45.19112937160684
 21
4.701996929624826
 31
0.0
100
AcDbText
  0
TEXT
  5
5BD
330
5A2
100
AcDbEntity
  8
0
100
AcDbText
 10
36.65024310726515
 20
1.16937112143105
 30
0.0
 40
0.3900256199701639
  1
http://TannerStone.com ~ Email:Sales@TannerStone.com 
 41
1.1875
 72
     4
 11
45.88298880572835
 21
1.344758262374401
 31
0.0
100
AcDbText
  0
TEXT
  5
5BE
330
5A2
100
AcDbEntity
  8
0
100
AcDbText
 10
35.70454469973866
 20
1.940811732856256
 30
0.0
 40
0.4458291441485832
  1
101 JOHNSTON CIRCLE, PALMETTO, GEORGIA 30268
 41
1.1875
 72
     4
 11
45.7449918415723
 21
2.130549791723176
 31
0.0
100
AcDbText
  0
LINE
  5
5BF
330
5A2
100
AcDbEntity
  8
0
100
AcDbLine
 10
33.85359849505567
 20
0.0
 30
0.0
 11
33.85359849505567
 21
7.419467812060275
 31
0.0
  0
LINE
  5
5C0
330
5A2
100
AcDbEntity
  8
0
 62
     7
100
AcDbLine
 10
45.8804728588951
 20
4.302323642481653
 30
0.0
 11
45.8804728588951
 21
4.302323642481653
 31
0.0
  0
ATTDEF
  5
5C1
330
5A2
100
AcDbEntity
  8
A1
 62
     1
100
AcDbText
 10
60.24601051143854
 20
5.923645198888223
 30
0.0
 40
0.703125
  1

 72
     1
 11
60.24601051143854
 21
5.923645198888223
 31
0.0
100
AcDbAttributeDefinition
  3
ADD PROFILE AREA
  2
XXXXX
 70
     0
  0
ATTDEF
  5
5C2
330
5A2
100
AcDbEntity
  8
A1
 62
     1
100
AcDbText
 10
60.22058858229524
 20
4.231165867870629
 30
0.0
 40
0.703125
  1

 72
     1
 11
60.22058858229524
 21
4.231165867870629
 31
0.0
100
AcDbAttributeDefinition
  3
ADD #/LF
  2
XXXXX
 70
     0
  0
LINE
  5
5C3
330
5A2
100
AcDbEntity
  8
0
 62
     7
100
AcDbLine
 10
57.40487304162906
 20
5.688538839287097
 30
0.0
 11
63.0907971953311
 21
5.688538839287097
 31
0.0
  0
TEXT
  5
5C4
330
5A2
100
AcDbEntity
  8
0
 62
     7
100
AcDbText
 10
57.54164024396835
 20
5.24603903326999
 30
0.0
 40
0.322265625
  1
LBS/LINEAR FEET:
100
AcDbText
  0
LINE
  5
5C5
330
5A2
100
AcDbEntity
  8
LINEWORK
 62
     7
100
AcDbLine
 10
57.38685446707747
 20
2.236847700541034
 30
0.0
 11
63.07277862077971
 21
2.236847700541161
 31
0.0
  0
TEXT
  5
5C6
330
5A2
100
AcDbEntity
  8
0
 62
     7
100
AcDbText
 10
58.84125519694314
 20
0.9074523356241925
 30
0.0
 40
0.5035400390625
  1
1-1-2000
100
AcDbText
  0
LINE
  5
5C7
330
5A2
100
AcDbEntity
  8
0
100
AcDbLine
 10
57.40487304162886
 20
0.0
 30
0.0
 11
57.40487304162911
 21
7.419467812060275
 31
0.0
  0
ARC
  5
5C8
330
5A2
100
AcDbEntity
  8
0
 62
     7
100
AcDbCircle
 10
54.77484357037856
 20
4.675407294753147
 30
0.0
 40
0.3475219186225837
100
AcDbArc
 50
304.840880646349
 51
297.5553548372075
  0
TEXT
  5
5C9
330
5A2
100
AcDbEntity
  8
0
 62
     7
100
AcDbText
 10
54.52366531937782
 20
4.457137162968933
 30
0.0
 40
0.46875
  1
R
  7
ROMANC
 72
     1
 11
54.77717642848187
 21
4.457137162968933
 31
0.0
100
AcDbText
  0
ARC
  5
5CA
330
5A2
100
AcDbEntity
  8
0
 62
     7
100
AcDbCircle
 10
54.77484357037857
 20
4.675407294753146
 30
0.0
 40
0.3475219186225785
100
AcDbArc
 50
297.5553548372066
 51
304.8408806463482
  0
TEXT
  5
5CB
330
5A2
100
AcDbEntity
  8
0
 62
     7
100
AcDbText
 10
57.55084577252738
 20
3.528313427430639
 30
0.0
 40
0.322265625
  1
SCALE:
100
AcDbText
  0
TEXT
  5
5CC
330
5A2
100
AcDbEntity
  8
0
 62
     7
100
AcDbText
 10
57.58427807884865
 20
1.77327934849093
 30
0.0
 40
0.322265625
  1
DATE:
100
AcDbText
  0
LINE
  5
5CD
330
5A2
100
AcDbEntity
  8
0
 62
     7
100
AcDbLine
 10
57.404873041629
 20
3.957609866513919
 30
0.0
 11
56.92061203641685
 21
3.957609866513919
 31
0.0
  0
TEXT
  5
5CE
330
5A2
100
AcDbEntity
  8
0
 62
     7
100
AcDbText
 10
60.17361351816539
 20
2.848114535947829
 30
0.0
 40
0.5035400390625
  1
1:1
100
AcDbText
  0
TEXT
  5
5CF
330
5A2
100
AcDbEntity
  8
0
 62
     7
100
AcDbText
 10
57.55965863864929
 20
6.943562340807453
 30
0.0
 40
0.322265625
  1
PROFILE AREA:
100
AcDbText
  0
ATTDEF
  5
5D0
330
5A2
100
AcDbEntity
  8
A1
 62
     1
100
AcDbText
 10
59.04934003701934
 20
43.69048591217159
 30
0.0
 40
1.2375
  1

 72
     1
 11
59.04934003701934
 21
43.69048591217159
 31
0.0
100
AcDbAttributeDefinition
  3
ADD PAGE NUMBER
  2
TS00XX
 70
     0
  0
LINE
  5
5D1
330
5A2
100
AcDbEntity
  8
0
100
AcDbLine
 10
63.0907971953311
 20
41.85161907700595
 30
0.0
 11
55.03498980215056
 21
41.85161907700595
 31
0.0
  0
LINE
  5
5D2
330
5A2
100
AcDbEntity
  8
0
100
AcDbLine
 10
55.03498980215056
 20
41.85161907700595
 30
0.0
 11
55.03498980215056
 21
46.93339791359997
 31
0.0
  0
LINE
  5
5D3
330
5A2
100
AcDbEntity
  8
0
100
AcDbLine
 10
63.0907971953311
 20
46.93339791359997
 30
0.0
 11
63.0907971953311
 21
41.85161907700595
 31
0.0
  0
LINE
  5
5D4
330
5A2
100
AcDbEntity
  8
0
100
AcDbLine
 10
63.0907971953311
 20
46.93339791359997
 30
0.0
 11
0.0
 21
46.93339791359997
 31
0.0
  0
ENDBLK
  5
5D6
330
5A2
100
AcDbEntity
  8
0
 62
     7
100
AcDbBlockEnd
  0
BLOCK
  5
613
330
608
100
AcDbEntity
  8
0
 62
     7
100
AcDbBlockBegin
  2
*D52
 70
     1
 10
0.0
 20
0.0
 30
0.0
  3
*D52
  1

  0
LINE
  5
774
330
608
100
AcDbEntity
  8
A1
 62
     0
100
AcDbLine
 10
487.9845996760042
 20
85.22201103915326
 30
0.0
 11
498.1888530561588
 21
85.22201103915326
 31
0.0
  0
LINE
  5
775
330
608
100
AcDbEntity
  8
A1
 62
     0
100
AcDbLine
 10
485.0563352444271
 20
96.41773461388597
 30
0.0
 11
498.1888530561588
 21
96.41773461388597
 31
0.0
  0
LINE
  5
776
330
608
100
AcDbEntity
  8
A1
 62
     0
100
AcDbLine
 10
497.9388530561589
 20
85.72201103915325
 30
0.0
 11
497.9388530561589
 21
89.6762089034474
 31
0.0
  0
LINE
  5
777
330
608
100
AcDbEntity
  8
A1
 62
     0
100
AcDbLine
 10
497.9388530561589
 20
95.91773461388596
 30
0.0
 11
497.9388530561589
 21
91.76621599061961
 31
0.0
  0
MTEXT
  5
778
330
608
100
AcDbEntity
  8
A1
 62
     0
100
AcDbMText
 10
497.9388530561589
 20
90.72121244703357
 30
0.0
 40
1.0
 41
0.0
 71
     5
 72
     1
  1
\A1;11 3/16"
 73
     1
 44
1.0
  0
SOLID
  5
779
330
608
100
AcDbEntity
  8
A1
 62
     0
100
AcDbTrace
 10
497.8555197228256
 20
85.72201103915325
 30
0.0
 11
498.0221863894922
 21
85.72201103915325
 31
0.0
 12
497.9388530561589
 22
85.22201103915326
 32
0.0
 13
497.9388530561589
 23
85.22201103915326
 33
0.0
  0
SOLID
  5
77A
330
608
100
AcDbEntity
  8
A1
 62
     0
100
AcDbTrace
 10
497.8555197228256
 20
95.91773461388596
 30
0.0
 11
498.0221863894922
 21
95.91773461388596
 31
0.0
 12
497.9388530561589
 22
96.41773461388597
 32
0.0
 13
497.9388530561589
 23
96.41773461388597
 33
0.0
  0
POINT
  5
77B
330
608
100
AcDbEntity
  8
DEFPOINTS
 62
     0
100
AcDbPoint
 10
486.9845996760042
 20
85.22201103915326
 30
0.0
  0
POINT
  5
77C
330
608
100
AcDbEntity
  8
DEFPOINTS
 62
     0
100
AcDbPoint
 10
484.0563352444271
 20
96.41773461388597
 30
0.0
  0
POINT
  5
77D
330
608
100
AcDbEntity
  8
DEFPOINTS
 62
     0
100
AcDbPoint
 10
497.9388530561589
 20
96.41773461388597
 30
0.0
  0
ENDBLK
  5
614
330
608
100
AcDbEntity
  8
0
 62
     7
100
AcDbBlockEnd
  0
BLOCK
  5
621
330
616
100
AcDbEntity
  8
0
 62
     7
100
AcDbBlockBegin
  2
*D53
 70
     1
 10
0.0
 20
0.0
 30
0.0
  3
*D53
  1

  0
LINE
  5
77E
330
616
100
AcDbEntity
  8
A1
 62
     0
100
AcDbLine
 10
486.9845996760042
 20
82.97201103915325
 30
0.0
 11
486.9845996760042
 21
78.00216834849483
 31
0.0
  0
LINE
  5
77F
330
616
100
AcDbEntity
  8
A1
 62
     0
100
AcDbLine
 10
480.984599676004
 20
82.97201103915325
 30
0.0
 11
480.984599676004
 21
78.00216834849483
 31
0.0
  0
LINE
  5
780
330
616
100
AcDbEntity
  8
A1
 62
     0
100
AcDbLine
 10
486.4845996760042
 20
78.25216834849483
 30
0.0
 11
485.6657322980978
 21
78.25216834849483
 31
0.0
  0
LINE
  5
781
330
616
100
AcDbEntity
  8
A1
 62
     0
100
AcDbLine
 10
481.484599676004
 20
78.25216834849483
 30
0.0
 11
482.8896869401956
 21
78.25216834849483
 31
0.0
  0
MTEXT
  5
782
330
616
100
AcDbEntity
  8
A1
 62
     0
100
AcDbMText
 10
484.2777096191468
 20
78.25216834849483
 30
0.0
 40
1.0
 41
0.0
 71
     5
 72
     1
  1
\A1;6"
 73
     1
 44
1.0
  0
SOLID
  5
783
330
616
100
AcDbEntity
  8
A1
 62
     0
100
AcDbTrace
 10
486.4845996760042
 20
78.33550168182816
 30
0.0
 11
486.4845996760042
 21
78.16883501516151
 31
0.0
 12
486.9845996760042
 22
78.25216834849483
 32
0.0
 13
486.9845996760042
 23
78.25216834849483
 33
0.0
  0
SOLID
  5
784
330
616
100
AcDbEntity
  8
A1
 62
     0
100
AcDbTrace
 10
481.484599676004
 20
78.33550168182816
 30
0.0
 11
481.484599676004
 21
78.16883501516151
 31
0.0
 12
480.984599676004
 22
78.25216834849483
 32
0.0
 13
480.984599676004
 23
78.25216834849483
 33
0.0
  0
POINT
  5
785
330
616
100
AcDbEntity
  8
DEFPOINTS
 62
     0
100
AcDbPoint
 10
486.9845996760042
 20
83.97201103915326
 30
0.0
  0
POINT
  5
786
330
616
100
AcDbEntity
  8
DEFPOINTS
 62
     0
100
AcDbPoint
 10
480.984599676004
 20
83.97201103915326
 30
0.0
  0
POINT
  5
787
330
616
100
AcDbEntity
  8
DEFPOINTS
 62
     0
100
AcDbPoint
 10
480.984599676004
 20
78.25216834849483
 30
0.0
  0
ENDBLK
  5
622
330
616
100
AcDbEntity
  8
0
 62
     7
100
AcDbBlockEnd
  0
BLOCK
  5
6EC
330
6E1
100
AcDbEntity
  8
0
 62
     7
100
AcDbBlockBegin
  2
*D54
 70
     1
 10
0.0
 20
0.0
 30
0.0
  3
*D54
  1

  0
LINE
  5
788
330
6E1
100
AcDbEntity
  8
A1
 62
     0
100
AcDbLine
 10
477.9847222059935
 20
88.12981838577513
 30
0.0
 11
477.9847222059935
 21
75.85895706176504
 31
0.0
  0
LINE
  5
789
330
6E1
100
AcDbEntity
  8
A1
 62
     0
100
AcDbLine
 10
489.9844816047018
 20
88.13052250428604
 30
0.0
 11
489.9844816047018
 21
75.85895706176504
 31
0.0
  0
LINE
  5
78A
330
6E1
100
AcDbEntity
  8
A1
 62
     0
100
AcDbLine
 10
478.4847222059935
 20
76.10895706176504
 30
0.0
 11
481.8253097114462
 21
76.10895706176504
 31
0.0
  0
LINE
  5
78B
330
6E1
100
AcDbEntity
  8
A1
 62
     0
100
AcDbLine
 10
489.4844816047018
 20
76.10895706176504
 30
0.0
 11
486.46244649387
 21
76.10895706176504
 31
0.0
  0
MTEXT
  5
78C
330
6E1
100
AcDbEntity
  8
A1
 62
     0
100
AcDbMText
 10
484.1438781026581
 20
76.10895706176504
 30
0.0
 40
1.0
 41
0.0
 71
     5
 72
     1
  1
\A1;%%C12"
 73
     1
 44
1.0
  0
SOLID
  5
78D
330
6E1
100
AcDbEntity
  8
A1
 62
     0
100
AcDbTrace
 10
478.4847222059935
 20
76.19229039509836
 30
0.0
 11
478.4847222059935
 21
76.02562372843171
 31
0.0
 12
477.9847222059935
 22
76.10895706176504
 32
0.0
 13
477.9847222059935
 23
76.10895706176504
 33
0.0
  0
SOLID
  5
78E
330
6E1
100
AcDbEntity
  8
A1
 62
     0
100
AcDbTrace
 10
489.4844816047018
 20
76.19229039509836
 30
0.0
 11
489.4844816047018
 21
76.02562372843171
 31
0.0
 12
489.9844816047018
 22
76.10895706176504
 32
0.0
 13
489.9844816047018
 23
76.10895706176504
 33
0.0
  0
POINT
  5
78F
330
6E1
100
AcDbEntity
  8
DEFPOINTS
 62
     0
100
AcDbPoint
 10
477.9847222059935
 20
89.12981838577513
 30
0.0
  0
POINT
  5
790
330
6E1
100
AcDbEntity
  8
DEFPOINTS
 62
     0
100
AcDbPoint
 10
489.9844816047018
 20
89.13052250428604
 30
0.0
  0
POINT
  5
791
330
6E1
100
AcDbEntity
  8
DEFPOINTS
 62
     0
100
AcDbPoint
 10
489.9844816047018
 20
76.10895706176504
 30
0.0
  0
ENDBLK
  5
6ED
330
6E1
100
AcDbEntity
  8
0
 62
     7
100
AcDbBlockEnd
  0
ENDSEC
  0
SECTION
  2
ENTITIES
  0
LWPOLYLINE
  5
26
330
2
100
AcDbEntity
  8
0
100
AcDbPolyline
 90
        2
 70
     1
 43
0.144
 10
486.9845996760042
 20
85.22201103915326
 42
3.732050807568804
 10
480.984599676004
 20
85.22201103915326
  0
INSERT
  5
27
330
2
100
AcDbEntity
  8
A1
 62
     7
100
AcDbBlockReference
 66
     1
  2
PROFILE LOGO
 10
478.412474373486
 20
91.35127384054911
 30
0.0
 41
1.199999999999999
 42
1.199999999999999
 43
1.199999999999999
  0
ATTRIB
  5
28
330
27
100
AcDbEntity
  8
A1
 62
    22
100
AcDbText
 10
478.7513067977661
 20
89.33731594186127
 30
0.0
 40
0.255234375
  1
1533
 72
     1
 11
479.2262308598231
 21
89.33731594186127
 31
0.0
100
AcDbAttribute
  2
XXXX
 70
     0
  0
SEQEND
  5
44
330
27
100
AcDbEntity
  8
A1
 62
     7
  0
DIMENSION
  5
607
330
2
100
AcDbEntity
  8
A1
 62
     7
100
AcDbDimension
  2
*D52
 10
497.9388530561589
 20
96.41773461388597
 30
0.0
 11
497.9388530561589
 21
90.72121244703357
 31
0.0
 70
   160
 71
     5
 42
-1.0
  3
STANDARD
100
AcDbAlignedDimension
 13
486.9845996760042
 23
85.22201103915326
 33
0.0
 14
484.0563352444271
 24
96.41773461388597
 34
0.0
 50
90.0
100
AcDbRotatedDimension
1001
ACAD
1000
DSTYLE
1002
{
1070
    73
1070
     1
1070
    74
1070
     1
1070
    77
1070
     0
1070
   147
1040
0.5
1070
   279
1070
     1
1070
   288
1070
     1
1070
   289
1070
     3
1002
}
  0
DIMENSION
  5
615
330
2
100
AcDbEntity
  8
A1
 62
     7
100
AcDbDimension
  2
*D53
 10
480.984599676004
 20
78.25216834849483
 30
0.0
 11
484.2777096191468
 21
78.25216834849483
 31
0.0
 70
   161
 71
     5
 42
-1.0
  3
STANDARD
100
AcDbAlignedDimension
 13
486.9845996760042
 23
83.97201103915326
 33
0.0
 14
480.984599676004
 24
83.97201103915326
 34
0.0
1001
ACAD
1000
DSTYLE
1002
{
1070
    73
1070
     1
1070
    74
1070
     1
1070
    77
1070
     0
1070
   147
1040
0.5
1070
   279
1070
     1
1070
   288
1070
     1
1070
   289
1070
     3
1002
}
  0
INSERT
  5
62D
330
2
100
AcDbEntity
  8
A1
 62
     7
100
AcDbBlockReference
 66
     1
  2
LINK FLAG
 10
483.9823830014818
 20
96.41816305238943
 30
0.0
  0
ATTRIB
  5
62E
330
62D
100
AcDbEntity
  8
A1
 62
     1
100
AcDbText
 10
494.7409163097737
 20
101.3716302814716
 30
0.0
 40
1.0
  1
TS1533
100
AcDbAttribute
  2
XXXXXX
 70
     0
  0
SEQEND
  5
62F
330
62D
100
AcDbEntity
  8
A1
 62
     7
  0
INSERT
  5
668
330
2
100
AcDbEntity
  8
A1
 62
     7
100
AcDbBlockReference
 66
     1
  2
TSFORMA
 10
453.6184166905478
 20
64.81626414412153
 30
0.0
 41
0.9546740000000001
 42
0.9546740000000001
 43
0.9546740000000001
  0
ATTRIB
  5
669
330
668
100
AcDbEntity
  8
A1
 62
     1
100
AcDbText
 10
463.2084998525393
 20
65.88175914788545
 30
0.0
 40
0.4773370000000001
  1
TS1533
 72
     2
 11
465.8664990084571
 21
65.88175914788545
 31
0.0
100
AcDbAttribute
  2
XXXXXX
 70
     0
  0
ATTRIB
  5
66A
330
668
100
AcDbEntity
  8
A1
 62
     1
100
AcDbText
 10
456.5747732572552
 20
66.59494200712341
 30
0.0
 40
4.355700125
  1
TS1533
  7
barcoder
 72
     1
 11
460.8760271306927
 21
66.59494200712341
 31
0.0
100
AcDbAttribute
  2
BARCODE
 70
     0
  0
ATTRIB
  5
66B
330
668
100
AcDbEntity
  8
A1
 62
     1
100
AcDbText
 10
474.6965541612765
 20
65.40454783811947
 30
0.0
 40
0.721733544
  1
12" BALL
 72
     1
 11
477.0630320077088
 21
65.40454783811947
 31
0.0
100
AcDbAttribute
  2
XXXXXX
 70
     0
  0
ATTRIB
  5
66C
330
668
100
AcDbEntity
  8
A1
 62
     1
100
AcDbText
 10
509.1939270897085
 20
70.47141420072495
 30
0.0
 40
0.67125515625
  1
109.81"
 72
     1
 11
511.133716529545
 21
70.47141420072495
 31
0.0
100
AcDbAttribute
  2
XXXXX
 70
     0
  0
ATTRIB
  5
66D
330
668
100
AcDbEntity
  8
A1
 62
     1
100
AcDbText
 10
509.7500481440855
 20
68.85564818786505
 30
0.0
 40
0.67125515625
  1
99.14
 72
     1
 11
511.1094468747619
 21
68.85564818786505
 31
0.0
100
AcDbAttribute
  2
XXXXX
 70
     0
  0
ATTRIB
  5
66E
330
668
100
AcDbEntity
  8
A1
 62
     1
100
AcDbText
 10
506.7020123856009
 20
106.526435091838
 30
0.0
 40
1.181409074999999
  1
TS1533
 72
     1
 11
509.9912863410492
 21
106.526435091838
 31
0.0
100
AcDbAttribute
  2
TS00XX
 70
     0
  0
SEQEND
  5
66F
330
668
100
AcDbEntity
  8
A1
 62
     7
  0
DIMENSION
  5
6E0
330
2
100
AcDbEntity
  8
A1
 62
     7
100
AcDbDimension
  2
*D54
 10
489.9844816047018
 20
76.10895706176504
 30
0.0
 11
484.1438781026581
 21
76.10895706176504
 31
0.0
 70
   160
  1
%%C12"
 71
     5
 42
-1.0
  3
STANDARD
100
AcDbAlignedDimension
 13
477.9847222059935
 23
89.12981838577513
 33
0.0
 14
489.9844816047018
 24
89.13052250428604
 34
0.0
100
AcDbRotatedDimension
1001
ACAD
1000
DSTYLE
1002
{
1070
    73
1070
     1
1070
    74
1070
     1
1070
    77
1070
     0
1070
   147
1040
0.5
1070
   279
1070
     1
1070
   288
1070
     1
1070
   289
1070
     3
1002
}
  0
ENDSEC
  0
SECTION
  2
OBJECTS
  0
DICTIONARY
  5
8
330
0
100
AcDbDictionary
281
     1
  3
ACAD_GROUP
350
21
  3
ACAD_LAYOUT
350
C
  3
ACAD_MLINESTYLE
350
22
  3
ACAD_PLOTSETTINGS
350
23
  3
ACAD_PLOTSTYLENAME
350
7
  3
ASE_INDEX_DICTIONARY
350
5E2
  3
DWGPROPS
350
799
  0
DICTIONARY
  5
3
330
2
100
AcDbDictionary
280
     1
281
     1
  3
ACAD_LAYOUTSELFREF
360
769
  0
DICTIONARY
  5
76C
330
D
100
AcDbDictionary
280
     1
281
     1
  3
ACAD_LAYOUTSELFREF
360
76D
  0
DICTIONARY
  5
21
102
{ACAD_REACTORS
330
8
102
}
330
8
100
AcDbDictionary
281
     1
  0
DICTIONARY
  5
C
102
{ACAD_REACTORS
330
8
102
}
330
8
100
AcDbDictionary
281
     1
  3
Layout1
350
10
  3
Model
350
B
  0
DICTIONARY
  5
22
102
{ACAD_REACTORS
330
8
102
}
330
8
100
AcDbDictionary
281
     1
  3
STANDARD
350
25
  0
DICTIONARY
  5
23
102
{ACAD_REACTORS
330
8
102
}
330
8
100
AcDbDictionary
281
     1
  0
ACDBDICTIONARYWDFLT
  5
7
102
{ACAD_REACTORS
330
8
102
}
330
8
100
AcDbDictionary
281
     1
  3
Normal
350
6
100
AcDbDictionaryWithDefault
340
6
  0
DICTIONARY
  5
5E2
102
{ACAD_REACTORS
330
8
102
}
330
8
100
AcDbDictionary
281
     1
  3
ASEBlockHierarchyIndexRecord
350
5E4
1001
DCO15
1040
1362979763.43
  0
XRECORD
  5
799
102
{ACAD_REACTORS
330
8
102
}
330
8
100
AcDbXrecord
280
     1
  1
DWGPROPS COOKIE
  2

  3

  4

  6

  7

  8
catalog
  9

300
=
301
=
302
=
303
=
304
=
305
=
306
=
307
=
308
=
309
=
 40
2.294813078703703
 41
2451085.66483831
 42
2451660.576701041
  1

 90
        0
  0
XRECORD
  5
769
102
{ACAD_REACTORS
330
3
102
}
330
3
100
AcDbXrecord
280
     1
340
2
  0
XRECORD
  5
76D
102
{ACAD_REACTORS
330
76C
102
}
330
76C
100
AcDbXrecord
280
     1
340
D
  0
LAYOUT
  5
10
102
{ACAD_REACTORS
330
C
102
}
330
C
100
AcDbPlotSettings
  1

  2
None
  4

  6

 40
0.0
 41
0.0
 42
0.0
 43
0.0
 44
0.0
 45
0.0
 46
0.0
 47
0.0
 48
0.0
 49
0.0
140
0.0
141
0.0
142
1.0
143
1.0
 70
   688
 72
     0
 73
     0
 74
     5
  7

 75
    16
147
1.0
148
0.0
149
0.0
100
AcDbLayout
  1
Layout1
 70
     1
 71
     1
 10
0.0
 20
0.0
 11
12.0
 21
9.0
 12
0.0
 22
0.0
 32
0.0
 14
1.000000000000000E+20
 24
1.000000000000000E+20
 34
1.000000000000000E+20
 15
-1.000000000000000E+20
 25
-1.000000000000000E+20
 35
-1.000000000000000E+20
146
0.0
 13
0.0
 23
0.0
 33
0.0
 16
1.0
 26
0.0
 36
0.0
 17
0.0
 27
1.0
 37
0.0
 76
     0
330
D
  0
LAYOUT
  5
B
102
{ACAD_REACTORS
330
C
102
}
330
C
100
AcDbPlotSettings
  1

  2
HP LaserJet 5.pc3
  4
Letter
  6

 40
7.143749713897705
 41
6.381738662719726
 42
7.14373779296875
 43
6.381744384765625
 44
215.8999938964843
 45
279.3999938964843
 46
0.0
 47
0.0
 48
621.3757168041145
 49
474.7940657922356
140
776.0405273297699
141
524.8962291405273
142
1.0
143
5.740028196360897
 70
 11952
 72
     0
 73
     1
 74
     1
  7

 75
     0
147
0.1742151720846923
148
-11521.67608308667
149
-1646.274390356762
100
AcDbLayout
  1
Model
 70
     1
 71
     0
 10
0.0
 20
0.0
 11
12.0
 21
9.0
 12
0.0
 22
0.0
 32
0.0
 14
0.0
 24
0.0
 34
0.0
 15
0.0
 25
0.0
 35
0.0
146
0.0
 13
0.0
 23
0.0
 33
0.0
 16
1.0
 26
0.0
 36
0.0
 17
0.0
 27
1.0
 37
0.0
 76
     0
330
2
  0
MLINESTYLE
  5
25
102
{ACAD_REACTORS
330
22
102
}
330
22
100
AcDbMlineStyle
  2
STANDARD
 70
     0
  3

 62
   256
 51
90.0
 52
90.0
 71
     2
 49
0.5
 62
   256
  6
BYLAYER
 49
-0.5
 62
   256
  6
BYLAYER
  0
ACDBPLACEHOLDER
  5
6
102
{ACAD_REACTORS
330
7
102
}
330
7
  0
XRECORD
  5
5E4
102
{ACAD_REACTORS
330
5E2
102
}
330
5E2
100
AcDbXrecord
280
     1
330
27
330
62D
330
668
330
5A3
330
317
330
523
330
595
  0
ENDSEC
  0
EOF
