  0
SECTION
  2
HEADER
  9
$ACADVER
  1
AC1015
  9
$ACADMAINTVER
 70
     6
  9
$DWGCODEPAGE
  3
ANSI_1252
  9
$INSBASE
 10
0.0
 20
0.0
 30
0.0
  9
$EXTMIN
 10
7.61445611853162
 20
6.412987411593704
 30
0.0
  9
$EXTMAX
 10
172.9808149412245
 20
129.4294250723774
 30
0.0
  9
$LIMMIN
 10
0.0
 20
0.0
  9
$LIMMAX
 10
12.0
 20
9.0
  9
$ORTHOMODE
 70
     0
  9
$REGENMODE
 70
     1
  9
$FILLMODE
 70
     1
  9
$QTEXTMODE
 70
     0
  9
$MIRRTEXT
 70
     0
  9
$LTSCALE
 40
1.0
  9
$ATTMODE
 70
     2
  9
$TEXTSIZE
 40
5.0
  9
$TRACEWID
 40
0.05
  9
$TEXTSTYLE
  7
STANDARD
  9
$CLAYER
  8
LINEWORK
  9
$CELTYPE
  6
BYLAYER
  9
$CECOLOR
 62
     7
  9
$CELTSCALE
 40
1.0
  9
$DISPSILH
 70
     0
  9
$DIMSCALE
 40
2.399999999999999
  9
$DIMASZ
 40
0.5
  9
$DIMEXO
 40
1.0
  9
$DIMDLI
 40
0.0625
  9
$DIMRND
 40
0.0
  9
$DIMDLE
 40
0.0
  9
$DIMEXE
 40
0.25
  9
$DIMTP
 40
0.0
  9
$DIMTM
 40
0.0
  9
$DIMTXT
 40
1.0
  9
$DIMCEN
 40
0.0
  9
$DIMTSZ
 40
0.0
  9
$DIMTOL
 70
     0
  9
$DIMLIM
 70
     0
  9
$DIMTIH
 70
     1
  9
$DIMTOH
 70
     1
  9
$DIMSE1
 70
     0
  9
$DIMSE2
 70
     0
  9
$DIMTAD
 70
     0
  9
$DIMZIN
 70
     0
  9
$DIMBLK
  1

  9
$DIMASO
 70
     1
  9
$DIMSHO
 70
     1
  9
$DIMPOST
  1
"
  9
$DIMAPOST
  1

  9
$DIMALT
 70
     0
  9
$DIMALTD
 70
     0
  9
$DIMALTF
 40
25.4
  9
$DIMLFAC
 40
1.0
  9
$DIMTOFL
 70
     0
  9
$DIMTVP
 40
0.0
  9
$DIMTIX
 70
     0
  9
$DIMSOXD
 70
     0
  9
$DIMSAH
 70
     0
  9
$DIMBLK1
  1

  9
$DIMBLK2
  1

  9
$DIMSTYLE
  2
STANDARD
  9
$DIMCLRD
 70
     0
  9
$DIMCLRE
 70
     0
  9
$DIMCLRT
 70
     0
  9
$DIMTFAC
 40
0.125
  9
$DIMGAP
 40
0.5
  9
$DIMJUST
 70
     0
  9
$DIMSD1
 70
     0
  9
$DIMSD2
 70
     0
  9
$DIMTOLJ
 70
     1
  9
$DIMTZIN
 70
     0
  9
$DIMALTZ
 70
     2
  9
$DIMALTTZ
 70
     2
  9
$DIMUPT
 70
     1
  9
$DIMDEC
 70
     4
  9
$DIMTDEC
 70
     4
  9
$DIMALTU
 70
     2
  9
$DIMALTTD
 70
     0
  9
$DIMTXSTY
  7
STANDARD
  9
$DIMAUNIT
 70
     0
  9
$DIMADEC
 70
     0
  9
$DIMALTRND
 40
0.0
  9
$DIMAZIN
 70
     0
  9
$DIMDSEP
 70
    46
  9
$DIMATFIT
 70
     1
  9
$DIMFRAC
 70
     2
  9
$DIMLDRBLK
  1

  9
$DIMLUNIT
 70
     5
  9
$DIMLWD
 70
    -2
  9
$DIMLWE
 70
    -2
  9
$DIMTMOVE
 70
     1
  9
$LUNITS
 70
     5
  9
$LUPREC
 70
     4
  9
$SKETCHINC
 40
3.305367894585007
  9
$FILLETRAD
 40
0.03125
  9
$AUNITS
 70
     0
  9
$AUPREC
 70
     1
  9
$MENU
  1
acad
  9
$ELEVATION
 40
0.0
  9
$PELEVATION
 40
0.0
  9
$THICKNESS
 40
0.0
  9
$LIMCHECK
 70
     0
  9
$CHAMFERA
 40
0.75
  9
$CHAMFERB
 40
0.75
  9
$CHAMFERC
 40
0.0
  9
$CHAMFERD
 40
0.0
  9
$SKPOLY
 70
     0
  9
$TDCREATE
 40
2451085.664838310
  9
$TDUCREATE
 40
2451085.831504977
  9
$TDUPDATE
 40
2451661.334495601
  9
$TDUUPDATE
 40
2451661.501162268
  9
$TDINDWG
 40
3.9672174769
  9
$TDUSRTIMER
 40
3.9672174769
  9
$USRTIMER
 70
     1
  9
$ANGBASE
 50
0.0
  9
$ANGDIR
 70
     0
  9
$PDMODE
 70
     0
  9
$PDSIZE
 40
0.0
  9
$PLINEWID
 40
0.12
  9
$SPLFRAME
 70
     0
  9
$SPLINETYPE
 70
     6
  9
$SPLINESEGS
 70
     8
  9
$HANDSEED
  5
AF2
  9
$SURFTAB1
 70
     6
  9
$SURFTAB2
 70
     6
  9
$SURFTYPE
 70
     6
  9
$SURFU
 70
     6
  9
$SURFV
 70
     6
  9
$UCSBASE
  2

  9
$UCSNAME
  2

  9
$UCSORG
 10
0.0
 20
0.0
 30
0.0
  9
$UCSXDIR
 10
1.0
 20
0.0
 30
0.0
  9
$UCSYDIR
 10
0.0
 20
1.0
 30
0.0
  9
$UCSORTHOREF
  2

  9
$UCSORTHOVIEW
 70
     0
  9
$UCSORGTOP
 10
0.0
 20
0.0
 30
0.0
  9
$UCSORGBOTTOM
 10
0.0
 20
0.0
 30
0.0
  9
$UCSORGLEFT
 10
0.0
 20
0.0
 30
0.0
  9
$UCSORGRIGHT
 10
0.0
 20
0.0
 30
0.0
  9
$UCSORGFRONT
 10
0.0
 20
0.0
 30
0.0
  9
$UCSORGBACK
 10
0.0
 20
0.0
 30
0.0
  9
$PUCSBASE
  2

  9
$PUCSNAME
  2

  9
$PUCSORG
 10
0.0
 20
0.0
 30
0.0
  9
$PUCSXDIR
 10
1.0
 20
0.0
 30
0.0
  9
$PUCSYDIR
 10
0.0
 20
1.0
 30
0.0
  9
$PUCSORTHOREF
  2

  9
$PUCSORTHOVIEW
 70
     0
  9
$PUCSORGTOP
 10
0.0
 20
0.0
 30
0.0
  9
$PUCSORGBOTTOM
 10
0.0
 20
0.0
 30
0.0
  9
$PUCSORGLEFT
 10
0.0
 20
0.0
 30
0.0
  9
$PUCSORGRIGHT
 10
0.0
 20
0.0
 30
0.0
  9
$PUCSORGFRONT
 10
0.0
 20
0.0
 30
0.0
  9
$PUCSORGBACK
 10
0.0
 20
0.0
 30
0.0
  9
$USERI1
 70
     0
  9
$USERI2
 70
     0
  9
$USERI3
 70
     0
  9
$USERI4
 70
     0
  9
$USERI5
 70
     0
  9
$USERR1
 40
0.0
  9
$USERR2
 40
0.0
  9
$USERR3
 40
0.0
  9
$USERR4
 40
0.0
  9
$USERR5
 40
0.0
  9
$WORLDVIEW
 70
     1
  9
$SHADEDGE
 70
     1
  9
$SHADEDIF
 70
    70
  9
$TILEMODE
 70
     1
  9
$MAXACTVP
 70
    16
  9
$PINSBASE
 10
0.0
 20
0.0
 30
0.0
  9
$PLIMCHECK
 70
     0
  9
$PEXTMIN
 10
1.000000000000000E+20
 20
1.000000000000000E+20
 30
1.000000000000000E+20
  9
$PEXTMAX
 10
-1.000000000000000E+20
 20
-1.000000000000000E+20
 30
-1.000000000000000E+20
  9
$PLIMMIN
 10
0.0
 20
0.0
  9
$PLIMMAX
 10
12.0
 20
9.0
  9
$UNITMODE
 70
     0
  9
$VISRETAIN
 70
     0
  9
$PLINEGEN
 70
     0
  9
$PSLTSCALE
 70
     1
  9
$TREEDEPTH
 70
  3020
  9
$CMLSTYLE
  2
STANDARD
  9
$CMLJUST
 70
     0
  9
$CMLSCALE
 40
1.0
  9
$PROXYGRAPHICS
 70
     1
  9
$MEASUREMENT
 70
     0
  9
$CELWEIGHT
370
    -1
  9
$ENDCAPS
280
     0
  9
$JOINSTYLE
280
     0
  9
$LWDISPLAY
290
     0
  9
$INSUNITS
 70
     0
  9
$HYPERLINKBASE
  1

  9
$STYLESHEET
  1

  9
$XEDIT
290
     1
  9
$CEPSNTYPE
380
     0
  9
$PSTYLEMODE
290
     1
  9
$FINGERPRINTGUID
  2
{A6232B84-9B2E-11D3-8DA4-00A0C981A35F}
  9
$VERSIONGUID
  2
{1C381AFB-176D-11D4-8DA4-00A0C981A35F}
  9
$EXTNAMES
290
     1
  9
$PSVPSCALE
 40
0.0
  9
$OLESTARTUP
290
     0
  0
ENDSEC
  0
SECTION
  2
CLASSES
  0
CLASS
  1
DICTIONARYVAR
  2
AcDbDictionaryVar
  3
AutoCAD 2000
 90
    32768
280
     0
281
     0
  0
CLASS
  1
LWPOLYLINE
  2
AcDbPolyline
  3
AutoCAD 2000
 90
    32768
280
     0
281
     1
  0
CLASS
  1
RASTERVARIABLES
  2
AcDbRasterVariables
  3
ISM
 90
    32768
280
     0
281
     0
  0
CLASS
  1
ACDBDICTIONARYWDFLT
  2
AcDbDictionaryWithDefault
  3
AutoCAD 2000
 90
        0
280
     0
281
     0
  0
CLASS
  1
ACDBPLACEHOLDER
  2
AcDbPlaceHolder
  3
AutoCAD 2000
 90
        0
280
     0
281
     0
  0
CLASS
  1
LAYOUT
  2
AcDbLayout
  3
AutoCAD 2000
 90
        0
280
     0
281
     0
  0
CLASS
  1
ACME_DOCUMENT
  2
AcMeDbDoc
  3
AcMeServices
 90
    32768
280
     1
281
     0
  0
CLASS
  1
ACMESCOPE
  2
AcMeScope
  3
AcMeServices
 90
    32768
280
     1
281
     0
  0
CLASS
  1
ACMECOMMANDHISTORY
  2
AcMeCommandHistory
  3
AcMeServices
 90
    32768
280
     1
281
     0
  0
CLASS
  1
ACIMSYSVARMAN
  2
AcImSysVarManager
  3
AcMeServices
 90
    32768
280
     1
281
     0
  0
CLASS
  1
ACIMREALSYSVAR
  2
AcImRealSysVar
  3
AcMeServices
 90
    32768
280
     1
281
     0
  0
CLASS
  1
ACIMINTSYSVAR
  2
AcImIntSysVar
  3
AcMeServices
 90
    32768
280
     1
281
     0
  0
CLASS
  1
ACMEDRAWINGMAN
  2
AcMeDrawingMan
  3
AcMeServices
 90
    32768
280
     1
281
     0
  0
CLASS
  1
ACMEVIEW
  2
AcMeView
  3
AcMeServices
 90
    32768
280
     1
281
     0
  0
CLASS
  1
ACDBENTITYCACHE
  2
AcMeEntityCache
  3
AcMeServices
 90
    32768
280
     1
281
     0
  0
CLASS
  1
GSMANAGER
  2
AcMeGSManager
  3
AcMeServices
 90
    32768
280
     1
281
     0
  0
CLASS
  1
AmdtInternalReactor
  2
AmdtInternalReactor
  3
AcMeServices
 90
    32768
280
     1
281
     0
  0
CLASS
  1
ACMESTATEMGR
  2
AcMeStateMgr
  3
AcMeServices
 90
    32768
280
     1
281
     0
  0
CLASS
  1
ACGREFMASTER
  2
AcGrefMaster
  3
AcAttribServices
 90
    32768
280
     1
281
     0
  0
CLASS
  1
AM_DRAWING_MGR
  2
AcDmDwgMgr
  3
AcMechDwgViewMgmt
 90
    32768
280
     1
281
     0
  0
CLASS
  1
AM_DWG_DOCUMENT
  2
AcDmDwgDocument
  3
AcMechDwgViewMgmt
 90
    32768
280
     1
281
     0
  0
CLASS
  1
AM_DWG_SHEET
  2
AcDmSheet
  3
AcMechDwgViewMgmt
 90
    32768
280
     1
281
     0
  0
CLASS
  1
AM_VIEWDIMPARMAP
  2
AcDmViewDimParMap
  3
AcMechDwgViewMgmt
 90
    32768
280
     1
281
     0
  0
CLASS
  1
AM_DWGMGR_NAME
  2
AcDmDwgMgrName
  3
AcMechDwgViewMgmt
 90
    32768
280
     1
281
     0
  0
CLASS
  1
ACME_DATABASE
  2
AcMeDbDatabase
  3
AcMeServices
 90
    32768
280
     1
281
     0
  0
CLASS
  1
ACRFINSADJUSTERMGR
  2
AcRfInsAdjusterMgr
  3
AcMeServices
 90
    32768
280
     1
281
     0
  0
CLASS
  1
ACGREFMASTER
  2
AcGrefacadMaster
  3
AcGrefServices
 90
    32768
280
     1
281
     0
  0
CLASS
  1
AMDTMENUSTATEMGR
  2
AmdtMenuStateMgr
  3
McadcomServices
 90
    32768
280
     1
281
     0
  0
CLASS
  1
AMDTMCOMMENUSTATE
  2
AmdtMcomMenuState
  3
McadcomServices
 90
    32768
280
     1
281
     0
  0
CLASS
  1
ASAPP
  2
AcAsAppObject
  3
AutoSurfServices
 90
    32768
280
     1
281
     0
  0
CLASS
  1
IM_STATIC_MAN
  2
AcImStaticVarManager
  3
AcMeServices
 90
    32768
280
     1
281
     0
  0
CLASS
  1
ACIMSTRSYSVAR
  2
AcImStrSysVar
  3
AcMeServices
 90
    32768
280
     1
281
     0
  0
CLASS
  1
ACIMDBLSTATICVAR
  2
AcImDblStaticVar
  3
AcMeServices
 90
    32768
280
     1
281
     0
  0
CLASS
  1
ACIMSTRSTATICVAR
  2
AcImStrStaticVar
  3
AcMeServices
 90
    32768
280
     1
281
     0
  0
CLASS
  1
ACIMINTSTATICVAR
  2
AcImIntStaticVar
  3
AcMeServices
 90
    32768
280
     1
281
     0
  0
CLASS
  1
ACADGREFMODULE
  2
AcAdGrefModule
  3
AdGrefServices
 90
    32768
280
     1
281
     0
  0
CLASS
  1
AMIMASTER
  2
AmiMaster
  3
AmiServices
 90
    32768
280
     1
281
     0
  0
CLASS
  1
ACASGREFMASTER
  2
AcAsGrefMaster
  3
AutoSurfResolverServices
 90
    32768
280
     1
281
     0
  0
CLASS
  1
MAPIAMMOUDLE
  2
MApiAmModule
  3
MApiAmServices
 90
    32768
280
     1
281
     0
  0
CLASS
  1
AMDTDMMENUSTATE
  2
AmdtDmMenuState
  3
AcMechDwgViewMgmt
 90
    32768
280
     1
281
     0
  0
CLASS
  1
AMDTADMENUSTATE
  2
AmdtAdMenuState
  3
DesignerServices
 90
    32768
280
     1
281
     0
  0
CLASS
  1
ADAPPL
  2
AcAdAppl
  3
DesignerServices
 90
    32768
280
     1
281
     0
  0
CLASS
  1
DEPMGR
  2
AcAdDepMgr
  3
DesignerServices
 90
    32768
280
     1
281
     0
  0
CLASS
  1
PARAMMGR
  2
AcAdParamMgr
  3
DesignerServices
 90
    32768
280
     1
281
     0
  0
CLASS
  1
PARAMSCOPE
  2
AcAdParamScope
  3
DesignerServices
 90
    32768
280
     1
281
     0
  0
CLASS
  1
NAMEDAPPL
  2
AcAdNamedAppl
  3
DesignerServices
 90
    32768
280
     1
281
     0
  0
CLASS
  1
ADHNTMPLT
  2
AdHoleNoteTemplateMgr
  3
DesignerServices
 90
    32768
280
     1
281
     0
  0
CLASS
  1
AM_HNTEMPLATE_MGR_NAME
  2
AdHoleNoteTemplateMgrName
  3
DesignerServices
 90
    32768
280
     1
281
     0
  0
CLASS
  1
AMDTAMMENUSTATE
  2
AmdtAmMenuState
  3
DesignerAssemblies
 90
    32768
280
     1
281
     0
  0
CLASS
  1
ACAMPROJECT
  2
AcAmProject
  3
DesignerAssemblies
 90
    32768
280
     1
281
     0
  0
CLASS
  1
ACAMGRCOMPDEF
  2
AcAmGrCompDef
  3
DesignerAssemblies
 90
    32768
280
     1
281
     0
  0
CLASS
  1
ACCMCONTEXT
  2
AcCmContext
  3
DesignerAssemblies
 90
    32768
280
     1
281
     0
  0
CLASS
  1
ACAMCOMPDEF
  2
AcAmCompDef
  3
DesignerAssemblies
 90
    32768
280
     1
281
     0
  0
CLASS
  1
ACAMCOMPDEFMGR
  2
AcAmCompDefMgr
  3
DesignerAssemblies
 90
    32768
280
     1
281
     0
  0
CLASS
  1
AMCONTEXTMGR
  2
AcAmContextMgr
  3
DesignerAssemblies
 90
    32768
280
     1
281
     0
  0
CLASS
  1
ACAMCONTEXTMODELER
  2
AcAmContextModeler
  3
DesignerAssemblies
 90
    32768
280
     1
281
     0
  0
CLASS
  1
MAPIADMODULE
  2
MApiAdModule
  3
MApiAdServices
 90
    32768
280
     1
281
     0
  0
CLASS
  1
ACMDATADICTIONARY
  2
AcmDataDictionary
  3
"AcmSymBB|Product Description: AutoCAD Mechanical 2000|Company: Autodesk"
 90
    32768
280
     1
281
     0
  0
CLASS
  1
ACMDATAENTRYBLOCK
  2
AcmDataEntryBlock
  3
"AcmSymBB|Product Description: AutoCAD Mechanical 2000|Company: Autodesk"
 90
    32768
280
     1
281
     0
  0
CLASS
  1
AMDTBROWSERDBTAB
  2
AmdtBrowserDbTab
  3
McadcomServices
 90
    32768
280
     1
281
     0
  0
CLASS
  1
CBROWSERAPPOBJECT
  2
CBrowserAppObject
  3
McadcomServices
 90
    32768
280
     1
281
     0
  0
CLASS
  1
DM_PLACEHOLDER
  2
AcDmSelsetPlaceholder
  3
AcMechDwgViewMgmt
 90
    32768
280
     1
281
     0
  0
CLASS
  1
CATALOGSTATE
  2
AcAmCatalogState
  3
DesignerAssemblies
 90
    32768
280
     1
281
     0
  0
CLASS
  1
ACAMGRCOMPDEFSET
  2
AcAmGrCompDefSet
  3
DesignerAssemblies
 90
    32768
280
     1
281
     0
  0
CLASS
  1
AMGOBJPROPCFG
  2
AmgObjPropCfg
  3
"AmgLay|Product Description: AutoCAD Mechanical 2000|Company: Autodesk"
 90
    32769
280
     1
281
     0
  0
CLASS
  1
LAYER_INDEX
  2
AcDbLayerIndex
  3
AutoCAD 2000
 90
    32768
280
     0
281
     0
  0
CLASS
  1
IDBUFFER
  2
AcDbIdBuffer
  3
AutoCAD 2000
 90
    32768
280
     0
281
     0
  0
CLASS
  1
ACRFATTGENMGR
  2
AcRfAttGeneralMgr
  3
AcAttribServices
 90
    32768
280
     1
281
     0
  0
CLASS
  1
PLOTSETTINGS
  2
AcDbPlotSettings
  3
AutoCAD 2000
 90
    32768
280
     0
281
     0
  0
CLASS
  1
VBA_PROJECT
  2
AcDbVbaProject
  3
acadvba
 90
    32768
280
     0
281
     0
  0
CLASS
  1
LONG_TRANSACTION
  2
AcDbLongTransaction
  3
AutoCAD 2000
 90
    32768
280
     0
281
     0
  0
CLASS
  1
LWPOLYLINE
  2
AcDbPolyline
  3
AutoCAD 2000
 90
    32768
280
     0
281
     1
  0
CLASS
  1
HATCH
  2
AcDbHatch
  3
AutoCAD 2000
 90
    32768
280
     0
281
     1
  0
CLASS
  1
XRECORD
  2
AcDbXrecord
  3
AutoCAD 2000
 90
    32768
280
     0
281
     0
  0
CLASS
  1
LONG_TRANSACTION
  2
AcDbLongTransaction
  3
AutoCAD 2000
 90
    32768
280
     0
281
     0
  0
CLASS
  1
LWPOLYLINE
  2
AcDbPolyline
  3
AutoCAD 2000
 90
    32768
280
     0
281
     1
  0
CLASS
  1
HATCH
  2
AcDbHatch
  3
AutoCAD 2000
 90
    32768
280
     0
281
     1
  0
CLASS
  1
XRECORD
  2
AcDbXrecord
  3
AutoCAD 2000
 90
    32768
280
     0
281
     0
  0
CLASS
  1
LONG_TRANSACTION
  2
AcDbLongTransaction
  3
AutoCAD 2000
 90
    32768
280
     0
281
     0
  0
CLASS
  1
LWPOLYLINE
  2
AcDbPolyline
  3
AutoCAD 2000
 90
    32768
280
     0
281
     1
  0
CLASS
  1
HATCH
  2
AcDbHatch
  3
AutoCAD 2000
 90
    32768
280
     0
281
     1
  0
CLASS
  1
XRECORD
  2
AcDbXrecord
  3
AutoCAD 2000
 90
    32768
280
     0
281
     0
  0
CLASS
  1
LONG_TRANSACTION
  2
AcDbLongTransaction
  3
AutoCAD 2000
 90
    32768
280
     0
281
     0
  0
CLASS
  1
LWPOLYLINE
  2
AcDbPolyline
  3
AutoCAD 2000
 90
    32768
280
     0
281
     1
  0
CLASS
  1
HATCH
  2
AcDbHatch
  3
AutoCAD 2000
 90
    32768
280
     0
281
     1
  0
CLASS
  1
XRECORD
  2
AcDbXrecord
  3
AutoCAD 2000
 90
    32768
280
     0
281
     0
  0
CLASS
  1
LONG_TRANSACTION
  2
AcDbLongTransaction
  3
AutoCAD 2000
 90
    32768
280
     0
281
     0
  0
CLASS
  1
LWPOLYLINE
  2
AcDbPolyline
  3
AutoCAD 2000
 90
    32768
280
     0
281
     1
  0
CLASS
  1
HATCH
  2
AcDbHatch
  3
AutoCAD 2000
 90
    32768
280
     0
281
     1
  0
CLASS
  1
XRECORD
  2
AcDbXrecord
  3
AutoCAD 2000
 90
    32768
280
     0
281
     0
  0
CLASS
  1
LONG_TRANSACTION
  2
AcDbLongTransaction
  3
AutoCAD 2000
 90
    32768
280
     0
281
     0
  0
CLASS
  1
LWPOLYLINE
  2
AcDbPolyline
  3
AutoCAD 2000
 90
    32768
280
     0
281
     1
  0
CLASS
  1
HATCH
  2
AcDbHatch
  3
AutoCAD 2000
 90
    32768
280
     0
281
     1
  0
CLASS
  1
XRECORD
  2
AcDbXrecord
  3
AutoCAD 2000
 90
    32768
280
     0
281
     0
  0
ENDSEC
  0
SECTION
  2
TABLES
  0
TABLE
  2
VPORT
  5
1B
330
0
100
AcDbSymbolTable
 70
     2
  0
VPORT
  5
AF1
330
1B
100
AcDbSymbolTableRecord
100
AcDbViewportTableRecord
  2
*Active
 70
     0
 10
0.0
 20
0.0
 11
1.0
 21
1.0
 12
166.5221303120508
 22
43.21889913847606
 13
0.0
 23
0.0
 14
1.0
 24
1.0
 15
0.0
 25
0.0
 16
0.0
 26
0.0
 36
1.0
 17
-64.46234487877643
 27
33.0238264231553
 37
6.148717398612387
 40
140.567657872573
 41
1.413068844807467
 42
50.0
 43
-6.148717398612387
 44
-6.148717398612387
 50
0.0
 51
0.0
 71
     0
 72
 20000
 73
     1
 74
     1
 75
     0
 76
     0
 77
     0
 78
     2
281
     0
 65
     1
110
0.0
120
0.0
130
0.0
111
1.0
121
0.0
131
0.0
112
0.0
122
1.0
132
0.0
 79
     0
146
0.0
  0
ENDTAB
  0
TABLE
  2
LTYPE
  5
16
330
0
100
AcDbSymbolTable
 70
     3
  0
LTYPE
  5
17
330
16
100
AcDbSymbolTableRecord
100
AcDbLinetypeTableRecord
  2
BYBLOCK
 70
     0
  3

 72
    65
 73
     0
 40
0.0
  0
LTYPE
  5
18
330
16
100
AcDbSymbolTableRecord
100
AcDbLinetypeTableRecord
  2
BYLAYER
 70
     0
  3

 72
    65
 73
     0
 40
0.0
  0
LTYPE
  5
9
330
16
100
AcDbSymbolTableRecord
100
AcDbLinetypeTableRecord
  2
CONTINUOUS
 70
     0
  3
Solid line
 72
    65
 73
     0
 40
0.0
  0
LTYPE
  5
AB
330
16
100
AcDbSymbolTableRecord
100
AcDbLinetypeTableRecord
  2
DASHED
 70
     0
  3
Dashed __ __ __ __ __ __ __ __ __ __ __ __ __ _
 72
    65
 73
     2
 40
0.75
 49
0.5
 74
     0
 49
-0.25
 74
     0
  0
LTYPE
  5
153
330
16
100
AcDbSymbolTableRecord
100
AcDbLinetypeTableRecord
  2
PHANTOM
 70
     0
  3
Phantom ______  __  __  ______  __  __  ______
 72
    65
 73
     6
 40
2.5
 49
1.25
 74
     0
 49
-0.25
 74
     0
 49
0.25
 74
     0
 49
-0.25
 74
     0
 49
0.25
 74
     0
 49
-0.25
 74
     0
  0
ENDTAB
  0
TABLE
  2
LAYER
  5
11
330
0
100
AcDbSymbolTable
 70
     6
  0
LAYER
  5
5
330
11
100
AcDbSymbolTableRecord
100
AcDbLayerTableRecord
  2
0
 70
     0
 62
     7
  6
CONTINUOUS
370
    -3
390
6
  0
LAYER
  5
28
330
11
100
AcDbSymbolTableRecord
100
AcDbLayerTableRecord
  2
A1
 70
     0
 62
     7
  6
CONTINUOUS
370
    -3
390
6
  0
LAYER
  5
2F
330
11
100
AcDbSymbolTableRecord
100
AcDbLayerTableRecord
  2
LINEWORK
 70
     0
 62
     7
  6
CONTINUOUS
370
    -3
390
6
  0
LAYER
  5
6C
330
11
100
AcDbSymbolTableRecord
100
AcDbLayerTableRecord
  2
Defpoints
 70
     0
 62
     7
  6
CONTINUOUS
290
     0
370
    -3
390
6
  0
LAYER
  5
24
330
11
100
AcDbSymbolTableRecord
100
AcDbLayerTableRecord
  2
leaders
 70
     0
 62
     1
  6
CONTINUOUS
370
    -3
390
6
  0
LAYER
  5
577
330
11
100
AcDbSymbolTableRecord
100
AcDbLayerTableRecord
  2
DIM
 70
     0
 62
     7
  6
CONTINUOUS
370
    -3
390
6
  0
ENDTAB
  0
TABLE
  2
STYLE
  5
12
330
0
100
AcDbSymbolTable
 70
     3
  0
STYLE
  5
13
330
12
100
AcDbSymbolTableRecord
100
AcDbTextStyleTableRecord
  2
STANDARD
 70
     0
 40
0.0
 41
1.0
 50
0.0
 71
     0
 42
5.0
  3
unvr55w.ttf
  4

1001
ACAD
1000
Univers
1071
       34
  0
STYLE
  5
4B
330
12
100
AcDbSymbolTableRecord
100
AcDbTextStyleTableRecord
  2
ROMANC
 70
     0
 40
0.0
 41
1.0
 50
0.0
 71
     0
 42
0.5
  3
TIMESBD.TTF
  4

1001
ACAD
1000
Times New Roman
1071
 33554450
  0
STYLE
  5
2B
330
12
100
AcDbSymbolTableRecord
100
AcDbTextStyleTableRecord
  2
barcoder
 70
     0
 40
0.0
 41
1.0
 50
0.0
 71
     0
 42
4.5625
  3
cw_barcd.ttf
  4

1001
ACAD
1000
Barcoder
1071
 33554434
  0
ENDTAB
  0
TABLE
  2
VIEW
  5
19
330
0
100
AcDbSymbolTable
 70
     0
  0
ENDTAB
  0
TABLE
  2
UCS
  5
1A
330
0
100
AcDbSymbolTable
 70
     0
  0
ENDTAB
  0
TABLE
  2
APPID
  5
1D
330
0
100
AcDbSymbolTable
 70
     2
  0
APPID
  5
14
330
1D
100
AcDbSymbolTableRecord
100
AcDbRegAppTableRecord
  2
ACAD
 70
     0
  0
APPID
  5
87E
330
1D
100
AcDbSymbolTableRecord
100
AcDbRegAppTableRecord
  2
CONTENTBLOCKICON
 70
     0
  0
ENDTAB
  0
TABLE
  2
DIMSTYLE
  5
1E
330
0
100
AcDbSymbolTable
 70
     1
100
AcDbDimStyleTable
 71
     0
  0
DIMSTYLE
105
1F
102
{ACAD_REACTORS
330
71
330
30F
330
825
330
828
330
82F
330
830
330
8EF
330
8F2
330
8F9
330
8FA
102
}
330
1E
100
AcDbSymbolTableRecord
100
AcDbDimStyleTableRecord
  2
STANDARD
 70
     0
  3
"
 41
0.5
 42
1.0
 43
0.0625
 44
0.25
 73
     0
 74
     0
 77
     3
140
1.0
141
0.0
146
0.125
147
0.125
171
     0
274
     0
276
     2
277
     5
285
     2
286
     2
289
     0
340
13
  0
ENDTAB
  0
TABLE
  2
BLOCK_RECORD
  5
1
330
0
100
AcDbSymbolTable
 70
    13
  0
BLOCK_RECORD
  5
2
102
{ACAD_XDICTIONARY
360
3
102
}
330
1
100
AcDbSymbolTableRecord
100
AcDbBlockTableRecord
  2
*MODEL_SPACE
340
B
  0
BLOCK_RECORD
  5
D
102
{ACAD_XDICTIONARY
360
2D3
102
}
330
1
100
AcDbSymbolTableRecord
100
AcDbBlockTableRecord
  2
*PAPER_SPACE
340
10
  0
BLOCK_RECORD
  5
185
330
1
100
AcDbSymbolTableRecord
100
AcDbBlockTableRecord
  2
PROFILE LOGO
340
0
102
{BLKREFS
331
8A4
331
8AF
331
7DA
331
7E5
102
}
  0
BLOCK_RECORD
  5
30
330
1
100
AcDbSymbolTableRecord
100
AcDbBlockTableRecord
  2
TSFORMB
340
0
102
{BLKREFS
331
26
102
}
  0
BLOCK_RECORD
  5
283
330
1
100
AcDbSymbolTableRecord
100
AcDbBlockTableRecord
  2
*D2
340
0
  0
BLOCK_RECORD
  5
2E4
330
1
100
AcDbSymbolTableRecord
100
AcDbBlockTableRecord
  2
*D3
340
0
  0
BLOCK_RECORD
  5
310
330
1
100
AcDbSymbolTableRecord
100
AcDbBlockTableRecord
  2
*D4
340
0
  0
BLOCK_RECORD
  5
39B
330
1
100
AcDbSymbolTableRecord
100
AcDbBlockTableRecord
  2
*D5
340
0
  0
BLOCK_RECORD
  5
651
330
1
100
AcDbSymbolTableRecord
100
AcDbBlockTableRecord
  2
*D6
340
0
  0
BLOCK_RECORD
  5
6C4
330
1
100
AcDbSymbolTableRecord
100
AcDbBlockTableRecord
  2
*D7
340
0
  0
BLOCK_RECORD
  5
7B7
330
1
100
AcDbSymbolTableRecord
100
AcDbBlockTableRecord
  2
PIER
340
0
310
28000000200000002000000001000800000000000004000000000000000000000000000000000000000000004000000080000000FF000000002000004020000080200000FF200000004000004040000080400000FF400000006000004060000080600000FF600000008000004080000080800000FF80000000A0000040A000
310
0080A00000FFA0000000C0000040C0000080C00000FFC0000000FF000040FF000080FF0000FFFF0000000020004000200080002000FF002000002020004020200080202000FF202000004020004040200080402000FF402000006020004060200080602000FF602000008020004080200080802000FF80200000A0200040A0
310
200080A02000FFA0200000C0200040C0200080C02000FFC0200000FF200040FF200080FF2000FFFF2000000040004000400080004000FF004000002040004020400080204000FF204000004040004040400080404000FF404000006040004060400080604000FF604000008040004080400080804000FF80400000A0400040
310
A0400080A04000FFA0400000C0400040C0400080C04000FFC0400000FF400040FF400080FF4000FFFF4000000060004000600080006000FF006000002060004020600080206000FF206000004060004040600080406000FF406000006060004060600080606000FF606000008060004080600080806000FF80600000A06000
310
40A0600080A06000FFA0600000C0600040C0600080C06000FFC0600000FF600040FF600080FF6000FFFF6000000080004000800080008000FF008000002080004020800080208000FF208000004080004040800080408000FF408000006080004060800080608000FF608000008080004080800080808000FF80800000A080
310
0040A0800080A08000FFA0800000C0800040C0800080C08000FFC0800000FF800040FF800080FF8000FFFF80000000A0004000A0008000A000FF00A0000020A0004020A0008020A000FF20A0000040A0004040A0008040A000FF40A0000060A0004060A0008060A000FF60A0000080A0004080A0008080A000FF80A00000A0
310
A00040A0A00080A0A000FFA0A00000C0A00040C0A00080C0A000FFC0A00000FFA00040FFA00080FFA000FFFFA0000000C0004000C0008000C000FF00C0000020C0004020C0008020C000FF20C0000040C0004040C0008040C000FF40C0000060C0004060C0008060C000FF60C0000080C0004080C0008080C000FF80C00000
310
A0C00040A0C00080A0C000FFA0C00000C0C00040C0C00080C0C000FFC0C00000FFC00040FFC00080FFC000FFFFC0000000FF004000FF008000FF00FF00FF000020FF004020FF008020FF00FF20FF000040FF004040FF008040FF00FF40FF000060FF004060FF008060FF00FF60FF000080FF004080FF008080FF00FF80FF00
310
00A0FF0040A0FF0080A0FF00FFA0FF0000C0FF0040C0FF0080C0FF00FFC0FF0000FFFF0040FFFF0080FFFF00FFFFFF00FFFFFFFFFFFFFFFFFFFFFFFFFFFFFFFFFFFFFFFFFFFFFFFFFFFFFFFFFFFFFFFFFFFFFFFFFFFFFFFFFFFFFFFFFFFFFFFFFFFFFFFFFFFFFFFFFFFFFFFFFFFFFFFFFFFFFFFFFFFFFFFF00000000000000
310
00000000000000000000FFFFFFFFFFFFFFFFFFFFFFFFFFFFFF00FFFFFFFF00FFFFFFFFFF000000000000FFFFFFFFFFFFFFFFFFFFFFFFFFFFFF00FFFFFFFF00FFFFFFFFFFFFFFFFFFFFFFFFFFFFFFFFFFFFFFFFFFFFFFFFFF000000000000000000000000000000FFFFFFFFFFFFFFFFFFFFFFFFFFFFFFFFFFFF000000000000
310
FFFFFFFFFFFFFF00FFFFFFFFFFFFFFFFFFFFFFFFFFFFFFFFFFFF00FF0000FF00FFFFFFFFFFFFFF00FFFFFFFFFFFFFFFFFFFFFFFFFFFFFFFFFFFF00000000000000000000FFFFFF00FFFFFFFFFFFFFFFFFFFFFFFFFFFFFFFFFFFF00FF0000FF00FFFFFF00FFFFFF00FFFFFFFFFFFFFFFFFFFFFFFFFFFFFFFFFFFF0000000000
310
00FFFFFF00FFFFFF00FFFFFFFFFFFFFFFFFFFFFFFFFFFFFFFFFFFFFF00000000FFFFFFFF00FFFFFF00FFFFFFFFFFFFFFFFFFFFFFFFFFFFFFFFFFFFFF00000000FFFFFFFF00FFFFFF00FFFFFFFFFFFFFFFFFFFFFFFFFFFFFFFFFFFFFF00FFFF00FFFFFFFF00FFFFFF00FFFFFFFFFFFFFFFFFFFFFFFFFFFFFFFFFFFF00FFFFFF
310
FF00FFFFFF00FFFFFF00FFFFFFFFFFFFFFFFFFFFFFFFFFFFFFFFFFFF00FFFFFFFF00FF000000FF00000000FFFFFFFFFFFFFFFFFFFFFFFFFFFFFFFFFF00FFFFFFFF00FF000000000000000000FFFFFFFFFFFFFFFFFFFFFFFFFFFFFFFFFF00FFFFFF00FFFFFF00FFFFFF00FFFFFFFFFFFFFFFFFFFFFFFFFFFFFFFFFFFFFF00FF
310
FF00FFFFFFFF00FFFFFF00FFFFFFFFFFFFFFFFFFFFFFFFFFFFFFFFFFFFFF00000000FFFFFFFF00FFFFFF00FFFFFFFFFFFFFFFFFFFFFFFFFFFFFFFFFFFFFF00000000FFFFFFFF00FFFFFF00FFFFFFFFFFFFFFFFFFFFFFFFFFFFFFFFFFFFFF00000000FFFFFFFF00FFFFFF00FFFFFFFFFFFFFFFFFFFFFFFFFFFFFFFFFFFF0000
310
00000000FFFFFF00FFFFFF00FFFFFFFFFFFFFFFFFFFFFFFFFFFFFFFFFFFF00A40000000000000000FFFFFF00FFFFFFFFFFFFFFFFFFFFFFFFFFFFFFFFFF0000FF0000FF0000FFFFFFFFFFFF00FFFFFFFFFFFFFFFFFFFFFFFFFFFFFFFF00A4A4FFFFFFFFFF0000FFFFFFFFFF00FFFFFFFFFFFFFFFFFFFFFFFFFFFFFFFF000000
310
00000000000000000000000000FFFFFFFFFFFFFFFFFFFFFFFFFFFFFFFF00FFFFFFFFFFFFFFFF00FFFFFFFFFFFFFFFFFFFFFFFFFFFFFFFFFFFFFFFFFFFF00FFFF000000FFFFFF00FFFFFFFFFFFFFFFFFFFFFFFFFFFFFFFFFFFFFFFFFFFF00000000000000000000FFFFFFFFFFFFFFFFFFFFFFFFFFFFFFFFFFFFFFFFFFFFFFFF
310
FF00000000FFFFFFFFFFFFFFFFFFFFFFFFFFFFFFFFFFFFFFFFFFFFFFFFFFFFFFFFFFFFFFFFFFFFFFFFFFFFFFFFFFFFFFFFFFFFFFFFFFFFFF
  0
BLOCK_RECORD
  5
8FD
330
1
100
AcDbSymbolTableRecord
100
AcDbBlockTableRecord
  2
*D9
340
0
  0
BLOCK_RECORD
  5
90A
330
1
100
AcDbSymbolTableRecord
100
AcDbBlockTableRecord
  2
*D10
340
0
  0
BLOCK_RECORD
  5
917
330
1
100
AcDbSymbolTableRecord
100
AcDbBlockTableRecord
  2
*D11
340
0
  0
BLOCK_RECORD
  5
924
330
1
100
AcDbSymbolTableRecord
100
AcDbBlockTableRecord
  2
*D12
340
0
  0
ENDTAB
  0
ENDSEC
  0
SECTION
  2
BLOCKS
  0
BLOCK
  5
4
330
2
100
AcDbEntity
  8
0
100
AcDbBlockBegin
  2
*MODEL_SPACE
 70
     2
 10
0.0
 20
0.0
 30
0.0
  3
*MODEL_SPACE
  1

  0
ENDBLK
  5
A
330
2
100
AcDbEntity
  8
0
100
AcDbBlockEnd
  0
BLOCK
  5
E
330
D
100
AcDbEntity
 67
     1
  8
0
100
AcDbBlockBegin
  2
*PAPER_SPACE
 70
     0
 10
0.0
 20
0.0
 30
0.0
  3
*PAPER_SPACE
  1

  0
ENDBLK
  5
F
330
D
100
AcDbEntity
 67
     1
  8
0
100
AcDbBlockEnd
  0
BLOCK
  5
19E
330
185
100
AcDbEntity
  8
0
 62
     7
100
AcDbBlockBegin
  2
PROFILE LOGO
 70
     2
 10
0.0
 20
0.0
 30
0.0
  3
PROFILE LOGO
  1

  0
LINE
  5
186
330
185
100
AcDbEntity
  8
0
 62
    22
100
AcDbLine
 10
0.7459516636765642
 20
-0.415894330395318
 30
0.0
 11
0.74595166367655
 21
-1.12746688439163
 31
0.0
  0
LINE
  5
187
330
185
100
AcDbEntity
  8
0
 62
    22
100
AcDbLine
 10
0.5841942848079072
 20
-0.415894330395318
 30
0.0
 11
0.5841942848079072
 21
-1.12746688439163
 31
0.0
  0
HATCH
  5
188
330
185
100
AcDbEntity
  8
0
 62
    22
100
AcDbHatch
 10
0.0
 20
0.0
 30
0.0
210
0.0
220
0.0
230
1.0
  2
LINE
 70
     0
 71
     0
 91
        1
 92
       33
 93
       38
 72
     1
 10
1.115683196411978
 20
-0.1706330859717084
 11
0.2177636962628071
 21
-0.1706330859717084
 72
     1
 10
0.2177636962628213
 20
-0.1706330859717084
 11
0.2078601968792952
 21
-0.4246889457533243
 72
     1
 10
0.2078601968792952
 20
-0.4246889457533243
 11
0.2375709173007294
 21
-0.4246889457533243
 72
     1
 10
0.2375709173007294
 20
-0.4246889457533243
 11
0.2441732502230991
 21
-0.3817964654080939
 72
     1
 10
0.2441732502230991
 20
-0.3817964654080939
 11
0.254076749606611
 21
-0.3422032805409501
 72
     1
 10
0.2540767496066252
 20
-0.3422032805409501
 11
0.2738837483736916
 21
-0.3092090964125091
 72
     1
 10
0.2738837483736916
 20
-0.3092090964125091
 11
0.2969919136019428
 21
-0.2861130719066693
 72
     1
 10
0.296991913601957
 20
-0.2861130719066764
 11
0.3267026340234338
 21
-0.2663164794731259
 72
     1
 10
0.3267026340234196
 20
-0.2663164794731259
 11
0.356413132174012
 21
-0.2498193191118219
 72
     1
 10
0.356413132174012
 20
-0.2498193191118148
 11
0.3828224638634481
 21
-0.243220591561446
 72
     1
 10
0.3828224638634623
 20
-0.243220591561446
 11
0.4092320178237401
 21
-0.243220591561446
 72
     1
 10
0.4092320178237401
 20
-0.243220591561446
 11
0.4719541805861525
 21
-0.2465198870395469
 72
     1
 10
0.4719541805861525
 20
-0.2465198870395469
 11
0.514869566852326
 21
-0.2729153436176332
 72
     1
 10
0.514869566852326
 20
-0.2729153436176332
 11
0.5742905631535394
 21
-0.3389038484686964
 72
     1
 10
0.5742905631535394
 20
-0.3389038484687106
 11
0.5907966177302626
 21
-0.3916947616248691
 72
     1
 10
0.5907966177302768
 20
-0.3916947616248691
 11
0.5907966177302768
 21
-1.157161773041991
 72
     1
 10
0.5907966177302768
 20
-1.157161773041984
 11
0.5643870637699991
 21
-1.203353685459461
 72
     1
 10
0.5643870637699849
 20
-1.203353685459468
 11
0.4983637345463876
 21
-1.226449709965308
 72
     1
 10
0.4983637345464019
 20
-1.226449709965301
 11
0.4389425159743326
 21
-1.226449709965301
 72
     1
 10
0.4389425159743326
 20
-1.226449709965301
 11
0.4323401830519913
 21
-1.249545734471119
 72
     1
 10
0.4323401830520055
 20
-1.249545734471134
 11
0.8945045989712809
 21
-1.249545734471134
 72
     1
 10
0.8945045989712667
 20
-1.249545734471134
 11
0.8945045989712667
 21
-1.226449709965315
 72
     1
 10
0.8945045989712667
 20
-1.226449709965301
 11
0.8152763816321311
 21
-1.226449709965301
 72
     1
 10
0.8152763816321311
 20
-1.226449709965301
 11
0.7525539965988913
 21
-1.186856661692324
 72
     1
 10
0.7525539965988913
 20
-1.186856661692324
 11
0.7426504972153794
 21
-1.140664612680659
 72
     1
 10
0.7426504972153652
 20
-1.140664612680673
 11
0.7393493307541803
 21
-0.394994193697137
 72
     1
 10
0.7393493307541803
 20
-0.394994193697137
 11
0.7558551630600619
 21
-0.3389038484687106
 72
     1
 10
0.7558551630600761
 20
-0.3389038484687106
 11
0.7987705493262496
 21
-0.2828136398344298
 72
     1
 10
0.7987705493262496
 20
-0.2828136398344227
 11
0.8614929343594894
 21
-0.2498193191118148
 72
     1
 10
0.8614929343594894
 20
-0.2498193191118148
 11
0.9374197629665985
 21
-0.2399211594891923
 72
     1
 10
0.9374197629665985
 20
-0.2399211594891923
 11
1.010045647383407
 21
-0.2663164794731117
 72
     1
 10
1.010045647383407
 20
-0.2663164794731259
 11
1.056262200110722
 21
-0.3092090964125234
 72
     1
 10
1.056262200110722
 20
-0.3092090964125091
 11
1.085972698261343
 21
-0.361999872974522
 72
     1
 10
1.085972698261358
 20
-0.3619998729745291
 11
1.092575031183727
 21
-0.4246889457533243
 72
     1
 10
1.092575031183727
 20
-0.4246889457533243
 11
1.115683196411993
 21
-0.4246889457533243
 72
     1
 10
1.115683196411978
 20
-0.4246889457533243
 11
1.109080863489609
 21
-0.17723195011623
 72
     1
 10
1.109080863489609
 20
-0.17723195011623
 11
1.109080863489609
 21
-0.1739325180439621
 72
     1
 10
1.109080863489609
 20
-0.1739325180439621
 11
1.105779697028424
 21
-0.1739325180439621
 97
        0
 75
     0
 76
     1
 52
0.0
 41
0.078125
 77
     0
 78
     1
 53
0.0
 43
-28.182772630023
 44
-32.9923404580304
 45
0.0
 46
0.009765625
 79
     0
 98
        1
 10
-28.182772630023
 20
-32.9923404580304
  0
LWPOLYLINE
  5
189
330
185
100
AcDbEntity
  8
0
 62
    22
100
AcDbPolyline
 90
        4
 70
     1
 43
0.0
 10
0.0262955969727301
 20
-0.0287577800528069
 10
1.307151517972869
 20
-0.0287577800528069
 10
1.307151517972869
 20
-1.731261997456265
 10
0.0262955969727301
 20
-1.731261997456265
  0
LINE
  5
18A
330
185
100
AcDbEntity
  8
0
 62
    22
100
AcDbLine
 10
0.0262955969727443
 20
-1.4112176328236
 30
0.0
 11
1.307151517972869
 21
-1.4112176328236
 31
0.0
  0
ATTDEF
  5
18B
330
185
100
AcDbEntity
  8
A1
 62
    22
100
AcDbText
 10
0.6781304052809105
 20
-1.678298248906529
 30
0.0
 40
0.2126953125
  1

 72
     1
 11
0.6781304052809105
 21
-1.678298248906529
 31
0.0
100
AcDbAttributeDefinition
  3
ADD STONE MARKER
  2
XXXX
 70
     0
  0
LINE
  5
18C
330
185
100
AcDbEntity
  8
0
 62
    22
100
AcDbLine
 10
0.7464576960363587
 20
-1.129021462591367
 30
0.0
 11
0.74595166367655
 21
-1.12746688439163
 31
0.0
  0
ARC
  5
18D
330
185
100
AcDbEntity
  8
0
 62
    22
100
AcDbCircle
 10
0.8421255873066684
 20
-1.127299146756172
 30
0.0
 40
0.0956833935014068
100
AcDbArc
 50
181.0313885659746
 51
269.7936990713142
  0
LINE
  5
18E
330
185
100
AcDbEntity
  8
0
 62
    22
100
AcDbLine
 10
0.9011069318936506
 20
-1.22315027789304
 30
0.0
 11
0.841781067510368
 21
-1.22315027789304
 31
0.0
  0
LINE
  5
18F
330
185
100
AcDbEntity
  8
0
 62
    22
100
AcDbLine
 10
0.9011069318936506
 20
-1.256144598615648
 30
0.0
 11
0.9011069318936506
 21
-1.22315027789304
 31
0.0
  0
ARC
  5
190
330
185
100
AcDbEntity
  8
0
 62
    22
100
AcDbCircle
 10
0.4880203611777887
 20
-1.127299146756172
 30
0.0
 40
0.0956833935014068
100
AcDbArc
 50
270.2063009286848
 51
358.9686114340253
  0
LINE
  5
191
330
185
100
AcDbEntity
  8
0
 62
    22
100
AcDbLine
 10
0.4290390165908207
 20
-1.256144598615648
 30
0.0
 11
0.4290390165908207
 21
-1.22315027789304
 31
0.0
  0
LINE
  5
192
330
185
100
AcDbEntity
  8
0
 62
    22
100
AcDbLine
 10
0.4290390165908207
 20
-1.22315027789304
 30
0.0
 11
0.4883648809740891
 21
-1.22315027789304
 31
0.0
  0
LINE
  5
193
330
185
100
AcDbEntity
  8
0
 62
    22
100
AcDbLine
 10
0.5836882524480984
 20
-1.129021462591367
 30
0.0
 11
0.5841942848079072
 21
-1.12746688439163
 31
0.0
  0
LINE
  5
194
330
185
100
AcDbEntity
  8
0
 62
    22
100
AcDbLine
 10
0.4290390165908207
 20
-1.256144598615648
 30
0.0
 11
0.9011069318936506
 21
-1.256144598615648
 31
0.0
  0
LINE
  5
195
330
185
100
AcDbEntity
  8
0
 62
    22
100
AcDbLine
 10
1.085512597630156
 20
-0.415894330395318
 30
0.0
 11
1.085512597630156
 21
-0.4280723832374847
 31
0.0
  0
ARC
  5
196
330
185
100
AcDbEntity
  8
0
 62
    22
100
AcDbCircle
 10
0.9138550451562537
 20
-0.4147906495365632
 30
0.0
 40
0.1716611005230106
100
AcDbArc
 50
359.6316189828552
 51
90.00081606717127
  0
ARC
  5
197
330
185
100
AcDbEntity
  8
0
 62
    22
100
AcDbCircle
 10
0.9180888683309831
 20
-0.4147906495365632
 30
0.0
 40
0.1716611005230106
100
AcDbArc
 50
89.99918393282873
 51
180.3683810171443
  0
LINE
  5
198
330
185
100
AcDbEntity
  8
0
 62
    22
100
AcDbLine
 10
0.2078601968792952
 20
-0.427988377825578
 30
0.0
 11
0.2441732502230991
 21
-0.427988377825578
 31
0.0
  0
LINE
  5
199
330
185
100
AcDbEntity
  8
0
 62
    22
100
AcDbLine
 10
0.2446333508543006
 20
-0.415894330395318
 30
0.0
 11
0.2446333508543006
 21
-0.4280723832374847
 31
0.0
  0
ARC
  5
19A
330
185
100
AcDbEntity
  8
0
 62
    22
100
AcDbCircle
 10
0.4162909033282176
 20
-0.4147906495365632
 30
0.0
 40
0.1716611005230106
100
AcDbArc
 50
89.99918393282873
 51
180.3683810171443
  0
LINE
  5
19B
330
185
100
AcDbEntity
  8
0
 62
    22
100
AcDbLine
 10
0.2144627520724782
 20
-0.1706330859717156
 30
0.0
 11
0.2078601968792952
 21
-0.427988377825578
 31
0.0
  0
ARC
  5
19C
330
185
100
AcDbEntity
  8
0
 62
    22
100
AcDbCircle
 10
0.4120570801534882
 20
-0.4147906495365632
 30
0.0
 40
0.1716611005230106
100
AcDbArc
 50
359.6316189828552
 51
90.00081606717127
  0
LWPOLYLINE
  5
19D
330
185
100
AcDbEntity
  8
0
 62
    22
100
AcDbPolyline
 90
        4
 70
     0
 43
0.0
 10
0.224366029185191
 20
-0.1706330859717084
 10
1.115683196411978
 20
-0.1706330859717084
 10
1.122285751605161
 20
-0.427988377825578
 10
1.085972698261358
 20
-0.427988377825578
  0
ENDBLK
  5
19F
330
185
100
AcDbEntity
  8
0
 62
     7
100
AcDbBlockEnd
  0
BLOCK
  5
5D
330
30
100
AcDbEntity
  8
0
 62
     7
100
AcDbBlockBegin
  2
TSFORMB
 70
     2
 10
0.0
 20
0.0
 30
0.0
  3
TSFORMB
  1

  0
LINE
  5
31
330
30
100
AcDbEntity
  8
0
100
AcDbLine
 10
105.9925392881563
 20
78.84810849484797
 30
0.0
 11
105.9925392881563
 21
70.31072004936999
 31
0.0
  0
LINE
  5
32
330
30
100
AcDbEntity
  8
0
100
AcDbLine
 10
105.9925392881563
 20
0.0
 30
0.0
 11
105.9925392881563
 21
78.84810849484797
 31
0.0
  0
LINE
  5
33
330
30
100
AcDbEntity
  8
0
100
AcDbLine
 10
0.0
 20
0.0
 30
0.0
 11
105.9925392881563
 21
0.0
 31
0.0
  0
LINE
  5
34
330
30
100
AcDbEntity
  8
0
100
AcDbLine
 10
0.0
 20
78.84810849484797
 30
0.0
 11
0.0
 21
0.0
 31
0.0
  0
LINE
  5
35
330
30
100
AcDbEntity
  8
0
100
AcDbLine
 10
56.87404547169354
 20
0.0
 30
0.0
 11
56.87404547169354
 21
12.46470592426129
 31
0.0
  0
TEXT
  5
36
330
30
100
AcDbEntity
  8
0
 62
     7
100
AcDbText
 10
39.28098221173831
 20
10.97304845086642
 30
0.0
 40
0.8085000000000002
  1
LEGEND
100
AcDbText
  0
TEXT
  5
37
330
30
100
AcDbEntity
  8
0
 62
     7
100
AcDbText
 10
38.18320344075362
 20
3.401999220949562
 30
0.0
 40
0.8400000000000002
  1
CATEGORY
 72
     1
 11
41.47652732452399
 21
3.401999220949562
 31
0.0
100
AcDbText
  0
LINE
  5
38
330
30
100
AcDbEntity
  8
0
 62
     7
100
AcDbLine
 10
26.78791925899645
 20
8.549200111339303
 30
0.0
 11
29.32320076794366
 21
8.549200111339303
 31
0.0
  0
TEXT
  5
39
330
30
100
AcDbEntity
  8
0
 62
     7
100
AcDbText
 10
30.56536100380196
 20
8.165961840384341
 30
0.0
 40
1.05
  1
- Unfinished Side
100
AcDbText
  0
LINE
  5
3A
330
30
100
AcDbEntity
  8
0
100
AcDbLine
 10
25.9704997615305
 20
0.0
 30
0.0
 11
25.9704997615305
 21
12.46470592426129
 31
0.0
  0
ATTDEF
  5
3B
330
30
100
AcDbEntity
  8
A1
 62
     1
100
AcDbText
 10
41.26016333205519
 20
0.916484150045278
 30
0.0
 40
1.025589599999999
  1

 72
     1
 11
41.26016333205519
 21
0.916484150045278
 31
0.0
100
AcDbAttributeDefinition
  3
ADD CATEGORY NAMES
  2
XXXXXX
 70
     0
  0
ATTDEF
  5
3C
330
30
100
AcDbEntity
  8
A1
 62
     1
100
AcDbText
 10
21.55372231158242
 20
1.875018704105684
 30
0.0
 40
0.8400000000000002
  1

 72
     2
 11
21.55372231158242
 21
1.875018704105684
 31
0.0
100
AcDbAttributeDefinition
  3
ADD BARCODE TEXT
  2
XXXXXX
 70
     0
  0
LINE
  5
3D
330
30
100
AcDbEntity
  8
0
 62
     7
100
AcDbLine
 10
25.9704997615305
 20
12.46470592426129
 30
0.0
 11
0.0
 21
12.46470592426129
 31
0.0
  0
ATTDEF
  5
3E
330
30
100
AcDbEntity
  8
A1
 62
     1
100
AcDbText
 10
12.85191920549937
 20
3.11796280247222
 30
0.0
 40
6.132000000000001
  1

  7
barcoder
 72
     1
 11
12.85191920549937
 21
3.11796280247222
 31
0.0
100
AcDbAttributeDefinition
  3
ADD BARCODE NUMBER
  2
BARCODE
 70
     0
  0
LINE
  5
3F
330
30
100
AcDbEntity
  8
0
 62
     7
100
AcDbLine
 10
56.87404547169354
 20
10.31505184057846
 30
0.0
 11
25.9704997615305
 21
10.31505184057846
 31
0.0
  0
LINE
  5
40
330
30
100
AcDbEntity
  8
0
 62
     7
100
AcDbLine
 10
56.87404547169354
 20
2.864660228904256
 30
0.0
 11
25.9704997615305
 21
2.864660228904256
 31
0.0
  0
LINE
  5
41
330
30
100
AcDbEntity
  8
0
 62
     7
100
AcDbLine
 10
56.87404547169354
 20
4.753491724833224
 30
0.0
 11
25.9704997615305
 21
4.753491724833224
 31
0.0
  0
LINE
  5
42
330
30
100
AcDbEntity
  8
0
100
AcDbLine
 10
92.45878286761296
 20
70.31072004936999
 30
0.0
 11
92.45878286761296
 21
78.84810849484797
 31
0.0
  0
ATTDEF
  5
43
330
30
100
AcDbEntity
  8
A1
 62
     1
100
AcDbText
 10
99.20289126219257
 20
73.40001633244828
 30
0.0
 40
2.079
  1

 72
     1
 11
99.20289126219257
 21
73.40001633244828
 31
0.0
100
AcDbAttributeDefinition
  3
ADD PAGE NUMBER
  2
TS00XX
 70
     0
  0
LINE
  5
44
330
30
100
AcDbEntity
  8
0
100
AcDbLine
 10
105.9925392881563
 20
70.31072004936999
 30
0.0
 11
92.45878286761296
 21
70.31072004936999
 31
0.0
  0
LINE
  5
45
330
30
100
AcDbEntity
  8
0
100
AcDbLine
 10
105.9925392881563
 20
78.84810849484797
 30
0.0
 11
0.0
 21
78.84810849484797
 31
0.0
  0
TEXT
  5
46
330
30
100
AcDbEntity
  8
0
 62
     7
100
AcDbText
 10
101.0916707105178
 20
4.784832420392319
 30
0.0
 40
0.8459472656250001
  1
1:1
100
AcDbText
  0
ARC
  5
47
330
30
100
AcDbEntity
  8
0
 62
     7
100
AcDbCircle
 10
92.02173719823599
 20
7.854684255185304
 30
0.0
 40
0.5838368232859321
100
AcDbArc
 50
297.5553548372056
 51
304.8408806463489
  0
LINE
  5
48
330
30
100
AcDbEntity
  8
0
 62
     7
100
AcDbLine
 10
96.44018670993672
 20
6.648784575743377
 30
0.0
 11
95.62662822118033
 21
6.648784575743377
 31
0.0
  0
ARC
  5
49
330
30
100
AcDbEntity
  8
0
 62
     7
100
AcDbCircle
 10
92.02173719823599
 20
7.854684255185304
 30
0.0
 40
0.5838368232859408
100
AcDbArc
 50
304.8408806463489
 51
297.5553548372056
  0
TEXT
  5
4A
330
30
100
AcDbEntity
  8
0
 62
     7
100
AcDbText
 10
91.5997577365548
 20
7.487990433787842
 30
0.0
 40
0.7875000000000002
  1
R
  7
ROMANC
 72
     1
 11
92.02565639984959
 21
7.487990433787842
 31
0.0
100
AcDbText
  0
LINE
  5
4C
330
30
100
AcDbEntity
  8
0
100
AcDbLine
 10
96.44018670993649
 20
0.0
 30
0.0
 11
96.44018670993695
 21
12.46470592426129
 31
0.0
  0
TEXT
  5
4D
330
30
100
AcDbEntity
  8
0
100
AcDbText
 10
57.83820509574335
 20
4.931128255646488
 30
0.0
 40
1.111564440985976
  1
ARCHITECTURAL CONCRETE CO., INC.
 41
1.25
 72
     4
 11
76.69038922088157
 21
5.404193065577089
 31
0.0
100
AcDbText
  0
TEXT
  5
4E
330
30
100
AcDbEntity
  8
0
100
AcDbText
 10
64.01730751652124
 20
0.6790765005606179
 30
0.0
 40
0.6552430415498756
  1
PHONE: 1-800-789-4841  FAX : 770-463-2635
 41
1.1875
 72
     4
 11
76.73327742292065
 21
1.005769257279496
 31
0.0
100
AcDbText
  0
TEXT
  5
4F
330
30
100
AcDbEntity
  8
0
 62
     7
100
AcDbText
 10
61.23651428794109
 20
7.899354841769707
 30
0.0
 40
3.572100000000002
  1
TannerStone
  7
ROMANC
 72
     1
 11
75.92109734429948
 21
7.899354841769707
 31
0.0
100
AcDbText
  0
TEXT
  5
50
330
30
100
AcDbEntity
  8
0
100
AcDbText
 10
61.57240842020546
 20
1.964543484004154
 30
0.0
 40
0.6552430415498756
  1
http://TannerStone.com ~ Email:Sales@TannerStone.com 
 41
1.1875
 72
     4
 11
77.08342119362362
 21
2.259193880788984
 31
0.0
100
AcDbText
  0
TEXT
  5
51
330
30
100
AcDbEntity
  8
0
100
AcDbText
 10
59.98363509556096
 20
3.260563711198551
 30
0.0
 40
0.74899296216962
  1
101 JOHNSTON CIRCLE, PALMETTO, GEORGIA 30268
 41
1.1875
 72
     4
 11
76.85158629384147
 21
3.579323650094977
 31
0.0
100
AcDbText
  0
LINE
  5
52
330
30
100
AcDbEntity
  8
0
100
AcDbLine
 10
56.87404547169354
 20
6.648784575743377
 30
0.0
 11
105.9925392881563
 21
6.648784575743377
 31
0.0
  0
LINE
  5
53
330
30
100
AcDbEntity
  8
0
 62
     7
100
AcDbLine
 10
96.44018670993682
 20
9.556745250002336
 30
0.0
 11
105.9925392881563
 21
9.556745250002336
 31
0.0
  0
TEXT
  5
54
330
30
100
AcDbEntity
  8
0
 62
     7
100
AcDbText
 10
96.66995560986686
 20
8.813345575893606
 30
0.0
 40
0.5414062500000001
  1
LBS/LINEAR FEET:
100
AcDbText
  0
LINE
  5
55
330
30
100
AcDbEntity
  8
LINEWORK
 62
     7
100
AcDbLine
 10
96.40991550469017
 20
3.757904136908962
 30
0.0
 11
105.9622680829099
 21
3.757904136909189
 31
0.0
  0
TEXT
  5
56
330
30
100
AcDbEntity
  8
0
 62
     7
100
AcDbText
 10
98.85330873086445
 20
1.524519923848686
 30
0.0
 40
0.8459472656250001
  1
1-1-2000
100
AcDbText
  0
TEXT
  5
57
330
30
100
AcDbEntity
  8
0
 62
     7
100
AcDbText
 10
96.68542089784603
 20
5.927566558083469
 30
0.0
 40
0.5414062500000001
  1
SCALE:
100
AcDbText
  0
TEXT
  5
58
330
30
100
AcDbEntity
  8
0
 62
     7
100
AcDbText
 10
96.74158717246577
 20
2.97910930546476
 30
0.0
 40
0.5414062500000001
  1
DATE:
100
AcDbText
  0
TEXT
  5
59
330
30
100
AcDbEntity
  8
0
 62
     7
100
AcDbText
 10
96.70022651293084
 20
11.66518473255649
 30
0.0
 40
0.5414062500000001
  1
PROFILE AREA:
100
AcDbText
  0
ATTDEF
  5
5A
330
30
100
AcDbEntity
  8
A1
 62
     1
100
AcDbText
 10
101.1759733039033
 20
10.07900441527107
 30
0.0
 40
0.9450000000000002
  1

 72
     1
 11
101.1759733039033
 21
10.07900441527107
 31
0.0
100
AcDbAttributeDefinition
  3
ADD PROFILE AREA
  2
XXXXX
 70
     0
  0
ATTDEF
  5
5B
330
30
100
AcDbEntity
  8
A1
 62
     1
100
AcDbText
 10
101.1418062311347
 20
7.21953861551384
 30
0.0
 40
0.9450000000000002
  1

 72
     1
 11
101.1418062311347
 21
7.21953861551384
 31
0.0
100
AcDbAttributeDefinition
  3
ADD #/LF
  2
XXXXX
 70
     0
  0
LINE
  5
5C
330
30
100
AcDbEntity
  8
0
100
AcDbLine
 10
25.9704997615305
 20
12.46470592426129
 30
0.0
 11
105.9925392881563
 21
12.46470592426129
 31
0.0
  0
ENDBLK
  5
5E
330
30
100
AcDbEntity
  8
0
 62
     7
100
AcDbBlockEnd
  0
BLOCK
  5
28E
330
283
100
AcDbEntity
  8
0
 62
     7
100
AcDbBlockBegin
  2
*D2
 70
     1
 10
0.0
 20
0.0
 30
0.0
  3
*D2
  1

  0
LINE
  5
61E
330
283
100
AcDbEntity
  8
DIM
 62
     0
100
AcDbLine
 10
144.9811148766469
 20
53.19480845571152
 30
0.0
 11
155.6604633287398
 21
53.19480845571152
 31
0.0
  0
LINE
  5
61F
330
283
100
AcDbEntity
  8
DIM
 62
     0
100
AcDbLine
 10
145.1028658595455
 20
88.99480845571153
 30
0.0
 11
155.6604633287399
 21
88.99480845571153
 31
0.0
  0
LINE
  5
620
330
283
100
AcDbEntity
  8
DIM
 62
     0
100
AcDbLine
 10
155.0604633287398
 20
54.39480845571152
 30
0.0
 11
155.0604633287399
 21
68.37241023326246
 31
0.0
  0
LINE
  5
621
330
283
100
AcDbEntity
  8
DIM
 62
     0
100
AcDbLine
 10
155.0604633287399
 20
87.79480845571153
 30
0.0
 11
155.0604633287399
 21
73.26255906387905
 31
0.0
  0
MTEXT
  5
622
330
283
100
AcDbEntity
  8
DIM
 62
     0
100
AcDbMText
 10
155.0604633287399
 20
70.81748464857077
 30
0.0
 40
2.399999999999999
 41
0.0
 71
     5
 72
     1
  1
\A1;36"
 73
     1
 44
1.0
1001
ACAD
1000
MTEXTBEGIN
1070
    73
1070
     1
1070
    44
1040
1.0
1070
    74
1070
     0
1000
MTEXTEND
1000
MTEXTBEGIN
1070
    73
1070
     1
1070
    44
1040
1.0
1070
    74
1070
     0
1000
MTEXTEND
1000
MTEXTBEGIN
1070
    73
1070
     1
1070
    44
1040
1.0
1070
    74
1070
     0
1000
MTEXTEND
  0
SOLID
  5
623
330
283
100
AcDbEntity
  8
DIM
 62
     0
100
AcDbTrace
 10
154.8604633287398
 20
54.39480845571152
 30
0.0
 11
155.2604633287398
 21
54.39480845571152
 31
0.0
 12
155.0604633287398
 22
53.19480845571152
 32
0.0
 13
155.0604633287398
 23
53.19480845571152
 33
0.0
  0
SOLID
  5
624
330
283
100
AcDbEntity
  8
DIM
 62
     0
100
AcDbTrace
 10
154.8604633287399
 20
87.79480845571153
 30
0.0
 11
155.2604633287398
 21
87.79480845571153
 31
0.0
 12
155.0604633287399
 22
88.99480845571153
 32
0.0
 13
155.0604633287399
 23
88.99480845571153
 33
0.0
  0
POINT
  5
625
330
283
100
AcDbEntity
  8
Defpoints
 62
     0
100
AcDbPoint
 10
142.5811148766468
 20
53.19480845571153
 30
0.0
  0
POINT
  5
626
330
283
100
AcDbEntity
  8
Defpoints
 62
     0
100
AcDbPoint
 10
142.7028658595455
 20
88.99480845571153
 30
0.0
  0
POINT
  5
627
330
283
100
AcDbEntity
  8
Defpoints
 62
     0
100
AcDbPoint
 10
155.0604633287399
 20
88.99480845571153
 30
0.0
  0
ENDBLK
  5
28F
330
283
100
AcDbEntity
  8
0
 62
     7
100
AcDbBlockEnd
  0
BLOCK
  5
2F1
330
2E4
100
AcDbEntity
  8
0
 62
     7
100
AcDbBlockBegin
  2
*D3
 70
     1
 10
0.0
 20
0.0
 30
0.0
  3
*D3
  1

  0
LINE
  5
AAF
330
2E4
100
AcDbEntity
  8
DIM
 62
     0
100
AcDbLine
 10
86.42094253313235
 20
54.85480845571153
 30
0.0
 11
86.42094253313235
 21
46.81885769306147
 31
0.0
  0
LINE
  5
AB0
330
2E4
100
AcDbEntity
  8
DIM
 62
     0
100
AcDbLine
 10
95.04594253313234
 20
54.85480845571153
 30
0.0
 11
95.04594253313234
 21
46.81885769306147
 31
0.0
  0
LINE
  5
AB1
330
2E4
100
AcDbEntity
  8
DIM
 62
     0
100
AcDbLine
 10
87.62094253313234
 20
47.41885769306148
 30
0.0
 11
93.84594253313235
 21
47.41885769306148
 31
0.0
  0
LINE
  5
AB2
330
2E4
100
AcDbEntity
  8
DIM
 62
     0
100
AcDbLine
 10
101.4792067440856
 20
47.41885769306148
 30
0.0
 11
95.04594253313234
 21
47.41885769306148
 31
0.0
  0
MTEXT
  5
AB3
330
2E4
100
AcDbEntity
  8
DIM
 62
     0
100
AcDbMText
 10
108.1782854116972
 20
47.41885769306148
 30
0.0
 40
2.399999999999999
 41
0.0
 71
     5
 72
     1
  1
\A1;8 5/8"
 73
     1
 44
1.0
  0
SOLID
  5
AB4
330
2E4
100
AcDbEntity
  8
DIM
 62
     0
100
AcDbTrace
 10
87.62094253313234
 20
47.61885769306148
 30
0.0
 11
87.62094253313234
 21
47.21885769306148
 31
0.0
 12
86.42094253313235
 22
47.41885769306148
 32
0.0
 13
86.42094253313235
 23
47.41885769306148
 33
0.0
  0
SOLID
  5
AB5
330
2E4
100
AcDbEntity
  8
DIM
 62
     0
100
AcDbTrace
 10
93.84594253313235
 20
47.61885769306148
 30
0.0
 11
93.84594253313235
 21
47.21885769306148
 31
0.0
 12
95.04594253313234
 22
47.41885769306148
 32
0.0
 13
95.04594253313234
 23
47.41885769306148
 33
0.0
  0
POINT
  5
AB6
330
2E4
100
AcDbEntity
  8
Defpoints
 62
     0
100
AcDbPoint
 10
86.42094253313235
 20
57.25480845571152
 30
0.0
  0
POINT
  5
AB7
330
2E4
100
AcDbEntity
  8
Defpoints
 62
     0
100
AcDbPoint
 10
95.04594253313234
 20
57.25480845571152
 30
0.0
  0
POINT
  5
AB8
330
2E4
100
AcDbEntity
  8
Defpoints
 62
     0
100
AcDbPoint
 10
95.04594253313234
 20
47.41885769306148
 30
0.0
  0
ENDBLK
  5
2F2
330
2E4
100
AcDbEntity
  8
0
 62
     7
100
AcDbBlockEnd
  0
BLOCK
  5
31B
330
310
100
AcDbEntity
  8
0
 62
     7
100
AcDbBlockBegin
  2
*D4
 70
     1
 10
0.0
 20
0.0
 30
0.0
  3
*D4
  1

  0
LINE
  5
AB9
330
310
100
AcDbEntity
  8
DIM
 62
     0
100
AcDbLine
 10
111.2616645646878
 20
57.56980845571153
 30
0.0
 11
118.4434264264396
 21
57.56980845571152
 31
0.0
  0
LINE
  5
ABA
330
310
100
AcDbEntity
  8
DIM
 62
     0
100
AcDbLine
 10
111.2595634392733
 20
84.31980845571152
 30
0.0
 11
118.4434264264396
 21
84.31980845571152
 31
0.0
  0
LINE
  5
ABB
330
310
100
AcDbEntity
  8
DIM
 62
     0
100
AcDbLine
 10
117.8434264264397
 20
58.76980845571152
 30
0.0
 11
117.8434264264397
 21
68.64219321104791
 31
0.0
  0
LINE
  5
ABC
330
310
100
AcDbEntity
  8
DIM
 62
     0
100
AcDbLine
 10
117.8434264264397
 20
83.11980845571152
 30
0.0
 11
117.8434264264397
 21
73.65821022026124
 31
0.0
  0
MTEXT
  5
ABD
330
310
100
AcDbEntity
  8
DIM
 62
     0
100
AcDbMText
 10
117.8434264264397
 20
71.15020171565459
 30
0.0
 40
2.399999999999999
 41
0.0
 71
     5
 72
     1
  1
\A1;26 3/4"
 73
     1
 44
1.0
  0
SOLID
  5
ABE
330
310
100
AcDbEntity
  8
DIM
 62
     0
100
AcDbTrace
 10
117.6434264264397
 20
58.76980845571152
 30
0.0
 11
118.0434264264397
 21
58.76980845571152
 31
0.0
 12
117.8434264264397
 22
57.56980845571152
 32
0.0
 13
117.8434264264397
 23
57.56980845571152
 33
0.0
  0
SOLID
  5
ABF
330
310
100
AcDbEntity
  8
DIM
 62
     0
100
AcDbTrace
 10
117.6434264264397
 20
83.11980845571152
 30
0.0
 11
118.0434264264397
 21
83.11980845571152
 31
0.0
 12
117.8434264264397
 22
84.31980845571152
 32
0.0
 13
117.8434264264397
 23
84.31980845571152
 33
0.0
  0
POINT
  5
AC0
330
310
100
AcDbEntity
  8
Defpoints
 62
     0
100
AcDbPoint
 10
108.8616645646878
 20
57.56980845571153
 30
0.0
  0
POINT
  5
AC1
330
310
100
AcDbEntity
  8
Defpoints
 62
     0
100
AcDbPoint
 10
108.8595634392732
 20
84.31980845571152
 30
0.0
  0
POINT
  5
AC2
330
310
100
AcDbEntity
  8
Defpoints
 62
     0
100
AcDbPoint
 10
117.8434264264397
 20
84.31980845571152
 30
0.0
  0
ENDBLK
  5
31C
330
310
100
AcDbEntity
  8
0
 62
     7
100
AcDbBlockEnd
  0
BLOCK
  5
3A8
330
39B
100
AcDbEntity
  8
0
 62
     7
100
AcDbBlockBegin
  2
*D5
 70
     1
 10
0.0
 20
0.0
 30
0.0
  3
*D5
  1

  0
LINE
  5
632
330
39B
100
AcDbEntity
  8
DIM
 62
     0
100
AcDbLine
 10
131.9474912476636
 20
51.16980845571152
 30
0.0
 11
131.9474912476636
 21
47.04572298168963
 31
0.0
  0
LINE
  5
633
330
39B
100
AcDbEntity
  8
DIM
 62
     0
100
AcDbLine
 10
141.5714912476636
 20
51.16980845571178
 30
0.0
 11
141.5714912476636
 21
47.04572298168963
 31
0.0
  0
LINE
  5
634
330
39B
100
AcDbEntity
  8
DIM
 62
     0
100
AcDbLine
 10
133.1474912476636
 20
47.64572298168963
 30
0.0
 11
140.3714912476637
 21
47.64572298168963
 31
0.0
  0
LINE
  5
635
330
39B
100
AcDbEntity
  8
DIM
 62
     0
100
AcDbLine
 10
149.1210792964777
 20
47.64572298168963
 30
0.0
 11
141.5714912476636
 21
47.64572298168963
 31
0.0
  0
MTEXT
  5
636
330
39B
100
AcDbEntity
  8
DIM
 62
     0
100
AcDbMText
 10
155.7929432227712
 20
47.64572298168963
 30
0.0
 40
2.399999999999999
 41
0.0
 71
     5
 72
     1
  1
\A1;9 5/8"
 73
     1
 44
1.0
1001
ACAD
1000
MTEXTBEGIN
1070
    73
1070
     1
1070
    44
1040
1.0
1070
    74
1070
     0
1000
MTEXTEND
1000
MTEXTBEGIN
1070
    73
1070
     1
1070
    44
1040
1.0
1070
    74
1070
     0
1000
MTEXTEND
1000
MTEXTBEGIN
1070
    73
1070
     1
1070
    44
1040
1.0
1070
    74
1070
     0
1000
MTEXTEND
  0
SOLID
  5
637
330
39B
100
AcDbEntity
  8
DIM
 62
     0
100
AcDbTrace
 10
133.1474912476636
 20
47.84572298168963
 30
0.0
 11
133.1474912476636
 21
47.44572298168963
 31
0.0
 12
131.9474912476636
 22
47.64572298168963
 32
0.0
 13
131.9474912476636
 23
47.64572298168963
 33
0.0
  0
SOLID
  5
638
330
39B
100
AcDbEntity
  8
DIM
 62
     0
100
AcDbTrace
 10
140.3714912476637
 20
47.84572298168963
 30
0.0
 11
140.3714912476637
 21
47.44572298168963
 31
0.0
 12
141.5714912476636
 22
47.64572298168963
 32
0.0
 13
141.5714912476636
 23
47.64572298168963
 33
0.0
  0
POINT
  5
639
330
39B
100
AcDbEntity
  8
Defpoints
 62
     0
100
AcDbPoint
 10
131.9474912476636
 20
53.56980845571152
 30
0.0
  0
POINT
  5
63A
330
39B
100
AcDbEntity
  8
Defpoints
 62
     0
100
AcDbPoint
 10
141.5714912476636
 20
53.56980845571178
 30
0.0
  0
POINT
  5
63B
330
39B
100
AcDbEntity
  8
Defpoints
 62
     0
100
AcDbPoint
 10
141.5714912476636
 20
47.64572298168963
 30
0.0
  0
ENDBLK
  5
3A9
330
39B
100
AcDbEntity
  8
0
 62
     7
100
AcDbBlockEnd
  0
BLOCK
  5
65C
330
651
100
AcDbEntity
  8
0
 62
     7
100
AcDbBlockBegin
  2
*D6
 70
     1
 10
0.0
 20
0.0
 30
0.0
  3
*D6
  1

  0
LINE
  5
652
330
651
100
AcDbEntity
  8
LINEWORK
 62
     0
370
    -2
100
AcDbLine
 10
129.7594912476627
 20
90.56980845571144
 30
0.0
 11
129.7594912476627
 21
94.48257569240988
 31
0.0
  0
LINE
  5
653
330
651
100
AcDbEntity
  8
LINEWORK
 62
     0
370
    -2
100
AcDbLine
 10
143.7594912476638
 20
90.56980845571144
 30
0.0
 11
143.7594912476638
 21
94.48257569240988
 31
0.0
  0
LINE
  5
654
330
651
100
AcDbEntity
  8
LINEWORK
 62
     0
370
    -2
100
AcDbLine
 10
130.9594912476627
 20
93.88257569240989
 30
0.0
 11
132.8463339972424
 21
93.88257569240989
 31
0.0
  0
LINE
  5
655
330
651
100
AcDbEntity
  8
LINEWORK
 62
     0
370
    -2
100
AcDbLine
 10
142.5594912476638
 20
93.88257569240989
 30
0.0
 11
141.2590909072353
 21
93.88257569240989
 31
0.0
  0
MTEXT
  5
656
330
651
100
AcDbEntity
  8
LINEWORK
 62
     0
100
AcDbMText
 10
137.0527124522388
 20
93.88257569240989
 30
0.0
 40
2.399999999999999
 41
0.0
 71
     5
 72
     1
  1
\A1;14"
 73
     1
 44
1.0
1001
ACAD
1000
MTEXTBEGIN
1070
    73
1070
     1
1070
    44
1040
1.0
1070
    74
1070
     0
1000
MTEXTEND
1000
MTEXTBEGIN
1070
    73
1070
     1
1070
    44
1040
1.0
1070
    74
1070
     0
1000
MTEXTEND
1000
MTEXTBEGIN
1070
    73
1070
     1
1070
    44
1040
1.0
1070
    74
1070
     0
1000
MTEXTEND
  0
SOLID
  5
657
330
651
100
AcDbEntity
  8
LINEWORK
 62
     0
100
AcDbTrace
 10
130.9594912476627
 20
94.08257569240989
 30
0.0
 11
130.9594912476627
 21
93.68257569240988
 31
0.0
 12
129.7594912476627
 22
93.88257569240989
 32
0.0
 13
129.7594912476627
 23
93.88257569240989
 33
0.0
  0
SOLID
  5
658
330
651
100
AcDbEntity
  8
LINEWORK
 62
     0
100
AcDbTrace
 10
142.5594912476638
 20
94.08257569240989
 30
0.0
 11
142.5594912476638
 21
93.68257569240988
 31
0.0
 12
143.7594912476638
 22
93.88257569240989
 32
0.0
 13
143.7594912476638
 23
93.88257569240989
 33
0.0
  0
POINT
  5
659
330
651
100
AcDbEntity
  8
Defpoints
 62
     0
100
AcDbPoint
 10
129.7594912476627
 20
88.16980845571142
 30
0.0
  0
POINT
  5
65A
330
651
100
AcDbEntity
  8
Defpoints
 62
     0
100
AcDbPoint
 10
143.7594912476638
 20
88.16980845571142
 30
0.0
  0
POINT
  5
65B
330
651
100
AcDbEntity
  8
Defpoints
 62
     0
100
AcDbPoint
 10
143.7594912476638
 20
93.88257569240989
 30
0.0
  0
ENDBLK
  5
65D
330
651
100
AcDbEntity
  8
0
 62
     7
100
AcDbBlockEnd
  0
BLOCK
  5
6CF
330
6C4
100
AcDbEntity
  8
0
 62
     7
100
AcDbBlockBegin
  2
*D7
 70
     1
 10
0.0
 20
0.0
 30
0.0
  3
*D7
  1

  0
LINE
  5
73F
330
6C4
100
AcDbEntity
  8
DIM
 62
     0
370
    -2
100
AcDbLine
 10
143.2883638611567
 20
57.94480845571152
 30
0.0
 11
148.1725047082341
 21
57.94480845571151
 31
0.0
  0
LINE
  5
740
330
6C4
100
AcDbEntity
  8
DIM
 62
     0
370
    -2
100
AcDbLine
 10
142.8464912476632
 20
83.94480845571152
 30
0.0
 11
148.1725047082341
 21
83.94480845571152
 31
0.0
  0
LINE
  5
741
330
6C4
100
AcDbEntity
  8
DIM
 62
     0
370
    -2
100
AcDbLine
 10
147.5725047082341
 20
59.14480845571151
 30
0.0
 11
147.5725047082342
 21
68.43644531445514
 31
0.0
  0
LINE
  5
742
330
6C4
100
AcDbEntity
  8
DIM
 62
     0
370
    -2
100
AcDbLine
 10
147.5725047082342
 20
82.74480845571153
 30
0.0
 11
147.5725047082342
 21
73.32659414507173
 31
0.0
  0
MTEXT
  5
743
330
6C4
100
AcDbEntity
  8
DIM
 62
     0
100
AcDbMText
 10
147.5725047082342
 20
70.88151972976345
 30
0.0
 40
2.399999999999999
 41
0.0
 71
     5
 72
     1
  1
\A1;26"
 73
     1
 44
1.0
1001
ACAD
1000
MTEXTBEGIN
1070
    73
1070
     1
1070
    44
1040
1.0
1070
    74
1070
     0
1000
MTEXTEND
1000
MTEXTBEGIN
1070
    73
1070
     1
1070
    44
1040
1.0
1070
    74
1070
     0
1000
MTEXTEND
1000
MTEXTBEGIN
1070
    73
1070
     1
1070
    44
1040
1.0
1070
    74
1070
     0
1000
MTEXTEND
  0
SOLID
  5
744
330
6C4
100
AcDbEntity
  8
DIM
 62
     0
100
AcDbTrace
 10
147.3725047082341
 20
59.14480845571151
 30
0.0
 11
147.7725047082341
 21
59.14480845571151
 31
0.0
 12
147.5725047082341
 22
57.94480845571151
 32
0.0
 13
147.5725047082341
 23
57.94480845571151
 33
0.0
  0
SOLID
  5
745
330
6C4
100
AcDbEntity
  8
DIM
 62
     0
100
AcDbTrace
 10
147.3725047082341
 20
82.74480845571153
 30
0.0
 11
147.7725047082341
 21
82.74480845571153
 31
0.0
 12
147.5725047082342
 22
83.94480845571152
 32
0.0
 13
147.5725047082342
 23
83.94480845571152
 33
0.0
  0
POINT
  5
746
330
6C4
100
AcDbEntity
  8
Defpoints
 62
     0
100
AcDbPoint
 10
140.8883638611567
 20
57.94480845571152
 30
0.0
  0
POINT
  5
747
330
6C4
100
AcDbEntity
  8
Defpoints
 62
     0
100
AcDbPoint
 10
140.4464912476632
 20
83.94480845571152
 30
0.0
  0
POINT
  5
748
330
6C4
100
AcDbEntity
  8
Defpoints
 62
     0
100
AcDbPoint
 10
147.5725047082342
 20
83.94480845571152
 30
0.0
  0
ENDBLK
  5
6D0
330
6C4
100
AcDbEntity
  8
0
 62
     7
100
AcDbBlockEnd
  0
BLOCK
  5
7B8
330
7B7
100
AcDbEntity
  8
0
 62
     7
100
AcDbBlockBegin
  2
PIER
 70
     2
 10
0.0
 20
0.0
 30
0.0
  3
PIER
  1

  0
LINE
  5
7BA
330
7B7
100
AcDbEntity
  8
LINEWORK
 62
     7
370
    30
100
AcDbLine
 10
24.12193778927928
 20
30.75
 30
0.0
 11
31.49593778927931
 21
30.75
 31
0.0
  0
LINE
  5
7BB
330
7B7
100
AcDbEntity
  8
LINEWORK
 62
     7
370
    30
100
AcDbLine
 10
31.93781040277275
 20
4.75
 30
0.0
 11
23.69831243375295
 21
4.75
 31
0.0
  0
ARC
  5
7BC
330
7B7
100
AcDbEntity
  8
LINEWORK
 62
     7
370
    30
100
AcDbCircle
 10
42.55566624652328
 20
23.15053100173634
 30
0.0
 40
12.74999999999998
100
AcDbArc
 50
175.0837622692387
 51
208.3196601840818
  0
LINE
  5
7BD
330
7B7
100
AcDbEntity
  8
LINEWORK
 62
     7
370
    30
100
AcDbLine
 10
29.85257287350242
 20
24.24319689592044
 30
0.0
 11
25.76796166385207
 21
24.24319689592044
 31
0.0
  0
LINE
  5
7BE
330
7B7
100
AcDbEntity
  8
LINEWORK
 62
     7
370
    30
100
AcDbLine
 10
29.97731193600282
 20
24.33694689592016
 30
0.0
 11
25.6450658618624
 21
24.33542665908254
 31
0.0
  0
LINE
  5
7BF
330
7B7
100
AcDbEntity
  8
LINEWORK
 62
     7
370
    30
100
AcDbLine
 10
29.97731193600282
 20
24.8045226771747
 30
0.0
 11
25.64473770606173
 21
24.80300232518328
 31
0.0
  0
LINE
  5
7C0
330
7B7
100
AcDbEntity
  8
LINEWORK
 62
     7
370
    30
100
AcDbLine
 10
29.87953077968336
 20
26.80034767717472
 30
0.0
 11
25.74111812086096
 21
26.79889545879524
 31
0.0
  0
LINE
  5
7C1
330
7B7
100
AcDbEntity
  8
LINEWORK
 62
     7
370
    30
100
AcDbLine
 10
29.87953077968342
 20
27.29930392717472
 30
0.0
 11
25.74076794150125
 21
27.29785158591312
 31
0.0
  0
LINE
  5
7C2
330
7B7
100
AcDbEntity
  8
LINEWORK
 62
     7
370
    30
100
AcDbLine
 10
31.05215298800675
 20
9.399446895920448
 30
0.0
 11
24.58070856723111
 21
9.397175988859146
 31
0.0
  0
LINE
  5
7C3
330
7B7
100
AcDbEntity
  8
LINEWORK
 62
     7
370
    30
100
AcDbLine
 10
31.05215298800686
 20
9.930696895920448
 30
0.0
 11
24.58033572334972
 21
9.928425858023786
 31
0.0
  0
LINE
  5
7C4
330
7B7
100
AcDbEntity
  8
LINEWORK
 62
     7
370
    30
100
AcDbLine
 10
31.93781040277275
 20
7.682446895920406
 30
0.0
 11
23.69625640200769
 21
7.679554836287422
 31
0.0
  0
LINE
  5
7C5
330
7B7
100
AcDbEntity
  8
LINEWORK
 62
     7
370
    30
100
AcDbLine
 10
31.05215298800686
 20
7.869446895920418
 30
0.0
 11
24.5817823576092
 21
7.867176365664988
 31
0.0
  0
LINE
  5
7C6
330
7B7
100
AcDbEntity
  8
LINEWORK
 62
     7
370
    30
100
AcDbLine
 10
31.05215298800686
 20
8.118446895920385
 30
0.0
 11
24.5816076034888
 21
8.116176304341649
 31
0.0
  0
LINE
  5
7C7
330
7B7
100
AcDbEntity
  8
LINEWORK
 62
     7
370
    30
100
AcDbLine
 10
30.15168836743055
 20
11.05544385488514
 30
0.0
 11
25.48001074800265
 21
11.05380450746838
 31
0.0
  0
LINE
  5
7C8
330
7B7
100
AcDbEntity
  8
LINEWORK
 62
     7
370
    30
100
AcDbLine
 10
30.15188489045982
 20
11.68069689592044
 30
0.0
 11
25.47937540757124
 21
11.67905725659284
 31
0.0
  0
LINE
  5
7C9
330
7B7
100
AcDbEntity
  8
LINEWORK
 62
     7
370
    30
100
AcDbLine
 10
30.15188489045982
 20
11.99319689592044
 30
0.0
 11
25.47915608764105
 21
11.99155717963088
 31
0.0
  0
LINE
  5
7CA
330
7B7
100
AcDbEntity
  8
LINEWORK
 62
     7
370
    30
100
AcDbLine
 10
30.73737766061242
 20
28.27090748605257
 30
0.0
 11
24.88223937736228
 21
28.26885284816842
 31
0.0
  0
LINE
  5
7CB
330
7B7
100
AcDbEntity
  8
LINEWORK
 62
     7
370
    30
100
AcDbLine
 10
24.12193778927928
 20
28.375
 30
0.0
 11
31.49593778927931
 21
28.375
 31
0.0
  0
LINE
  5
7CC
330
7B7
100
AcDbEntity
  8
LINEWORK
370
    30
100
AcDbLine
 10
32.05893778927924
 20
31.125
 30
0.0
 11
23.55893778927924
 21
31.125
 31
0.0
  0
ARC
  5
7CD
330
7B7
100
AcDbEntity
  8
LINEWORK
 62
     7
370
    30
100
AcDbCircle
 10
13.06754730400155
 20
23.14018326896194
 30
0.0
 40
12.74999999999999
100
AcDbArc
 50
331.7205513595759
 51
4.956449274421593
  0
ARC
  5
7CE
330
7B7
100
AcDbEntity
  8
LINEWORK
 62
     7
370
    30
100
AcDbCircle
 10
24.1757906944378
 20
11.17414452067691
 30
0.0
 40
1.309760156249897
100
AcDbArc
 50
287.9911174802658
 51
354.7282615809109
  0
LINE
  5
7CF
330
7B7
100
AcDbEntity
  8
LINEWORK
 62
     7
370
    30
100
AcDbLine
 10
24.58070856723111
 20
9.397175988859146
 30
0.0
 11
24.58033572334972
 21
9.928425858023786
 31
0.0
  0
ARC
  5
7D0
330
7B7
100
AcDbEntity
  8
LINEWORK
 62
     7
370
    30
100
AcDbCircle
 10
24.58115808535996
 20
8.756676146600398
 30
0.0
 40
0.6405000000000018
100
AcDbArc
 50
90.04021154365782
 51
270.0402115436578
  0
LINE
  5
7D1
330
7B7
100
AcDbEntity
  8
LINEWORK
 62
     7
370
    30
100
AcDbLine
 10
24.5817823576092
 20
7.867176365664988
 30
0.0
 11
24.5816076034888
 21
8.116176304341649
 31
0.0
  0
LINE
  5
7D2
330
7B7
100
AcDbEntity
  8
LINEWORK
 62
     7
370
    30
100
AcDbLine
 10
23.69625640200774
 20
7.679554836287422
 30
0.0
 11
24.5817823576092
 21
7.867176365664988
 31
0.0
  0
LINE
  5
7D3
330
7B7
100
AcDbEntity
  8
LINEWORK
 62
     7
370
    30
100
AcDbLine
 10
23.69831243375295
 20
4.75
 30
0.0
 11
23.69625640200774
 21
7.679554836287422
 31
0.0
  0
LINE
  5
7D4
330
7B7
100
AcDbEntity
  8
LINEWORK
  6
DASHED
 62
     7
 48
2.0
370
    30
100
AcDbLine
 10
28.05893778927964
 20
6.560000000000115
 30
0.0
 11
27.55893778927964
 21
6.560000000000115
 31
0.0
  0
LINE
  5
7D5
330
7B7
100
AcDbEntity
  8
LINEWORK
  6
DASHED
 62
     7
 48
2.0
370
    30
100
AcDbLine
 10
27.55893778927964
 20
2.560000000000115
 30
0.0
 11
28.05893778927964
 21
2.560000000000115
 31
0.0
  0
LINE
  5
7D6
330
7B7
100
AcDbEntity
  8
LINEWORK
  6
DASHED
 62
     7
 48
2.0
370
    30
100
AcDbLine
 10
27.55893778927964
 20
6.560000000000115
 30
0.0
 11
27.55893778927964
 21
2.560000000000115
 31
0.0
  0
LINE
  5
7D7
330
7B7
100
AcDbEntity
  8
LINEWORK
  6
DASHED
 62
     7
 48
2.0
370
    30
100
AcDbLine
 10
28.05893778927964
 20
2.560000000000115
 30
0.0
 11
28.05893778927964
 21
6.560000000000115
 31
0.0
  0
LINE
  5
7D8
330
7B7
100
AcDbEntity
  8
LINEWORK
 62
     7
370
    30
100
AcDbLine
 10
22.99693778927968
 20
3.875
 30
0.0
 11
22.99693778927968
 21
0.375
 31
0.0
  0
LINE
  5
7D9
330
7B7
100
AcDbEntity
  8
LINEWORK
 62
     7
370
    30
100
AcDbLine
 10
23.49693778927968
 20
4.375
 30
0.0
 11
22.99693778927968
 21
3.875
 31
0.0
  0
INSERT
  5
7DA
330
7B7
100
AcDbEntity
  8
DIM
 62
     7
370
    30
100
AcDbBlockReference
 66
     1
  2
PROFILE LOGO
 10
23.20702869622425
 20
1.948831679886893
 30
0.0
 41
0.8000000000000113
 42
0.8000000000000113
 43
0.8
  0
ATTRIB
  5
7DB
330
7DA
100
AcDbEntity
  8
A1
 62
    22
100
AcDbText
 10
23.40108051557657
 20
0.6061930807616705
 30
0.0
 40
0.17015625
  1
054M
 72
     1
 11
23.749533020449
 21
0.6061930807616705
 31
0.0
100
AcDbAttribute
  2
XXXX
 70
     0
  0
SEQEND
  5
7DC
330
7DA
100
AcDbEntity
  8
A1
 62
     7
  0
ARC
  5
7DD
330
7B7
100
AcDbEntity
  8
LINEWORK
 62
     7
370
    30
100
AcDbCircle
 10
27.81983495616339
 20
15.22489789117884
 30
0.0
 40
3.991650000000075
100
AcDbArc
 50
151.9882682864517
 51
234.0984822571084
  0
LINE
  5
7DE
330
7B7
100
AcDbEntity
  8
LINEWORK
 62
     7
370
    30
100
AcDbLine
 10
25.47937540757118
 20
11.67905725659284
 30
0.0
 11
25.47915608764105
 21
11.99155717963083
 31
0.0
  0
ARC
  5
7DF
330
7B7
100
AcDbEntity
  8
LINEWORK
 62
     7
370
    30
100
AcDbCircle
 10
25.47959481625332
 20
11.36643078218372
 30
0.0
 40
0.3126265514021922
100
AcDbArc
 50
90.04021153177344
 51
270.0762287807173
  0
ARC
  5
7E0
330
7B7
100
AcDbEntity
  8
LINEWORK
370
    30
100
AcDbCircle
 10
23.008937789279
 20
31.12499999999971
 30
0.0
 40
0.5500000000002502
100
AcDbArc
 50
0.0000000000260551
 51
90.00000000002605
  0
ARC
  5
7E1
330
7B7
100
AcDbEntity
  8
LINEWORK
370
    30
100
AcDbCircle
 10
22.52204376964419
 20
33.52283818206291
 30
0.0
 40
1.299371506374636
100
AcDbArc
 50
185.7015478593825
 51
267.2162470626179
  0
LINE
  5
7E2
330
7B7
100
AcDbEntity
  8
LINEWORK
370
    30
100
AcDbLine
 10
22.45893778927882
 20
31.67500000000001
 30
0.0
 11
22.45893778927882
 21
32.22499999999996
 31
0.0
  0
ARC
  5
7E3
330
7B7
100
AcDbEntity
  8
LINEWORK
370
    30
100
AcDbCircle
 10
20.43864728537619
 20
33.30902312383807
 30
0.0
 40
0.7949809888151388
100
AcDbArc
 50
6.118045468726062
 51
62.23893912946991
  0
LINE
  5
7E4
330
7B7
100
AcDbEntity
  8
LINEWORK
370
    30
100
AcDbLine
 10
20.80893778928225
 20
34.01249999999993
 30
0.0
 11
20.80893778927872
 21
34.97499999999991
 31
0.0
  0
INSERT
  5
7E5
330
7B7
100
AcDbEntity
  8
DIM
 62
     7
370
    30
100
AcDbBlockReference
 66
     1
  2
PROFILE LOGO
 10
21.83984462537466
 20
34.12222735175464
 30
0.0
 41
0.7940625000000097
 42
0.7940625000000168
 43
0.7940625000000012
  0
ATTRIB
  5
7E6
330
7E5
100
AcDbEntity
  8
A1
 62
    22
100
AcDbText
 10
22.06579200942463
 20
32.78955364848235
 30
0.0
 40
0.1688933715820315
  1
1155
 72
     1
 11
22.3783225503181
 21
32.78955364848235
 31
0.0
100
AcDbAttribute
  2
XXXX
 70
     0
  0
SEQEND
  5
7E7
330
7E5
100
AcDbEntity
  8
A1
 62
     7
  0
LWPOLYLINE
  5
7E8
330
7B7
100
AcDbEntity
  8
LINEWORK
 62
    22
370
    30
100
AcDbPolyline
 90
        4
 70
     0
 43
0.0
 10
24.51974768710925
 20
30.33312383621717
 10
25.23280142089072
 20
30.33312383621717
 10
25.23808346504523
 20
30.1272396027341
 10
25.20903302237019
 20
30.1272396027341
  0
ARC
  5
7E9
330
7B7
100
AcDbEntity
  8
LINEWORK
 62
    22
370
    30
100
AcDbCircle
 10
24.66990052788389
 20
30.1377977853653
 30
0.0
 40
0.1373288804184085
100
AcDbArc
 50
359.6316189828548
 51
90.00081606717209
  0
LINE
  5
7EA
330
7B7
100
AcDbEntity
  8
LINEWORK
 62
    22
370
    30
100
AcDbLine
 10
24.51182506541909
 20
30.33312383621717
 30
0.0
 11
24.50654302126451
 21
30.1272396027341
 31
0.0
  0
ARC
  5
7EB
330
7B7
100
AcDbEntity
  8
LINEWORK
 62
    22
370
    30
100
AcDbCircle
 10
24.67328758642372
 20
30.1377977853653
 30
0.0
 40
0.1373288804184085
100
AcDbArc
 50
89.9991839328279
 51
180.3683810171452
  0
LINE
  5
7EC
330
7B7
100
AcDbEntity
  8
LINEWORK
 62
    22
370
    30
100
AcDbLine
 10
24.53596154444454
 20
30.13691484067829
 30
0.0
 11
24.53596154444454
 21
30.12717239840458
 31
0.0
  0
LINE
  5
7ED
330
7B7
100
AcDbEntity
  8
LINEWORK
 62
    22
370
    30
100
AcDbLine
 10
24.50654302126451
 20
30.1272396027341
 30
0.0
 11
24.53559346393956
 21
30.1272396027341
 31
0.0
  0
ARC
  5
7EE
330
7B7
100
AcDbEntity
  8
LINEWORK
 62
    22
370
    30
100
AcDbCircle
 10
25.07472595842591
 20
30.1377977853653
 30
0.0
 40
0.1373288804184085
100
AcDbArc
 50
89.9991839328279
 51
180.3683810171452
  0
ARC
  5
7EF
330
7B7
100
AcDbEntity
  8
LINEWORK
 62
    22
370
    30
100
AcDbCircle
 10
25.07133889988608
 20
30.1377977853653
 30
0.0
 40
0.1373288804184085
100
AcDbArc
 50
359.6316189828548
 51
90.00081606717209
  0
LINE
  5
7F0
330
7B7
100
AcDbEntity
  8
LINEWORK
 62
    22
370
    30
100
AcDbLine
 10
25.2086649418652
 20
30.13691484067829
 30
0.0
 11
25.2086649418652
 21
30.12717239840458
 31
0.0
  0
LINE
  5
7F1
330
7B7
100
AcDbEntity
  8
LINEWORK
 62
    22
370
    30
100
AcDbLine
 10
24.68348607703376
 20
29.46471462610202
 30
0.0
 11
25.06114040927605
 21
29.46471462610202
 31
0.0
  0
LINE
  5
7F2
330
7B7
100
AcDbEntity
  8
LINEWORK
 62
    22
370
    30
100
AcDbLine
 10
24.80720546571956
 20
29.56641313492145
 30
0.0
 11
24.80761029160743
 21
29.56765679748122
 31
0.0
  0
LINE
  5
7F3
330
7B7
100
AcDbEntity
  8
LINEWORK
 62
    22
370
    30
100
AcDbLine
 10
24.68348607703376
 20
29.4911100826801
 30
0.0
 11
24.73094676854037
 21
29.4911100826801
 31
0.0
  0
LINE
  5
7F4
330
7B7
100
AcDbEntity
  8
LINEWORK
 62
    22
370
    30
100
AcDbLine
 10
24.68348607703376
 20
29.46471462610202
 30
0.0
 11
24.68348607703376
 21
29.4911100826801
 31
0.0
  0
ARC
  5
7F5
330
7B7
100
AcDbEntity
  8
LINEWORK
 62
    22
370
    30
100
AcDbCircle
 10
24.73067115270334
 20
29.5677909875896
 30
0.0
 40
0.0765467148011254
100
AcDbArc
 50
270.206300928684
 51
358.9686114340257
  0
LINE
  5
7F6
330
7B7
100
AcDbEntity
  8
LINEWORK
 62
    22
370
    30
100
AcDbLine
 10
25.06114040927605
 20
29.46471462610202
 30
0.0
 11
25.06114040927605
 21
29.4911100826801
 31
0.0
  0
LINE
  5
7F7
330
7B7
100
AcDbEntity
  8
LINEWORK
 62
    22
370
    30
100
AcDbLine
 10
25.06114040927605
 20
29.4911100826801
 30
0.0
 11
25.01367971776938
 21
29.4911100826801
 31
0.0
  0
ARC
  5
7F8
330
7B7
100
AcDbEntity
  8
LINEWORK
 62
    22
370
    30
100
AcDbCircle
 10
25.01395533360641
 20
29.5677909875896
 30
0.0
 40
0.0765467148011254
100
AcDbArc
 50
181.0313885659742
 51
269.7936990713126
  0
LINE
  5
7F9
330
7B7
100
AcDbEntity
  8
LINEWORK
 62
    22
370
    30
100
AcDbLine
 10
24.93742102059019
 20
29.56641313492145
 30
0.0
 11
24.93701619470232
 21
29.56765679748122
 31
0.0
  0
ATTDEF
  5
7FA
330
7B7
100
AcDbEntity
  8
LINEWORK
 62
    22
370
    30
100
AcDbText
 10
24.88275918798581
 20
29.12699170586932
 30
0.0
 40
0.17015625
  1

 72
     1
 11
24.88275918798581
 21
29.12699170586932
 31
0.0
100
AcDbAttributeDefinition
  3
ADD STONE MARKER
  2
0989
 70
     0
  0
LINE
  5
7FB
330
7B7
100
AcDbEntity
  8
LINEWORK
 62
    22
370
    30
100
AcDbLine
 10
24.36129134133932
 20
29.34065619873564
 30
0.0
 11
25.38597607813938
 21
29.34065619873564
 31
0.0
  0
LWPOLYLINE
  5
7FC
330
7B7
100
AcDbEntity
  8
LINEWORK
 62
    22
370
    30
100
AcDbPolyline
 90
        4
 70
     1
 43
0.0
 10
24.36129134133932
 20
30.44662408095229
 10
25.38597607813938
 20
30.44662408095229
 10
25.38597607813938
 20
29.08462070702956
 10
24.36129134133932
 20
29.08462070702956
  0
HATCH
  5
7FD
330
7B7
100
AcDbEntity
  8
LINEWORK
 62
    22
370
    30
100
AcDbHatch
 10
0.0
 20
0.0
 30
0.0
210
0.0
220
0.0
230
1.0
  2
LINE
 70
     0
 71
     0
 91
        1
 92
       33
 93
       38
 72
     1
 10
25.23280142089072
 20
30.33312383621717
 11
24.51446582077136
 21
30.33312383621717
 72
     1
 10
24.51446582077136
 20
30.33312383621717
 11
24.50654302126457
 21
30.12987914839186
 72
     1
 10
24.50654302126451
 20
30.12987914839186
 11
24.53031159760167
 21
30.12987914839186
 72
     1
 10
24.53031159760167
 20
30.12987914839186
 11
24.53559346393956
 21
30.16419313266806
 72
     1
 10
24.53559346393956
 20
30.16419313266806
 11
24.5435162634464
 21
30.19586768056177
 72
     1
 10
24.5435162634464
 20
30.19586768056177
 11
24.55936186246009
 21
30.22226302786453
 72
     1
 10
24.55936186246003
 20
30.22226302786453
 11
24.57784839464267
 21
30.24073984746917
 72
     1
 10
24.57784839464267
 20
30.24073984746923
 11
24.60161697097982
 21
30.25657712141605
 72
     1
 10
24.60161697097987
 20
30.25657712141605
 11
24.62538536950034
 21
30.26977484970507
 72
     1
 10
24.62538536950034
 20
30.26977484970507
 11
24.64651283485187
 21
30.27505383174537
 72
     1
 10
24.64651283485187
 20
30.27505383174537
 11
24.66764047802013
 21
30.27505383174537
 72
     1
 10
24.66764047802007
 20
30.27505383174537
 11
24.71781820822997
 21
30.27241439536288
 72
     1
 10
24.71781820823002
 20
30.27241439536288
 11
24.75215051724296
 21
30.25129803010043
 72
     1
 10
24.75215051724296
 20
30.25129803010043
 11
24.79968731428397
 21
30.19850722621959
 72
     1
 10
24.79968731428391
 20
30.19850722621959
 11
24.81289215794532
 21
30.15627449569467
 72
     1
 10
24.81289215794532
 20
30.15627449569467
 11
24.81289215794532
 21
29.543900886561
 72
     1
 10
24.81289215794532
 20
29.54390088656094
 11
24.79176451477707
 21
29.50694735662693
 72
     1
 10
24.79176451477712
 20
29.50694735662699
 11
24.73894585139822
 21
29.48847053702229
 72
     1
 10
24.73894585139822
 20
29.48847053702229
 11
24.6914088765406
 21
29.48847053702229
 72
     1
 10
24.69140887654055
 20
29.48847053702229
 11
24.68612701020271
 21
29.46999371741765
 72
     1
 10
24.68612701020271
 20
29.46999371741765
 11
25.05585854293809
 21
29.46999371741765
 72
     1
 10
25.05585854293815
 20
29.46999371741765
 11
25.05585854293815
 21
29.48847053702229
 72
     1
 10
25.05585854293815
 20
29.48847053702229
 11
24.99247596906684
 21
29.48847053702229
 72
     1
 10
24.99247596906684
 20
29.48847053702229
 11
24.94229806104027
 21
29.52014497564067
 72
     1
 10
24.94229806104022
 20
29.52014497564067
 11
24.93437526153337
 21
29.55709861485002
 72
     1
 10
24.93437526153343
 20
29.55709861485002
 11
24.93173432836448
 21
30.15363495003686
 72
     1
 10
24.93173432836442
 20
30.15363495003686
 11
24.94493899420916
 21
30.19850722621959
 72
     1
 10
24.94493899420916
 20
30.19850722621959
 11
24.9792713032221
 21
30.24337939312704
 72
     1
 10
24.9792713032221
 20
30.24337939312698
 11
25.02944921124873
 21
30.26977484970507
 72
     1
 10
25.02944921124867
 20
30.26977484970507
 11
25.09019067413436
 21
30.27769337740318
 72
     1
 10
25.09019067413442
 20
30.27769337740318
 11
25.14829138166788
 21
30.25657712141605
 72
     1
 10
25.14829138166783
 20
30.25657712141605
 11
25.18526462384972
 21
30.22226302786453
 72
     1
 10
25.18526462384966
 20
30.22226302786453
 11
25.20903302237019
 21
30.18003040661494
 72
     1
 10
25.20903302237019
 20
30.18003040661494
 11
25.21431488870808
 21
30.12987914839192
 72
     1
 10
25.21431488870808
 20
30.12987914839186
 11
25.23280142089066
 21
30.12987914839186
 72
     1
 10
25.23280142089072
 20
30.12987914839186
 11
25.22751955455282
 21
30.32784474490154
 72
     1
 10
25.22751955455282
 20
30.32784474490154
 11
25.22751955455282
 21
30.33048429055935
 72
     1
 10
25.22751955455282
 20
30.33048429055935
 11
25.22487862138388
 21
30.33048429055935
 97
        0
 75
     0
 76
     1
 52
0.0
 41
0.0625
 77
     0
 78
     1
 53
0.0
 43
1.794036759742709
 44
4.075757938570234
 45
0.0
 46
0.0078125
 79
     0
 98
        1
 10
1.794036759742709
 20
4.075757938570234
  0
LINE
  5
7FE
330
7B7
100
AcDbEntity
  8
LINEWORK
 62
    22
370
    30
100
AcDbLine
 10
24.80761029160743
 20
30.13691484067829
 30
0.0
 11
24.80761029160743
 21
29.56765679748122
 31
0.0
  0
LINE
  5
7FF
330
7B7
100
AcDbEntity
  8
LINEWORK
 62
    22
370
    30
100
AcDbLine
 10
24.93701619470238
 20
30.13691484067829
 30
0.0
 11
24.93701619470232
 21
29.56765679748122
 31
0.0
  0
LINE
  5
800
330
7B7
100
AcDbEntity
  8
LINEWORK
 62
     7
370
    30
100
AcDbLine
 10
24.12193778927928
 20
28.375
 30
0.0
 11
24.12193778927928
 21
30.75
 31
0.0
  0
LINE
  5
801
330
7B7
100
AcDbEntity
  8
LINEWORK
 62
     7
370
    30
100
AcDbLine
 10
24.88223937736228
 20
28.26885284816842
 30
0.0
 11
24.12193778927928
 21
28.375
 31
0.0
  0
ARC
  5
802
330
7B7
100
AcDbEntity
  8
LINEWORK
 62
     7
370
    30
100
AcDbCircle
 10
26.0316750603506
 20
28.42010496165483
 30
0.0
 40
1.159344466136349
100
AcDbArc
 50
187.4963758602323
 51
255.4678153711493
  0
LINE
  5
803
330
7B7
100
AcDbEntity
  8
LINEWORK
 62
     7
370
    30
100
AcDbLine
 10
25.74111812086096
 20
26.79889545879524
 30
0.0
 11
25.74076794150125
 21
27.29785158591312
 31
0.0
  0
ARC
  5
804
330
7B7
100
AcDbEntity
  8
LINEWORK
 62
     7
370
    30
100
AcDbCircle
 10
25.57656431397168
 20
26.42839203339167
 30
0.0
 40
0.4054019531249582
100
AcDbArc
 50
312.6441599562707
 51
66.05228345091937
  0
LINE
  5
805
330
7B7
100
AcDbEntity
  8
LINEWORK
 62
     7
370
    30
100
AcDbLine
 10
25.36562932163309
 20
25.67143310572044
 30
0.0
 11
25.85120107210241
 21
26.13018842060176
 31
0.0
  0
ARC
  5
806
330
7B7
100
AcDbEntity
  8
LINEWORK
 62
     7
370
    30
100
AcDbCircle
 10
25.70675704259179
 20
25.30200222472109
 30
0.0
 40
0.5028392365780468
100
AcDbArc
 50
132.7189850553561
 51
262.9151951947604
  0
LINE
  5
807
330
7B7
100
AcDbEntity
  8
LINEWORK
 62
     7
370
    30
100
AcDbLine
 10
25.64506586186235
 20
24.33542665908254
 30
0.0
 11
25.64473770606173
 21
24.80300232518328
 31
0.0
  0
LINE
  5
808
330
7B7
100
AcDbEntity
  8
LINEWORK
 62
     7
370
    30
100
AcDbLine
 10
25.76987068962131
 20
24.24176422701134
 30
0.0
 11
25.64506586186235
 21
24.33542665908254
 31
0.0
  0
LINE
  5
809
330
7B7
100
AcDbEntity
  8
LINEWORK
  6
DASHED
 62
     7
 48
2.0
370
    30
100
AcDbLine
 10
28.05893778927964
 20
32.94000000000142
 30
0.0
 11
28.05893778927964
 21
28.94000000000142
 31
0.0
  0
LINE
  5
80A
330
7B7
100
AcDbEntity
  8
LINEWORK
  6
DASHED
 62
     7
 48
2.0
370
    30
100
AcDbLine
 10
27.55893778927964
 20
28.94000000000142
 30
0.0
 11
27.55893778927964
 21
32.94000000000142
 31
0.0
  0
LINE
  5
80B
330
7B7
100
AcDbEntity
  8
LINEWORK
  6
DASHED
 62
     7
 48
2.0
370
    30
100
AcDbLine
 10
27.55893778927964
 20
32.94000000000142
 30
0.0
 11
28.05893778927964
 21
32.94000000000142
 31
0.0
  0
LINE
  5
80C
330
7B7
100
AcDbEntity
  8
LINEWORK
  6
DASHED
 62
     7
 48
2.0
370
    30
100
AcDbLine
 10
28.05893778927964
 20
28.94000000000142
 30
0.0
 11
27.55893778927964
 21
28.94000000000142
 31
0.0
  0
ARC
  5
80D
330
7B7
100
AcDbEntity
  8
LINEWORK
 62
     7
370
    30
100
AcDbCircle
 10
31.45582364231171
 20
11.17669917110003
 30
0.0
 40
1.309760156249905
100
AcDbArc
 50
185.3119499627489
 51
252.0490940633945
  0
LINE
  5
80E
330
7B7
100
AcDbEntity
  8
LINEWORK
 62
     7
370
    30
100
AcDbLine
 10
31.93781040277275
 20
7.682446895920406
 30
0.0
 11
31.93781040277275
 21
4.75
 31
0.0
  0
LINE
  5
80F
330
7B7
100
AcDbEntity
  8
LINEWORK
 62
     7
370
    30
100
AcDbLine
 10
31.05215298800686
 20
7.869446895920418
 30
0.0
 11
31.93781040277275
 21
7.682446895920406
 31
0.0
  0
LINE
  5
810
330
7B7
100
AcDbEntity
  8
LINEWORK
 62
     7
370
    30
100
AcDbLine
 10
31.05215298800686
 20
8.118446895920385
 30
0.0
 11
31.05215298800686
 21
7.869446895920418
 31
0.0
  0
ARC
  5
811
330
7B7
100
AcDbEntity
  8
LINEWORK
 62
     7
370
    30
100
AcDbCircle
 10
31.05215298800681
 20
8.758946895920416
 30
0.0
 40
0.640500000000003
100
AcDbArc
 50
270.0000000000065
 51
90.00000000000325
  0
LINE
  5
812
330
7B7
100
AcDbEntity
  8
LINEWORK
 62
     7
370
    30
100
AcDbLine
 10
31.05215298800686
 20
9.930696895920391
 30
0.0
 11
31.05215298800675
 21
9.399446895920391
 31
0.0
  0
ARC
  5
813
330
7B7
100
AcDbEntity
  8
LINEWORK
 62
     7
370
    30
100
AcDbCircle
 10
30.15188489052468
 20
11.36807034451823
 30
0.0
 40
0.3126265514021895
100
AcDbArc
 50
269.9639827629437
 51
90.00000001188764
  0
LINE
  5
814
330
7B7
100
AcDbEntity
  8
LINEWORK
 62
     7
370
    30
100
AcDbLine
 10
30.15188489045982
 20
11.99319689592039
 30
0.0
 11
30.15188489045982
 21
11.68069689592039
 31
0.0
  0
ARC
  5
815
330
7B7
100
AcDbEntity
  8
LINEWORK
 62
     7
370
    30
100
AcDbCircle
 10
27.80893736300686
 20
15.22489406708336
 30
0.0
 40
3.991650000000084
100
AcDbArc
 50
305.9417292865536
 51
28.0519432572087
  0
LINE
  5
816
330
7B7
100
AcDbEntity
  8
LINEWORK
 62
     7
370
    30
100
AcDbLine
 10
29.97731193600282
 20
24.33694689592016
 30
0.0
 11
29.85257287350242
 21
24.24319689592039
 31
0.0
  0
LINE
  5
817
330
7B7
100
AcDbEntity
  8
LINEWORK
 62
     7
370
    30
100
AcDbLine
 10
29.97731193600282
 20
24.80452267717464
 30
0.0
 11
29.97731193600282
 21
24.33694689592016
 31
0.0
  0
ARC
  5
818
330
7B7
100
AcDbEntity
  8
LINEWORK
 62
     7
370
    30
100
AcDbCircle
 10
29.91494240475288
 20
25.30347892717463
 30
0.0
 40
0.5028392365780418
100
AcDbArc
 50
277.1250163489014
 51
47.321226488307
  0
LINE
  5
819
330
7B7
100
AcDbEntity
  8
LINEWORK
 62
     7
370
    30
100
AcDbLine
 10
29.76991717005188
 20
26.13156354483669
 30
0.0
 11
30.25581076632306
 21
25.67314912873655
 31
0.0
  0
ARC
  5
81A
330
7B7
100
AcDbEntity
  8
LINEWORK
 62
     7
370
    30
100
AcDbCircle
 10
30.04434457415988
 20
26.42995983079231
 30
0.0
 40
0.4054019531249569
100
AcDbArc
 50
113.9879280927425
 51
227.3960515873894
  0
LINE
  5
81B
330
7B7
100
AcDbEntity
  8
LINEWORK
 62
     7
370
    30
100
AcDbLine
 10
29.87953077968336
 20
27.29930392717466
 30
0.0
 11
29.87953077968336
 21
26.80034767717472
 31
0.0
  0
ARC
  5
81C
330
7B7
100
AcDbEntity
  8
LINEWORK
 62
     7
370
    30
100
AcDbCircle
 10
29.58783610837565
 20
28.42135286099693
 30
0.0
 40
1.159344466136347
100
AcDbArc
 50
284.5723961725109
 51
352.543835683425
  0
LINE
  5
81D
330
7B7
100
AcDbEntity
  8
LINEWORK
 62
     7
370
    30
100
AcDbLine
 10
31.49593778927931
 20
28.375
 30
0.0
 11
30.73737766061242
 21
28.27090748605257
 31
0.0
  0
LINE
  5
81E
330
7B7
100
AcDbEntity
  8
LINEWORK
 62
     7
370
    30
100
AcDbLine
 10
31.49593778927931
 20
30.75
 30
0.0
 11
31.49593778927931
 21
28.375
 31
0.0
  0
ARC
  5
81F
330
7B7
100
AcDbEntity
  8
LINEWORK
370
    30
100
AcDbCircle
 10
33.09583180891434
 20
33.52283818206291
 30
0.0
 40
1.299371506374636
100
AcDbArc
 50
272.783752937382
 51
354.2984521406174
  0
LINE
  5
820
330
7B7
100
AcDbEntity
  8
LINEWORK
370
    30
100
AcDbLine
 10
33.15893778927977
 20
31.67500000000001
 30
0.0
 11
33.15893778927977
 21
32.22499999999996
 31
0.0
  0
ARC
  5
821
330
7B7
100
AcDbEntity
  8
LINEWORK
370
    30
100
AcDbCircle
 10
35.1792282931824
 20
33.30902312383807
 30
0.0
 40
0.7949809888151388
100
AcDbArc
 50
117.76106087053
 51
173.8819545312739
  0
LINE
  5
822
330
7B7
100
AcDbEntity
  8
LINEWORK
370
    30
100
AcDbLine
 10
34.80893778927634
 20
34.01249999999993
 30
0.0
 11
34.80893778927987
 21
34.97499999999991
 31
0.0
  0
ARC
  5
823
330
7B7
100
AcDbEntity
  8
LINEWORK
370
    30
100
AcDbCircle
 10
32.60893778927948
 20
31.12499999999971
 30
0.0
 40
0.5500000000002502
100
AcDbArc
 50
89.99999999997395
 51
179.9999999999739
  0
LINE
  5
824
330
7B7
100
AcDbEntity
  8
LINEWORK
  6
PHANTOM
 62
     7
 48
3.0
370
    30
100
AcDbLine
 10
21.18393778927929
 20
0.0
 30
0.0
 11
34.43226071379086
 21
0.0
 31
0.0
  0
DIMENSION
  5
825
330
7B7
100
AcDbEntity
  8
DIM
 62
     7
100
AcDbDimension
  2
*D2
 10
46.10990987035592
 20
35.80000000000001
 30
0.0
 11
46.10990987035592
 21
17.62267619285924
 31
0.0
 12
-108.9505534583839
 22
-53.19480845571153
 32
0.0
 70
   128
  1
36"
 71
     5
 42
-1.0
  3
STANDARD
100
AcDbAlignedDimension
 13
33.63056141826291
 23
0.0
 33
0.0
 14
33.75231240116159
 24
35.80000000000001
 34
0.0
 50
90.0
100
AcDbRotatedDimension
1001
ACAD
1000
DSTYLE
1002
{
1070
   287
1070
     4
1070
   287
1070
     4
1070
   287
1070
     4
1070
   287
1070
     4
1070
   287
1070
     4
1070
    40
1040
2.399999999999999
1070
    73
1070
     1
1070
    74
1070
     1
1070
    77
1070
     0
1070
   147
1040
0.5
1070
   279
1070
     1
1070
   288
1070
     1
1070
   289
1070
     3
1002
}
  0
LINE
  5
826
330
7B7
100
AcDbEntity
  8
LINEWORK
 62
     7
370
    30
100
AcDbLine
 10
32.62093778927971
 20
3.874999999999744
 30
0.0
 11
32.62093778927971
 21
0.3749999999997442
 31
0.0
  0
LINE
  5
827
330
7B7
100
AcDbEntity
  8
LINEWORK
 62
     7
370
    30
100
AcDbLine
 10
32.1209377892797
 20
4.374999999999744
 30
0.0
 11
32.62093778927971
 21
3.874999999999744
 31
0.0
  0
DIMENSION
  5
828
330
7B7
100
AcDbEntity
  8
DIM
 62
     7
100
AcDbDimension
  2
*D5
 10
32.62093778927971
 20
-5.549085474021893
 30
0.0
 11
46.84238976438723
 21
-5.549085474021893
 31
0.0
 12
-108.9505534583839
 22
-53.19480845571153
 32
0.0
 70
   128
 71
     5
 42
-1.0
  3
STANDARD
100
AcDbAlignedDimension
 13
22.99693778927968
 23
0.375
 33
0.0
 14
32.62093778927971
 24
0.3750000000002558
 34
0.0
100
AcDbRotatedDimension
1001
ACAD
1000
DSTYLE
1002
{
1070
   287
1070
     4
1070
   287
1070
     4
1070
   287
1070
     4
1070
   287
1070
     4
1070
    40
1040
2.399999999999999
1070
    73
1070
     1
1070
    74
1070
     1
1070
    77
1070
     0
1070
   147
1040
0.5
1070
   279
1070
     1
1070
   288
1070
     1
1070
   289
1070
     3
1002
}
  0
LINE
  5
829
330
7B7
100
AcDbEntity
  8
LINEWORK
 62
     7
370
    30
100
AcDbLine
 10
22.45893778927882
 20
31.67500000000001
 30
0.0
 11
23.00893778927874
 21
31.67499999999996
 31
0.0
  0
LINE
  5
82A
330
7B7
100
AcDbEntity
  8
LINEWORK
 62
     7
370
    30
100
AcDbLine
 10
32.60893778927973
 20
31.67499999999996
 30
0.0
 11
33.15893778927977
 21
31.67500000000001
 31
0.0
  0
LINE
  5
82B
330
7B7
100
AcDbEntity
  8
LINEWORK
 62
     7
370
    30
100
AcDbLine
 10
32.62093778927971
 20
0.3749999999997442
 30
0.0
 11
22.99693778927968
 21
0.375
 31
0.0
  0
LINE
  5
82C
330
7B7
100
AcDbEntity
  8
LINEWORK
 62
     7
370
    30
100
AcDbLine
 10
32.1209377892797
 20
4.374999999999744
 30
0.0
 11
23.49693778927968
 21
4.375
 31
0.0
  0
LINE
  5
82D
330
7B7
100
AcDbEntity
  8
LINEWORK
 62
     7
370
    30
100
AcDbLine
 10
27.80893778927929
 20
35.42500000000001
 30
0.0
 11
27.77474960501024
 21
35.42500000000001
 31
0.0
  0
LINE
  5
82E
330
7B7
100
AcDbEntity
  8
LINEWORK
  6
PHANTOM
 62
     7
 48
3.0
370
    30
100
AcDbLine
 10
21.18393778927929
 20
35.84235571963694
 30
0.0
 11
34.43226071379086
 21
35.84235571963694
 31
0.0
  0
DIMENSION
  5
82F
330
7B7
100
AcDbEntity
  8
LINEWORK
 62
     7
100
AcDbDimension
  2
*D6
 10
34.80893778927987
 20
40.68776723669836
 30
0.0
 11
28.10215899385491
 21
40.68776723669836
 31
0.0
 12
-108.9505534583839
 22
-53.19480845571153
 32
0.0
 70
   128
 71
     5
 42
-1.0
  3
STANDARD
100
AcDbAlignedDimension
 13
20.80893778927872
 23
34.97499999999991
 33
0.0
 14
34.80893778927987
 24
34.97499999999991
 34
0.0
100
AcDbRotatedDimension
1001
ACAD
1000
DSTYLE
1002
{
1070
   287
1070
     4
1070
   287
1070
     4
1070
    40
1040
2.399999999999999
1070
    73
1070
     1
1070
    74
1070
     1
1070
    77
1070
     0
1070
   147
1040
0.5
1070
   279
1070
     1
1070
   288
1070
     1
1070
   289
1070
     3
1002
}
  0
DIMENSION
  5
830
330
7B7
100
AcDbEntity
  8
DIM
 62
     7
100
AcDbDimension
  2
*D7
 10
38.62195124985021
 20
30.75
 30
0.0
 11
38.62195124985021
 21
17.68671127405193
 31
0.0
 12
-108.9505534583839
 22
-53.19480845571153
 32
0.0
 70
   128
 71
     5
 42
-1.0
  3
STANDARD
100
AcDbAlignedDimension
 13
31.93781040277275
 23
4.75
 33
0.0
 14
31.49593778927931
 24
30.75
 34
0.0
 50
90.0
100
AcDbRotatedDimension
1001
ACAD
1000
DSTYLE
1002
{
1070
   287
1070
     4
1070
   287
1070
     4
1070
    40
1040
2.399999999999999
1070
    73
1070
     1
1070
    74
1070
     1
1070
    77
1070
     0
1070
   147
1040
0.5
1070
   279
1070
     1
1070
   288
1070
     1
1070
   289
1070
     3
1002
}
  0
LINE
  5
831
330
7B7
100
AcDbEntity
  8
LINEWORK
 62
     7
100
AcDbLine
 10
27.77474960501024
 20
35.42500000000001
 30
0.0
 11
34.80893778927987
 21
34.97499999999991
 31
0.0
  0
LINE
  5
832
330
7B7
100
AcDbEntity
  8
LINEWORK
 62
     7
100
AcDbLine
 10
27.77474960501024
 20
35.42500000000001
 30
0.0
 11
20.80893778927872
 21
34.97499999999991
 31
0.0
  0
ENDBLK
  5
7B9
330
7B7
100
AcDbEntity
  8
0
 62
     7
100
AcDbBlockEnd
  0
BLOCK
  5
908
330
8FD
100
AcDbEntity
  8
0
 62
     7
100
AcDbBlockBegin
  2
*D9
 70
     1
 10
0.0
 20
0.0
 30
0.0
  3
*D9
  1

  0
LINE
  5
AC4
330
8FD
100
AcDbEntity
  8
DIM
 62
     0
100
AcDbLine
 10
144.9811148766469
 20
53.19480845571152
 30
0.0
 11
155.6604633287398
 21
53.19480845571152
 31
0.0
  0
LINE
  5
AC5
330
8FD
100
AcDbEntity
  8
DIM
 62
     0
100
AcDbLine
 10
145.1028658595455
 20
88.99480845571153
 30
0.0
 11
155.6604633287399
 21
88.99480845571153
 31
0.0
  0
LINE
  5
AC6
330
8FD
100
AcDbEntity
  8
DIM
 62
     0
100
AcDbLine
 10
155.0604633287398
 20
54.39480845571152
 30
0.0
 11
155.0604633287399
 21
68.37241023326246
 31
0.0
  0
LINE
  5
AC7
330
8FD
100
AcDbEntity
  8
DIM
 62
     0
100
AcDbLine
 10
155.0604633287399
 20
87.79480845571153
 30
0.0
 11
155.0604633287399
 21
73.26255906387905
 31
0.0
  0
MTEXT
  5
AC8
330
8FD
100
AcDbEntity
  8
DIM
 62
     0
100
AcDbMText
 10
155.0604633287399
 20
70.81748464857077
 30
0.0
 40
2.399999999999999
 41
0.0
 71
     5
 72
     1
  1
\A1;36"
 73
     1
 44
1.0
  0
SOLID
  5
AC9
330
8FD
100
AcDbEntity
  8
DIM
 62
     0
100
AcDbTrace
 10
154.8604633287398
 20
54.39480845571152
 30
0.0
 11
155.2604633287398
 21
54.39480845571152
 31
0.0
 12
155.0604633287398
 22
53.19480845571152
 32
0.0
 13
155.0604633287398
 23
53.19480845571152
 33
0.0
  0
SOLID
  5
ACA
330
8FD
100
AcDbEntity
  8
DIM
 62
     0
100
AcDbTrace
 10
154.8604633287399
 20
87.79480845571153
 30
0.0
 11
155.2604633287398
 21
87.79480845571153
 31
0.0
 12
155.0604633287399
 22
88.99480845571153
 32
0.0
 13
155.0604633287399
 23
88.99480845571153
 33
0.0
  0
POINT
  5
ACB
330
8FD
100
AcDbEntity
  8
Defpoints
 62
     0
100
AcDbPoint
 10
142.5811148766468
 20
53.19480845571153
 30
0.0
  0
POINT
  5
ACC
330
8FD
100
AcDbEntity
  8
Defpoints
 62
     0
100
AcDbPoint
 10
142.7028658595455
 20
88.99480845571153
 30
0.0
  0
POINT
  5
ACD
330
8FD
100
AcDbEntity
  8
Defpoints
 62
     0
100
AcDbPoint
 10
155.0604633287399
 20
88.99480845571153
 30
0.0
  0
ENDBLK
  5
909
330
8FD
100
AcDbEntity
  8
0
 62
     7
100
AcDbBlockEnd
  0
BLOCK
  5
915
330
90A
100
AcDbEntity
  8
0
 62
     7
100
AcDbBlockBegin
  2
*D10
 70
     1
 10
0.0
 20
0.0
 30
0.0
  3
*D10
  1

  0
LINE
  5
ACE
330
90A
100
AcDbEntity
  8
DIM
 62
     0
100
AcDbLine
 10
131.9474912476636
 20
51.16980845571152
 30
0.0
 11
131.9474912476636
 21
47.04572298168963
 31
0.0
  0
LINE
  5
ACF
330
90A
100
AcDbEntity
  8
DIM
 62
     0
100
AcDbLine
 10
141.5714912476636
 20
51.16980845571178
 30
0.0
 11
141.5714912476636
 21
47.04572298168963
 31
0.0
  0
LINE
  5
AD0
330
90A
100
AcDbEntity
  8
DIM
 62
     0
100
AcDbLine
 10
133.1474912476636
 20
47.64572298168963
 30
0.0
 11
140.3714912476637
 21
47.64572298168963
 31
0.0
  0
LINE
  5
AD1
330
90A
100
AcDbEntity
  8
DIM
 62
     0
100
AcDbLine
 10
149.1210792964777
 20
47.64572298168963
 30
0.0
 11
141.5714912476636
 21
47.64572298168963
 31
0.0
  0
MTEXT
  5
AD2
330
90A
100
AcDbEntity
  8
DIM
 62
     0
100
AcDbMText
 10
155.7929432227712
 20
47.64572298168963
 30
0.0
 40
2.399999999999999
 41
0.0
 71
     5
 72
     1
  1
\A1;9 5/8"
 73
     1
 44
1.0
  0
SOLID
  5
AD3
330
90A
100
AcDbEntity
  8
DIM
 62
     0
100
AcDbTrace
 10
133.1474912476636
 20
47.84572298168963
 30
0.0
 11
133.1474912476636
 21
47.44572298168963
 31
0.0
 12
131.9474912476636
 22
47.64572298168963
 32
0.0
 13
131.9474912476636
 23
47.64572298168963
 33
0.0
  0
SOLID
  5
AD4
330
90A
100
AcDbEntity
  8
DIM
 62
     0
100
AcDbTrace
 10
140.3714912476637
 20
47.84572298168963
 30
0.0
 11
140.3714912476637
 21
47.44572298168963
 31
0.0
 12
141.5714912476636
 22
47.64572298168963
 32
0.0
 13
141.5714912476636
 23
47.64572298168963
 33
0.0
  0
POINT
  5
AD5
330
90A
100
AcDbEntity
  8
Defpoints
 62
     0
100
AcDbPoint
 10
131.9474912476636
 20
53.56980845571152
 30
0.0
  0
POINT
  5
AD6
330
90A
100
AcDbEntity
  8
Defpoints
 62
     0
100
AcDbPoint
 10
141.5714912476636
 20
53.56980845571178
 30
0.0
  0
POINT
  5
AD7
330
90A
100
AcDbEntity
  8
Defpoints
 62
     0
100
AcDbPoint
 10
141.5714912476636
 20
47.64572298168963
 30
0.0
  0
ENDBLK
  5
916
330
90A
100
AcDbEntity
  8
0
 62
     7
100
AcDbBlockEnd
  0
BLOCK
  5
922
330
917
100
AcDbEntity
  8
0
 62
     7
100
AcDbBlockBegin
  2
*D11
 70
     1
 10
0.0
 20
0.0
 30
0.0
  3
*D11
  1

  0
LINE
  5
AD8
330
917
100
AcDbEntity
  8
LINEWORK
 62
     0
100
AcDbLine
 10
129.7594912476627
 20
90.56980845571144
 30
0.0
 11
129.7594912476627
 21
94.48257569240988
 31
0.0
  0
LINE
  5
AD9
330
917
100
AcDbEntity
  8
LINEWORK
 62
     0
100
AcDbLine
 10
143.7594912476638
 20
90.56980845571144
 30
0.0
 11
143.7594912476638
 21
94.48257569240988
 31
0.0
  0
LINE
  5
ADA
330
917
100
AcDbEntity
  8
LINEWORK
 62
     0
100
AcDbLine
 10
130.9594912476627
 20
93.88257569240989
 30
0.0
 11
132.8463339972424
 21
93.88257569240989
 31
0.0
  0
LINE
  5
ADB
330
917
100
AcDbEntity
  8
LINEWORK
 62
     0
100
AcDbLine
 10
142.5594912476638
 20
93.88257569240989
 30
0.0
 11
141.2590909072353
 21
93.88257569240989
 31
0.0
  0
MTEXT
  5
ADC
330
917
100
AcDbEntity
  8
LINEWORK
 62
     0
100
AcDbMText
 10
137.0527124522388
 20
93.88257569240989
 30
0.0
 40
2.399999999999999
 41
0.0
 71
     5
 72
     1
  1
\A1;14"
 73
     1
 44
1.0
  0
SOLID
  5
ADD
330
917
100
AcDbEntity
  8
LINEWORK
 62
     0
100
AcDbTrace
 10
130.9594912476627
 20
94.08257569240989
 30
0.0
 11
130.9594912476627
 21
93.68257569240988
 31
0.0
 12
129.7594912476627
 22
93.88257569240989
 32
0.0
 13
129.7594912476627
 23
93.88257569240989
 33
0.0
  0
SOLID
  5
ADE
330
917
100
AcDbEntity
  8
LINEWORK
 62
     0
100
AcDbTrace
 10
142.5594912476638
 20
94.08257569240989
 30
0.0
 11
142.5594912476638
 21
93.68257569240988
 31
0.0
 12
143.7594912476638
 22
93.88257569240989
 32
0.0
 13
143.7594912476638
 23
93.88257569240989
 33
0.0
  0
POINT
  5
ADF
330
917
100
AcDbEntity
  8
Defpoints
 62
     0
100
AcDbPoint
 10
129.7594912476627
 20
88.16980845571142
 30
0.0
  0
POINT
  5
AE0
330
917
100
AcDbEntity
  8
Defpoints
 62
     0
100
AcDbPoint
 10
143.7594912476638
 20
88.16980845571142
 30
0.0
  0
POINT
  5
AE1
330
917
100
AcDbEntity
  8
Defpoints
 62
     0
100
AcDbPoint
 10
143.7594912476638
 20
93.88257569240989
 30
0.0
  0
ENDBLK
  5
923
330
917
100
AcDbEntity
  8
0
 62
     7
100
AcDbBlockEnd
  0
BLOCK
  5
92F
330
924
100
AcDbEntity
  8
0
 62
     7
100
AcDbBlockBegin
  2
*D12
 70
     1
 10
0.0
 20
0.0
 30
0.0
  3
*D12
  1

  0
LINE
  5
AE2
330
924
100
AcDbEntity
  8
DIM
 62
     0
100
AcDbLine
 10
143.2883638611567
 20
57.94480845571152
 30
0.0
 11
148.1725047082341
 21
57.94480845571151
 31
0.0
  0
LINE
  5
AE3
330
924
100
AcDbEntity
  8
DIM
 62
     0
100
AcDbLine
 10
142.8464912476632
 20
83.94480845571152
 30
0.0
 11
148.1725047082341
 21
83.94480845571152
 31
0.0
  0
LINE
  5
AE4
330
924
100
AcDbEntity
  8
DIM
 62
     0
100
AcDbLine
 10
147.5725047082341
 20
59.14480845571151
 30
0.0
 11
147.5725047082342
 21
68.43644531445514
 31
0.0
  0
LINE
  5
AE5
330
924
100
AcDbEntity
  8
DIM
 62
     0
100
AcDbLine
 10
147.5725047082342
 20
82.74480845571153
 30
0.0
 11
147.5725047082342
 21
73.32659414507173
 31
0.0
  0
MTEXT
  5
AE6
330
924
100
AcDbEntity
  8
DIM
 62
     0
100
AcDbMText
 10
147.5725047082342
 20
70.88151972976345
 30
0.0
 40
2.399999999999999
 41
0.0
 71
     5
 72
     1
  1
\A1;26"
 73
     1
 44
1.0
  0
SOLID
  5
AE7
330
924
100
AcDbEntity
  8
DIM
 62
     0
100
AcDbTrace
 10
147.3725047082341
 20
59.14480845571151
 30
0.0
 11
147.7725047082341
 21
59.14480845571151
 31
0.0
 12
147.5725047082341
 22
57.94480845571151
 32
0.0
 13
147.5725047082341
 23
57.94480845571151
 33
0.0
  0
SOLID
  5
AE8
330
924
100
AcDbEntity
  8
DIM
 62
     0
100
AcDbTrace
 10
147.3725047082341
 20
82.74480845571153
 30
0.0
 11
147.7725047082341
 21
82.74480845571153
 31
0.0
 12
147.5725047082342
 22
83.94480845571152
 32
0.0
 13
147.5725047082342
 23
83.94480845571152
 33
0.0
  0
POINT
  5
AE9
330
924
100
AcDbEntity
  8
Defpoints
 62
     0
100
AcDbPoint
 10
140.8883638611567
 20
57.94480845571152
 30
0.0
  0
POINT
  5
AEA
330
924
100
AcDbEntity
  8
Defpoints
 62
     0
100
AcDbPoint
 10
140.4464912476632
 20
83.94480845571152
 30
0.0
  0
POINT
  5
AEB
330
924
100
AcDbEntity
  8
Defpoints
 62
     0
100
AcDbPoint
 10
147.5725047082342
 20
83.94480845571152
 30
0.0
  0
ENDBLK
  5
930
330
924
100
AcDbEntity
  8
0
 62
     7
100
AcDbBlockEnd
  0
ENDSEC
  0
SECTION
  2
ENTITIES
  0
INSERT
  5
26
330
2
100
AcDbEntity
  8
LINEWORK
 62
     7
100
AcDbBlockReference
 66
     1
  2
TSFORMB
 10
7.61445611853162
 20
6.412987411593704
 30
0.0
 41
1.560169799999981
 42
1.560169799999981
 43
1.560169799999999
  0
ATTRIB
  5
27
330
26
100
AcDbEntity
  8
A1
 62
     1
100
AcDbText
 10
59.13893693038449
 20
7.842858304673029
 30
0.0
 40
1.600093921114079
  1
BALUSTRADE 4" CODE
 72
     1
 11
71.98731689227146
 21
7.842858304673029
 31
0.0
100
AcDbAttribute
  2
XXXXXX
 70
     0
  0
ATTRIB
  5
29
330
26
100
AcDbEntity
  8
A1
 62
     1
100
AcDbText
 10
34.0511211471136
 20
9.338334968174528
 30
0.0
 40
1.310542632
  1
TSB000
 72
     2
 11
41.24192274664869
 21
9.338334968174528
 31
0.0
100
AcDbAttribute
  2
XXXXXX
 70
     0
  0
ATTRIB
  5
2A
330
26
100
AcDbEntity
  8
A1
 62
     1
100
AcDbText
 10
18.21825813656171
 20
11.27753881353424
 30
0.0
 40
9.5669612136
  1
TSB000
  7
barcoder
 72
     1
 11
27.66563233499171
 21
11.27753881353424
 31
0.0
100
AcDbAttribute
  2
BARCODE
 70
     0
  0
ATTRIB
  5
2C
330
26
100
AcDbEntity
  8
A1
 62
     1
100
AcDbText
 10
153.4891941590636
 20
120.9294762129862
 30
0.0
 40
3.2435930142
  1
TSB000
 72
     1
 11
162.3878111384883
 21
120.9294762129862
 31
0.0
100
AcDbAttribute
  2
TS00XX
 70
     0
  0
ATTRIB
  5
2D
330
26
100
AcDbEntity
  8
A1
 62
     1
100
AcDbText
 10
165.4661541528878
 20
22.13794571436629
 30
0.0
 40
1.474360461
  1

 72
     1
 11
165.4661541528878
 21
22.13794571436629
 31
0.0
100
AcDbAttribute
  2
XXXXX
 70
     0
  0
ATTRIB
  5
2E
330
26
100
AcDbEntity
  8
A1
 62
     1
100
AcDbText
 10
165.4128477177998
 20
17.67669352945224
 30
0.0
 40
1.474360461
  1

 72
     1
 11
165.4128477177998
 21
17.67669352945224
 31
0.0
100
AcDbAttribute
  2
XXXXX
 70
     0
  0
SEQEND
  5
5F
330
26
100
AcDbEntity
  8
LINEWORK
 62
     7
  0
LINE
  5
60
330
2
100
AcDbEntity
  8
leaders
 62
     1
370
    30
100
AcDbLine
 10
80.37756952643832
 20
89.76526427957706
 30
0.0
 11
54.65246118275501
 21
111.3088349608583
 31
0.0
  0
LINE
  5
61
330
2
100
AcDbEntity
  8
leaders
 62
     1
370
    30
100
AcDbLine
 10
97.56785194315867
 20
86.23011891480539
 30
0.0
 11
103.7910495789957
 21
111.6920383612574
 31
0.0
  0
DIMENSION
  5
71
330
2
100
AcDbEntity
  8
DIM
 62
     7
370
    30
100
AcDbDimension
  2
*D3
 10
95.04594253313234
 20
47.41885769306148
 30
0.0
 11
108.1782854116972
 21
47.41885769306148
 31
0.0
 70
   160
  1
8 5/8"
 71
     5
 42
-1.0
  3
STANDARD
100
AcDbAlignedDimension
 13
86.42094253313235
 23
57.25480845571152
 33
0.0
 14
95.04594253313234
 24
57.25480845571152
 34
0.0
100
AcDbRotatedDimension
1001
ACAD
1000
DSTYLE
1002
{
1070
   287
1070
     4
1070
   287
1070
     4
1070
   287
1070
     4
1070
   287
1070
     4
1070
   287
1070
     4
1070
    40
1040
2.399999999999999
1070
    73
1070
     1
1070
    74
1070
     1
1070
    77
1070
     0
1070
   147
1040
0.5
1070
   279
1070
     1
1070
   288
1070
     1
1070
   289
1070
     3
1002
}
  0
LINE
  5
81
330
2
100
AcDbEntity
  8
leaders
 62
     1
370
    30
100
AcDbLine
 10
37.34556590527603
 20
63.91122703243027
 30
0.0
 11
51.31710996027893
 21
63.91122703243029
 31
0.0
  0
LINE
  5
82
330
2
100
AcDbEntity
  8
leaders
 62
     1
370
    30
100
AcDbLine
 10
37.34556590527609
 20
86.62258136993708
 30
0.0
 11
51.31710996027885
 21
86.62258136993708
 31
0.0
  0
LINE
  5
83
330
2
100
AcDbEntity
  8
leaders
 62
     1
370
    30
100
AcDbLine
 10
37.34556590527609
 20
39.55412275519805
 30
0.0
 11
54.81710996027899
 21
39.55412275519815
 31
0.0
  0
ATTDEF
  5
84
330
2
100
AcDbEntity
  8
leaders
 62
     1
370
    30
100
AcDbText
 10
18.88250274456743
 20
38.40048394597593
 30
0.0
 40
2.879999999999999
  1

100
AcDbAttributeDefinition
  3
ADD LINK NUMBER (WMF)
  2
TS1632
 70
     0
  0
LINE
  5
85
330
2
100
AcDbEntity
  8
leaders
 62
     1
370
    30
100
AcDbLine
 10
37.16168444142335
 20
37.45636254491575
 30
0.0
 11
37.16168444142335
 21
41.96839003274109
 31
0.0
  0
ATTDEF
  5
86
330
2
100
AcDbEntity
  8
leaders
 62
     1
370
    30
100
AcDbText
 10
19.67403941695113
 20
62.7575882232081
 30
0.0
 40
2.879999999999999
  1

100
AcDbAttributeDefinition
  3
ADD LINK NUMBER (WMF)
  2
TS0266
 70
     0
  0
LINE
  5
87
330
2
100
AcDbEntity
  8
leaders
 62
     1
370
    30
100
AcDbLine
 10
37.16168444142329
 20
61.81346682214794
 30
0.0
 11
37.16168444142335
 21
66.32549430997326
 31
0.0
  0
ATTDEF
  5
88
330
2
100
AcDbEntity
  8
leaders
 62
     1
370
    30
100
AcDbText
 10
19.99065335566814
 20
85.46894256071491
 30
0.0
 40
2.879999999999999
  1

100
AcDbAttributeDefinition
  3
ADD LINK NUMBER (WMF)
  2
TS1156
 70
     0
  0
LINE
  5
89
330
2
100
AcDbEntity
  8
leaders
 62
     1
370
    30
100
AcDbLine
 10
37.16168444142335
 20
84.52482115965475
 30
0.0
 11
37.16168444142335
 21
89.03684864748006
 31
0.0
  0
LINE
  5
8A
330
2
100
AcDbEntity
  8
leaders
 62
     1
370
    30
100
AcDbLine
 10
76.9776300009176
 20
52.94905629124051
 30
0.0
 11
54.81710996027891
 21
39.5541227551981
 31
0.0
  0
LINE
  5
8B
330
2
100
AcDbEntity
  8
LINEWORK
 62
     7
370
    30
100
AcDbLine
 10
73.30119354862353
 20
57.56980845571153
 30
0.0
 11
81.87943615554468
 21
57.56980845571153
 31
0.0
  0
LINE
  5
8C
330
2
100
AcDbEntity
  8
LINEWORK
 62
     7
370
    30
100
AcDbLine
 10
73.80119354862329
 20
57.06980845571153
 30
0.0
 11
81.87943615554468
 21
57.06980845571152
 31
0.0
  0
LINE
  5
8D
330
2
100
AcDbEntity
  8
LINEWORK
 62
     7
370
    30
100
AcDbLine
 10
73.80119354862348
 20
53.56980845571152
 30
0.0
 11
81.87943615554468
 21
53.56980845571152
 31
0.0
  0
SOLID
  5
8E
330
2
100
AcDbEntity
  8
leaders
 62
     1
370
    30
100
AcDbTrace
 10
80.50597883041593
 20
89.91859741576096
 30
0.0
 11
80.24916022246078
 21
89.61193114339314
 31
0.0
 12
81.29756834354173
 22
88.99480845571153
 32
0.0
 13
81.29756834354173
 23
88.99480845571153
 33
0.0
  0
LINE
  5
8F
330
2
100
AcDbEntity
  8
LINEWORK
 62
     7
370
    30
100
AcDbLine
 10
82.25443615554468
 20
84.31980845571152
 30
0.0
 11
108.8595634392732
 21
84.31980845571152
 31
0.0
  0
LINE
  5
90
330
2
100
AcDbEntity
  8
LINEWORK
 62
     7
370
    30
100
AcDbLine
 10
82.25443615554468
 20
88.61980845571153
 30
0.0
 11
108.8595634392732
 21
88.61980845571153
 31
0.0
  0
LINE
  5
91
330
2
100
AcDbEntity
  8
LINEWORK
 62
     7
370
    30
100
AcDbLine
 10
82.25443615554468
 20
87.20730845571145
 30
0.0
 11
108.4060099083279
 21
87.20730845571145
 31
0.0
  0
LINE
  5
92
330
2
100
AcDbEntity
  8
LINEWORK
 62
     7
370
    30
100
AcDbLine
 10
82.25443615554468
 20
88.16980845571142
 30
0.0
 11
108.6502310403754
 21
88.16980845571142
 31
0.0
  0
LINE
  5
93
330
2
100
AcDbEntity
  8
LINEWORK
 62
     7
370
    30
100
AcDbLine
 10
82.25443615554468
 20
85.41980845571147
 30
0.0
 11
108.4547534638987
 21
85.41980845571149
 31
0.0
  0
LINE
  5
94
330
2
100
AcDbEntity
  8
LINEWORK
 62
     7
370
    30
100
AcDbLine
 10
82.25443615554468
 20
84.86980845571153
 30
0.0
 11
108.657158451586
 21
84.86980845571153
 31
0.0
  0
LINE
  5
95
330
2
100
AcDbEntity
  8
LINEWORK
 62
     7
370
    30
100
AcDbLine
 10
74.09981890414883
 20
81.56980845571153
 30
0.0
 11
81.4738189041488
 21
81.56980845571153
 31
0.0
  0
LINE
  5
96
330
2
100
AcDbEntity
  8
LINEWORK
 62
     7
370
    30
100
AcDbLine
 10
81.0300341028763
 20
62.59425535163197
 30
0.0
 11
74.5585896821006
 21
62.59198444457067
 31
0.0
  0
LINE
  5
97
330
2
100
AcDbEntity
  8
LINEWORK
 62
     7
370
    30
100
AcDbLine
 10
81.03003410287636
 20
63.12550535163197
 30
0.0
 11
74.55821683821921
 21
63.12323431373531
 31
0.0
  0
LINE
  5
98
330
2
100
AcDbEntity
  8
LINEWORK
 62
     7
370
    30
100
AcDbLine
 10
81.9156915176423
 20
60.87725535163193
 30
0.0
 11
73.67413751687724
 21
60.87436329199895
 31
0.0
  0
LINE
  5
99
330
2
100
AcDbEntity
  8
LINEWORK
 62
     7
370
    30
100
AcDbLine
 10
81.03003410287636
 20
61.06425535163194
 30
0.0
 11
74.55966347247869
 21
61.06198482137651
 31
0.0
  0
LINE
  5
9A
330
2
100
AcDbEntity
  8
LINEWORK
 62
     7
370
    30
100
AcDbLine
 10
81.03003410287636
 20
61.31325535163191
 30
0.0
 11
74.55948871835829
 21
61.31098476005317
 31
0.0
  0
LWPOLYLINE
  5
9B
330
2
100
AcDbEntity
  8
LINEWORK
 62
     7
370
    30
100
AcDbPolyline
 90
       40
 70
     1
 43
0.0
 10
81.4738189041488
 20
83.94480845571152
 10
81.4738189041488
 20
81.56980845571153
 10
80.71525877548191
 20
81.4657159417641
 42
-0.305594419746614
 10
79.85741189455291
 20
80.49411238288618
 10
79.85741189455291
 20
79.99515613288625
 42
0.5396164884572633
 10
79.74779828492143
 20
79.32637200054822
 10
80.23369188119261
 20
78.86795758444808
 42
-0.638274513095031
 10
79.95519305087237
 20
77.99933113288616
 10
79.95519305087237
 20
77.53175535163169
 10
79.83045398837191
 20
77.43800535163192
 42
0.1460441945058352
 10
81.30953588694382
 20
70.29686308554747
 42
-0.3744329020414412
 10
80.12976600532931
 20
65.18800535163191
 10
80.12976600532931
 20
64.87550535163191
 42
-1.000314359196465
 10
80.12956948230003
 20
64.25025231059667
 42
0.2997154559854953
 10
81.03003410287636
 20
63.12550535163191
 10
81.0300341028763
 20
62.59425535163192
 42
-0.9999999999999998
 10
81.03003410287636
 20
61.31325535163191
 10
81.03003410287636
 20
61.06425535163194
 10
81.9156915176423
 20
60.87725535163193
 10
81.9156915176423
 20
57.94480845571152
 10
73.67619354862245
 20
57.94480845571152
 10
73.67413751687724
 20
60.874363291999
 10
74.55966347247869
 20
61.06198482137651
 10
74.55948871835835
 20
61.31098476005317
 42
-0.9999999999999994
 10
74.55858968210065
 20
62.59198444457067
 10
74.55821683821921
 20
63.12323431373531
 42
0.2997154559854953
 10
75.4578918628722
 20
64.24861296317991
 42
-1.000314359196464
 10
75.45725652244072
 20
64.87386571230437
 10
75.45703720251054
 20
65.18636563534236
 42
-0.3744329020414413
 10
74.27368209361901
 20
70.29439412050314
 42
0.1460441945058353
 10
75.74775180449086
 20
77.43657268272286
 10
75.62294697673189
 20
77.53023511479407
 10
75.62261882093128
 20
77.9978107808948
 42
-0.6382745130950301
 10
75.34351043650258
 20
78.86624156143196
 10
75.82908218697196
 20
79.32499687631329
 42
0.5396164884572628
 10
75.71899923573045
 20
79.99370391450677
 10
75.71864905637074
 20
80.49266004162465
 42
-0.3055944197466144
 10
74.86012049223177
 20
81.46366130387994
 10
74.09981890414883
 20
81.56980845571153
 10
74.09981890414883
 20
83.94480845571152
  0
LINE
  5
9D
330
2
100
AcDbEntity
  8
LINEWORK
370
    30
100
AcDbLine
 10
71.30119354862245
 20
61.19480845571136
 30
0.0
 11
71.30119354862245
 21
80.69480845571119
 31
0.0
  0
LINE
  5
9E
330
2
100
AcDbEntity
  8
LINEWORK
370
    30
100
AcDbLine
 10
60.80119354862245
 20
61.19480845571243
 30
0.0
 11
60.80119354862245
 21
80.69480845571186
 31
0.0
  0
LINE
  5
9F
330
2
100
AcDbEntity
  8
LINEWORK
 62
     7
370
    30
100
AcDbLine
 10
58.30119354862245
 20
53.56980845571151
 30
0.0
 11
73.80119354862346
 21
53.56980845571152
 31
0.0
  0
LINE
  5
A0
330
2
100
AcDbEntity
  8
LINEWORK
 62
     7
370
    30
100
AcDbLine
 10
58.30119354862245
 20
57.06980845571152
 30
0.0
 11
73.80119354862329
 21
57.06980845571152
 31
0.0
  0
LINE
  5
A1
330
2
100
AcDbEntity
  8
LINEWORK
 62
     7
370
    30
100
AcDbLine
 10
58.80119354862245
 20
57.56980845571153
 30
0.0
 11
73.30119354862353
 21
57.56980845571153
 31
0.0
  0
LINE
  5
A2
330
2
100
AcDbEntity
  8
LINEWORK
370
    30
100
AcDbLine
 10
62.05119354862245
 20
59.94480845571153
 30
0.0
 11
70.05119354862313
 21
59.94480845571152
 31
0.0
  0
LINE
  5
A3
330
2
100
AcDbEntity
  8
leaders
 62
     1
370
    30
100
AcDbLine
 10
57.73745387381456
 20
67.26335729131554
 30
0.0
 11
51.31710996027891
 21
63.91122703243027
 31
0.0
  0
LINE
  5
A4
330
2
100
AcDbEntity
  8
LINEWORK
 62
     7
370
    30
100
AcDbLine
 10
58.80119354862245
 20
57.56980845571153
 30
0.0
 11
58.30119354862245
 21
57.06980845571152
 31
0.0
  0
LINE
  5
A5
330
2
100
AcDbEntity
  8
LINEWORK
 62
     7
370
    30
100
AcDbLine
 10
58.30119354862245
 20
57.06980845571152
 30
0.0
 11
58.30119354862245
 21
53.56980845571152
 31
0.0
  0
ARC
  5
A6
330
2
100
AcDbEntity
  8
LINEWORK
370
    30
100
AcDbCircle
 10
60.80119354862245
 20
59.94480845571226
 30
0.0
 40
1.25
100
AcDbArc
 50
359.9999999999934
 51
89.99999999999349
  0
SOLID
  5
A7
330
2
100
AcDbEntity
  8
leaders
 62
     1
370
    30
100
AcDbTrace
 10
57.64488889600023
 20
67.44064723711685
 30
0.0
 11
57.83001885162889
 21
67.08606734551423
 31
0.0
 12
58.80119354862245
 22
67.81874715820143
 32
0.0
 13
58.80119354862245
 23
67.81874715820143
 33
0.0
  0
LINE
  5
A8
330
2
100
AcDbEntity
  8
LINEWORK
 62
     7
370
    30
100
AcDbLine
 10
73.30119354862325
 20
57.56980845571181
 30
0.0
 11
73.8011935486233
 21
57.0698084557118
 31
0.0
  0
LINE
  5
AA
330
2
100
AcDbEntity
  8
LINEWORK
  6
DASHED
 62
     7
 48
2.0
370
    30
100
AcDbLine
 10
66.30119354862245
 20
55.75480845571153
 30
0.0
 11
66.30119354862245
 21
59.75480845571152
 31
0.0
  0
LINE
  5
AC
330
2
100
AcDbEntity
  8
LINEWORK
  6
DASHED
 62
     7
 48
2.0
370
    30
100
AcDbLine
 10
65.80119354862245
 20
59.75480845571152
 30
0.0
 11
65.80119354862245
 21
55.75480845571153
 31
0.0
  0
LINE
  5
AD
330
2
100
AcDbEntity
  8
LINEWORK
  6
DASHED
 62
     7
 48
2.0
370
    30
100
AcDbLine
 10
65.80119354862245
 20
55.75480845571153
 30
0.0
 11
66.30119354862245
 21
55.75480845571153
 31
0.0
  0
LINE
  5
AE
330
2
100
AcDbEntity
  8
LINEWORK
  6
DASHED
 62
     7
 48
2.0
370
    30
100
AcDbLine
 10
66.30119354862245
 20
59.75480845571152
 30
0.0
 11
65.80119354862245
 21
59.75480845571152
 31
0.0
  0
ARC
  5
AF
330
2
100
AcDbEntity
  8
LINEWORK
370
    30
100
AcDbCircle
 10
71.30119354862245
 20
59.94480845571152
 30
0.0
 40
1.25
100
AcDbArc
 50
89.99999999999349
 51
179.9999999999934
  0
LINE
  5
B0
330
2
100
AcDbEntity
  8
LINEWORK
 62
     7
370
    30
100
AcDbLine
 10
82.25443615554462
 20
57.56980845571153
 30
0.0
 11
82.25443615554462
 21
53.56980845571152
 31
0.0
  0
LINE
  5
B1
330
2
100
AcDbEntity
  8
LINEWORK
 62
     7
370
    30
100
AcDbLine
 10
81.87943615554468
 20
57.56980845571153
 30
0.0
 11
81.87943615554468
 21
53.56980845571152
 31
0.0
  0
SOLID
  5
B2
330
2
100
AcDbEntity
  8
leaders
 62
     1
370
    30
100
AcDbTrace
 10
76.87417130683911
 20
53.12021790673762
 30
0.0
 11
77.08108869499608
 21
52.7778946757434
 31
0.0
 12
78.0045996939001
 22
53.56980845571152
 32
0.0
 13
78.0045996939001
 23
53.56980845571152
 33
0.0
  0
LINE
  5
B7
330
2
100
AcDbEntity
  8
LINEWORK
  6
DASHED
 62
     7
 48
2.0
370
    30
100
AcDbLine
 10
78.04594253313235
 20
59.75480845571152
 30
0.0
 11
77.54594253313235
 21
59.75480845571152
 31
0.0
  0
LINE
  5
B8
330
2
100
AcDbEntity
  8
LINEWORK
  6
DASHED
 62
     7
 48
2.0
370
    30
100
AcDbLine
 10
78.04594253313235
 20
55.75480845571153
 30
0.0
 11
78.04594253313235
 21
59.75480845571152
 31
0.0
  0
LINE
  5
BA
330
2
100
AcDbEntity
  8
LINEWORK
  6
DASHED
 62
     7
 48
2.0
370
    30
100
AcDbLine
 10
77.54594253313235
 20
59.75480845571152
 30
0.0
 11
77.54594253313235
 21
55.75480845571153
 31
0.0
  0
LINE
  5
BB
330
2
100
AcDbEntity
  8
LINEWORK
 62
     7
370
    30
100
AcDbLine
 10
73.8011935486233
 20
57.0698084557118
 30
0.0
 11
73.80119354862348
 21
53.56980845571181
 31
0.0
  0
LINE
  5
BC
330
2
100
AcDbEntity
  8
LINEWORK
 62
     7
370
    30
100
AcDbLine
 10
80.12956948230003
 20
64.25025231059667
 30
0.0
 11
75.4578918628722
 21
64.24861296317991
 31
0.0
  0
LINE
  5
BD
330
2
100
AcDbEntity
  8
LINEWORK
 62
     7
370
    30
100
AcDbLine
 10
80.12976600532931
 20
64.87550535163197
 30
0.0
 11
75.45725652244072
 21
64.87386571230437
 31
0.0
  0
LINE
  5
BE
330
2
100
AcDbEntity
  8
LINEWORK
 62
     7
370
    30
100
AcDbLine
 10
80.12976600532931
 20
65.18800535163197
 30
0.0
 11
75.45703720251054
 21
65.18636563534241
 31
0.0
  0
LINE
  5
BF
330
2
100
AcDbEntity
  8
LINEWORK
 62
     7
370
    30
100
AcDbLine
 10
57.70119354862197
 20
84.86980845571153
 30
0.0
 11
74.40119354862298
 21
84.86980845571153
 31
0.0
  0
LINE
  5
C0
330
2
100
AcDbEntity
  8
LINEWORK
 62
     7
370
    30
100
AcDbLine
 10
74.40119354862298
 20
85.41980845571149
 30
0.0
 11
57.70119354862197
 21
85.41980845571149
 31
0.0
  0
LINE
  5
C1
330
2
100
AcDbEntity
  8
LINEWORK
 62
     7
370
    30
100
AcDbLine
 10
56.05119354862541
 20
87.20730845571152
 30
0.0
 11
81.87943615554468
 21
87.20730845571152
 31
0.0
  0
LINE
  5
C2
330
2
100
AcDbEntity
  8
LINEWORK
 62
     7
370
    30
100
AcDbLine
 10
81.87943615554468
 20
88.16980845571142
 30
0.0
 11
56.05119354862187
 21
88.16980845571142
 31
0.0
  0
LINE
  5
C3
330
2
100
AcDbEntity
  8
LINEWORK
 62
     7
370
    30
100
AcDbLine
 10
58.35781893674015
 20
88.99480845571153
 30
0.0
 11
73.74456816050479
 21
88.99480845571153
 31
0.0
  0
LINE
  5
C4
330
2
100
AcDbEntity
  8
LINEWORK
 62
     7
370
    30
100
AcDbLine
 10
58.80119354862246
 20
84.31980845571152
 30
0.0
 11
73.30119354862245
 21
84.31980845571152
 31
0.0
  0
LINE
  5
C5
330
2
100
AcDbEntity
  8
LINEWORK
370
    30
100
AcDbLine
 10
62.05119354862245
 20
81.94480845571153
 30
0.0
 11
70.05119354862245
 21
81.94480845571153
 31
0.0
  0
LINE
  5
C6
330
2
100
AcDbEntity
  8
LINEWORK
 62
     7
370
    30
100
AcDbLine
 10
56.03282195991841
 20
88.16980845571142
 30
0.0
 11
58.35781893674016
 21
88.99480845571153
 31
0.0
  0
SOLID
  5
C7
330
2
100
AcDbEntity
  8
leaders
 62
     1
370
    30
100
AcDbTrace
 10
54.83721879312054
 20
87.65317310670676
 30
0.0
 11
54.92851048925934
 21
87.26373013756225
 31
0.0
 12
56.05119354862347
 22
87.73232671055101
 32
0.0
 13
56.05119354862347
 23
87.73232671055101
 33
0.0
  0
LINE
  5
C8
330
2
100
AcDbEntity
  8
leaders
 62
     1
370
    30
100
AcDbLine
 10
54.88286464118994
 20
87.4584516221345
 30
0.0
 11
51.31710996027891
 21
86.62258136993708
 31
0.0
  0
LINE
  5
C9
330
2
100
AcDbEntity
  8
LINEWORK
370
    30
100
AcDbLine
 10
57.70119354862197
 20
84.86980845571153
 30
0.0
 11
57.70119354862197
 21
85.41980845571149
 31
0.0
  0
ARC
  5
CA
330
2
100
AcDbEntity
  8
LINEWORK
370
    30
100
AcDbCircle
 10
57.76429952898741
 20
86.71764663777443
 30
0.0
 40
1.299371506374636
100
AcDbArc
 50
185.7015478593825
 51
267.2162470626179
  0
ARC
  5
CB
330
2
100
AcDbEntity
  8
leaders
 62
     7
370
    30
100
AcDbCircle
 10
55.68090304471934
 20
86.5038315795496
 30
0.0
 40
0.7949809888151388
100
AcDbArc
 50
6.118045468725888
 51
62.23893912946991
  0
ARC
  5
CC
330
2
100
AcDbEntity
  8
LINEWORK
370
    30
100
AcDbCircle
 10
58.25119354862221
 20
84.31980845571123
 30
0.0
 40
0.5500000000002502
100
AcDbArc
 50
0.0000000000260551
 51
90.00000000002605
  0
LINE
  5
CD
330
2
100
AcDbEntity
  8
LINEWORK
370
    30
100
AcDbLine
 10
56.05119354862541
 20
87.20730845571145
 30
0.0
 11
56.05119354862188
 21
88.16980845571142
 31
0.0
  0
ARC
  5
CE
330
2
100
AcDbEntity
  8
LINEWORK
370
    30
100
AcDbCircle
 10
60.80119354862245
 20
81.94480845571153
 30
0.0
 40
1.25
100
AcDbArc
 50
270.0
 51
0.0
  0
LINE
  5
CF
330
2
100
AcDbEntity
  8
LINEWORK
 62
     7
370
    30
100
AcDbLine
 10
82.25443615554468
 20
84.31980845571152
 30
0.0
 11
82.25443615554468
 21
88.61980845571155
 31
0.0
  0
LINE
  5
D0
330
2
100
AcDbEntity
  8
LINEWORK
 62
     7
370
    30
100
AcDbLine
 10
81.87943615554468
 20
84.31980845571152
 30
0.0
 11
81.87943615554468
 21
88.61980845571155
 31
0.0
  0
LINE
  5
D1
330
2
100
AcDbEntity
  8
LINEWORK
 62
     7
370
    30
100
AcDbLine
 10
76.06956513732654
 20
88.16980845571142
 30
0.0
 11
73.74456816050479
 21
88.99480845571153
 31
0.0
  0
LINE
  5
D2
330
2
100
AcDbEntity
  8
LINEWORK
 62
     7
370
    30
100
AcDbLine
 10
73.30119354862245
 20
84.31980845571152
 30
0.0
 11
81.87943615554466
 21
84.31980845571152
 31
0.0
  0
ARC
  5
D3
330
2
100
AcDbEntity
  8
LINEWORK
370
    30
100
AcDbCircle
 10
73.85119354862275
 20
84.31980845571123
 30
0.0
 40
0.5500000000002502
100
AcDbArc
 50
89.99999999997395
 51
179.9999999999739
  0
LINE
  5
D4
330
2
100
AcDbEntity
  8
LINEWORK
  6
DASHED
 62
     7
 48
2.0
370
    30
100
AcDbLine
 10
66.30119354862245
 20
82.13480845571277
 30
0.0
 11
65.80119354862245
 21
82.13480845571277
 31
0.0
  0
LINE
  5
D5
330
2
100
AcDbEntity
  8
LINEWORK
  6
DASHED
 62
     7
 48
2.0
370
    30
100
AcDbLine
 10
65.80119354862245
 20
86.13480845571277
 30
0.0
 11
66.30119354862245
 21
86.13480845571277
 31
0.0
  0
LINE
  5
D6
330
2
100
AcDbEntity
  8
LINEWORK
  6
DASHED
 62
     7
 48
2.0
370
    30
100
AcDbLine
 10
65.80119354862245
 20
82.13480845571277
 30
0.0
 11
65.80119354862245
 21
86.13480845571277
 31
0.0
  0
LINE
  5
D7
330
2
100
AcDbEntity
  8
LINEWORK
  6
DASHED
 62
     7
 48
2.0
370
    30
100
AcDbLine
 10
66.30119354862245
 20
86.13480845571277
 30
0.0
 11
66.30119354862245
 21
82.13480845571277
 31
0.0
  0
ARC
  5
D8
330
2
100
AcDbEntity
  8
LINEWORK
370
    30
100
AcDbCircle
 10
71.30119354862245
 20
81.94480845571153
 30
0.0
 40
1.25
100
AcDbArc
 50
180.0
 51
270.0
  0
LINE
  5
DD
330
2
100
AcDbEntity
  8
LINEWORK
 62
     7
370
    30
100
AcDbLine
 10
78.04594253313235
 20
86.13480845571283
 30
0.0
 11
77.54594253313235
 21
86.13480845571283
 31
0.0
  0
LINE
  5
DE
330
2
100
AcDbEntity
  8
LINEWORK
  6
DASHED
 62
     7
 48
2.0
370
    30
100
AcDbLine
 10
78.04594253313235
 20
86.13480845571283
 30
0.0
 11
78.04594253313235
 21
82.13480845571282
 31
0.0
  0
LINE
  5
DF
330
2
100
AcDbEntity
  8
LINEWORK
  6
DASHED
 62
     7
 48
2.0
370
    30
100
AcDbLine
 10
77.54594253313235
 20
82.13480845571282
 30
0.0
 11
77.54594253313235
 21
86.13480845571283
 31
0.0
  0
LINE
  5
E0
330
2
100
AcDbEntity
  8
LINEWORK
  6
DASHED
 62
     7
 48
2.0
370
    30
100
AcDbLine
 10
78.04594253313235
 20
82.13480845571282
 30
0.0
 11
77.54594253313235
 21
82.13480845571282
 31
0.0
  0
LINE
  5
E1
330
2
100
AcDbEntity
  8
LINEWORK
 62
     7
370
    30
100
AcDbLine
 10
76.06956513732654
 20
88.16980845571142
 30
0.0
 11
76.08793672603008
 21
88.16980845571142
 31
0.0
  0
LINE
  5
E2
330
2
100
AcDbEntity
  8
LINEWORK
 62
     7
370
    30
100
AcDbLine
 10
76.06956513732291
 20
87.20730845571145
 30
0.0
 11
76.08793672603008
 21
87.20730845571145
 31
0.0
  0
LINE
  5
E3
330
2
100
AcDbEntity
  8
LINEWORK
 62
     7
370
    30
100
AcDbLine
 10
74.40119354862298
 20
85.41980845571149
 30
0.0
 11
81.87943615554468
 21
85.41980845571151
 31
0.0
  0
LINE
  5
E4
330
2
100
AcDbEntity
  8
LINEWORK
 62
     7
370
    30
100
AcDbLine
 10
74.40119354862298
 20
84.86980845571153
 30
0.0
 11
81.87943615554468
 21
84.86980845571153
 31
0.0
  0
LINE
  5
E5
330
2
100
AcDbEntity
  8
LINEWORK
370
    30
100
AcDbLine
 10
76.06956513732308
 20
87.20730845571145
 30
0.0
 11
76.06956513732654
 21
88.16980845571142
 31
0.0
  0
ARC
  5
E6
330
2
100
AcDbEntity
  8
LINEWORK
370
    30
100
AcDbCircle
 10
76.42148405252555
 20
86.5038315795496
 30
0.0
 40
0.7949809888151388
100
AcDbArc
 50
117.76106087053
 51
173.8819545312741
  0
ARC
  5
E7
330
2
100
AcDbEntity
  8
LINEWORK
370
    30
100
AcDbCircle
 10
74.33808756825754
 20
86.71764663777443
 30
0.0
 40
1.299371506374636
100
AcDbArc
 50
272.783752937382
 51
354.2984521406174
  0
LINE
  5
E8
330
2
100
AcDbEntity
  8
LINEWORK
370
    30
100
AcDbLine
 10
74.40119354862298
 20
84.86980845571153
 30
0.0
 11
74.40119354862298
 21
85.41980845571149
 31
0.0
  0
LINE
  5
E9
330
2
100
AcDbEntity
  8
LINEWORK
 62
     7
370
    30
100
AcDbLine
 10
80.71525877548191
 20
81.4657159417641
 30
0.0
 11
74.86012049223177
 21
81.46366130387994
 31
0.0
  0
LINE
  5
EA
330
2
100
AcDbEntity
  8
LINEWORK
 62
     7
370
    30
100
AcDbLine
 10
79.83045398837191
 20
77.43800535163197
 30
0.0
 11
75.74584277872162
 21
77.43800535163197
 31
0.0
  0
LINE
  5
EB
330
2
100
AcDbEntity
  8
LINEWORK
 62
     7
370
    30
100
AcDbLine
 10
79.95519305087237
 20
77.53175535163169
 30
0.0
 11
75.62294697673189
 21
77.53023511479407
 31
0.0
  0
LINE
  5
EC
330
2
100
AcDbEntity
  8
LINEWORK
 62
     7
370
    30
100
AcDbLine
 10
79.95519305087237
 20
77.99933113288623
 30
0.0
 11
75.62261882093128
 21
77.9978107808948
 31
0.0
  0
LINE
  5
ED
330
2
100
AcDbEntity
  8
LINEWORK
 62
     7
370
    30
100
AcDbLine
 10
79.85741189455291
 20
79.99515613288625
 30
0.0
 11
75.71899923573045
 21
79.99370391450677
 31
0.0
  0
LINE
  5
EE
330
2
100
AcDbEntity
  8
LINEWORK
 62
     7
370
    30
100
AcDbLine
 10
79.85741189455291
 20
80.49411238288625
 30
0.0
 11
75.71864905637074
 21
80.49266004162465
 31
0.0
  0
LWPOLYLINE
  5
F0
330
2
100
AcDbEntity
  8
LINEWORK
 62
     7
370
    30
100
AcDbPolyline
 90
       40
 70
     1
 43
0.0
 10
107.3488189041488
 20
83.94480845571152
 10
107.3488189041488
 20
81.56980845571153
 10
106.5902587754819
 20
81.4657159417641
 42
-0.305594419746614
 10
105.7324118945529
 20
80.49411238288618
 10
105.7324118945529
 20
79.99515613288625
 42
0.5396164884572633
 10
105.6227982849214
 20
79.32637200054822
 10
106.1086918811926
 20
78.86795758444808
 42
-0.638274513095031
 10
105.8301930508723
 20
77.99933113288616
 10
105.8301930508723
 20
77.53175535163169
 10
105.7054539883719
 20
77.43800535163192
 42
0.1460441945058352
 10
107.1845358869438
 20
70.29686308554747
 42
-0.3744329020414412
 10
106.0047660053293
 20
65.18800535163191
 10
106.0047660053293
 20
64.87550535163191
 42
-1.000314359196465
 10
106.0045694823
 20
64.25025231059667
 42
0.2997154559854953
 10
106.9050341028763
 20
63.12550535163191
 10
106.9050341028762
 20
62.59425535163192
 42
-0.9999999999999998
 10
106.9050341028763
 20
61.31325535163191
 10
106.9050341028763
 20
61.06425535163194
 10
107.7906915176423
 20
60.87725535163193
 10
107.7906915176422
 20
57.94480845571152
 10
99.55119354862246
 20
57.94480845571152
 10
99.54913751687724
 20
60.874363291999
 10
100.4346634724786
 20
61.06198482137651
 10
100.4344887183583
 20
61.31098476005317
 42
-0.9999999999999994
 10
100.4335896821006
 20
62.59198444457067
 10
100.4332168382192
 20
63.12323431373531
 42
0.2997154559854953
 10
101.3328918628721
 20
64.24861296317991
 42
-1.000314359196464
 10
101.3322565224407
 20
64.87386571230437
 10
101.3320372025105
 20
65.18636563534236
 42
-0.3744329020414413
 10
100.148682093619
 20
70.29439412050314
 42
0.1460441945058353
 10
101.6227518044908
 20
77.43657268272286
 10
101.4979469767318
 20
77.53023511479407
 10
101.4976188209312
 20
77.9978107808948
 42
-0.6382745130950301
 10
101.2185104365025
 20
78.86624156143196
 10
101.7040821869719
 20
79.32499687631329
 42
0.5396164884572628
 10
101.5939992357305
 20
79.99370391450677
 10
101.5936490563707
 20
80.49266004162465
 42
-0.3055944197466144
 10
100.7351204922317
 20
81.46366130387994
 10
99.97481890414883
 20
81.56980845571153
 10
99.97481890414883
 20
83.94480845571152
  0
LWPOLYLINE
  5
F1
330
2
100
AcDbEntity
  8
LINEWORK
 62
     7
370
    30
100
AcDbPolyline
 90
       40
 70
     1
 43
0.0
 10
98.7238189041488
 20
83.94480845571152
 10
98.7238189041488
 20
81.56980845571153
 10
97.96525877548191
 20
81.4657159417641
 42
-0.305594419746614
 10
97.10741189455291
 20
80.49411238288618
 10
97.10741189455291
 20
79.99515613288625
 42
0.5396164884572633
 10
96.99779828492143
 20
79.32637200054822
 10
97.48369188119262
 20
78.86795758444808
 42
-0.638274513095031
 10
97.20519305087236
 20
77.99933113288616
 10
97.20519305087236
 20
77.53175535163169
 10
97.08045398837192
 20
77.43800535163192
 42
0.1460441945058352
 10
98.55953588694383
 20
70.29686308554747
 42
-0.3744329020414412
 10
97.37976600532931
 20
65.18800535163191
 10
97.37976600532931
 20
64.87550535163191
 42
-1.000314359196465
 10
97.37956948230005
 20
64.25025231059667
 42
0.2997154559854953
 10
98.28003410287635
 20
63.12550535163191
 10
98.28003410287625
 20
62.59425535163192
 42
-0.9999999999999998
 10
98.28003410287635
 20
61.31325535163191
 10
98.28003410287635
 20
61.06425535163194
 10
99.1656915176423
 20
60.87725535163193
 10
99.16569151764225
 20
57.94480845571152
 10
90.92619354862245
 20
57.94480845571152
 10
90.92413751687724
 20
60.874363291999
 10
91.80966347247869
 20
61.06198482137651
 10
91.80948871835836
 20
61.31098476005317
 42
-0.9999999999999994
 10
91.80858968210065
 20
62.59198444457067
 10
91.80821683821921
 20
63.12323431373531
 42
0.2997154559854953
 10
92.7078918628722
 20
64.24861296317991
 42
-1.000314359196464
 10
92.70725652244072
 20
64.87386571230437
 10
92.70703720251054
 20
65.18636563534236
 42
-0.3744329020414413
 10
91.52368209361901
 20
70.29439412050314
 42
0.1460441945058353
 10
92.99775180449087
 20
77.43657268272286
 10
92.87294697673189
 20
77.53023511479407
 10
92.87261882093128
 20
77.9978107808948
 42
-0.6382745130950301
 10
92.59351043650259
 20
78.86624156143196
 10
93.07908218697196
 20
79.32499687631329
 42
0.5396164884572628
 10
92.96899923573045
 20
79.99370391450677
 10
92.96864905637074
 20
80.49266004162465
 42
-0.3055944197466144
 10
92.11012049223176
 20
81.46366130387994
 10
91.34981890414882
 20
81.56980845571153
 10
91.34981890414882
 20
83.94480845571152
  0
LWPOLYLINE
  5
F2
330
2
100
AcDbEntity
  8
LINEWORK
 62
     7
370
    30
100
AcDbPolyline
 90
       40
 70
     1
 43
0.0
 10
90.09881890414879
 20
83.94480845571152
 10
90.09881890414879
 20
81.56980845571153
 10
89.34025877548192
 20
81.4657159417641
 42
-0.305594419746614
 10
88.48241189455292
 20
80.49411238288618
 10
88.48241189455292
 20
79.99515613288625
 42
0.5396164884572633
 10
88.37279828492142
 20
79.32637200054822
 10
88.85869188119261
 20
78.86795758444808
 42
-0.638274513095031
 10
88.58019305087237
 20
77.99933113288616
 10
88.58019305087237
 20
77.53175535163169
 10
88.45545398837192
 20
77.43800535163192
 42
0.1460441945058352
 10
89.93453588694382
 20
70.29686308554747
 42
-0.3744329020414412
 10
88.75476600532932
 20
65.18800535163191
 10
88.75476600532932
 20
64.87550535163191
 42
-1.000314359196465
 10
88.75456948230004
 20
64.25025231059667
 42
0.2997154559854953
 10
89.65503410287636
 20
63.12550535163191
 10
89.65503410287629
 20
62.59425535163192
 42
-0.9999999999999998
 10
89.65503410287636
 20
61.31325535163191
 10
89.65503410287636
 20
61.06425535163194
 10
90.54069151764229
 20
60.87725535163193
 10
90.54069151764229
 20
57.94480845571152
 10
82.30119354862244
 20
57.94480845571152
 10
82.29913751687723
 20
60.874363291999
 10
83.18466347247868
 20
61.06198482137651
 10
83.18448871835835
 20
61.31098476005317
 42
-0.9999999999999994
 10
83.18358968210066
 20
62.59198444457067
 10
83.1832168382192
 20
63.12323431373531
 42
0.2997154559854953
 10
84.0828918628722
 20
64.24861296317991
 42
-1.000314359196464
 10
84.08225652244073
 20
64.87386571230437
 10
84.08203720251055
 20
65.18636563534236
 42
-0.3744329020414413
 10
82.89868209361902
 20
70.29439412050314
 42
0.1460441945058353
 10
84.37275180449086
 20
77.43657268272286
 10
84.2479469767319
 20
77.53023511479407
 10
84.24761882093127
 20
77.9978107808948
 42
-0.6382745130950301
 10
83.96851043650258
 20
78.86624156143196
 10
84.45408218697195
 20
79.32499687631329
 42
0.5396164884572628
 10
84.34399923573044
 20
79.99370391450677
 10
84.34364905637073
 20
80.49266004162465
 42
-0.3055944197466144
 10
83.48512049223177
 20
81.46366130387994
 10
82.72481890414884
 20
81.56980845571153
 10
82.72481890414884
 20
83.94480845571152
  0
LINE
  5
F3
330
2
100
AcDbEntity
  8
LINEWORK
  6
DASHED
 62
     7
 48
2.0
370
    30
100
AcDbLine
 10
94.79594253313235
 20
55.75480845571153
 30
0.0
 11
95.29594253313234
 21
55.75480845571153
 31
0.0
  0
LINE
  5
F4
330
2
100
AcDbEntity
  8
LINEWORK
  6
DASHED
 62
     7
 48
2.0
370
    30
100
AcDbLine
 10
95.29594253313234
 20
59.75480845571152
 30
0.0
 11
94.79594253313235
 21
59.75480845571152
 31
0.0
  0
LINE
  5
F5
330
2
100
AcDbEntity
  8
LINEWORK
 62
     7
370
    30
100
AcDbLine
 10
97.37976600532931
 20
65.18800535163197
 30
0.0
 11
92.70703720251054
 21
65.18636563534241
 31
0.0
  0
LINE
  5
F6
330
2
100
AcDbEntity
  8
LINEWORK
 62
     7
370
    30
100
AcDbLine
 10
97.37976600532931
 20
64.87550535163197
 30
0.0
 11
92.70725652244072
 21
64.87386571230437
 31
0.0
  0
LINE
  5
F7
330
2
100
AcDbEntity
  8
LINEWORK
 62
     7
370
    30
100
AcDbLine
 10
97.37956948230005
 20
64.25025231059667
 30
0.0
 11
92.7078918628722
 21
64.24861296317991
 31
0.0
  0
LINE
  5
F8
330
2
100
AcDbEntity
  8
LINEWORK
 62
     7
370
    30
100
AcDbLine
 10
98.28003410287635
 20
61.31325535163191
 30
0.0
 11
91.80948871835829
 21
61.31098476005317
 31
0.0
  0
LINE
  5
F9
330
2
100
AcDbEntity
  8
LINEWORK
 62
     7
370
    30
100
AcDbLine
 10
98.28003410287635
 20
61.06425535163194
 30
0.0
 11
91.80966347247869
 21
61.06198482137651
 31
0.0
  0
LINE
  5
FA
330
2
100
AcDbEntity
  8
LINEWORK
 62
     7
370
    30
100
AcDbLine
 10
99.1656915176423
 20
60.87725535163193
 30
0.0
 11
90.92413751687724
 21
60.87436329199895
 31
0.0
  0
LINE
  5
FB
330
2
100
AcDbEntity
  8
LINEWORK
 62
     7
370
    30
100
AcDbLine
 10
98.28003410287635
 20
63.12550535163197
 30
0.0
 11
91.80821683821921
 21
63.12323431373531
 31
0.0
  0
LINE
  5
FC
330
2
100
AcDbEntity
  8
LINEWORK
 62
     7
370
    30
100
AcDbLine
 10
98.2800341028763
 20
62.59425535163197
 30
0.0
 11
91.8085896821006
 21
62.59198444457067
 31
0.0
  0
LINE
  5
FD
330
2
100
AcDbEntity
  8
LINEWORK
 62
     7
370
    30
100
AcDbLine
 10
89.65503410287636
 20
61.31325535163191
 30
0.0
 11
83.1844887183583
 21
61.31098476005317
 31
0.0
  0
LINE
  5
FE
330
2
100
AcDbEntity
  8
LINEWORK
 62
     7
370
    30
100
AcDbLine
 10
89.65503410287636
 20
61.06425535163194
 30
0.0
 11
83.18466347247868
 21
61.06198482137651
 31
0.0
  0
LINE
  5
FF
330
2
100
AcDbEntity
  8
LINEWORK
 62
     7
370
    30
100
AcDbLine
 10
90.54069151764229
 20
60.87725535163193
 30
0.0
 11
82.29913751687723
 21
60.87436329199895
 31
0.0
  0
LINE
  5
100
330
2
100
AcDbEntity
  8
LINEWORK
 62
     7
370
    30
100
AcDbLine
 10
89.65503410287636
 20
63.12550535163197
 30
0.0
 11
83.1832168382192
 21
63.12323431373531
 31
0.0
  0
LINE
  5
101
330
2
100
AcDbEntity
  8
LINEWORK
 62
     7
370
    30
100
AcDbLine
 10
89.65503410287629
 20
62.59425535163197
 30
0.0
 11
83.18358968210061
 21
62.59198444457067
 31
0.0
  0
LINE
  5
102
330
2
100
AcDbEntity
  8
LINEWORK
  6
DASHED
 62
     7
 48
2.0
370
    30
100
AcDbLine
 10
86.67094253313235
 20
55.75480845571153
 30
0.0
 11
86.67094253313235
 21
59.75480845571152
 31
0.0
  0
LINE
  5
103
330
2
100
AcDbEntity
  8
LINEWORK
  6
DASHED
 62
     7
 48
2.0
370
    30
100
AcDbLine
 10
86.17094253313235
 20
59.75480845571152
 30
0.0
 11
86.17094253313235
 21
55.75480845571153
 31
0.0
  0
LINE
  5
104
330
2
100
AcDbEntity
  8
LINEWORK
  6
DASHED
 62
     7
 48
2.0
370
    30
100
AcDbLine
 10
86.17094253313235
 20
55.75480845571153
 30
0.0
 11
86.67094253313235
 21
55.75480845571153
 31
0.0
  0
LINE
  5
105
330
2
100
AcDbEntity
  8
LINEWORK
  6
DASHED
 62
     7
 48
2.0
370
    30
100
AcDbLine
 10
86.67094253313235
 20
59.75480845571152
 30
0.0
 11
86.17094253313235
 21
59.75480845571152
 31
0.0
  0
LINE
  5
106
330
2
100
AcDbEntity
  8
LINEWORK
  6
DASHED
 62
     7
 48
2.0
370
    30
100
AcDbLine
 10
94.79594253313235
 20
59.75480845571152
 30
0.0
 11
94.79594253313235
 21
55.75480845571153
 31
0.0
  0
LINE
  5
107
330
2
100
AcDbEntity
  8
LINEWORK
 62
     7
370
    30
100
AcDbLine
 10
88.75476600532932
 20
65.18800535163197
 30
0.0
 11
84.08203720251055
 21
65.18636563534241
 31
0.0
  0
LINE
  5
108
330
2
100
AcDbEntity
  8
LINEWORK
 62
     7
370
    30
100
AcDbLine
 10
88.75476600532932
 20
64.87550535163197
 30
0.0
 11
84.08225652244073
 21
64.87386571230437
 31
0.0
  0
LINE
  5
109
330
2
100
AcDbEntity
  8
LINEWORK
 62
     7
370
    30
100
AcDbLine
 10
88.75456948230004
 20
64.25025231059667
 30
0.0
 11
84.0828918628722
 21
64.24861296317991
 31
0.0
  0
LINE
  5
10A
330
2
100
AcDbEntity
  8
LINEWORK
 62
     7
370
    30
100
AcDbLine
 10
106.9050341028763
 20
61.31325535163191
 30
0.0
 11
100.4344887183582
 21
61.31098476005317
 31
0.0
  0
LINE
  5
10B
330
2
100
AcDbEntity
  8
LINEWORK
 62
     7
370
    30
100
AcDbLine
 10
106.9050341028763
 20
61.06425535163194
 30
0.0
 11
100.4346634724786
 21
61.06198482137651
 31
0.0
  0
LINE
  5
10C
330
2
100
AcDbEntity
  8
LINEWORK
 62
     7
370
    30
100
AcDbLine
 10
107.7906915176423
 20
60.87725535163193
 30
0.0
 11
99.54913751687724
 21
60.87436329199895
 31
0.0
  0
LINE
  5
10D
330
2
100
AcDbEntity
  8
LINEWORK
 62
     7
370
    30
100
AcDbLine
 10
106.9050341028763
 20
63.12550535163197
 30
0.0
 11
100.4332168382192
 21
63.12323431373531
 31
0.0
  0
LINE
  5
10E
330
2
100
AcDbEntity
  8
LINEWORK
 62
     7
370
    30
100
AcDbLine
 10
106.9050341028763
 20
62.59425535163197
 30
0.0
 11
100.4335896821006
 21
62.59198444457067
 31
0.0
  0
LINE
  5
10F
330
2
100
AcDbEntity
  8
LINEWORK
  6
DASHED
 62
     7
 48
2.0
370
    30
100
AcDbLine
 10
95.29594253313234
 20
55.75480845571153
 30
0.0
 11
95.29594253313234
 21
59.75480845571152
 31
0.0
  0
LINE
  5
110
330
2
100
AcDbEntity
  8
LINEWORK
  6
DASHED
 62
     7
 48
2.0
370
    30
100
AcDbLine
 10
103.9209425331323
 20
55.75480845571153
 30
0.0
 11
103.9209425331323
 21
59.75480845571152
 31
0.0
  0
LINE
  5
111
330
2
100
AcDbEntity
  8
LINEWORK
  6
DASHED
 62
     7
 48
2.0
370
    30
100
AcDbLine
 10
103.4209425331323
 20
59.75480845571152
 30
0.0
 11
103.4209425331323
 21
55.75480845571153
 31
0.0
  0
LINE
  5
112
330
2
100
AcDbEntity
  8
LINEWORK
  6
DASHED
 62
     7
 48
2.0
370
    30
100
AcDbLine
 10
103.4209425331323
 20
55.75480845571153
 30
0.0
 11
103.9209425331323
 21
55.75480845571153
 31
0.0
  0
LINE
  5
113
330
2
100
AcDbEntity
  8
LINEWORK
  6
DASHED
 62
     7
 48
2.0
370
    30
100
AcDbLine
 10
103.9209425331323
 20
59.75480845571152
 30
0.0
 11
103.4209425331323
 21
59.75480845571152
 31
0.0
  0
LINE
  5
114
330
2
100
AcDbEntity
  8
LINEWORK
 62
     7
370
    30
100
AcDbLine
 10
108.8616645646878
 20
57.56980845571153
 30
0.0
 11
108.4500972852733
 21
55.94778048820765
 31
0.0
  0
LINE
  5
115
330
2
100
AcDbEntity
  8
LINEWORK
 62
     7
370
    30
100
AcDbLine
 10
108.4500972852733
 20
55.94778048820765
 30
0.0
 11
109.2424547550044
 21
55.36697747647074
 31
0.0
  0
LINE
  5
116
330
2
100
AcDbEntity
  8
LINEWORK
 62
     7
370
    30
100
AcDbLine
 10
109.2424547550044
 20
55.36697747647074
 30
0.0
 11
107.7105622666903
 21
55.36697747647074
 31
0.0
  0
LINE
  5
117
330
2
100
AcDbEntity
  8
LINEWORK
 62
     7
370
    30
100
AcDbLine
 10
108.5029197364214
 20
54.78617446473382
 30
0.0
 11
107.7105622666903
 21
55.36697747647074
 31
0.0
  0
LINE
  5
118
330
2
100
AcDbEntity
  8
LINEWORK
 62
     7
370
    30
100
AcDbLine
 10
108.5029197364214
 20
54.78617446473382
 30
0.0
 11
108.9505534583839
 21
53.56980845571152
 31
0.0
  0
LINE
  5
119
330
2
100
AcDbEntity
  8
LINEWORK
 62
     7
370
    30
100
AcDbLine
 10
106.0047660053293
 20
65.18800535163197
 30
0.0
 11
101.3320372025105
 21
65.18636563534241
 31
0.0
  0
LINE
  5
11A
330
2
100
AcDbEntity
  8
LINEWORK
 62
     7
370
    30
100
AcDbLine
 10
106.0047660053293
 20
64.87550535163197
 30
0.0
 11
101.3322565224407
 21
64.87386571230437
 31
0.0
  0
LINE
  5
11B
330
2
100
AcDbEntity
  8
LINEWORK
 62
     7
370
    30
100
AcDbLine
 10
106.0045694823
 20
64.25025231059667
 30
0.0
 11
101.3328918628721
 21
64.24861296317991
 31
0.0
  0
LINE
  5
11C
330
2
100
AcDbEntity
  8
LINEWORK
  6
DASHED
 62
     7
 48
2.0
370
    30
100
AcDbLine
 10
95.29594253313234
 20
82.13480845571282
 30
0.0
 11
94.79594253313235
 21
82.13480845571282
 31
0.0
  0
LINE
  5
11D
330
2
100
AcDbEntity
  8
LINEWORK
  6
DASHED
 62
     7
 48
2.0
370
    30
100
AcDbLine
 10
94.79594253313235
 20
86.13480845571283
 30
0.0
 11
95.29594253313234
 21
86.13480845571283
 31
0.0
  0
LINE
  5
11E
330
2
100
AcDbEntity
  8
LINEWORK
 62
     7
370
    30
100
AcDbLine
 10
97.10741189455291
 20
80.49411238288625
 30
0.0
 11
92.96864905637074
 21
80.49266004162465
 31
0.0
  0
LINE
  5
11F
330
2
100
AcDbEntity
  8
LINEWORK
 62
     7
370
    30
100
AcDbLine
 10
97.10741189455291
 20
79.99515613288625
 30
0.0
 11
92.96899923573045
 21
79.99370391450677
 31
0.0
  0
LINE
  5
120
330
2
100
AcDbEntity
  8
LINEWORK
 62
     7
370
    30
100
AcDbLine
 10
91.34981890414882
 20
81.56980845571153
 30
0.0
 11
98.7238189041488
 21
81.56980845571153
 31
0.0
  0
LINE
  5
121
330
2
100
AcDbEntity
  8
LINEWORK
 62
     7
370
    30
100
AcDbLine
 10
97.96525877548191
 20
81.4657159417641
 30
0.0
 11
92.11012049223176
 21
81.46366130387994
 31
0.0
  0
LINE
  5
122
330
2
100
AcDbEntity
  8
LINEWORK
 62
     7
370
    30
100
AcDbLine
 10
97.20519305087236
 20
77.99933113288623
 30
0.0
 11
92.87261882093128
 21
77.9978107808948
 31
0.0
  0
LINE
  5
123
330
2
100
AcDbEntity
  8
LINEWORK
 62
     7
370
    30
100
AcDbLine
 10
97.20519305087236
 20
77.53175535163169
 30
0.0
 11
92.87294697673189
 21
77.53023511479407
 31
0.0
  0
LINE
  5
124
330
2
100
AcDbEntity
  8
LINEWORK
 62
     7
370
    30
100
AcDbLine
 10
97.08045398837192
 20
77.43800535163197
 30
0.0
 11
92.99584277872162
 21
77.43800535163197
 31
0.0
  0
LINE
  5
125
330
2
100
AcDbEntity
  8
LINEWORK
 62
     7
370
    30
100
AcDbLine
 10
88.48241189455292
 20
80.49411238288625
 30
0.0
 11
84.34364905637073
 21
80.49266004162465
 31
0.0
  0
LINE
  5
126
330
2
100
AcDbEntity
  8
LINEWORK
 62
     7
370
    30
100
AcDbLine
 10
88.48241189455292
 20
79.99515613288625
 30
0.0
 11
84.34399923573044
 21
79.99370391450677
 31
0.0
  0
LINE
  5
127
330
2
100
AcDbEntity
  8
LINEWORK
 62
     7
370
    30
100
AcDbLine
 10
82.72481890414884
 20
81.56980845571153
 30
0.0
 11
90.09881890414879
 21
81.56980845571153
 31
0.0
  0
LINE
  5
128
330
2
100
AcDbEntity
  8
LINEWORK
 62
     7
370
    30
100
AcDbLine
 10
89.34025877548192
 20
81.4657159417641
 30
0.0
 11
83.48512049223177
 21
81.46366130387994
 31
0.0
  0
LINE
  5
129
330
2
100
AcDbEntity
  8
LINEWORK
 62
     7
370
    30
100
AcDbLine
 10
88.58019305087237
 20
77.99933113288623
 30
0.0
 11
84.24761882093127
 21
77.9978107808948
 31
0.0
  0
LINE
  5
12A
330
2
100
AcDbEntity
  8
LINEWORK
 62
     7
370
    30
100
AcDbLine
 10
88.58019305087237
 20
77.53175535163169
 30
0.0
 11
84.2479469767319
 21
77.53023511479407
 31
0.0
  0
LINE
  5
12B
330
2
100
AcDbEntity
  8
LINEWORK
 62
     7
370
    30
100
AcDbLine
 10
88.45545398837192
 20
77.43800535163197
 30
0.0
 11
84.37084277872163
 21
77.43800535163197
 31
0.0
  0
LINE
  5
12C
330
2
100
AcDbEntity
  8
LINEWORK
  6
DASHED
 62
     7
 48
2.0
370
    30
100
AcDbLine
 10
86.67094253313235
 20
82.13480845571282
 30
0.0
 11
86.17094253313235
 21
82.13480845571282
 31
0.0
  0
LINE
  5
12D
330
2
100
AcDbEntity
  8
LINEWORK
  6
DASHED
 62
     7
 48
2.0
370
    30
100
AcDbLine
 10
86.17094253313235
 20
86.13480845571283
 30
0.0
 11
86.67094253313235
 21
86.13480845571283
 31
0.0
  0
LINE
  5
12E
330
2
100
AcDbEntity
  8
LINEWORK
  6
DASHED
 62
     7
 48
2.0
370
    30
100
AcDbLine
 10
86.17094253313235
 20
82.13480845571282
 30
0.0
 11
86.17094253313235
 21
86.13480845571283
 31
0.0
  0
LINE
  5
12F
330
2
100
AcDbEntity
  8
LINEWORK
  6
DASHED
 62
     7
 48
2.0
370
    30
100
AcDbLine
 10
86.67094253313235
 20
86.13480845571283
 30
0.0
 11
86.67094253313235
 21
82.13480845571282
 31
0.0
  0
LINE
  5
130
330
2
100
AcDbEntity
  8
LINEWORK
  6
DASHED
 62
     7
 48
2.0
370
    30
100
AcDbLine
 10
94.79594253313235
 20
82.13480845571282
 30
0.0
 11
94.79594253313235
 21
86.13480845571283
 31
0.0
  0
LINE
  5
131
330
2
100
AcDbEntity
  8
LINEWORK
 62
     7
370
    30
100
AcDbLine
 10
108.8595634392732
 20
88.99480845571153
 30
0.0
 11
108.3103449899858
 21
86.83028340823787
 31
0.0
  0
LINE
  5
132
330
2
100
AcDbEntity
  8
LINEWORK
 62
     7
370
    30
100
AcDbLine
 10
105.7324118945529
 20
80.49411238288625
 30
0.0
 11
101.5936490563707
 21
80.49266004162465
 31
0.0
  0
LINE
  5
133
330
2
100
AcDbEntity
  8
LINEWORK
 62
     7
370
    30
100
AcDbLine
 10
105.7324118945529
 20
79.99515613288625
 30
0.0
 11
101.5939992357304
 21
79.99370391450677
 31
0.0
  0
LINE
  5
134
330
2
100
AcDbEntity
  8
LINEWORK
 62
     7
370
    30
100
AcDbLine
 10
99.97481890414883
 20
81.56980845571153
 30
0.0
 11
107.3488189041488
 21
81.56980845571153
 31
0.0
  0
LINE
  5
135
330
2
100
AcDbEntity
  8
LINEWORK
 62
     7
370
    30
100
AcDbLine
 10
106.5902587754819
 20
81.4657159417641
 30
0.0
 11
100.7351204922317
 21
81.46366130387994
 31
0.0
  0
LINE
  5
136
330
2
100
AcDbEntity
  8
LINEWORK
 62
     7
370
    30
100
AcDbLine
 10
105.8301930508723
 20
77.99933113288623
 30
0.0
 11
101.4976188209312
 21
77.9978107808948
 31
0.0
  0
LINE
  5
137
330
2
100
AcDbEntity
  8
LINEWORK
 62
     7
370
    30
100
AcDbLine
 10
105.8301930508723
 20
77.53175535163169
 30
0.0
 11
101.4979469767318
 21
77.53023511479407
 31
0.0
  0
LINE
  5
138
330
2
100
AcDbEntity
  8
LINEWORK
 62
     7
370
    30
100
AcDbLine
 10
105.7054539883719
 20
77.43800535163197
 30
0.0
 11
101.6208427787216
 21
77.43800535163197
 31
0.0
  0
TEXT
  5
139
330
2
100
AcDbEntity
  8
leaders
 62
     1
370
    30
100
AcDbText
 10
96.2009031114132
 20
86.00911026568093
 30
0.0
 40
1.714999999999999
  1
~
 50
344.9999999999984
100
AcDbText
  0
SOLID
  5
13A
330
2
100
AcDbEntity
  8
leaders
 62
     1
370
    30
100
AcDbTrace
 10
98.10160307291505
 20
87.65377043793149
 30
0.0
 11
97.71304055902716
 21
87.74873976351148
 31
0.0
 12
97.62241383923106
 22
86.53556755905777
 32
0.0
 13
97.62241383923106
 23
86.53556755905777
 33
0.0
  0
LINE
  5
13B
330
2
100
AcDbEntity
  8
LINEWORK
  6
DASHED
 62
     7
 48
2.0
370
    30
100
AcDbLine
 10
95.29594253313234
 20
86.13480845571283
 30
0.0
 11
95.29594253313234
 21
82.13480845571282
 31
0.0
  0
LINE
  5
13C
330
2
100
AcDbEntity
  8
LINEWORK
  6
DASHED
 62
     7
 48
2.0
370
    30
100
AcDbLine
 10
103.9209425331323
 20
82.13480845571282
 30
0.0
 11
103.4209425331323
 21
82.13480845571282
 31
0.0
  0
LINE
  5
13D
330
2
100
AcDbEntity
  8
LINEWORK
  6
DASHED
 62
     7
 48
2.0
370
    30
100
AcDbLine
 10
103.4209425331323
 20
86.13480845571283
 30
0.0
 11
103.9209425331323
 21
86.13480845571283
 31
0.0
  0
LINE
  5
13E
330
2
100
AcDbEntity
  8
LINEWORK
  6
DASHED
 62
     7
 48
2.0
370
    30
100
AcDbLine
 10
103.4209425331323
 20
82.13480845571282
 30
0.0
 11
103.4209425331323
 21
86.13480845571283
 31
0.0
  0
LINE
  5
13F
330
2
100
AcDbEntity
  8
LINEWORK
  6
DASHED
 62
     7
 48
2.0
370
    30
100
AcDbLine
 10
103.9209425331323
 20
86.13480845571283
 30
0.0
 11
103.9209425331323
 21
82.13480845571282
 31
0.0
  0
LINE
  5
140
330
2
100
AcDbEntity
  8
LINEWORK
 62
     7
370
    30
100
AcDbLine
 10
108.363167441134
 20
85.66867738476403
 30
0.0
 11
108.8595634392732
 21
84.31980845571152
 31
0.0
  0
LINE
  5
141
330
2
100
AcDbEntity
  8
LINEWORK
 62
     7
370
    30
100
AcDbLine
 10
108.363167441134
 20
85.66867738476403
 30
0.0
 11
107.5708099714028
 21
86.24948039650096
 31
0.0
  0
LINE
  5
142
330
2
100
AcDbEntity
  8
LINEWORK
 62
     7
370
    30
100
AcDbLine
 10
109.1027024597169
 20
86.24948039650096
 30
0.0
 11
107.5708099714028
 21
86.24948039650096
 31
0.0
  0
LINE
  5
143
330
2
100
AcDbEntity
  8
LINEWORK
 62
     7
370
    30
100
AcDbLine
 10
108.3103449899858
 20
86.83028340823787
 30
0.0
 11
109.1027024597169
 21
86.24948039650096
 31
0.0
  0
LINE
  5
1FD
330
2
100
AcDbEntity
  8
leaders
 62
     1
370
    30
100
AcDbLine
 10
103.7910495789957
 20
111.6920383612574
 30
0.0
 11
148.9541544488729
 21
111.6920383612574
 31
0.0
  0
LINE
  5
1FE
330
2
100
AcDbEntity
  8
leaders
 62
     1
370
    30
100
AcDbLine
 10
37.18091712775219
 20
111.3088349608582
 30
0.0
 11
54.65246118275494
 21
111.3088349608583
 31
0.0
  0
ATTDEF
  5
1FF
330
2
100
AcDbEntity
  8
leaders
 62
     1
370
    30
100
AcDbText
 10
19.82600507042218
 20
110.1551961516361
 30
0.0
 40
2.879999999999999
  1

100
AcDbAttributeDefinition
  3
ADD LINK NUMBER (WMF)
  2
TS1155
 70
     0
  0
LINE
  5
200
330
2
100
AcDbEntity
  8
leaders
 62
     1
370
    30
100
AcDbLine
 10
37.18091712775219
 20
109.0528212169455
 30
0.0
 11
37.18091712775219
 21
113.5648487047709
 31
0.0
  0
MTEXT
  5
201
330
2
100
AcDbEntity
  8
leaders
 62
     1
370
    30
100
AcDbMText
 10
123.4421740271137
 20
106.0470397183655
 30
0.0
 40
2.216024999999999
 41
0.0
 71
     1
 72
     1
  1
1-800-789-4841
 73
     1
 44
1.0
1001
ACAD
1000
MTEXTBEGIN
1070
    73
1070
     1
1070
    44
1040
1.0
1070
    74
1070
     0
1000
MTEXTEND
1000
MTEXTBEGIN
1070
    73
1070
     1
1070
    44
1040
1.0
1070
    74
1070
     0
1000
MTEXTEND
1000
MTEXTBEGIN
1070
    73
1070
     1
1070
    44
1040
1.0
1070
    74
1070
     0
1000
MTEXTEND
1000
MTEXTBEGIN
1070
    73
1070
     1
1070
    44
1040
1.0
1070
    74
1070
     0
1000
MTEXTEND
1000
MTEXTBEGIN
1070
    73
1070
     1
1070
    44
1040
1.0
1070
    74
1070
     0
1000
MTEXTEND
1000
MTEXTBEGIN
1070
    73
1070
     1
1070
    44
1040
1.0
1070
    74
1070
     0
1000
MTEXTEND
  0
MTEXT
  5
202
330
2
100
AcDbEntity
  8
leaders
 62
     1
370
    30
100
AcDbMText
 10
123.2089468050685
 20
110.598519917349
 30
0.0
 40
3.0
 41
0.0
 71
     1
 72
     1
  1
TannerStone
 73
     1
 44
1.0
1001
ACAD
1000
MTEXTBEGIN
1070
    73
1070
     1
1070
    44
1040
1.0
1070
    74
1070
     0
1000
MTEXTEND
1000
MTEXTBEGIN
1070
    73
1070
     1
1070
    44
1040
1.0
1070
    74
1070
     0
1000
MTEXTEND
1000
MTEXTBEGIN
1070
    73
1070
     1
1070
    44
1040
1.0
1070
    74
1070
     0
1000
MTEXTEND
1000
MTEXTBEGIN
1070
    73
1070
     1
1070
    44
1040
1.0
1070
    74
1070
     0
1000
MTEXTEND
1000
MTEXTBEGIN
1070
    73
1070
     1
1070
    44
1040
1.0
1070
    74
1070
     0
1000
MTEXTEND
1000
MTEXTBEGIN
1070
    73
1070
     1
1070
    44
1040
1.0
1070
    74
1070
     0
1000
MTEXTEND
  0
ATTDEF
  5
203
330
2
100
AcDbEntity
  8
leaders
 62
     1
370
    30
100
AcDbText
 10
123.0924492121434
 20
112.8403455848934
 30
0.0
 40
3.0
  1

100
AcDbAttributeDefinition
  3
ADD LINK NUMBER (WMF)
  2
TSB000
 70
     0
  0
LINE
  5
204
330
2
100
AcDbEntity
  8
leaders
 62
     1
370
    30
100
AcDbLine
 10
121.6319581649102
 20
102.7287057059304
 30
0.0
 11
121.6319581649102
 21
116.3920669944088
 31
0.0
  0
LINE
  5
276
330
2
100
AcDbEntity
  8
LINEWORK
 62
     7
370
    30
100
AcDbLine
 10
77.54594253313235
 20
55.75480845571153
 30
0.0
 11
78.04594253313235
 21
55.75480845571153
 31
0.0
  0
LINE
  5
27F
330
2
100
AcDbEntity
  8
LINEWORK
  6
PHANTOM
 62
     7
 48
3.0
370
    30
100
AcDbLine
 10
58.23434513025246
 20
53.19480845571152
 30
0.0
 11
76.06956513732654
 21
53.19480845571153
 31
0.0
  0
LINE
  5
280
330
2
100
AcDbEntity
  8
LINEWORK
  6
PHANTOM
 62
     7
 48
3.0
370
    30
100
AcDbLine
 10
76.44456513732649
 20
53.19480845571153
 30
0.0
 11
108.9505534583839
 21
53.19480845571153
 31
0.0
  0
ATTDEF
  5
297
330
2
100
AcDbEntity
  8
leaders
 62
     1
370
    30
100
AcDbText
 10
19.78792858940994
 20
50.41079410774599
 30
0.0
 40
2.879999999999999
  1

100
AcDbAttributeDefinition
  3
ADD LINK NUMBER (WMF)
  2
TS0989
 70
     0
  0
LINE
  5
298
330
2
100
AcDbEntity
  8
leaders
 62
     1
370
    30
100
AcDbLine
 10
37.345566396562
 20
51.76799745311583
 30
0.0
 11
54.40976320133585
 21
51.76799745311594
 31
0.0
  0
LINE
  5
299
330
2
100
AcDbEntity
  8
leaders
 62
     1
370
    30
100
AcDbLine
 10
37.16168493270926
 20
49.67023724283354
 30
0.0
 11
37.16168493270926
 21
54.18226473065889
 31
0.0
  0
LINE
  5
29A
330
2
100
AcDbEntity
  8
leaders
 62
     1
370
    30
100
AcDbLine
 10
76.57028324197447
 20
65.1629309891583
 30
0.0
 11
54.40976320133578
 21
51.7679974531159
 31
0.0
  0
SOLID
  5
29B
330
2
100
AcDbEntity
  8
leaders
 62
     1
370
    30
100
AcDbTrace
 10
76.46682454789598
 20
65.33409260465541
 30
0.0
 11
76.67374193605295
 21
64.99176937366119
 31
0.0
 12
77.59725293495697
 22
65.78368315362931
 32
0.0
 13
77.59725293495697
 23
65.78368315362931
 33
0.0
  0
DIMENSION
  5
30F
330
2
100
AcDbEntity
  8
DIM
 62
     7
370
    30
100
AcDbDimension
  2
*D4
 10
117.8434264264397
 20
84.31980845571152
 30
0.0
 11
117.8434264264397
 21
71.15020171565459
 31
0.0
 70
   160
 71
     5
 42
-1.0
  3
STANDARD
100
AcDbAlignedDimension
 13
108.8616645646878
 23
57.56980845571153
 33
0.0
 14
108.8595634392732
 24
84.31980845571152
 34
0.0
 50
90.0
100
AcDbRotatedDimension
1001
ACAD
1000
DSTYLE
1002
{
1070
   287
1070
     4
1070
   287
1070
     4
1070
   287
1070
     4
1070
   287
1070
     4
1070
    40
1040
2.399999999999999
1070
    73
1070
     1
1070
    74
1070
     1
1070
    77
1070
     0
1070
   147
1040
0.5
1070
   279
1070
     1
1070
   288
1070
     1
1070
   289
1070
     3
1002
}
  0
LINE
  5
321
330
2
100
AcDbEntity
  8
LINEWORK
 62
     7
370
    30
100
AcDbLine
 10
81.87943615554468
 20
88.61980845571155
 30
0.0
 11
76.06845993923743
 21
88.61980845571153
 31
0.0
  0
LINE
  5
323
330
2
100
AcDbEntity
  8
LINEWORK
 62
     7
370
    30
100
AcDbLine
 10
82.25443615554462
 20
53.56980845571152
 30
0.0
 11
108.9505534583839
 21
53.56980845571152
 31
0.0
  0
LINE
  5
324
330
2
100
AcDbEntity
  8
LINEWORK
 62
     7
370
    30
100
AcDbLine
 10
82.25443615554462
 20
57.06980845571152
 30
0.0
 11
108.7347964441437
 21
57.06980845571152
 31
0.0
  0
LINE
  5
325
330
2
100
AcDbEntity
  8
LINEWORK
 62
     7
370
    30
100
AcDbLine
 10
82.25443615554462
 20
57.56980845571153
 30
0.0
 11
108.8616645646878
 21
57.56980845571153
 31
0.0
  0
TEXT
  5
49F
330
2
100
AcDbEntity
  8
leaders
 62
     1
370
    30
100
AcDbText
 10
76.1516246363741
 20
65.72247126535831
 30
0.0
 40
1.714999999999999
  1
~
 50
334.9999999999984
100
AcDbText
  0
LINE
  5
506
330
2
100
AcDbEntity
  8
LINEWORK
370
    30
100
AcDbLine
 10
73.30119354862245
 20
57.94480845571152
 30
0.0
 11
73.30119354862245
 21
83.94480845571152
 31
0.0
  0
LINE
  5
507
330
2
100
AcDbEntity
  8
LINEWORK
370
    30
100
AcDbLine
 10
73.30119354862245
 20
83.94480845571152
 30
0.0
 11
58.80119354862245
 21
83.94480845571154
 31
0.0
  0
LINE
  5
508
330
2
100
AcDbEntity
  8
LINEWORK
370
    30
100
AcDbLine
 10
58.80119354862245
 20
83.94480845571152
 30
0.0
 11
58.80119354862245
 21
57.94480845571152
 31
0.0
  0
LINE
  5
509
330
2
100
AcDbEntity
  8
LINEWORK
370
    30
100
AcDbLine
 10
58.80119354862245
 20
57.94480845571153
 30
0.0
 11
73.30119354862245
 21
57.94480845571152
 31
0.0
  0
LINE
  5
884
330
2
100
AcDbEntity
  8
LINEWORK
 62
     7
370
    30
100
AcDbLine
 10
133.0724912476632
 20
83.94480845571152
 30
0.0
 11
140.4464912476632
 21
83.94480845571152
 31
0.0
  0
LINE
  5
885
330
2
100
AcDbEntity
  8
LINEWORK
 62
     7
370
    30
100
AcDbLine
 10
140.8883638611567
 20
57.94480845571152
 30
0.0
 11
132.6488658921369
 21
57.94480845571152
 31
0.0
  0
ARC
  5
886
330
2
100
AcDbEntity
  8
LINEWORK
 62
     7
370
    30
100
AcDbCircle
 10
151.5062197049072
 20
76.34533945744786
 30
0.0
 40
12.74999999999998
100
AcDbArc
 50
175.0837622692387
 51
208.3196601840818
  0
LINE
  5
887
330
2
100
AcDbEntity
  8
LINEWORK
 62
     7
370
    30
100
AcDbLine
 10
138.8031263318864
 20
77.43800535163197
 30
0.0
 11
134.718515122236
 21
77.43800535163197
 31
0.0
  0
LINE
  5
888
330
2
100
AcDbEntity
  8
LINEWORK
 62
     7
370
    30
100
AcDbLine
 10
138.9278653943867
 20
77.53175535163169
 30
0.0
 11
134.5956193202463
 21
77.53023511479407
 31
0.0
  0
LINE
  5
889
330
2
100
AcDbEntity
  8
LINEWORK
 62
     7
370
    30
100
AcDbLine
 10
138.9278653943867
 20
77.99933113288623
 30
0.0
 11
134.5952911644457
 21
77.9978107808948
 31
0.0
  0
LINE
  5
88A
330
2
100
AcDbEntity
  8
LINEWORK
 62
     7
370
    30
100
AcDbLine
 10
138.8300842380673
 20
79.99515613288625
 30
0.0
 11
134.6916715792449
 21
79.99370391450677
 31
0.0
  0
LINE
  5
88B
330
2
100
AcDbEntity
  8
LINEWORK
 62
     7
370
    30
100
AcDbLine
 10
138.8300842380673
 20
80.49411238288625
 30
0.0
 11
134.6913213998852
 21
80.49266004162465
 31
0.0
  0
LINE
  5
88C
330
2
100
AcDbEntity
  8
LINEWORK
 62
     7
370
    30
100
AcDbLine
 10
140.0027064463907
 20
62.59425535163197
 30
0.0
 11
133.531262025615
 21
62.59198444457067
 31
0.0
  0
LINE
  5
88D
330
2
100
AcDbEntity
  8
LINEWORK
 62
     7
370
    30
100
AcDbLine
 10
140.0027064463908
 20
63.12550535163197
 30
0.0
 11
133.5308891817337
 21
63.12323431373531
 31
0.0
  0
LINE
  5
88E
330
2
100
AcDbEntity
  8
LINEWORK
 62
     7
370
    30
100
AcDbLine
 10
140.8883638611567
 20
60.87725535163193
 30
0.0
 11
132.6468098603916
 21
60.87436329199895
 31
0.0
  0
LINE
  5
88F
330
2
100
AcDbEntity
  8
LINEWORK
 62
     7
370
    30
100
AcDbLine
 10
140.0027064463908
 20
61.06425535163194
 30
0.0
 11
133.5323358159931
 21
61.06198482137651
 31
0.0
  0
LINE
  5
890
330
2
100
AcDbEntity
  8
LINEWORK
 62
     7
370
    30
100
AcDbLine
 10
140.0027064463908
 20
61.31325535163191
 30
0.0
 11
133.5321610618727
 21
61.31098476005317
 31
0.0
  0
LINE
  5
891
330
2
100
AcDbEntity
  8
LINEWORK
 62
     7
370
    30
100
AcDbLine
 10
139.1022418258145
 20
64.25025231059667
 30
0.0
 11
134.4305642063866
 21
64.24861296317991
 31
0.0
  0
LINE
  5
892
330
2
100
AcDbEntity
  8
LINEWORK
 62
     7
370
    30
100
AcDbLine
 10
139.1024383488438
 20
64.87550535163197
 30
0.0
 11
134.4299288659552
 21
64.87386571230437
 31
0.0
  0
LINE
  5
893
330
2
100
AcDbEntity
  8
LINEWORK
 62
     7
370
    30
100
AcDbLine
 10
139.1024383488438
 20
65.18800535163197
 30
0.0
 11
134.429709546025
 21
65.18636563534241
 31
0.0
  0
LINE
  5
894
330
2
100
AcDbEntity
  8
LINEWORK
 62
     7
370
    30
100
AcDbLine
 10
139.6879311189963
 20
81.4657159417641
 30
0.0
 11
133.8327928357462
 21
81.46366130387994
 31
0.0
  0
LINE
  5
895
330
2
100
AcDbEntity
  8
LINEWORK
 62
     7
370
    30
100
AcDbLine
 10
133.0724912476632
 20
81.56980845571153
 30
0.0
 11
140.4464912476632
 21
81.56980845571153
 31
0.0
  0
LINE
  5
896
330
2
100
AcDbEntity
  8
LINEWORK
370
    30
100
AcDbLine
 10
141.0094912476632
 20
84.31980845571152
 30
0.0
 11
132.5094912476632
 21
84.31980845571152
 31
0.0
  0
ARC
  5
897
330
2
100
AcDbEntity
  8
LINEWORK
 62
     7
370
    30
100
AcDbCircle
 10
122.0181007623855
 20
76.33499172467347
 30
0.0
 40
12.74999999999999
100
AcDbArc
 50
331.7205513595759
 51
4.956449274421593
  0
ARC
  5
898
330
2
100
AcDbEntity
  8
LINEWORK
 62
     7
370
    30
100
AcDbCircle
 10
133.1263441528217
 20
64.36895297638844
 30
0.0
 40
1.309760156249897
100
AcDbArc
 50
287.9911174802658
 51
354.7282615809109
  0
LINE
  5
899
330
2
100
AcDbEntity
  8
LINEWORK
 62
     7
370
    30
100
AcDbLine
 10
133.531262025615
 20
62.59198444457067
 30
0.0
 11
133.5308891817337
 21
63.12323431373531
 31
0.0
  0
ARC
  5
89A
330
2
100
AcDbEntity
  8
LINEWORK
 62
     7
370
    30
100
AcDbCircle
 10
133.5317115437439
 20
61.95148460231192
 30
0.0
 40
0.6405000000000018
100
AcDbArc
 50
90.04021154365782
 51
270.0402115436578
  0
LINE
  5
89B
330
2
100
AcDbEntity
  8
LINEWORK
 62
     7
370
    30
100
AcDbLine
 10
133.5323358159931
 20
61.06198482137651
 30
0.0
 11
133.5321610618727
 21
61.31098476005317
 31
0.0
  0
LINE
  5
89C
330
2
100
AcDbEntity
  8
LINEWORK
 62
     7
370
    30
100
AcDbLine
 10
132.6468098603917
 20
60.87436329199895
 30
0.0
 11
133.5323358159931
 21
61.06198482137651
 31
0.0
  0
LINE
  5
89D
330
2
100
AcDbEntity
  8
LINEWORK
 62
     7
370
    30
100
AcDbLine
 10
132.6488658921369
 20
57.94480845571152
 30
0.0
 11
132.6468098603917
 21
60.87436329199895
 31
0.0
  0
LINE
  5
89E
330
2
100
AcDbEntity
  8
LINEWORK
  6
DASHED
 62
     7
 48
2.0
370
    30
100
AcDbLine
 10
137.0094912476636
 20
59.75480845571164
 30
0.0
 11
136.5094912476636
 21
59.75480845571164
 31
0.0
  0
LINE
  5
89F
330
2
100
AcDbEntity
  8
LINEWORK
  6
DASHED
 62
     7
 48
2.0
370
    30
100
AcDbLine
 10
136.5094912476636
 20
55.75480845571163
 30
0.0
 11
137.0094912476636
 21
55.75480845571163
 31
0.0
  0
LINE
  5
8A0
330
2
100
AcDbEntity
  8
LINEWORK
  6
DASHED
 62
     7
 48
2.0
370
    30
100
AcDbLine
 10
136.5094912476636
 20
59.75480845571164
 30
0.0
 11
136.5094912476636
 21
55.75480845571163
 31
0.0
  0
LINE
  5
8A1
330
2
100
AcDbEntity
  8
LINEWORK
  6
DASHED
 62
     7
 48
2.0
370
    30
100
AcDbLine
 10
137.0094912476636
 20
55.75480845571163
 30
0.0
 11
137.0094912476636
 21
59.75480845571164
 31
0.0
  0
LINE
  5
8A2
330
2
100
AcDbEntity
  8
LINEWORK
 62
     7
370
    30
100
AcDbLine
 10
131.9474912476636
 20
57.06980845571152
 30
0.0
 11
131.9474912476636
 21
53.56980845571152
 31
0.0
  0
LINE
  5
8A3
330
2
100
AcDbEntity
  8
LINEWORK
 62
     7
370
    30
100
AcDbLine
 10
132.4474912476636
 20
57.56980845571153
 30
0.0
 11
131.9474912476636
 21
57.06980845571152
 31
0.0
  0
INSERT
  5
8A4
330
2
100
AcDbEntity
  8
DIM
 62
     7
370
    30
100
AcDbBlockReference
 66
     1
  2
PROFILE LOGO
 10
132.1575821546082
 20
55.14364013559841
 30
0.0
 41
0.8000000000000113
 42
0.8000000000000113
 43
0.8
  0
ATTRIB
  5
8A5
330
8A4
100
AcDbEntity
  8
A1
 62
    22
100
AcDbText
 10
132.3516339739605
 20
53.80100153647319
 30
0.0
 40
0.17015625
  1
054M
 72
     1
 11
132.7000864788329
 21
53.80100153647319
 31
0.0
100
AcDbAttribute
  2
XXXX
 70
     0
  0
SEQEND
  5
8A6
330
8A4
100
AcDbEntity
  8
A1
 62
     7
  0
ARC
  5
8A7
330
2
100
AcDbEntity
  8
LINEWORK
 62
     7
370
    30
100
AcDbCircle
 10
136.7703884145473
 20
68.41970634689037
 30
0.0
 40
3.991650000000075
100
AcDbArc
 50
151.9882682864517
 51
234.0984822571084
  0
LINE
  5
8A8
330
2
100
AcDbEntity
  8
LINEWORK
 62
     7
370
    30
100
AcDbLine
 10
134.4299288659551
 20
64.87386571230437
 30
0.0
 11
134.429709546025
 21
65.18636563534236
 31
0.0
  0
ARC
  5
8A9
330
2
100
AcDbEntity
  8
LINEWORK
 62
     7
370
    30
100
AcDbCircle
 10
134.4301482746373
 20
64.56123923789525
 30
0.0
 40
0.3126265514021922
100
AcDbArc
 50
90.04021153177344
 51
270.0762287807173
  0
ARC
  5
8AA
330
2
100
AcDbEntity
  8
LINEWORK
370
    30
100
AcDbCircle
 10
131.9594912476629
 20
84.31980845571123
 30
0.0
 40
0.5500000000002502
100
AcDbArc
 50
0.0000000000260551
 51
90.00000000002605
  0
ARC
  5
8AB
330
2
100
AcDbEntity
  8
LINEWORK
370
    30
100
AcDbCircle
 10
131.4725972280281
 20
86.71764663777443
 30
0.0
 40
1.299371506374636
100
AcDbArc
 50
185.7015478593825
 51
267.2162470626179
  0
LINE
  5
8AC
330
2
100
AcDbEntity
  8
LINEWORK
370
    30
100
AcDbLine
 10
131.4094912476628
 20
84.86980845571153
 30
0.0
 11
131.4094912476628
 21
85.41980845571149
 31
0.0
  0
ARC
  5
8AD
330
2
100
AcDbEntity
  8
LINEWORK
370
    30
100
AcDbCircle
 10
129.3892007437601
 20
86.5038315795496
 30
0.0
 40
0.7949809888151388
100
AcDbArc
 50
6.118045468726062
 51
62.23893912946991
  0
LINE
  5
8AE
330
2
100
AcDbEntity
  8
LINEWORK
370
    30
100
AcDbLine
 10
129.7594912476662
 20
87.20730845571145
 30
0.0
 11
129.7594912476627
 21
88.16980845571142
 31
0.0
  0
INSERT
  5
8AF
330
2
100
AcDbEntity
  8
DIM
 62
     7
370
    30
100
AcDbBlockReference
 66
     1
  2
PROFILE LOGO
 10
130.7903980837586
 20
87.31703580746616
 30
0.0
 41
0.7940625000000097
 42
0.7940625000000168
 43
0.7940625000000012
  0
ATTRIB
  5
8B0
330
8AF
100
AcDbEntity
  8
A1
 62
    22
100
AcDbText
 10
131.0163454678086
 20
85.98436210419388
 30
0.0
 40
0.1688933715820315
  1
1155
 72
     1
 11
131.328876008702
 21
85.98436210419388
 31
0.0
100
AcDbAttribute
  2
XXXX
 70
     0
  0
SEQEND
  5
8B1
330
8AF
100
AcDbEntity
  8
A1
 62
     7
  0
LWPOLYLINE
  5
8B2
330
2
100
AcDbEntity
  8
LINEWORK
 62
    22
370
    30
100
AcDbPolyline
 90
        4
 70
     0
 43
0.0
 10
133.4703011454932
 20
83.52793229192869
 10
134.1833548792747
 20
83.52793229192869
 10
134.1886369234292
 20
83.32204805844563
 10
134.1595864807541
 20
83.32204805844563
  0
ARC
  5
8B3
330
2
100
AcDbEntity
  8
LINEWORK
 62
    22
370
    30
100
AcDbCircle
 10
133.6204539862678
 20
83.33260624107683
 30
0.0
 40
0.1373288804184085
100
AcDbArc
 50
359.6316189828548
 51
90.00081606717209
  0
LINE
  5
8B4
330
2
100
AcDbEntity
  8
LINEWORK
 62
    22
370
    30
100
AcDbLine
 10
133.462378523803
 20
83.52793229192869
 30
0.0
 11
133.4570964796484
 21
83.32204805844563
 31
0.0
  0
ARC
  5
8B5
330
2
100
AcDbEntity
  8
LINEWORK
 62
    22
370
    30
100
AcDbCircle
 10
133.6238410448077
 20
83.33260624107683
 30
0.0
 40
0.1373288804184085
100
AcDbArc
 50
89.9991839328279
 51
180.3683810171452
  0
LINE
  5
8B6
330
2
100
AcDbEntity
  8
LINEWORK
 62
    22
370
    30
100
AcDbLine
 10
133.4865150028285
 20
83.33172329638982
 30
0.0
 11
133.4865150028285
 21
83.3219808541161
 31
0.0
  0
LINE
  5
8B7
330
2
100
AcDbEntity
  8
LINEWORK
 62
    22
370
    30
100
AcDbLine
 10
133.4570964796484
 20
83.32204805844563
 30
0.0
 11
133.4861469223235
 21
83.32204805844563
 31
0.0
  0
ARC
  5
8B8
330
2
100
AcDbEntity
  8
LINEWORK
 62
    22
370
    30
100
AcDbCircle
 10
134.0252794168099
 20
83.33260624107683
 30
0.0
 40
0.1373288804184085
100
AcDbArc
 50
89.9991839328279
 51
180.3683810171452
  0
ARC
  5
8B9
330
2
100
AcDbEntity
  8
LINEWORK
 62
    22
370
    30
100
AcDbCircle
 10
134.02189235827
 20
83.33260624107683
 30
0.0
 40
0.1373288804184085
100
AcDbArc
 50
359.6316189828548
 51
90.00081606717209
  0
LINE
  5
8BA
330
2
100
AcDbEntity
  8
LINEWORK
 62
    22
370
    30
100
AcDbLine
 10
134.1592184002491
 20
83.33172329638982
 30
0.0
 11
134.1592184002491
 21
83.3219808541161
 31
0.0
  0
LINE
  5
8BB
330
2
100
AcDbEntity
  8
LINEWORK
 62
    22
370
    30
100
AcDbLine
 10
133.6340395354177
 20
82.65952308181354
 30
0.0
 11
134.01169386766
 21
82.65952308181354
 31
0.0
  0
LINE
  5
8BC
330
2
100
AcDbEntity
  8
LINEWORK
 62
    22
370
    30
100
AcDbLine
 10
133.7577589241035
 20
82.76122159063296
 30
0.0
 11
133.7581637499914
 21
82.76246525319274
 31
0.0
  0
LINE
  5
8BD
330
2
100
AcDbEntity
  8
LINEWORK
 62
    22
370
    30
100
AcDbLine
 10
133.6340395354177
 20
82.68591853839163
 30
0.0
 11
133.6815002269243
 21
82.68591853839163
 31
0.0
  0
LINE
  5
8BE
330
2
100
AcDbEntity
  8
LINEWORK
 62
    22
370
    30
100
AcDbLine
 10
133.6340395354177
 20
82.65952308181354
 30
0.0
 11
133.6340395354177
 21
82.68591853839163
 31
0.0
  0
ARC
  5
8BF
330
2
100
AcDbEntity
  8
LINEWORK
 62
    22
370
    30
100
AcDbCircle
 10
133.6812246110873
 20
82.76259944330112
 30
0.0
 40
0.0765467148011254
100
AcDbArc
 50
270.206300928684
 51
358.9686114340257
  0
LINE
  5
8C0
330
2
100
AcDbEntity
  8
LINEWORK
 62
    22
370
    30
100
AcDbLine
 10
134.01169386766
 20
82.65952308181354
 30
0.0
 11
134.01169386766
 21
82.68591853839163
 31
0.0
  0
LINE
  5
8C1
330
2
100
AcDbEntity
  8
LINEWORK
 62
    22
370
    30
100
AcDbLine
 10
134.01169386766
 20
82.68591853839163
 30
0.0
 11
133.9642331761533
 21
82.68591853839163
 31
0.0
  0
ARC
  5
8C2
330
2
100
AcDbEntity
  8
LINEWORK
 62
    22
370
    30
100
AcDbCircle
 10
133.9645087919903
 20
82.76259944330112
 30
0.0
 40
0.0765467148011254
100
AcDbArc
 50
181.0313885659742
 51
269.7936990713126
  0
LINE
  5
8C3
330
2
100
AcDbEntity
  8
LINEWORK
 62
    22
370
    30
100
AcDbLine
 10
133.8879744789741
 20
82.76122159063296
 30
0.0
 11
133.8875696530863
 21
82.76246525319274
 31
0.0
  0
ATTDEF
  5
8C4
330
2
100
AcDbEntity
  8
LINEWORK
 62
    22
370
    30
100
AcDbText
 10
133.5166966049984
 20
82.32180016158086
 30
0.0
 40
0.17015625
  1

 72
     1
 11
133.8333126463697
 21
82.32180016158086
 31
0.0
100
AcDbAttributeDefinition
  3
ADD STONE MARKER
  2
0989
 70
     0
  0
LINE
  5
8C5
330
2
100
AcDbEntity
  8
LINEWORK
 62
    22
370
    30
100
AcDbLine
 10
133.3118447997233
 20
82.53546465444717
 30
0.0
 11
134.3365295365233
 21
82.53546465444717
 31
0.0
  0
LWPOLYLINE
  5
8C6
330
2
100
AcDbEntity
  8
LINEWORK
 62
    22
370
    30
100
AcDbPolyline
 90
        4
 70
     1
 43
0.0
 10
133.3118447997233
 20
83.64143253666382
 10
134.3365295365233
 20
83.64143253666382
 10
134.3365295365233
 20
82.27942916274107
 10
133.3118447997233
 20
82.27942916274107
  0
HATCH
  5
8C7
330
2
100
AcDbEntity
  8
LINEWORK
 62
    22
370
    30
100
AcDbHatch
 10
0.0
 20
0.0
 30
0.0
210
0.0
220
0.0
230
1.0
  2
LINE
 70
     0
 71
     0
 91
        1
 92
       33
 93
       38
 72
     1
 10
134.1833548792747
 20
83.52793229192869
 11
133.4650192791553
 21
83.52793229192869
 72
     1
 10
133.4650192791553
 20
83.52793229192869
 11
133.4570964796485
 21
83.32468760410339
 72
     1
 10
133.4570964796484
 20
83.32468760410339
 11
133.4808650559856
 21
83.32468760410339
 72
     1
 10
133.4808650559856
 20
83.32468760410339
 11
133.4861469223235
 21
83.35900158837958
 72
     1
 10
133.4861469223235
 20
83.35900158837958
 11
133.4940697218303
 21
83.3906761362733
 72
     1
 10
133.4940697218303
 20
83.3906761362733
 11
133.509915320844
 21
83.41707148357604
 72
     1
 10
133.509915320844
 20
83.41707148357604
 11
133.5284018530266
 21
83.43554830318069
 72
     1
 10
133.5284018530266
 20
83.43554830318074
 11
133.5521704293638
 21
83.45138557712758
 72
     1
 10
133.5521704293638
 20
83.45138557712758
 11
133.5759388278843
 21
83.46458330541659
 72
     1
 10
133.5759388278843
 20
83.46458330541659
 11
133.5970662932358
 21
83.4698622874569
 72
     1
 10
133.5970662932358
 20
83.4698622874569
 11
133.6181939364041
 21
83.4698622874569
 72
     1
 10
133.618193936404
 20
83.4698622874569
 11
133.6683716666139
 21
83.46722285107441
 72
     1
 10
133.668371666614
 20
83.46722285107441
 11
133.7027039756269
 21
83.44610648581195
 72
     1
 10
133.7027039756269
 20
83.44610648581195
 11
133.7502407726679
 21
83.39331568193111
 72
     1
 10
133.7502407726679
 20
83.39331568193111
 11
133.7634456163293
 21
83.35108295140619
 72
     1
 10
133.7634456163293
 20
83.35108295140619
 11
133.7634456163293
 21
82.73870934227252
 72
     1
 10
133.7634456163293
 20
82.73870934227247
 11
133.742317973161
 21
82.70175581233846
 72
     1
 10
133.7423179731611
 20
82.70175581233852
 11
133.6894993097822
 21
82.68327899273382
 72
     1
 10
133.6894993097822
 20
82.68327899273382
 11
133.6419623349245
 21
82.68327899273382
 72
     1
 10
133.6419623349245
 20
82.68327899273382
 11
133.6366804685866
 21
82.66480217312917
 72
     1
 10
133.6366804685866
 20
82.66480217312917
 11
134.006412001322
 21
82.66480217312917
 72
     1
 10
134.0064120013221
 20
82.66480217312917
 11
134.0064120013221
 21
82.68327899273382
 72
     1
 10
134.0064120013221
 20
82.68327899273382
 11
133.9430294274508
 21
82.68327899273382
 72
     1
 10
133.9430294274508
 20
82.68327899273382
 11
133.8928515194242
 21
82.71495343135219
 72
     1
 10
133.8928515194242
 20
82.71495343135219
 11
133.8849287199173
 21
82.75190707056154
 72
     1
 10
133.8849287199174
 20
82.75190707056154
 11
133.8822877867484
 21
83.34844340574838
 72
     1
 10
133.8822877867483
 20
83.34844340574838
 11
133.8954924525931
 21
83.39331568193111
 72
     1
 10
133.8954924525931
 20
83.39331568193111
 11
133.929824761606
 21
83.43818784883856
 72
     1
 10
133.929824761606
 20
83.4381878488385
 11
133.9800026696327
 21
83.46458330541659
 72
     1
 10
133.9800026696326
 20
83.46458330541659
 11
134.0407441325183
 21
83.47250183311471
 72
     1
 10
134.0407441325184
 20
83.47250183311471
 11
134.0988448400518
 21
83.45138557712758
 72
     1
 10
134.0988448400518
 20
83.45138557712758
 11
134.1358180822336
 21
83.41707148357604
 72
     1
 10
134.1358180822336
 20
83.41707148357604
 11
134.1595864807541
 21
83.37483886232647
 72
     1
 10
134.1595864807541
 20
83.37483886232647
 11
134.164868347092
 21
83.32468760410344
 72
     1
 10
134.164868347092
 20
83.32468760410339
 11
134.1833548792746
 21
83.32468760410339
 72
     1
 10
134.1833548792747
 20
83.32468760410339
 11
134.1780730129368
 21
83.52265320061306
 72
     1
 10
134.1780730129368
 20
83.52265320061306
 11
134.1780730129368
 21
83.52529274627087
 72
     1
 10
134.1780730129368
 20
83.52529274627087
 11
134.1754320797678
 21
83.52529274627087
 97
        0
 75
     0
 76
     1
 52
0.0
 41
0.0625
 77
     0
 78
     1
 53
0.0
 43
110.7445902181266
 44
57.27056639428176
 45
0.0
 46
0.0078125
 79
     0
 98
        1
 10
110.7445902181266
 20
57.27056639428176
  0
LINE
  5
8C8
330
2
100
AcDbEntity
  8
LINEWORK
 62
    22
370
    30
100
AcDbLine
 10
133.7581637499914
 20
83.33172329638982
 30
0.0
 11
133.7581637499914
 21
82.76246525319274
 31
0.0
  0
LINE
  5
8C9
330
2
100
AcDbEntity
  8
LINEWORK
 62
    22
370
    30
100
AcDbLine
 10
133.8875696530863
 20
83.33172329638982
 30
0.0
 11
133.8875696530863
 21
82.76246525319274
 31
0.0
  0
LINE
  5
8CA
330
2
100
AcDbEntity
  8
LINEWORK
 62
     7
370
    30
100
AcDbLine
 10
133.0724912476632
 20
81.56980845571153
 30
0.0
 11
133.0724912476632
 21
83.94480845571152
 31
0.0
  0
LINE
  5
8CB
330
2
100
AcDbEntity
  8
LINEWORK
 62
     7
370
    30
100
AcDbLine
 10
133.8327928357462
 20
81.46366130387994
 30
0.0
 11
133.0724912476632
 21
81.56980845571153
 31
0.0
  0
ARC
  5
8CC
330
2
100
AcDbEntity
  8
LINEWORK
 62
     7
370
    30
100
AcDbCircle
 10
134.9822285187345
 20
81.61491341736635
 30
0.0
 40
1.159344466136349
100
AcDbArc
 50
187.4963758602323
 51
255.4678153711493
  0
LINE
  5
8CD
330
2
100
AcDbEntity
  8
LINEWORK
 62
     7
370
    30
100
AcDbLine
 10
134.6916715792449
 20
79.99370391450677
 30
0.0
 11
134.6913213998852
 21
80.49266004162465
 31
0.0
  0
ARC
  5
8CE
330
2
100
AcDbEntity
  8
LINEWORK
 62
     7
370
    30
100
AcDbCircle
 10
134.5271177723556
 20
79.6232004891032
 30
0.0
 40
0.4054019531249582
100
AcDbArc
 50
312.6441599562707
 51
66.05228345091937
  0
LINE
  5
8CF
330
2
100
AcDbEntity
  8
LINEWORK
 62
     7
370
    30
100
AcDbLine
 10
134.316182780017
 20
78.86624156143196
 30
0.0
 11
134.8017545304863
 21
79.32499687631329
 31
0.0
  0
ARC
  5
8D0
330
2
100
AcDbEntity
  8
LINEWORK
 62
     7
370
    30
100
AcDbCircle
 10
134.6573105009757
 20
78.49681068043262
 30
0.0
 40
0.5028392365780468
100
AcDbArc
 50
132.7189850553561
 51
262.9151951947604
  0
LINE
  5
8D1
330
2
100
AcDbEntity
  8
LINEWORK
 62
     7
370
    30
100
AcDbLine
 10
134.5956193202463
 20
77.53023511479407
 30
0.0
 11
134.5952911644457
 21
77.9978107808948
 31
0.0
  0
LINE
  5
8D2
330
2
100
AcDbEntity
  8
LINEWORK
 62
     7
370
    30
100
AcDbLine
 10
134.7204241480052
 20
77.43657268272286
 30
0.0
 11
134.5956193202463
 21
77.53023511479407
 31
0.0
  0
LINE
  5
8D3
330
2
100
AcDbEntity
  8
LINEWORK
  6
DASHED
 62
     7
 48
2.0
370
    30
100
AcDbLine
 10
137.0094912476636
 20
86.13480845571293
 30
0.0
 11
137.0094912476636
 21
82.13480845571295
 31
0.0
  0
LINE
  5
8D4
330
2
100
AcDbEntity
  8
LINEWORK
  6
DASHED
 62
     7
 48
2.0
370
    30
100
AcDbLine
 10
136.5094912476636
 20
82.13480845571295
 30
0.0
 11
136.5094912476636
 21
86.13480845571293
 31
0.0
  0
LINE
  5
8D5
330
2
100
AcDbEntity
  8
LINEWORK
  6
DASHED
 62
     7
 48
2.0
370
    30
100
AcDbLine
 10
136.5094912476636
 20
86.13480845571293
 30
0.0
 11
137.0094912476636
 21
86.13480845571293
 31
0.0
  0
LINE
  5
8D6
330
2
100
AcDbEntity
  8
LINEWORK
  6
DASHED
 62
     7
 48
2.0
370
    30
100
AcDbLine
 10
137.0094912476636
 20
82.13480845571295
 30
0.0
 11
136.5094912476636
 21
82.13480845571295
 31
0.0
  0
ARC
  5
8D7
330
2
100
AcDbEntity
  8
LINEWORK
 62
     7
370
    30
100
AcDbCircle
 10
140.4063771006956
 20
64.37150762681156
 30
0.0
 40
1.309760156249905
100
AcDbArc
 50
185.3119499627489
 51
252.0490940633944
  0
LINE
  5
8D8
330
2
100
AcDbEntity
  8
LINEWORK
 62
     7
370
    30
100
AcDbLine
 10
140.8883638611567
 20
60.87725535163193
 30
0.0
 11
140.8883638611567
 21
57.94480845571152
 31
0.0
  0
LINE
  5
8D9
330
2
100
AcDbEntity
  8
LINEWORK
 62
     7
370
    30
100
AcDbLine
 10
140.0027064463908
 20
61.06425535163194
 30
0.0
 11
140.8883638611567
 21
60.87725535163193
 31
0.0
  0
LINE
  5
8DA
330
2
100
AcDbEntity
  8
LINEWORK
 62
     7
370
    30
100
AcDbLine
 10
140.0027064463908
 20
61.31325535163191
 30
0.0
 11
140.0027064463908
 21
61.06425535163194
 31
0.0
  0
ARC
  5
8DB
330
2
100
AcDbEntity
  8
LINEWORK
 62
     7
370
    30
100
AcDbCircle
 10
140.0027064463907
 20
61.95375535163194
 30
0.0
 40
0.640500000000003
100
AcDbArc
 50
270.0000000000065
 51
90.00000000000325
  0
LINE
  5
8DC
330
2
100
AcDbEntity
  8
LINEWORK
 62
     7
370
    30
100
AcDbLine
 10
140.0027064463908
 20
63.12550535163191
 30
0.0
 11
140.0027064463907
 21
62.59425535163192
 31
0.0
  0
ARC
  5
8DD
330
2
100
AcDbEntity
  8
LINEWORK
 62
     7
370
    30
100
AcDbCircle
 10
139.1024383489086
 20
64.56287880022975
 30
0.0
 40
0.3126265514021895
100
AcDbArc
 50
269.9639827629437
 51
90.00000001188764
  0
LINE
  5
8DE
330
2
100
AcDbEntity
  8
LINEWORK
 62
     7
370
    30
100
AcDbLine
 10
139.1024383488438
 20
65.18800535163191
 30
0.0
 11
139.1024383488438
 21
64.87550535163191
 31
0.0
  0
ARC
  5
8DF
330
2
100
AcDbEntity
  8
LINEWORK
 62
     7
370
    30
100
AcDbCircle
 10
136.7594908213908
 20
68.41970252279489
 30
0.0
 40
3.991650000000084
100
AcDbArc
 50
305.9417292865539
 51
28.0519432572087
  0
LINE
  5
8E0
330
2
100
AcDbEntity
  8
LINEWORK
 62
     7
370
    30
100
AcDbLine
 10
138.9278653943867
 20
77.53175535163169
 30
0.0
 11
138.8031263318864
 21
77.43800535163192
 31
0.0
  0
LINE
  5
8E1
330
2
100
AcDbEntity
  8
LINEWORK
 62
     7
370
    30
100
AcDbLine
 10
138.9278653943867
 20
77.99933113288616
 30
0.0
 11
138.9278653943867
 21
77.53175535163169
 31
0.0
  0
ARC
  5
8E2
330
2
100
AcDbEntity
  8
LINEWORK
 62
     7
370
    30
100
AcDbCircle
 10
138.8654958631368
 20
78.49828738288616
 30
0.0
 40
0.5028392365780418
100
AcDbArc
 50
277.1250163489014
 51
47.321226488307
  0
LINE
  5
8E3
330
2
100
AcDbEntity
  8
LINEWORK
 62
     7
370
    30
100
AcDbLine
 10
138.7204706284358
 20
79.32637200054822
 30
0.0
 11
139.206364224707
 21
78.86795758444808
 31
0.0
  0
ARC
  5
8E4
330
2
100
AcDbEntity
  8
LINEWORK
 62
     7
370
    30
100
AcDbCircle
 10
138.9948980325438
 20
79.62476828650384
 30
0.0
 40
0.4054019531249569
100
AcDbArc
 50
113.9879280927425
 51
227.3960515873894
  0
LINE
  5
8E5
330
2
100
AcDbEntity
  8
LINEWORK
 62
     7
370
    30
100
AcDbLine
 10
138.8300842380673
 20
80.49411238288618
 30
0.0
 11
138.8300842380673
 21
79.99515613288625
 31
0.0
  0
ARC
  5
8E6
330
2
100
AcDbEntity
  8
LINEWORK
 62
     7
370
    30
100
AcDbCircle
 10
138.5383895667596
 20
81.61616131670845
 30
0.0
 40
1.159344466136347
100
AcDbArc
 50
284.5723961725109
 51
352.543835683425
  0
LINE
  5
8E7
330
2
100
AcDbEntity
  8
LINEWORK
 62
     7
370
    30
100
AcDbLine
 10
140.4464912476632
 20
81.56980845571153
 30
0.0
 11
139.6879311189963
 21
81.4657159417641
 31
0.0
  0
LINE
  5
8E8
330
2
100
AcDbEntity
  8
LINEWORK
 62
     7
370
    30
100
AcDbLine
 10
140.4464912476632
 20
83.94480845571152
 30
0.0
 11
140.4464912476632
 21
81.56980845571153
 31
0.0
  0
ARC
  5
8E9
330
2
100
AcDbEntity
  8
LINEWORK
370
    30
100
AcDbCircle
 10
142.0463852672983
 20
86.71764663777443
 30
0.0
 40
1.299371506374636
100
AcDbArc
 50
272.783752937382
 51
354.2984521406174
  0
LINE
  5
8EA
330
2
100
AcDbEntity
  8
LINEWORK
370
    30
100
AcDbLine
 10
142.1094912476637
 20
84.86980845571153
 30
0.0
 11
142.1094912476637
 21
85.41980845571149
 31
0.0
  0
ARC
  5
8EB
330
2
100
AcDbEntity
  8
LINEWORK
370
    30
100
AcDbCircle
 10
144.1297817515663
 20
86.5038315795496
 30
0.0
 40
0.7949809888151388
100
AcDbArc
 50
117.76106087053
 51
173.8819545312739
  0
LINE
  5
8EC
330
2
100
AcDbEntity
  8
LINEWORK
370
    30
100
AcDbLine
 10
143.7594912476603
 20
87.20730845571145
 30
0.0
 11
143.7594912476638
 21
88.16980845571142
 31
0.0
  0
ARC
  5
8ED
330
2
100
AcDbEntity
  8
LINEWORK
370
    30
100
AcDbCircle
 10
141.5594912476634
 20
84.31980845571123
 30
0.0
 40
0.5500000000002502
100
AcDbArc
 50
89.99999999997395
 51
179.9999999999739
  0
LINE
  5
8EE
330
2
100
AcDbEntity
  8
LINEWORK
  6
PHANTOM
 62
     7
 48
3.0
370
    30
100
AcDbLine
 10
130.1344912476632
 20
53.19480845571153
 30
0.0
 11
143.3828141721748
 21
53.19480845571153
 31
0.0
  0
DIMENSION
  5
8EF
330
2
100
AcDbEntity
  8
DIM
 62
     7
370
    30
100
AcDbDimension
  2
*D9
 10
155.0604633287399
 20
88.99480845571153
 30
0.0
 11
155.0604633287399
 21
70.81748464857077
 31
0.0
 70
   160
  1
36"
 71
     5
 42
-1.0
  3
STANDARD
100
AcDbAlignedDimension
 13
142.5811148766468
 23
53.19480845571153
 33
0.0
 14
142.7028658595455
 24
88.99480845571153
 34
0.0
 50
90.0
100
AcDbRotatedDimension
1001
ACAD
1000
DSTYLE
1002
{
1070
   287
1070
     4
1070
   287
1070
     4
1070
   287
1070
     4
1070
   287
1070
     4
1070
   287
1070
     4
1070
    40
1040
2.399999999999999
1070
    73
1070
     1
1070
    74
1070
     1
1070
    77
1070
     0
1070
   147
1040
0.5
1070
   279
1070
     1
1070
   288
1070
     1
1070
   289
1070
     3
1002
}
  0
LINE
  5
8F0
330
2
100
AcDbEntity
  8
LINEWORK
 62
     7
370
    30
100
AcDbLine
 10
141.5714912476636
 20
57.06980845571127
 30
0.0
 11
141.5714912476636
 21
53.56980845571126
 31
0.0
  0
LINE
  5
8F1
330
2
100
AcDbEntity
  8
LINEWORK
 62
     7
370
    30
100
AcDbLine
 10
141.0714912476636
 20
57.56980845571127
 30
0.0
 11
141.5714912476636
 21
57.06980845571127
 31
0.0
  0
DIMENSION
  5
8F2
330
2
100
AcDbEntity
  8
DIM
 62
     7
370
    30
100
AcDbDimension
  2
*D10
 10
141.5714912476636
 20
47.64572298168963
 30
0.0
 11
155.7929432227712
 21
47.64572298168963
 31
0.0
 70
   160
 71
     5
 42
-1.0
  3
STANDARD
100
AcDbAlignedDimension
 13
131.9474912476636
 23
53.56980845571152
 33
0.0
 14
141.5714912476636
 24
53.56980845571178
 34
0.0
100
AcDbRotatedDimension
1001
ACAD
1000
DSTYLE
1002
{
1070
   287
1070
     4
1070
   287
1070
     4
1070
   287
1070
     4
1070
   287
1070
     4
1070
    40
1040
2.399999999999999
1070
    73
1070
     1
1070
    74
1070
     1
1070
    77
1070
     0
1070
   147
1040
0.5
1070
   279
1070
     1
1070
   288
1070
     1
1070
   289
1070
     3
1002
}
  0
LINE
  5
8F3
330
2
100
AcDbEntity
  8
LINEWORK
 62
     7
370
    30
100
AcDbLine
 10
131.4094912476628
 20
84.86980845571153
 30
0.0
 11
131.9594912476627
 21
84.86980845571149
 31
0.0
  0
LINE
  5
8F4
330
2
100
AcDbEntity
  8
LINEWORK
 62
     7
370
    30
100
AcDbLine
 10
141.5594912476637
 20
84.86980845571149
 30
0.0
 11
142.1094912476637
 21
84.86980845571153
 31
0.0
  0
LINE
  5
8F5
330
2
100
AcDbEntity
  8
LINEWORK
 62
     7
370
    30
100
AcDbLine
 10
141.5714912476636
 20
53.56980845571126
 30
0.0
 11
131.9474912476636
 21
53.56980845571152
 31
0.0
  0
LINE
  5
8F6
330
2
100
AcDbEntity
  8
LINEWORK
 62
     7
370
    30
100
AcDbLine
 10
141.0714912476636
 20
57.56980845571127
 30
0.0
 11
132.4474912476636
 21
57.56980845571153
 31
0.0
  0
LINE
  5
8F7
330
2
100
AcDbEntity
  8
LINEWORK
 62
     7
370
    30
100
AcDbLine
 10
136.7594912476632
 20
88.61980845571153
 30
0.0
 11
136.7253030633942
 21
88.61980845571153
 31
0.0
  0
LINE
  5
8F8
330
2
100
AcDbEntity
  8
LINEWORK
  6
PHANTOM
 62
     7
 48
3.0
370
    30
100
AcDbLine
 10
130.4258602642919
 20
88.93191920533581
 30
0.0
 11
143.6741831888035
 21
88.93191920533581
 31
0.0
  0
DIMENSION
  5
8F9
330
2
100
AcDbEntity
  8
LINEWORK
 62
     7
370
    30
100
AcDbDimension
  2
*D11
 10
143.7594912476638
 20
93.88257569240989
 30
0.0
 11
137.0527124522388
 21
93.88257569240989
 31
0.0
 70
   160
 71
     5
 42
-1.0
  3
STANDARD
100
AcDbAlignedDimension
 13
129.7594912476627
 23
88.16980845571142
 33
0.0
 14
143.7594912476638
 24
88.16980845571142
 34
0.0
100
AcDbRotatedDimension
1001
ACAD
1000
DSTYLE
1002
{
1070
   287
1070
     4
1070
   287
1070
     4
1070
    40
1040
2.399999999999999
1070
    73
1070
     1
1070
    74
1070
     1
1070
    77
1070
     0
1070
   147
1040
0.5
1070
   279
1070
     1
1070
   288
1070
     1
1070
   289
1070
     3
1002
}
  0
DIMENSION
  5
8FA
330
2
100
AcDbEntity
  8
DIM
 62
     7
370
    30
100
AcDbDimension
  2
*D12
 10
147.5725047082342
 20
83.94480845571152
 30
0.0
 11
147.5725047082342
 21
70.88151972976345
 31
0.0
 70
   160
 71
     5
 42
-1.0
  3
STANDARD
100
AcDbAlignedDimension
 13
140.8883638611567
 23
57.94480845571152
 33
0.0
 14
140.4464912476632
 24
83.94480845571152
 34
0.0
 50
90.0
100
AcDbRotatedDimension
1001
ACAD
1000
DSTYLE
1002
{
1070
   287
1070
     4
1070
   287
1070
     4
1070
    40
1040
2.399999999999999
1070
    73
1070
     1
1070
    74
1070
     1
1070
    77
1070
     0
1070
   147
1040
0.5
1070
   279
1070
     1
1070
   288
1070
     1
1070
   289
1070
     3
1002
}
  0
LINE
  5
8FB
330
2
100
AcDbEntity
  8
LINEWORK
 62
     7
370
    30
100
AcDbLine
 10
136.7253030633942
 20
88.61980845571153
 30
0.0
 11
143.7594912476638
 21
88.16980845571142
 31
0.0
  0
LINE
  5
8FC
330
2
100
AcDbEntity
  8
LINEWORK
 62
     7
370
    30
100
AcDbLine
 10
136.7253030633942
 20
88.61980845571153
 30
0.0
 11
129.7594912476627
 21
88.16980845571142
 31
0.0
  0
LINE
  5
959
330
2
100
AcDbEntity
  8
LINEWORK
 62
     7
370
    30
100
AcDbLine
 10
73.74456816050479
 20
88.99480845571153
 30
0.0
 11
76.06845993923745
 21
88.61980845571155
 31
0.0
  0
ENDSEC
  0
SECTION
  2
OBJECTS
  0
DICTIONARY
  5
8
330
0
100
AcDbDictionary
281
     1
  3
ACAD_GROUP
350
21
  3
ACAD_LAYOUT
350
C
  3
ACAD_MLINESTYLE
350
22
  3
ACAD_PLOTSETTINGS
350
23
  3
ACAD_PLOTSTYLENAME
350
7
  0
DICTIONARY
  5
3
330
2
100
AcDbDictionary
280
     1
281
     1
  3
ACAD_LAYOUTSELFREF
360
AA9
  0
DICTIONARY
  5
2D3
330
D
100
AcDbDictionary
280
     1
281
     1
  3
ACAD_LAYOUTSELFREF
360
AAC
  0
DICTIONARY
  5
21
102
{ACAD_REACTORS
330
8
102
}
330
8
100
AcDbDictionary
281
     1
  0
DICTIONARY
  5
C
102
{ACAD_REACTORS
330
8
102
}
330
8
100
AcDbDictionary
281
     1
  3
Layout1
350
10
  3
Model
350
B
  0
DICTIONARY
  5
22
102
{ACAD_REACTORS
330
8
102
}
330
8
100
AcDbDictionary
281
     1
  3
STANDARD
350
25
  0
DICTIONARY
  5
23
102
{ACAD_REACTORS
330
8
102
}
330
8
100
AcDbDictionary
281
     1
  0
ACDBDICTIONARYWDFLT
  5
7
102
{ACAD_REACTORS
330
8
102
}
330
8
100
AcDbDictionary
281
     1
  3
Normal
350
6
100
AcDbDictionaryWithDefault
340
6
  0
XRECORD
  5
AA9
102
{ACAD_REACTORS
330
3
102
}
330
3
100
AcDbXrecord
280
     1
340
2
  0
XRECORD
  5
AAC
102
{ACAD_REACTORS
330
2D3
102
}
330
2D3
100
AcDbXrecord
280
     1
340
D
  0
LAYOUT
  5
10
102
{ACAD_REACTORS
330
C
102
}
330
C
100
AcDbPlotSettings
  1

  2
None
  4

  6

 40
0.0
 41
0.0
 42
0.0
 43
0.0
 44
0.0
 45
0.0
 46
0.0
 47
0.0
 48
0.0
 49
0.0
140
0.0
141
0.0
142
1.0
143
1.0
 70
   688
 72
     0
 73
     0
 74
     5
  7

 75
    16
147
1.0
148
0.0
149
0.0
100
AcDbLayout
  1
Layout1
 70
     1
 71
     1
 10
0.0
 20
0.0
 11
12.0
 21
9.0
 12
0.0
 22
0.0
 32
0.0
 14
1.000000000000000E+20
 24
1.000000000000000E+20
 34
1.000000000000000E+20
 15
-1.000000000000000E+20
 25
-1.000000000000000E+20
 35
-1.000000000000000E+20
146
0.0
 13
0.0
 23
0.0
 33
0.0
 16
1.0
 26
0.0
 36
0.0
 17
0.0
 27
1.0
 37
0.0
 76
     0
330
D
  0
LAYOUT
  5
B
102
{ACAD_REACTORS
330
C
102
}
330
C
100
AcDbPlotSettings
  1

  2
HP LaserJet 5
  4
Letter
  6

 40
7.143749713897705
 41
6.381738662719726
 42
7.14373779296875
 43
6.381744384765625
 44
215.8999938964843
 45
279.3999938964843
 46
0.0
 47
0.0
 48
384.482208949714
 49
318.3711668150766
140
565.7294511324651
141
453.2014323412695
142
1.0
143
15.75437199629367
 70
 11952
 72
     0
 73
     1
 74
     1
  7

 75
     0
147
0.0634744438074242
148
-193.2901152920321
149
-162.6848203510482
100
AcDbLayout
  1
Model
 70
     1
 71
     0
 10
0.0
 20
0.0
 11
12.0
 21
9.0
 12
0.0
 22
0.0
 32
0.0
 14
0.0
 24
0.0
 34
0.0
 15
0.0
 25
0.0
 35
0.0
146
0.0
 13
0.0
 23
0.0
 33
0.0
 16
1.0
 26
0.0
 36
0.0
 17
0.0
 27
1.0
 37
0.0
 76
     0
330
2
  0
MLINESTYLE
  5
25
102
{ACAD_REACTORS
330
22
102
}
330
22
100
AcDbMlineStyle
  2
STANDARD
 70
     0
  3

 62
   256
 51
90.0
 52
90.0
 71
     2
 49
0.5
 62
   256
  6
BYLAYER
 49
-0.5
 62
   256
  6
BYLAYER
  0
ACDBPLACEHOLDER
  5
6
102
{ACAD_REACTORS
330
7
102
}
330
7
  0
ENDSEC
  0
EOF
