  0
SECTION
  2
HEADER
  9
$ACADVER
  1
AC1015
  9
$ACADMAINTVER
 70
     6
  9
$DWGCODEPAGE
  3
ANSI_1252
  9
$INSBASE
 10
0.0
 20
0.0
 30
0.0
  9
$EXTMIN
 10
2.671883258688907
 20
2.12099696810975
 30
0.0
  9
$EXTMAX
 10
178.4817081759574
 20
132.9063545285168
 30
0.0
  9
$LIMMIN
 10
0.0
 20
0.0
  9
$LIMMAX
 10
12.0
 20
9.0
  9
$ORTHOMODE
 70
     1
  9
$REGENMODE
 70
     1
  9
$FILLMODE
 70
     1
  9
$QTEXTMODE
 70
     0
  9
$MIRRTEXT
 70
     0
  9
$LTSCALE
 40
1.0
  9
$ATTMODE
 70
     2
  9
$TEXTSIZE
 40
1.0
  9
$TRACEWID
 40
0.05
  9
$TEXTSTYLE
  7
STANDARD
  9
$CLAYER
  8
TEXT
  9
$CELTYPE
  6
BYLAYER
  9
$CECOLOR
 62
     7
  9
$CELTSCALE
 40
1.0
  9
$DISPSILH
 70
     0
  9
$DIMSCALE
 40
2.399999999999999
  9
$DIMASZ
 40
0.5
  9
$DIMEXO
 40
1.0
  9
$DIMDLI
 40
0.0625
  9
$DIMRND
 40
0.0
  9
$DIMDLE
 40
0.0
  9
$DIMEXE
 40
0.25
  9
$DIMTP
 40
0.0
  9
$DIMTM
 40
0.0
  9
$DIMTXT
 40
1.0
  9
$DIMCEN
 40
0.0
  9
$DIMTSZ
 40
0.0
  9
$DIMTOL
 70
     0
  9
$DIMLIM
 70
     0
  9
$DIMTIH
 70
     1
  9
$DIMTOH
 70
     1
  9
$DIMSE1
 70
     0
  9
$DIMSE2
 70
     0
  9
$DIMTAD
 70
     0
  9
$DIMZIN
 70
     0
  9
$DIMBLK
  1

  9
$DIMASO
 70
     1
  9
$DIMSHO
 70
     1
  9
$DIMPOST
  1
"
  9
$DIMAPOST
  1

  9
$DIMALT
 70
     0
  9
$DIMALTD
 70
     0
  9
$DIMALTF
 40
25.4
  9
$DIMLFAC
 40
1.0
  9
$DIMTOFL
 70
     0
  9
$DIMTVP
 40
0.0
  9
$DIMTIX
 70
     0
  9
$DIMSOXD
 70
     0
  9
$DIMSAH
 70
     0
  9
$DIMBLK1
  1

  9
$DIMBLK2
  1

  9
$DIMSTYLE
  2
STANDARD
  9
$DIMCLRD
 70
     0
  9
$DIMCLRE
 70
     0
  9
$DIMCLRT
 70
     0
  9
$DIMTFAC
 40
0.125
  9
$DIMGAP
 40
0.5
  9
$DIMJUST
 70
     0
  9
$DIMSD1
 70
     0
  9
$DIMSD2
 70
     0
  9
$DIMTOLJ
 70
     1
  9
$DIMTZIN
 70
     0
  9
$DIMALTZ
 70
     2
  9
$DIMALTTZ
 70
     2
  9
$DIMUPT
 70
     1
  9
$DIMDEC
 70
     4
  9
$DIMTDEC
 70
     4
  9
$DIMALTU
 70
     2
  9
$DIMALTTD
 70
     0
  9
$DIMTXSTY
  7
STANDARD
  9
$DIMAUNIT
 70
     0
  9
$DIMADEC
 70
     0
  9
$DIMALTRND
 40
0.0
  9
$DIMAZIN
 70
     0
  9
$DIMDSEP
 70
    46
  9
$DIMATFIT
 70
     1
  9
$DIMFRAC
 70
     2
  9
$DIMLDRBLK
  1

  9
$DIMLUNIT
 70
     5
  9
$DIMLWD
 70
    -2
  9
$DIMLWE
 70
    -2
  9
$DIMTMOVE
 70
     1
  9
$LUNITS
 70
     5
  9
$LUPREC
 70
     4
  9
$SKETCHINC
 40
0.1
  9
$FILLETRAD
 40
0.03125
  9
$AUNITS
 70
     0
  9
$AUPREC
 70
     1
  9
$MENU
  1
acad
  9
$ELEVATION
 40
0.0
  9
$PELEVATION
 40
0.0
  9
$THICKNESS
 40
0.0
  9
$LIMCHECK
 70
     0
  9
$CHAMFERA
 40
0.75
  9
$CHAMFERB
 40
0.75
  9
$CHAMFERC
 40
0.0
  9
$CHAMFERD
 40
0.0
  9
$SKPOLY
 70
     0
  9
$TDCREATE
 40
2451085.664838310
  9
$TDUCREATE
 40
2451085.831504977
  9
$TDUPDATE
 40
2451661.333608796
  9
$TDUUPDATE
 40
2451661.500275462
  9
$TDINDWG
 40
3.7821151620
  9
$TDUSRTIMER
 40
3.7821151620
  9
$USRTIMER
 70
     1
  9
$ANGBASE
 50
0.0
  9
$ANGDIR
 70
     0
  9
$PDMODE
 70
     0
  9
$PDSIZE
 40
0.0
  9
$PLINEWID
 40
0.12
  9
$SPLFRAME
 70
     0
  9
$SPLINETYPE
 70
     6
  9
$SPLINESEGS
 70
     8
  9
$HANDSEED
  5
836
  9
$SURFTAB1
 70
     6
  9
$SURFTAB2
 70
     6
  9
$SURFTYPE
 70
     6
  9
$SURFU
 70
     6
  9
$SURFV
 70
     6
  9
$UCSBASE
  2

  9
$UCSNAME
  2

  9
$UCSORG
 10
0.0
 20
0.0
 30
0.0
  9
$UCSXDIR
 10
1.0
 20
0.0
 30
0.0
  9
$UCSYDIR
 10
0.0
 20
1.0
 30
0.0
  9
$UCSORTHOREF
  2

  9
$UCSORTHOVIEW
 70
     0
  9
$UCSORGTOP
 10
0.0
 20
0.0
 30
0.0
  9
$UCSORGBOTTOM
 10
0.0
 20
0.0
 30
0.0
  9
$UCSORGLEFT
 10
0.0
 20
0.0
 30
0.0
  9
$UCSORGRIGHT
 10
0.0
 20
0.0
 30
0.0
  9
$UCSORGFRONT
 10
0.0
 20
0.0
 30
0.0
  9
$UCSORGBACK
 10
0.0
 20
0.0
 30
0.0
  9
$PUCSBASE
  2

  9
$PUCSNAME
  2

  9
$PUCSORG
 10
0.0
 20
0.0
 30
0.0
  9
$PUCSXDIR
 10
1.0
 20
0.0
 30
0.0
  9
$PUCSYDIR
 10
0.0
 20
1.0
 30
0.0
  9
$PUCSORTHOREF
  2

  9
$PUCSORTHOVIEW
 70
     0
  9
$PUCSORGTOP
 10
0.0
 20
0.0
 30
0.0
  9
$PUCSORGBOTTOM
 10
0.0
 20
0.0
 30
0.0
  9
$PUCSORGLEFT
 10
0.0
 20
0.0
 30
0.0
  9
$PUCSORGRIGHT
 10
0.0
 20
0.0
 30
0.0
  9
$PUCSORGFRONT
 10
0.0
 20
0.0
 30
0.0
  9
$PUCSORGBACK
 10
0.0
 20
0.0
 30
0.0
  9
$USERI1
 70
     0
  9
$USERI2
 70
     0
  9
$USERI3
 70
     0
  9
$USERI4
 70
     0
  9
$USERI5
 70
     0
  9
$USERR1
 40
0.0
  9
$USERR2
 40
0.0
  9
$USERR3
 40
0.0
  9
$USERR4
 40
0.0
  9
$USERR5
 40
0.0
  9
$WORLDVIEW
 70
     1
  9
$SHADEDGE
 70
     1
  9
$SHADEDIF
 70
    70
  9
$TILEMODE
 70
     1
  9
$MAXACTVP
 70
    16
  9
$PINSBASE
 10
0.0
 20
0.0
 30
0.0
  9
$PLIMCHECK
 70
     0
  9
$PEXTMIN
 10
1.000000000000000E+20
 20
1.000000000000000E+20
 30
1.000000000000000E+20
  9
$PEXTMAX
 10
-1.000000000000000E+20
 20
-1.000000000000000E+20
 30
-1.000000000000000E+20
  9
$PLIMMIN
 10
0.0
 20
0.0
  9
$PLIMMAX
 10
12.0
 20
9.0
  9
$UNITMODE
 70
     0
  9
$VISRETAIN
 70
     0
  9
$PLINEGEN
 70
     0
  9
$PSLTSCALE
 70
     1
  9
$TREEDEPTH
 70
  3020
  9
$CMLSTYLE
  2
STANDARD
  9
$CMLJUST
 70
     0
  9
$CMLSCALE
 40
1.0
  9
$PROXYGRAPHICS
 70
     1
  9
$MEASUREMENT
 70
     0
  9
$CELWEIGHT
370
    -1
  9
$ENDCAPS
280
     0
  9
$JOINSTYLE
280
     0
  9
$LWDISPLAY
290
     0
  9
$INSUNITS
 70
     0
  9
$HYPERLINKBASE
  1

  9
$STYLESHEET
  1

  9
$XEDIT
290
     1
  9
$CEPSNTYPE
380
     0
  9
$PSTYLEMODE
290
     1
  9
$FINGERPRINTGUID
  2
{A6232B84-9B2E-11D3-8DA4-00A0C981A35F}
  9
$VERSIONGUID
  2
{1C381AD8-176D-11D4-8DA4-00A0C981A35F}
  9
$EXTNAMES
290
     1
  9
$PSVPSCALE
 40
0.0
  9
$OLESTARTUP
290
     0
  0
ENDSEC
  0
SECTION
  2
CLASSES
  0
CLASS
  1
DICTIONARYVAR
  2
AcDbDictionaryVar
  3
AutoCAD 2000
 90
    32768
280
     0
281
     0
  0
CLASS
  1
LWPOLYLINE
  2
AcDbPolyline
  3
AutoCAD 2000
 90
    32768
280
     0
281
     1
  0
CLASS
  1
RASTERVARIABLES
  2
AcDbRasterVariables
  3
ISM
 90
    32768
280
     0
281
     0
  0
CLASS
  1
ACDBDICTIONARYWDFLT
  2
AcDbDictionaryWithDefault
  3
AutoCAD 2000
 90
        0
280
     0
281
     0
  0
CLASS
  1
ACDBPLACEHOLDER
  2
AcDbPlaceHolder
  3
AutoCAD 2000
 90
        0
280
     0
281
     0
  0
CLASS
  1
LAYOUT
  2
AcDbLayout
  3
AutoCAD 2000
 90
        0
280
     0
281
     0
  0
CLASS
  1
ACME_DOCUMENT
  2
AcMeDbDoc
  3
AcMeServices
 90
    32768
280
     1
281
     0
  0
CLASS
  1
ACMESCOPE
  2
AcMeScope
  3
AcMeServices
 90
    32768
280
     1
281
     0
  0
CLASS
  1
ACMECOMMANDHISTORY
  2
AcMeCommandHistory
  3
AcMeServices
 90
    32768
280
     1
281
     0
  0
CLASS
  1
ACIMSYSVARMAN
  2
AcImSysVarManager
  3
AcMeServices
 90
    32768
280
     1
281
     0
  0
CLASS
  1
ACIMREALSYSVAR
  2
AcImRealSysVar
  3
AcMeServices
 90
    32768
280
     1
281
     0
  0
CLASS
  1
ACIMINTSYSVAR
  2
AcImIntSysVar
  3
AcMeServices
 90
    32768
280
     1
281
     0
  0
CLASS
  1
ACMEDRAWINGMAN
  2
AcMeDrawingMan
  3
AcMeServices
 90
    32768
280
     1
281
     0
  0
CLASS
  1
ACMEVIEW
  2
AcMeView
  3
AcMeServices
 90
    32768
280
     1
281
     0
  0
CLASS
  1
ACDBENTITYCACHE
  2
AcMeEntityCache
  3
AcMeServices
 90
    32768
280
     1
281
     0
  0
CLASS
  1
GSMANAGER
  2
AcMeGSManager
  3
AcMeServices
 90
    32768
280
     1
281
     0
  0
CLASS
  1
AmdtInternalReactor
  2
AmdtInternalReactor
  3
AcMeServices
 90
    32768
280
     1
281
     0
  0
CLASS
  1
ACMESTATEMGR
  2
AcMeStateMgr
  3
AcMeServices
 90
    32768
280
     1
281
     0
  0
CLASS
  1
ACGREFMASTER
  2
AcGrefMaster
  3
AcAttribServices
 90
    32768
280
     1
281
     0
  0
CLASS
  1
AM_DRAWING_MGR
  2
AcDmDwgMgr
  3
AcMechDwgViewMgmt
 90
    32768
280
     1
281
     0
  0
CLASS
  1
AM_DWG_DOCUMENT
  2
AcDmDwgDocument
  3
AcMechDwgViewMgmt
 90
    32768
280
     1
281
     0
  0
CLASS
  1
AM_DWG_SHEET
  2
AcDmSheet
  3
AcMechDwgViewMgmt
 90
    32768
280
     1
281
     0
  0
CLASS
  1
AM_VIEWDIMPARMAP
  2
AcDmViewDimParMap
  3
AcMechDwgViewMgmt
 90
    32768
280
     1
281
     0
  0
CLASS
  1
AM_DWGMGR_NAME
  2
AcDmDwgMgrName
  3
AcMechDwgViewMgmt
 90
    32768
280
     1
281
     0
  0
CLASS
  1
ACME_DATABASE
  2
AcMeDbDatabase
  3
AcMeServices
 90
    32768
280
     1
281
     0
  0
CLASS
  1
ACRFINSADJUSTERMGR
  2
AcRfInsAdjusterMgr
  3
AcMeServices
 90
    32768
280
     1
281
     0
  0
CLASS
  1
ACGREFMASTER
  2
AcGrefacadMaster
  3
AcGrefServices
 90
    32768
280
     1
281
     0
  0
CLASS
  1
AMDTMENUSTATEMGR
  2
AmdtMenuStateMgr
  3
McadcomServices
 90
    32768
280
     1
281
     0
  0
CLASS
  1
AMDTMCOMMENUSTATE
  2
AmdtMcomMenuState
  3
McadcomServices
 90
    32768
280
     1
281
     0
  0
CLASS
  1
ASAPP
  2
AcAsAppObject
  3
AutoSurfServices
 90
    32768
280
     1
281
     0
  0
CLASS
  1
IM_STATIC_MAN
  2
AcImStaticVarManager
  3
AcMeServices
 90
    32768
280
     1
281
     0
  0
CLASS
  1
ACIMSTRSYSVAR
  2
AcImStrSysVar
  3
AcMeServices
 90
    32768
280
     1
281
     0
  0
CLASS
  1
ACIMDBLSTATICVAR
  2
AcImDblStaticVar
  3
AcMeServices
 90
    32768
280
     1
281
     0
  0
CLASS
  1
ACIMSTRSTATICVAR
  2
AcImStrStaticVar
  3
AcMeServices
 90
    32768
280
     1
281
     0
  0
CLASS
  1
ACIMINTSTATICVAR
  2
AcImIntStaticVar
  3
AcMeServices
 90
    32768
280
     1
281
     0
  0
CLASS
  1
ACADGREFMODULE
  2
AcAdGrefModule
  3
AdGrefServices
 90
    32768
280
     1
281
     0
  0
CLASS
  1
AMIMASTER
  2
AmiMaster
  3
AmiServices
 90
    32768
280
     1
281
     0
  0
CLASS
  1
ACASGREFMASTER
  2
AcAsGrefMaster
  3
AutoSurfResolverServices
 90
    32768
280
     1
281
     0
  0
CLASS
  1
MAPIAMMOUDLE
  2
MApiAmModule
  3
MApiAmServices
 90
    32768
280
     1
281
     0
  0
CLASS
  1
AMDTDMMENUSTATE
  2
AmdtDmMenuState
  3
AcMechDwgViewMgmt
 90
    32768
280
     1
281
     0
  0
CLASS
  1
AMDTADMENUSTATE
  2
AmdtAdMenuState
  3
DesignerServices
 90
    32768
280
     1
281
     0
  0
CLASS
  1
ADAPPL
  2
AcAdAppl
  3
DesignerServices
 90
    32768
280
     1
281
     0
  0
CLASS
  1
DEPMGR
  2
AcAdDepMgr
  3
DesignerServices
 90
    32768
280
     1
281
     0
  0
CLASS
  1
PARAMMGR
  2
AcAdParamMgr
  3
DesignerServices
 90
    32768
280
     1
281
     0
  0
CLASS
  1
PARAMSCOPE
  2
AcAdParamScope
  3
DesignerServices
 90
    32768
280
     1
281
     0
  0
CLASS
  1
NAMEDAPPL
  2
AcAdNamedAppl
  3
DesignerServices
 90
    32768
280
     1
281
     0
  0
CLASS
  1
ADHNTMPLT
  2
AdHoleNoteTemplateMgr
  3
DesignerServices
 90
    32768
280
     1
281
     0
  0
CLASS
  1
AM_HNTEMPLATE_MGR_NAME
  2
AdHoleNoteTemplateMgrName
  3
DesignerServices
 90
    32768
280
     1
281
     0
  0
CLASS
  1
AMDTAMMENUSTATE
  2
AmdtAmMenuState
  3
DesignerAssemblies
 90
    32768
280
     1
281
     0
  0
CLASS
  1
ACAMPROJECT
  2
AcAmProject
  3
DesignerAssemblies
 90
    32768
280
     1
281
     0
  0
CLASS
  1
ACAMGRCOMPDEF
  2
AcAmGrCompDef
  3
DesignerAssemblies
 90
    32768
280
     1
281
     0
  0
CLASS
  1
ACCMCONTEXT
  2
AcCmContext
  3
DesignerAssemblies
 90
    32768
280
     1
281
     0
  0
CLASS
  1
ACAMCOMPDEF
  2
AcAmCompDef
  3
DesignerAssemblies
 90
    32768
280
     1
281
     0
  0
CLASS
  1
ACAMCOMPDEFMGR
  2
AcAmCompDefMgr
  3
DesignerAssemblies
 90
    32768
280
     1
281
     0
  0
CLASS
  1
AMCONTEXTMGR
  2
AcAmContextMgr
  3
DesignerAssemblies
 90
    32768
280
     1
281
     0
  0
CLASS
  1
ACAMCONTEXTMODELER
  2
AcAmContextModeler
  3
DesignerAssemblies
 90
    32768
280
     1
281
     0
  0
CLASS
  1
MAPIADMODULE
  2
MApiAdModule
  3
MApiAdServices
 90
    32768
280
     1
281
     0
  0
CLASS
  1
ACMDATADICTIONARY
  2
AcmDataDictionary
  3
"AcmSymBB|Product Description: AutoCAD Mechanical 2000|Company: Autodesk"
 90
    32768
280
     1
281
     0
  0
CLASS
  1
ACMDATAENTRYBLOCK
  2
AcmDataEntryBlock
  3
"AcmSymBB|Product Description: AutoCAD Mechanical 2000|Company: Autodesk"
 90
    32768
280
     1
281
     0
  0
CLASS
  1
AMDTBROWSERDBTAB
  2
AmdtBrowserDbTab
  3
McadcomServices
 90
    32768
280
     1
281
     0
  0
CLASS
  1
CBROWSERAPPOBJECT
  2
CBrowserAppObject
  3
McadcomServices
 90
    32768
280
     1
281
     0
  0
CLASS
  1
DM_PLACEHOLDER
  2
AcDmSelsetPlaceholder
  3
AcMechDwgViewMgmt
 90
    32768
280
     1
281
     0
  0
CLASS
  1
CATALOGSTATE
  2
AcAmCatalogState
  3
DesignerAssemblies
 90
    32768
280
     1
281
     0
  0
CLASS
  1
ACAMGRCOMPDEFSET
  2
AcAmGrCompDefSet
  3
DesignerAssemblies
 90
    32768
280
     1
281
     0
  0
CLASS
  1
AMGOBJPROPCFG
  2
AmgObjPropCfg
  3
"AmgLay|Product Description: AutoCAD Mechanical 2000|Company: Autodesk"
 90
    32769
280
     1
281
     0
  0
CLASS
  1
LAYER_INDEX
  2
AcDbLayerIndex
  3
AutoCAD 2000
 90
    32768
280
     0
281
     0
  0
CLASS
  1
IDBUFFER
  2
AcDbIdBuffer
  3
AutoCAD 2000
 90
    32768
280
     0
281
     0
  0
CLASS
  1
ACRFATTGENMGR
  2
AcRfAttGeneralMgr
  3
AcAttribServices
 90
    32768
280
     1
281
     0
  0
CLASS
  1
PLOTSETTINGS
  2
AcDbPlotSettings
  3
AutoCAD 2000
 90
    32768
280
     0
281
     0
  0
CLASS
  1
VBA_PROJECT
  2
AcDbVbaProject
  3
acadvba
 90
    32768
280
     0
281
     0
  0
CLASS
  1
LONG_TRANSACTION
  2
AcDbLongTransaction
  3
AutoCAD 2000
 90
    32768
280
     0
281
     0
  0
CLASS
  1
LWPOLYLINE
  2
AcDbPolyline
  3
AutoCAD 2000
 90
    32768
280
     0
281
     1
  0
CLASS
  1
HATCH
  2
AcDbHatch
  3
AutoCAD 2000
 90
    32768
280
     0
281
     1
  0
CLASS
  1
XRECORD
  2
AcDbXrecord
  3
AutoCAD 2000
 90
    32768
280
     0
281
     0
  0
CLASS
  1
LONG_TRANSACTION
  2
AcDbLongTransaction
  3
AutoCAD 2000
 90
    32768
280
     0
281
     0
  0
CLASS
  1
LWPOLYLINE
  2
AcDbPolyline
  3
AutoCAD 2000
 90
    32768
280
     0
281
     1
  0
CLASS
  1
HATCH
  2
AcDbHatch
  3
AutoCAD 2000
 90
    32768
280
     0
281
     1
  0
CLASS
  1
XRECORD
  2
AcDbXrecord
  3
AutoCAD 2000
 90
    32768
280
     0
281
     0
  0
CLASS
  1
LONG_TRANSACTION
  2
AcDbLongTransaction
  3
AutoCAD 2000
 90
    32768
280
     0
281
     0
  0
CLASS
  1
LWPOLYLINE
  2
AcDbPolyline
  3
AutoCAD 2000
 90
    32768
280
     0
281
     1
  0
CLASS
  1
HATCH
  2
AcDbHatch
  3
AutoCAD 2000
 90
    32768
280
     0
281
     1
  0
CLASS
  1
XRECORD
  2
AcDbXrecord
  3
AutoCAD 2000
 90
    32768
280
     0
281
     0
  0
CLASS
  1
LONG_TRANSACTION
  2
AcDbLongTransaction
  3
AutoCAD 2000
 90
    32768
280
     0
281
     0
  0
CLASS
  1
LWPOLYLINE
  2
AcDbPolyline
  3
AutoCAD 2000
 90
    32768
280
     0
281
     1
  0
CLASS
  1
HATCH
  2
AcDbHatch
  3
AutoCAD 2000
 90
    32768
280
     0
281
     1
  0
CLASS
  1
XRECORD
  2
AcDbXrecord
  3
AutoCAD 2000
 90
    32768
280
     0
281
     0
  0
CLASS
  1
LONG_TRANSACTION
  2
AcDbLongTransaction
  3
AutoCAD 2000
 90
    32768
280
     0
281
     0
  0
CLASS
  1
LWPOLYLINE
  2
AcDbPolyline
  3
AutoCAD 2000
 90
    32768
280
     0
281
     1
  0
CLASS
  1
HATCH
  2
AcDbHatch
  3
AutoCAD 2000
 90
    32768
280
     0
281
     1
  0
CLASS
  1
XRECORD
  2
AcDbXrecord
  3
AutoCAD 2000
 90
    32768
280
     0
281
     0
  0
CLASS
  1
LONG_TRANSACTION
  2
AcDbLongTransaction
  3
AutoCAD 2000
 90
    32768
280
     0
281
     0
  0
CLASS
  1
LWPOLYLINE
  2
AcDbPolyline
  3
AutoCAD 2000
 90
    32768
280
     0
281
     1
  0
CLASS
  1
HATCH
  2
AcDbHatch
  3
AutoCAD 2000
 90
    32768
280
     0
281
     1
  0
CLASS
  1
XRECORD
  2
AcDbXrecord
  3
AutoCAD 2000
 90
    32768
280
     0
281
     0
  0
CLASS
  1
LONG_TRANSACTION
  2
AcDbLongTransaction
  3
AutoCAD 2000
 90
    32768
280
     0
281
     0
  0
CLASS
  1
LWPOLYLINE
  2
AcDbPolyline
  3
AutoCAD 2000
 90
    32768
280
     0
281
     1
  0
CLASS
  1
HATCH
  2
AcDbHatch
  3
AutoCAD 2000
 90
    32768
280
     0
281
     1
  0
CLASS
  1
XRECORD
  2
AcDbXrecord
  3
AutoCAD 2000
 90
    32768
280
     0
281
     0
  0
CLASS
  1
LONG_TRANSACTION
  2
AcDbLongTransaction
  3
AutoCAD 2000
 90
    32768
280
     0
281
     0
  0
CLASS
  1
LWPOLYLINE
  2
AcDbPolyline
  3
AutoCAD 2000
 90
    32768
280
     0
281
     1
  0
CLASS
  1
HATCH
  2
AcDbHatch
  3
AutoCAD 2000
 90
    32768
280
     0
281
     1
  0
CLASS
  1
XRECORD
  2
AcDbXrecord
  3
AutoCAD 2000
 90
    32768
280
     0
281
     0
  0
ENDSEC
  0
SECTION
  2
TABLES
  0
TABLE
  2
VPORT
  5
1E
330
0
100
AcDbSymbolTable
 70
     2
  0
VPORT
  5
835
330
1E
100
AcDbSymbolTableRecord
100
AcDbViewportTableRecord
  2
*Active
 70
     0
 10
0.0
 20
0.0
 11
1.0
 21
1.0
 12
155.0444800805836
 22
36.05835670658957
 13
0.0
 23
0.0
 14
1.0
 24
1.0
 15
0.0
 25
0.0
 16
0.0
 26
0.0
 36
1.0
 17
-64.46234487877643
 27
33.0238264231553
 37
6.148717398612387
 40
134.9323697586201
 41
1.413068844807467
 42
50.0
 43
-6.148717398612387
 44
-6.148717398612387
 50
0.0
 51
0.0
 71
     0
 72
 20000
 73
     1
 74
     1
 75
     0
 76
     0
 77
     0
 78
     2
281
     0
 65
     1
110
0.0
120
0.0
130
0.0
111
1.0
121
0.0
131
0.0
112
0.0
122
1.0
132
0.0
 79
     0
146
0.0
  0
ENDTAB
  0
TABLE
  2
LTYPE
  5
19
330
0
100
AcDbSymbolTable
 70
     3
  0
LTYPE
  5
1A
330
19
100
AcDbSymbolTableRecord
100
AcDbLinetypeTableRecord
  2
BYBLOCK
 70
     0
  3

 72
    65
 73
     0
 40
0.0
  0
LTYPE
  5
1B
330
19
100
AcDbSymbolTableRecord
100
AcDbLinetypeTableRecord
  2
BYLAYER
 70
     0
  3

 72
    65
 73
     0
 40
0.0
  0
LTYPE
  5
A
330
19
100
AcDbSymbolTableRecord
100
AcDbLinetypeTableRecord
  2
CONTINUOUS
 70
     0
  3
Solid line
 72
    65
 73
     0
 40
0.0
  0
LTYPE
  5
98
330
19
100
AcDbSymbolTableRecord
100
AcDbLinetypeTableRecord
  2
DASHED
 70
     0
  3
Dashed __ __ __ __ __ __ __ __ __ __ __ __ __ _
 72
    65
 73
     2
 40
0.75
 49
0.5
 74
     0
 49
-0.25
 74
     0
  0
LTYPE
  5
94
330
19
100
AcDbSymbolTableRecord
100
AcDbLinetypeTableRecord
  2
PHANTOM
 70
     0
  3
Phantom ______  __  __  ______  __  __  ______
 72
    65
 73
     6
 40
2.5
 49
1.25
 74
     0
 49
-0.25
 74
     0
 49
0.25
 74
     0
 49
-0.25
 74
     0
 49
0.25
 74
     0
 49
-0.25
 74
     0
  0
ENDTAB
  0
TABLE
  2
LAYER
  5
14
330
0
100
AcDbSymbolTable
 70
     8
  0
LAYER
  5
6
330
14
100
AcDbSymbolTableRecord
100
AcDbLayerTableRecord
  2
0
 70
     0
 62
     7
  6
CONTINUOUS
370
    -3
390
7
  0
LAYER
  5
45
330
14
100
AcDbSymbolTableRecord
100
AcDbLayerTableRecord
  2
BALUSTERS
 70
     0
 62
     7
  6
CONTINUOUS
370
    -3
390
7
  0
LAYER
  5
38
330
14
100
AcDbSymbolTableRecord
100
AcDbLayerTableRecord
  2
LINEWORK
 70
     0
 62
     7
  6
CONTINUOUS
370
    -3
390
7
  0
LAYER
  5
D4
330
14
100
AcDbSymbolTableRecord
100
AcDbLayerTableRecord
  2
Defpoints
 70
     0
 62
     7
  6
CONTINUOUS
290
     0
370
    -3
390
7
  0
LAYER
  5
2A
330
14
100
AcDbSymbolTableRecord
100
AcDbLayerTableRecord
  2
leaders
 70
     0
 62
     1
  6
CONTINUOUS
370
    -3
390
7
  0
LAYER
  5
26
330
14
100
AcDbSymbolTableRecord
100
AcDbLayerTableRecord
  2
TEXT
 70
     0
 62
     7
  6
CONTINUOUS
370
    -3
390
7
  0
LAYER
  5
CA
330
14
100
AcDbSymbolTableRecord
100
AcDbLayerTableRecord
  2
DIM
 70
     0
 62
     7
  6
CONTINUOUS
370
    -3
390
7
  0
LAYER
  5
31
330
14
100
AcDbSymbolTableRecord
100
AcDbLayerTableRecord
  2
A1
 70
     0
 62
     7
  6
CONTINUOUS
370
    -3
390
7
  0
ENDTAB
  0
TABLE
  2
STYLE
  5
15
330
0
100
AcDbSymbolTable
 70
     3
  0
STYLE
  5
16
330
15
100
AcDbSymbolTableRecord
100
AcDbTextStyleTableRecord
  2
STANDARD
 70
     0
 40
0.0
 41
1.0
 50
0.0
 71
     0
 42
1.0
  3
unvr55w.ttf
  4

1001
ACAD
1000
Univers
1071
       34
  0
STYLE
  5
55
330
15
100
AcDbSymbolTableRecord
100
AcDbTextStyleTableRecord
  2
ROMANC
 70
     0
 40
0.0
 41
1.0
 50
0.0
 71
     0
 42
0.5
  3
TIMESBD.TTF
  4

1001
ACAD
1000
Times New Roman
1071
 33554450
  0
STYLE
  5
34
330
15
100
AcDbSymbolTableRecord
100
AcDbTextStyleTableRecord
  2
barcoder
 70
     0
 40
0.0
 41
1.0
 50
0.0
 71
     0
 42
4.5625
  3
cw_barcd.ttf
  4

1001
ACAD
1000
Barcoder
1071
 33554434
  0
ENDTAB
  0
TABLE
  2
VIEW
  5
1C
330
0
100
AcDbSymbolTable
 70
     0
  0
ENDTAB
  0
TABLE
  2
UCS
  5
1D
330
0
100
AcDbSymbolTable
 70
     0
  0
ENDTAB
  0
TABLE
  2
APPID
  5
20
330
0
100
AcDbSymbolTable
 70
     1
  0
APPID
  5
17
330
20
100
AcDbSymbolTableRecord
100
AcDbRegAppTableRecord
  2
ACAD
 70
     0
  0
ENDTAB
  0
TABLE
  2
DIMSTYLE
  5
21
330
0
100
AcDbSymbolTable
 70
     1
100
AcDbDimStyleTable
 71
     0
  0
DIMSTYLE
105
28
102
{ACAD_REACTORS
330
463
330
455
330
D9
330
C9
330
679
330
689
330
699
102
}
330
21
100
AcDbSymbolTableRecord
100
AcDbDimStyleTableRecord
  2
STANDARD
 70
     0
  3
"
 41
0.5
 42
1.0
 43
0.0625
 44
0.25
 73
     0
 74
     0
 77
     3
140
1.0
141
0.0
146
0.125
147
0.125
171
     0
274
     0
276
     2
277
     5
285
     2
286
     2
289
     0
340
16
  0
ENDTAB
  0
TABLE
  2
BLOCK_RECORD
  5
1
330
0
100
AcDbSymbolTable
 70
     9
  0
BLOCK_RECORD
  5
2
102
{ACAD_XDICTIONARY
360
3
102
}
330
1
100
AcDbSymbolTableRecord
100
AcDbBlockTableRecord
  2
*MODEL_SPACE
340
C
  0
BLOCK_RECORD
  5
E
102
{ACAD_XDICTIONARY
360
F
102
}
330
1
100
AcDbSymbolTableRecord
100
AcDbBlockTableRecord
  2
*PAPER_SPACE
340
13
  0
BLOCK_RECORD
  5
48D
330
1
100
AcDbSymbolTableRecord
100
AcDbBlockTableRecord
  2
PROFILE LOGO
340
0
102
{BLKREFS
331
48B
331
55E
331
563
102
}
  0
BLOCK_RECORD
  5
39
330
1
100
AcDbSymbolTableRecord
100
AcDbBlockTableRecord
  2
TSFORMB
340
0
102
{BLKREFS
331
2F
102
}
  0
BLOCK_RECORD
  5
634
330
1
100
AcDbSymbolTableRecord
100
AcDbBlockTableRecord
  2
*D2
340
0
  0
BLOCK_RECORD
  5
641
330
1
100
AcDbSymbolTableRecord
100
AcDbBlockTableRecord
  2
*D3
340
0
  0
BLOCK_RECORD
  5
64E
330
1
100
AcDbSymbolTableRecord
100
AcDbBlockTableRecord
  2
*D4
340
0
  0
BLOCK_RECORD
  5
65B
330
1
100
AcDbSymbolTableRecord
100
AcDbBlockTableRecord
  2
*D5
340
0
  0
BLOCK_RECORD
  5
67A
330
1
100
AcDbSymbolTableRecord
100
AcDbBlockTableRecord
  2
*D6
340
0
  0
BLOCK_RECORD
  5
68A
330
1
100
AcDbSymbolTableRecord
100
AcDbBlockTableRecord
  2
*D7
340
0
  0
BLOCK_RECORD
  5
69A
330
1
100
AcDbSymbolTableRecord
100
AcDbBlockTableRecord
  2
*D8
340
0
  0
ENDTAB
  0
ENDSEC
  0
SECTION
  2
BLOCKS
  0
BLOCK
  5
5
330
2
100
AcDbEntity
  8
0
100
AcDbBlockBegin
  2
*MODEL_SPACE
 70
     2
 10
0.0
 20
0.0
 30
0.0
  3
*MODEL_SPACE
  1

  0
ENDBLK
  5
B
330
2
100
AcDbEntity
  8
0
100
AcDbBlockEnd
  0
BLOCK
  5
11
330
E
100
AcDbEntity
 67
     1
  8
0
100
AcDbBlockBegin
  2
*PAPER_SPACE
 70
     0
 10
0.0
 20
0.0
 30
0.0
  3
*PAPER_SPACE
  1

  0
ENDBLK
  5
12
330
E
100
AcDbEntity
 67
     1
  8
0
100
AcDbBlockEnd
  0
BLOCK
  5
4A6
330
48D
100
AcDbEntity
  8
0
 62
     7
100
AcDbBlockBegin
  2
PROFILE LOGO
 70
     2
 10
0.0
 20
0.0
 30
0.0
  3
PROFILE LOGO
  1

  0
LINE
  5
48E
330
48D
100
AcDbEntity
  8
0
 62
    22
100
AcDbLine
 10
0.7459516636765642
 20
-0.415894330395318
 30
0.0
 11
0.74595166367655
 21
-1.12746688439163
 31
0.0
  0
LINE
  5
48F
330
48D
100
AcDbEntity
  8
0
 62
    22
100
AcDbLine
 10
0.5841942848079072
 20
-0.415894330395318
 30
0.0
 11
0.5841942848079072
 21
-1.12746688439163
 31
0.0
  0
HATCH
  5
490
330
48D
100
AcDbEntity
  8
0
 62
    22
100
AcDbHatch
 10
0.0
 20
0.0
 30
0.0
210
0.0
220
0.0
230
1.0
  2
LINE
 70
     0
 71
     0
 91
        1
 92
       33
 93
       38
 72
     1
 10
1.115683196411978
 20
-0.1706330859717084
 11
0.2177636962628071
 21
-0.1706330859717084
 72
     1
 10
0.2177636962628213
 20
-0.1706330859717084
 11
0.2078601968792952
 21
-0.4246889457533243
 72
     1
 10
0.2078601968792952
 20
-0.4246889457533243
 11
0.2375709173007294
 21
-0.4246889457533243
 72
     1
 10
0.2375709173007294
 20
-0.4246889457533243
 11
0.2441732502230991
 21
-0.3817964654080939
 72
     1
 10
0.2441732502230991
 20
-0.3817964654080939
 11
0.254076749606611
 21
-0.3422032805409501
 72
     1
 10
0.2540767496066252
 20
-0.3422032805409501
 11
0.2738837483736916
 21
-0.3092090964125091
 72
     1
 10
0.2738837483736916
 20
-0.3092090964125091
 11
0.2969919136019428
 21
-0.2861130719066693
 72
     1
 10
0.296991913601957
 20
-0.2861130719066764
 11
0.3267026340234338
 21
-0.2663164794731259
 72
     1
 10
0.3267026340234196
 20
-0.2663164794731259
 11
0.356413132174012
 21
-0.2498193191118219
 72
     1
 10
0.356413132174012
 20
-0.2498193191118148
 11
0.3828224638634481
 21
-0.243220591561446
 72
     1
 10
0.3828224638634623
 20
-0.243220591561446
 11
0.4092320178237401
 21
-0.243220591561446
 72
     1
 10
0.4092320178237401
 20
-0.243220591561446
 11
0.4719541805861525
 21
-0.2465198870395469
 72
     1
 10
0.4719541805861525
 20
-0.2465198870395469
 11
0.514869566852326
 21
-0.2729153436176332
 72
     1
 10
0.514869566852326
 20
-0.2729153436176332
 11
0.5742905631535394
 21
-0.3389038484686964
 72
     1
 10
0.5742905631535394
 20
-0.3389038484687106
 11
0.5907966177302626
 21
-0.3916947616248691
 72
     1
 10
0.5907966177302768
 20
-0.3916947616248691
 11
0.5907966177302768
 21
-1.157161773041991
 72
     1
 10
0.5907966177302768
 20
-1.157161773041984
 11
0.5643870637699991
 21
-1.203353685459461
 72
     1
 10
0.5643870637699849
 20
-1.203353685459468
 11
0.4983637345463876
 21
-1.226449709965308
 72
     1
 10
0.4983637345464019
 20
-1.226449709965301
 11
0.4389425159743326
 21
-1.226449709965301
 72
     1
 10
0.4389425159743326
 20
-1.226449709965301
 11
0.4323401830519913
 21
-1.249545734471119
 72
     1
 10
0.4323401830520055
 20
-1.249545734471134
 11
0.8945045989712809
 21
-1.249545734471134
 72
     1
 10
0.8945045989712667
 20
-1.249545734471134
 11
0.8945045989712667
 21
-1.226449709965315
 72
     1
 10
0.8945045989712667
 20
-1.226449709965301
 11
0.8152763816321311
 21
-1.226449709965301
 72
     1
 10
0.8152763816321311
 20
-1.226449709965301
 11
0.7525539965988913
 21
-1.186856661692324
 72
     1
 10
0.7525539965988913
 20
-1.186856661692324
 11
0.7426504972153794
 21
-1.140664612680659
 72
     1
 10
0.7426504972153652
 20
-1.140664612680673
 11
0.7393493307541803
 21
-0.394994193697137
 72
     1
 10
0.7393493307541803
 20
-0.394994193697137
 11
0.7558551630600619
 21
-0.3389038484687106
 72
     1
 10
0.7558551630600761
 20
-0.3389038484687106
 11
0.7987705493262496
 21
-0.2828136398344298
 72
     1
 10
0.7987705493262496
 20
-0.2828136398344227
 11
0.8614929343594894
 21
-0.2498193191118148
 72
     1
 10
0.8614929343594894
 20
-0.2498193191118148
 11
0.9374197629665985
 21
-0.2399211594891923
 72
     1
 10
0.9374197629665985
 20
-0.2399211594891923
 11
1.010045647383407
 21
-0.2663164794731117
 72
     1
 10
1.010045647383407
 20
-0.2663164794731259
 11
1.056262200110722
 21
-0.3092090964125234
 72
     1
 10
1.056262200110722
 20
-0.3092090964125091
 11
1.085972698261343
 21
-0.361999872974522
 72
     1
 10
1.085972698261358
 20
-0.3619998729745291
 11
1.092575031183727
 21
-0.4246889457533243
 72
     1
 10
1.092575031183727
 20
-0.4246889457533243
 11
1.115683196411993
 21
-0.4246889457533243
 72
     1
 10
1.115683196411978
 20
-0.4246889457533243
 11
1.109080863489609
 21
-0.17723195011623
 72
     1
 10
1.109080863489609
 20
-0.17723195011623
 11
1.109080863489609
 21
-0.1739325180439621
 72
     1
 10
1.109080863489609
 20
-0.1739325180439621
 11
1.105779697028424
 21
-0.1739325180439621
 97
        0
 75
     0
 76
     1
 52
0.0
 41
0.078125
 77
     0
 78
     1
 53
0.0
 43
-28.182772630023
 44
-32.9923404580304
 45
0.0
 46
0.009765625
 79
     0
 98
        1
 10
-28.182772630023
 20
-32.9923404580304
  0
LWPOLYLINE
  5
491
330
48D
100
AcDbEntity
  8
0
 62
    22
100
AcDbPolyline
 90
        4
 70
     1
 43
0.0
 10
0.0262955969727301
 20
-0.0287577800528069
 10
1.307151517972869
 20
-0.0287577800528069
 10
1.307151517972869
 20
-1.731261997456265
 10
0.0262955969727301
 20
-1.731261997456265
  0
LINE
  5
492
330
48D
100
AcDbEntity
  8
0
 62
    22
100
AcDbLine
 10
0.0262955969727443
 20
-1.4112176328236
 30
0.0
 11
1.307151517972869
 21
-1.4112176328236
 31
0.0
  0
ATTDEF
  5
493
330
48D
100
AcDbEntity
  8
BALUSTERS
 62
    22
100
AcDbText
 10
0.6781304052809105
 20
-1.678298248906529
 30
0.0
 40
0.2126953125
  1

 72
     1
 11
0.6781304052809105
 21
-1.678298248906529
 31
0.0
100
AcDbAttributeDefinition
  3
ADD STONE MARKER
  2
XXXX
 70
     0
  0
LINE
  5
494
330
48D
100
AcDbEntity
  8
0
 62
    22
100
AcDbLine
 10
0.7464576960363587
 20
-1.129021462591367
 30
0.0
 11
0.74595166367655
 21
-1.12746688439163
 31
0.0
  0
ARC
  5
495
330
48D
100
AcDbEntity
  8
0
 62
    22
100
AcDbCircle
 10
0.8421255873066684
 20
-1.127299146756172
 30
0.0
 40
0.0956833935014068
100
AcDbArc
 50
181.0313885659746
 51
269.7936990713142
  0
LINE
  5
496
330
48D
100
AcDbEntity
  8
0
 62
    22
100
AcDbLine
 10
0.9011069318936506
 20
-1.22315027789304
 30
0.0
 11
0.841781067510368
 21
-1.22315027789304
 31
0.0
  0
LINE
  5
497
330
48D
100
AcDbEntity
  8
0
 62
    22
100
AcDbLine
 10
0.9011069318936506
 20
-1.256144598615648
 30
0.0
 11
0.9011069318936506
 21
-1.22315027789304
 31
0.0
  0
ARC
  5
498
330
48D
100
AcDbEntity
  8
0
 62
    22
100
AcDbCircle
 10
0.4880203611777887
 20
-1.127299146756172
 30
0.0
 40
0.0956833935014068
100
AcDbArc
 50
270.2063009286848
 51
358.9686114340253
  0
LINE
  5
499
330
48D
100
AcDbEntity
  8
0
 62
    22
100
AcDbLine
 10
0.4290390165908207
 20
-1.256144598615648
 30
0.0
 11
0.4290390165908207
 21
-1.22315027789304
 31
0.0
  0
LINE
  5
49A
330
48D
100
AcDbEntity
  8
0
 62
    22
100
AcDbLine
 10
0.4290390165908207
 20
-1.22315027789304
 30
0.0
 11
0.4883648809740891
 21
-1.22315027789304
 31
0.0
  0
LINE
  5
49B
330
48D
100
AcDbEntity
  8
0
 62
    22
100
AcDbLine
 10
0.5836882524480984
 20
-1.129021462591367
 30
0.0
 11
0.5841942848079072
 21
-1.12746688439163
 31
0.0
  0
LINE
  5
49C
330
48D
100
AcDbEntity
  8
0
 62
    22
100
AcDbLine
 10
0.4290390165908207
 20
-1.256144598615648
 30
0.0
 11
0.9011069318936506
 21
-1.256144598615648
 31
0.0
  0
LINE
  5
49D
330
48D
100
AcDbEntity
  8
0
 62
    22
100
AcDbLine
 10
1.085512597630156
 20
-0.415894330395318
 30
0.0
 11
1.085512597630156
 21
-0.4280723832374847
 31
0.0
  0
ARC
  5
49E
330
48D
100
AcDbEntity
  8
0
 62
    22
100
AcDbCircle
 10
0.9138550451562537
 20
-0.4147906495365632
 30
0.0
 40
0.1716611005230106
100
AcDbArc
 50
359.6316189828552
 51
90.00081606717127
  0
ARC
  5
49F
330
48D
100
AcDbEntity
  8
0
 62
    22
100
AcDbCircle
 10
0.9180888683309831
 20
-0.4147906495365632
 30
0.0
 40
0.1716611005230106
100
AcDbArc
 50
89.99918393282873
 51
180.3683810171443
  0
LINE
  5
4A0
330
48D
100
AcDbEntity
  8
0
 62
    22
100
AcDbLine
 10
0.2078601968792952
 20
-0.427988377825578
 30
0.0
 11
0.2441732502230991
 21
-0.427988377825578
 31
0.0
  0
LINE
  5
4A1
330
48D
100
AcDbEntity
  8
0
 62
    22
100
AcDbLine
 10
0.2446333508543006
 20
-0.415894330395318
 30
0.0
 11
0.2446333508543006
 21
-0.4280723832374847
 31
0.0
  0
ARC
  5
4A2
330
48D
100
AcDbEntity
  8
0
 62
    22
100
AcDbCircle
 10
0.4162909033282176
 20
-0.4147906495365632
 30
0.0
 40
0.1716611005230106
100
AcDbArc
 50
89.99918393282873
 51
180.3683810171443
  0
LINE
  5
4A3
330
48D
100
AcDbEntity
  8
0
 62
    22
100
AcDbLine
 10
0.2144627520724782
 20
-0.1706330859717156
 30
0.0
 11
0.2078601968792952
 21
-0.427988377825578
 31
0.0
  0
ARC
  5
4A4
330
48D
100
AcDbEntity
  8
0
 62
    22
100
AcDbCircle
 10
0.4120570801534882
 20
-0.4147906495365632
 30
0.0
 40
0.1716611005230106
100
AcDbArc
 50
359.6316189828552
 51
90.00081606717127
  0
LWPOLYLINE
  5
4A5
330
48D
100
AcDbEntity
  8
0
 62
    22
100
AcDbPolyline
 90
        4
 70
     0
 43
0.0
 10
0.224366029185191
 20
-0.1706330859717084
 10
1.115683196411978
 20
-0.1706330859717084
 10
1.122285751605161
 20
-0.427988377825578
 10
1.085972698261358
 20
-0.427988377825578
  0
ENDBLK
  5
4A7
330
48D
100
AcDbEntity
  8
0
 62
     7
100
AcDbBlockEnd
  0
BLOCK
  5
67
330
39
100
AcDbEntity
  8
0
 62
     7
100
AcDbBlockBegin
  2
TSFORMB
 70
     2
 10
0.0
 20
0.0
 30
0.0
  3
TSFORMB
  1

  0
LINE
  5
3A
330
39
100
AcDbEntity
  8
0
100
AcDbLine
 10
105.9925392881563
 20
78.84810849484797
 30
0.0
 11
105.9925392881563
 21
70.31072004936999
 31
0.0
  0
LINE
  5
3B
330
39
100
AcDbEntity
  8
0
100
AcDbLine
 10
105.9925392881563
 20
0.0
 30
0.0
 11
105.9925392881563
 21
78.84810849484797
 31
0.0
  0
LINE
  5
3C
330
39
100
AcDbEntity
  8
0
100
AcDbLine
 10
0.0
 20
0.0
 30
0.0
 11
105.9925392881563
 21
0.0
 31
0.0
  0
LINE
  5
3D
330
39
100
AcDbEntity
  8
0
100
AcDbLine
 10
0.0
 20
78.84810849484797
 30
0.0
 11
0.0
 21
0.0
 31
0.0
  0
LINE
  5
3E
330
39
100
AcDbEntity
  8
0
100
AcDbLine
 10
56.87404547169354
 20
0.0
 30
0.0
 11
56.87404547169354
 21
12.46470592426129
 31
0.0
  0
TEXT
  5
3F
330
39
100
AcDbEntity
  8
0
 62
     7
100
AcDbText
 10
39.28098221173831
 20
10.97304845086642
 30
0.0
 40
0.8085000000000002
  1
LEGEND
100
AcDbText
  0
TEXT
  5
40
330
39
100
AcDbEntity
  8
0
 62
     7
100
AcDbText
 10
38.18320344075362
 20
3.401999220949562
 30
0.0
 40
0.8400000000000002
  1
CATEGORY
 72
     1
 11
41.47652732452399
 21
3.401999220949562
 31
0.0
100
AcDbText
  0
LINE
  5
41
330
39
100
AcDbEntity
  8
0
 62
     7
100
AcDbLine
 10
26.78791925899645
 20
8.549200111339303
 30
0.0
 11
29.32320076794366
 21
8.549200111339303
 31
0.0
  0
TEXT
  5
42
330
39
100
AcDbEntity
  8
0
 62
     7
100
AcDbText
 10
30.56536100380196
 20
8.165961840384341
 30
0.0
 40
1.05
  1
- Unfinished Side
100
AcDbText
  0
LINE
  5
43
330
39
100
AcDbEntity
  8
0
100
AcDbLine
 10
25.9704997615305
 20
0.0
 30
0.0
 11
25.9704997615305
 21
12.46470592426129
 31
0.0
  0
ATTDEF
  5
44
330
39
100
AcDbEntity
  8
BALUSTERS
 62
     1
100
AcDbText
 10
41.26016333205519
 20
0.916484150045278
 30
0.0
 40
1.025589599999999
  1

 72
     1
 11
41.26016333205519
 21
0.916484150045278
 31
0.0
100
AcDbAttributeDefinition
  3
ADD CATEGORY NAMES
  2
XXXXXX
 70
     0
  0
ATTDEF
  5
46
330
39
100
AcDbEntity
  8
BALUSTERS
 62
     1
100
AcDbText
 10
21.55372231158242
 20
1.875018704105684
 30
0.0
 40
0.8400000000000002
  1

 72
     2
 11
21.55372231158242
 21
1.875018704105684
 31
0.0
100
AcDbAttributeDefinition
  3
ADD BARCODE TEXT
  2
XXXXXX
 70
     0
  0
LINE
  5
47
330
39
100
AcDbEntity
  8
0
 62
     7
100
AcDbLine
 10
25.9704997615305
 20
12.46470592426129
 30
0.0
 11
0.0
 21
12.46470592426129
 31
0.0
  0
ATTDEF
  5
48
330
39
100
AcDbEntity
  8
BALUSTERS
 62
     1
100
AcDbText
 10
12.85191920549937
 20
3.11796280247222
 30
0.0
 40
6.132000000000001
  1

  7
barcoder
 72
     1
 11
12.85191920549937
 21
3.11796280247222
 31
0.0
100
AcDbAttributeDefinition
  3
ADD BARCODE NUMBER
  2
BARCODE
 70
     0
  0
LINE
  5
49
330
39
100
AcDbEntity
  8
0
 62
     7
100
AcDbLine
 10
56.87404547169354
 20
10.31505184057846
 30
0.0
 11
25.9704997615305
 21
10.31505184057846
 31
0.0
  0
LINE
  5
4A
330
39
100
AcDbEntity
  8
0
 62
     7
100
AcDbLine
 10
56.87404547169354
 20
2.864660228904256
 30
0.0
 11
25.9704997615305
 21
2.864660228904256
 31
0.0
  0
LINE
  5
4B
330
39
100
AcDbEntity
  8
0
 62
     7
100
AcDbLine
 10
56.87404547169354
 20
4.753491724833224
 30
0.0
 11
25.9704997615305
 21
4.753491724833224
 31
0.0
  0
LINE
  5
4C
330
39
100
AcDbEntity
  8
0
100
AcDbLine
 10
92.45878286761296
 20
70.31072004936999
 30
0.0
 11
92.45878286761296
 21
78.84810849484797
 31
0.0
  0
ATTDEF
  5
4D
330
39
100
AcDbEntity
  8
BALUSTERS
 62
     1
100
AcDbText
 10
99.20289126219257
 20
73.40001633244828
 30
0.0
 40
2.079
  1

 72
     1
 11
99.20289126219257
 21
73.40001633244828
 31
0.0
100
AcDbAttributeDefinition
  3
ADD PAGE NUMBER
  2
TS00XX
 70
     0
  0
LINE
  5
4E
330
39
100
AcDbEntity
  8
0
100
AcDbLine
 10
105.9925392881563
 20
70.31072004936999
 30
0.0
 11
92.45878286761296
 21
70.31072004936999
 31
0.0
  0
LINE
  5
4F
330
39
100
AcDbEntity
  8
0
100
AcDbLine
 10
105.9925392881563
 20
78.84810849484797
 30
0.0
 11
0.0
 21
78.84810849484797
 31
0.0
  0
TEXT
  5
50
330
39
100
AcDbEntity
  8
0
 62
     7
100
AcDbText
 10
101.0916707105178
 20
4.784832420392319
 30
0.0
 40
0.8459472656250001
  1
1:1
100
AcDbText
  0
ARC
  5
51
330
39
100
AcDbEntity
  8
0
 62
     7
100
AcDbCircle
 10
92.02173719823599
 20
7.854684255185304
 30
0.0
 40
0.5838368232859321
100
AcDbArc
 50
297.5553548372056
 51
304.8408806463489
  0
LINE
  5
52
330
39
100
AcDbEntity
  8
0
 62
     7
100
AcDbLine
 10
96.44018670993672
 20
6.648784575743377
 30
0.0
 11
95.62662822118033
 21
6.648784575743377
 31
0.0
  0
ARC
  5
53
330
39
100
AcDbEntity
  8
0
 62
     7
100
AcDbCircle
 10
92.02173719823599
 20
7.854684255185304
 30
0.0
 40
0.5838368232859408
100
AcDbArc
 50
304.8408806463489
 51
297.5553548372056
  0
TEXT
  5
54
330
39
100
AcDbEntity
  8
0
 62
     7
100
AcDbText
 10
91.5997577365548
 20
7.487990433787842
 30
0.0
 40
0.7875000000000002
  1
R
  7
ROMANC
 72
     1
 11
92.02565639984959
 21
7.487990433787842
 31
0.0
100
AcDbText
  0
LINE
  5
56
330
39
100
AcDbEntity
  8
0
100
AcDbLine
 10
96.44018670993649
 20
0.0
 30
0.0
 11
96.44018670993695
 21
12.46470592426129
 31
0.0
  0
TEXT
  5
57
330
39
100
AcDbEntity
  8
0
100
AcDbText
 10
57.83820509574335
 20
4.931128255646488
 30
0.0
 40
1.111564440985976
  1
ARCHITECTURAL CONCRETE CO., INC.
 41
1.25
 72
     4
 11
76.69038922088157
 21
5.404193065577089
 31
0.0
100
AcDbText
  0
TEXT
  5
58
330
39
100
AcDbEntity
  8
0
100
AcDbText
 10
64.01730751652124
 20
0.6790765005606179
 30
0.0
 40
0.6552430415498756
  1
PHONE: 1-800-789-4841  FAX : 770-463-2635
 41
1.1875
 72
     4
 11
76.73327742292065
 21
1.005769257279496
 31
0.0
100
AcDbText
  0
TEXT
  5
59
330
39
100
AcDbEntity
  8
0
 62
     7
100
AcDbText
 10
61.23651428794109
 20
7.899354841769707
 30
0.0
 40
3.572100000000002
  1
TannerStone
  7
ROMANC
 72
     1
 11
75.92109734429948
 21
7.899354841769707
 31
0.0
100
AcDbText
  0
TEXT
  5
5A
330
39
100
AcDbEntity
  8
0
100
AcDbText
 10
61.57240842020546
 20
1.964543484004154
 30
0.0
 40
0.6552430415498756
  1
http://TannerStone.com ~ Email:Sales@TannerStone.com 
 41
1.1875
 72
     4
 11
77.08342119362362
 21
2.259193880788984
 31
0.0
100
AcDbText
  0
TEXT
  5
5B
330
39
100
AcDbEntity
  8
0
100
AcDbText
 10
59.98363509556096
 20
3.260563711198551
 30
0.0
 40
0.74899296216962
  1
101 JOHNSTON CIRCLE, PALMETTO, GEORGIA 30268
 41
1.1875
 72
     4
 11
76.85158629384147
 21
3.579323650094977
 31
0.0
100
AcDbText
  0
LINE
  5
5C
330
39
100
AcDbEntity
  8
0
100
AcDbLine
 10
56.87404547169354
 20
6.648784575743377
 30
0.0
 11
105.9925392881563
 21
6.648784575743377
 31
0.0
  0
LINE
  5
5D
330
39
100
AcDbEntity
  8
0
 62
     7
100
AcDbLine
 10
96.44018670993682
 20
9.556745250002336
 30
0.0
 11
105.9925392881563
 21
9.556745250002336
 31
0.0
  0
TEXT
  5
5E
330
39
100
AcDbEntity
  8
0
 62
     7
100
AcDbText
 10
96.66995560986686
 20
8.813345575893606
 30
0.0
 40
0.5414062500000001
  1
LBS/LINEAR FEET:
100
AcDbText
  0
LINE
  5
5F
330
39
100
AcDbEntity
  8
LINEWORK
 62
     7
100
AcDbLine
 10
96.40991550469017
 20
3.757904136908962
 30
0.0
 11
105.9622680829099
 21
3.757904136909189
 31
0.0
  0
TEXT
  5
60
330
39
100
AcDbEntity
  8
0
 62
     7
100
AcDbText
 10
98.85330873086445
 20
1.524519923848686
 30
0.0
 40
0.8459472656250001
  1
1-1-2000
100
AcDbText
  0
TEXT
  5
61
330
39
100
AcDbEntity
  8
0
 62
     7
100
AcDbText
 10
96.68542089784603
 20
5.927566558083469
 30
0.0
 40
0.5414062500000001
  1
SCALE:
100
AcDbText
  0
TEXT
  5
62
330
39
100
AcDbEntity
  8
0
 62
     7
100
AcDbText
 10
96.74158717246577
 20
2.97910930546476
 30
0.0
 40
0.5414062500000001
  1
DATE:
100
AcDbText
  0
TEXT
  5
63
330
39
100
AcDbEntity
  8
0
 62
     7
100
AcDbText
 10
96.70022651293084
 20
11.66518473255649
 30
0.0
 40
0.5414062500000001
  1
PROFILE AREA:
100
AcDbText
  0
ATTDEF
  5
64
330
39
100
AcDbEntity
  8
BALUSTERS
 62
     1
100
AcDbText
 10
101.1759733039033
 20
10.07900441527107
 30
0.0
 40
0.9450000000000002
  1

 72
     1
 11
101.1759733039033
 21
10.07900441527107
 31
0.0
100
AcDbAttributeDefinition
  3
ADD PROFILE AREA
  2
XXXXX
 70
     0
  0
ATTDEF
  5
65
330
39
100
AcDbEntity
  8
BALUSTERS
 62
     1
100
AcDbText
 10
101.1418062311347
 20
7.21953861551384
 30
0.0
 40
0.9450000000000002
  1

 72
     1
 11
101.1418062311347
 21
7.21953861551384
 31
0.0
100
AcDbAttributeDefinition
  3
ADD #/LF
  2
XXXXX
 70
     0
  0
LINE
  5
66
330
39
100
AcDbEntity
  8
0
100
AcDbLine
 10
25.9704997615305
 20
12.46470592426129
 30
0.0
 11
105.9925392881563
 21
12.46470592426129
 31
0.0
  0
ENDBLK
  5
68
330
39
100
AcDbEntity
  8
0
 62
     7
100
AcDbBlockEnd
  0
BLOCK
  5
63F
330
634
100
AcDbEntity
  8
0
 62
     7
100
AcDbBlockBegin
  2
*D2
 70
     1
 10
0.0
 20
0.0
 30
0.0
  3
*D2
  1

  0
LINE
  5
7EA
330
634
100
AcDbEntity
  8
DIM
 62
     0
100
AcDbLine
 10
77.84251495381579
 20
53.95024148385093
 30
0.0
 11
77.84251495381579
 21
48.06153344881854
 31
0.0
  0
LINE
  5
7EB
330
634
100
AcDbEntity
  8
DIM
 62
     0
100
AcDbLine
 10
85.21751495381579
 20
53.95024148385093
 30
0.0
 11
85.21751495381579
 21
48.06153344881854
 31
0.0
  0
LINE
  5
7EC
330
634
100
AcDbEntity
  8
DIM
 62
     0
100
AcDbLine
 10
79.04251495381579
 20
48.66153344881855
 30
0.0
 11
84.0175149538158
 21
48.66153344881855
 31
0.0
  0
LINE
  5
7ED
330
634
100
AcDbEntity
  8
DIM
 62
     0
100
AcDbLine
 10
87.21246675421339
 20
48.66153344881855
 30
0.0
 11
85.21751495381579
 21
48.66153344881855
 31
0.0
  0
MTEXT
  5
7EE
330
634
100
AcDbEntity
  8
DIM
 62
     0
100
AcDbMText
 10
93.86902238851531
 20
48.66153344881855
 30
0.0
 40
2.399999999999999
 41
0.0
 71
     5
 72
     1
  1
\A1;7 3/8"
 73
     1
 44
1.0
  0
SOLID
  5
7EF
330
634
100
AcDbEntity
  8
DIM
 62
     0
100
AcDbTrace
 10
79.04251495381579
 20
48.86153344881854
 30
0.0
 11
79.04251495381579
 21
48.46153344881854
 31
0.0
 12
77.84251495381579
 22
48.66153344881855
 32
0.0
 13
77.84251495381579
 23
48.66153344881855
 33
0.0
  0
SOLID
  5
7F0
330
634
100
AcDbEntity
  8
DIM
 62
     0
100
AcDbTrace
 10
84.0175149538158
 20
48.86153344881854
 30
0.0
 11
84.0175149538158
 21
48.46153344881854
 31
0.0
 12
85.21751495381579
 22
48.66153344881855
 32
0.0
 13
85.21751495381579
 23
48.66153344881855
 33
0.0
  0
POINT
  5
7F1
330
634
100
AcDbEntity
  8
Defpoints
 62
     0
100
AcDbPoint
 10
77.84251495381579
 20
56.35024148385094
 30
0.0
  0
POINT
  5
7F2
330
634
100
AcDbEntity
  8
Defpoints
 62
     0
100
AcDbPoint
 10
85.21751495381579
 20
56.35024148385094
 30
0.0
  0
POINT
  5
7F3
330
634
100
AcDbEntity
  8
Defpoints
 62
     0
100
AcDbPoint
 10
85.21751495381579
 20
48.66153344881855
 30
0.0
  0
ENDBLK
  5
640
330
634
100
AcDbEntity
  8
0
 62
     7
100
AcDbBlockEnd
  0
BLOCK
  5
64C
330
641
100
AcDbEntity
  8
0
 62
     7
100
AcDbBlockBegin
  2
*D3
 70
     1
 10
0.0
 20
0.0
 30
0.0
  3
*D3
  1

  0
LINE
  5
7F4
330
641
100
AcDbEntity
  8
DIM
 62
     0
100
AcDbLine
 10
67.09251495381579
 20
51.76524148385099
 30
0.0
 11
67.09251495381579
 21
41.5729459303973
 31
0.0
  0
LINE
  5
7F5
330
641
100
AcDbEntity
  8
DIM
 62
     0
100
AcDbLine
 10
103.0925149538156
 20
51.76524148385099
 30
0.0
 11
103.0925149538156
 21
41.5729459303973
 31
0.0
  0
LINE
  5
7F6
330
641
100
AcDbEntity
  8
DIM
 62
     0
100
AcDbLine
 10
68.2925149538158
 20
42.1729459303973
 30
0.0
 11
82.14130461771089
 21
42.1729459303973
 31
0.0
  0
LINE
  5
7F7
330
641
100
AcDbEntity
  8
DIM
 62
     0
100
AcDbLine
 10
101.8925149538156
 20
42.1729459303973
 30
0.0
 11
91.03202042210494
 21
42.1729459303973
 31
0.0
  0
MTEXT
  5
7F8
330
641
100
AcDbEntity
  8
DIM
 62
     0
100
AcDbMText
 10
86.58666251990792
 20
42.1729459303973
 30
0.0
 40
2.399999999999999
 41
0.0
 71
     5
 72
     1
  1
\A1;36"
 73
     1
 44
1.0
  0
SOLID
  5
7F9
330
641
100
AcDbEntity
  8
DIM
 62
     0
100
AcDbTrace
 10
68.2925149538158
 20
42.3729459303973
 30
0.0
 11
68.2925149538158
 21
41.9729459303973
 31
0.0
 12
67.09251495381579
 22
42.1729459303973
 32
0.0
 13
67.09251495381579
 23
42.1729459303973
 33
0.0
  0
SOLID
  5
7FA
330
641
100
AcDbEntity
  8
DIM
 62
     0
100
AcDbTrace
 10
101.8925149538156
 20
42.3729459303973
 30
0.0
 11
101.8925149538156
 21
41.9729459303973
 31
0.0
 12
103.0925149538156
 22
42.1729459303973
 32
0.0
 13
103.0925149538156
 23
42.1729459303973
 33
0.0
  0
POINT
  5
7FB
330
641
100
AcDbEntity
  8
Defpoints
 62
     0
100
AcDbPoint
 10
67.09251495381579
 20
54.16524148385099
 30
0.0
  0
POINT
  5
7FC
330
641
100
AcDbEntity
  8
Defpoints
 62
     0
100
AcDbPoint
 10
103.0925149538156
 20
54.16524148385099
 30
0.0
  0
POINT
  5
7FD
330
641
100
AcDbEntity
  8
Defpoints
 62
     0
100
AcDbPoint
 10
103.0925149538156
 20
42.1729459303973
 30
0.0
  0
ENDBLK
  5
64D
330
641
100
AcDbEntity
  8
0
 62
     7
100
AcDbBlockEnd
  0
BLOCK
  5
659
330
64E
100
AcDbEntity
  8
0
 62
     7
100
AcDbBlockBegin
  2
*D4
 70
     1
 10
0.0
 20
0.0
 30
0.0
  3
*D4
  1

  0
LINE
  5
7FE
330
64E
100
AcDbEntity
  8
DIM
 62
     0
100
AcDbLine
 10
148.4736352834348
 20
53.79024148385122
 30
0.0
 11
161.8867029785429
 21
53.79024148385122
 31
0.0
  0
LINE
  5
7FF
330
64E
100
AcDbEntity
  8
DIM
 62
     0
100
AcDbLine
 10
148.417009895316
 20
89.59024148385095
 30
0.0
 11
161.8867029785429
 21
89.59024148385093
 31
0.0
  0
LINE
  5
800
330
64E
100
AcDbEntity
  8
DIM
 62
     0
100
AcDbLine
 10
161.2867029785429
 20
54.99024148385122
 30
0.0
 11
161.2867029785429
 21
68.83097298718691
 31
0.0
  0
LINE
  5
801
330
64E
100
AcDbEntity
  8
DIM
 62
     0
100
AcDbLine
 10
161.2867029785429
 20
88.39024148385092
 30
0.0
 11
161.2867029785429
 21
73.72112181780351
 31
0.0
  0
MTEXT
  5
802
330
64E
100
AcDbEntity
  8
DIM
 62
     0
100
AcDbMText
 10
161.2867029785429
 20
71.27604740249523
 30
0.0
 40
2.399999999999999
 41
0.0
 71
     5
 72
     1
  1
\A1;36"
 73
     1
 44
1.0
  0
SOLID
  5
803
330
64E
100
AcDbEntity
  8
DIM
 62
     0
100
AcDbTrace
 10
161.0867029785429
 20
54.99024148385122
 30
0.0
 11
161.4867029785429
 21
54.99024148385122
 31
0.0
 12
161.2867029785429
 22
53.79024148385122
 32
0.0
 13
161.2867029785429
 23
53.79024148385122
 33
0.0
  0
SOLID
  5
804
330
64E
100
AcDbEntity
  8
DIM
 62
     0
100
AcDbTrace
 10
161.0867029785429
 20
88.39024148385092
 30
0.0
 11
161.4867029785429
 21
88.39024148385092
 31
0.0
 12
161.2867029785429
 22
89.59024148385093
 32
0.0
 13
161.2867029785429
 23
89.59024148385093
 33
0.0
  0
POINT
  5
805
330
64E
100
AcDbEntity
  8
Defpoints
 62
     0
100
AcDbPoint
 10
146.0736352834347
 20
53.79024148385122
 30
0.0
  0
POINT
  5
806
330
64E
100
AcDbEntity
  8
Defpoints
 62
     0
100
AcDbPoint
 10
146.017009895316
 20
89.59024148385095
 30
0.0
  0
POINT
  5
807
330
64E
100
AcDbEntity
  8
Defpoints
 62
     0
100
AcDbPoint
 10
161.2867029785429
 20
89.59024148385093
 30
0.0
  0
ENDBLK
  5
65A
330
64E
100
AcDbEntity
  8
0
 62
     7
100
AcDbBlockEnd
  0
BLOCK
  5
666
330
65B
100
AcDbEntity
  8
0
 62
     7
100
AcDbBlockBegin
  2
*D5
 70
     1
 10
0.0
 20
0.0
 30
0.0
  3
*D5
  1

  0
LINE
  5
808
330
65B
100
AcDbEntity
  8
DIM
 62
     0
100
AcDbLine
 10
116.0346143811771
 20
58.16524148385099
 30
0.0
 11
120.5856095701193
 21
58.16524148385099
 31
0.0
  0
LINE
  5
809
330
65B
100
AcDbEntity
  8
DIM
 62
     0
100
AcDbLine
 10
116.0325132557625
 20
84.91524148385099
 30
0.0
 11
120.5856095701193
 21
84.91524148385099
 31
0.0
  0
LINE
  5
80A
330
65B
100
AcDbEntity
  8
DIM
 62
     0
100
AcDbLine
 10
119.9856095701193
 20
59.365241483851
 30
0.0
 11
119.9856095701193
 21
68.84001919801697
 31
0.0
  0
LINE
  5
80B
330
65B
100
AcDbEntity
  8
DIM
 62
     0
100
AcDbLine
 10
119.9856095701193
 20
83.71524148385098
 30
0.0
 11
119.9856095701193
 21
73.8560362072303
 31
0.0
  0
MTEXT
  5
80C
330
65B
100
AcDbEntity
  8
DIM
 62
     0
100
AcDbMText
 10
119.9856095701193
 20
71.34802770262365
 30
0.0
 40
2.399999999999999
 41
0.0
 71
     5
 72
     1
  1
\A1;26 3/4"
 73
     1
 44
1.0
  0
SOLID
  5
80D
330
65B
100
AcDbEntity
  8
DIM
 62
     0
100
AcDbTrace
 10
119.7856095701193
 20
59.365241483851
 30
0.0
 11
120.1856095701193
 21
59.365241483851
 31
0.0
 12
119.9856095701193
 22
58.16524148385099
 32
0.0
 13
119.9856095701193
 23
58.16524148385099
 33
0.0
  0
SOLID
  5
80E
330
65B
100
AcDbEntity
  8
DIM
 62
     0
100
AcDbTrace
 10
119.7856095701193
 20
83.71524148385098
 30
0.0
 11
120.1856095701193
 21
83.71524148385098
 31
0.0
 12
119.9856095701193
 22
84.91524148385099
 32
0.0
 13
119.9856095701193
 23
84.91524148385099
 33
0.0
  0
POINT
  5
80F
330
65B
100
AcDbEntity
  8
Defpoints
 62
     0
100
AcDbPoint
 10
113.6346143811771
 20
58.16524148385099
 30
0.0
  0
POINT
  5
810
330
65B
100
AcDbEntity
  8
Defpoints
 62
     0
100
AcDbPoint
 10
113.6325132557625
 20
84.91524148385099
 30
0.0
  0
POINT
  5
811
330
65B
100
AcDbEntity
  8
Defpoints
 62
     0
100
AcDbPoint
 10
119.9856095701193
 20
84.91524148385099
 30
0.0
  0
ENDBLK
  5
667
330
65B
100
AcDbEntity
  8
0
 62
     7
100
AcDbBlockEnd
  0
BLOCK
  5
687
330
67A
100
AcDbEntity
  8
0
 62
     7
100
AcDbBlockBegin
  2
*D6
 70
     1
 10
0.0
 20
0.0
 30
0.0
  3
*D6
  1

  0
LINE
  5
812
330
67A
100
AcDbEntity
  8
TEXT
 62
     0
100
AcDbLine
 10
136.2636352834341
 20
51.76524148385099
 30
0.0
 11
136.2636352834341
 21
44.8142738365632
 31
0.0
  0
LINE
  5
813
330
67A
100
AcDbEntity
  8
TEXT
 62
     0
100
AcDbLine
 10
143.8836352834341
 20
51.76524148385122
 30
0.0
 11
143.8836352834341
 21
44.8142738365632
 31
0.0
  0
LINE
  5
814
330
67A
100
AcDbEntity
  8
TEXT
 62
     0
100
AcDbLine
 10
137.4636352834341
 20
45.41427383656321
 30
0.0
 11
142.6836352834341
 21
45.41427383656321
 31
0.0
  0
LINE
  5
815
330
67A
100
AcDbEntity
  8
TEXT
 62
     0
100
AcDbLine
 10
149.569587507359
 20
45.41427383656321
 30
0.0
 11
143.8836352834341
 21
45.41427383656321
 31
0.0
  0
MTEXT
  5
816
330
67A
100
AcDbEntity
  8
TEXT
 62
     0
100
AcDbMText
 10
156.226143141661
 20
45.41427383656321
 30
0.0
 40
2.399999999999999
 41
0.0
 71
     5
 72
     1
  1
\A1;7 5/8"
 73
     1
 44
1.0
  0
SOLID
  5
817
330
67A
100
AcDbEntity
  8
TEXT
 62
     0
100
AcDbTrace
 10
137.4636352834341
 20
45.61427383656321
 30
0.0
 11
137.4636352834341
 21
45.21427383656321
 31
0.0
 12
136.2636352834341
 22
45.41427383656321
 32
0.0
 13
136.2636352834341
 23
45.41427383656321
 33
0.0
  0
SOLID
  5
818
330
67A
100
AcDbEntity
  8
TEXT
 62
     0
100
AcDbTrace
 10
142.6836352834341
 20
45.61427383656321
 30
0.0
 11
142.6836352834341
 21
45.21427383656321
 31
0.0
 12
143.8836352834341
 22
45.41427383656321
 32
0.0
 13
143.8836352834341
 23
45.41427383656321
 33
0.0
  0
POINT
  5
819
330
67A
100
AcDbEntity
  8
Defpoints
 62
     0
100
AcDbPoint
 10
136.2636352834341
 20
54.16524148385099
 30
0.0
  0
POINT
  5
81A
330
67A
100
AcDbEntity
  8
Defpoints
 62
     0
100
AcDbPoint
 10
143.8836352834341
 20
54.16524148385121
 30
0.0
  0
POINT
  5
81B
330
67A
100
AcDbEntity
  8
Defpoints
 62
     0
100
AcDbPoint
 10
143.8836352834341
 20
45.41427383656321
 30
0.0
  0
ENDBLK
  5
688
330
67A
100
AcDbEntity
  8
0
 62
     7
100
AcDbBlockEnd
  0
BLOCK
  5
697
330
68A
100
AcDbEntity
  8
0
 62
     7
100
AcDbBlockBegin
  2
*D7
 70
     1
 10
0.0
 20
0.0
 30
0.0
  3
*D7
  1

  0
LINE
  5
81C
330
68A
100
AcDbEntity
  8
TEXT
 62
     0
100
AcDbLine
 10
146.1986352834343
 20
91.1652414838509
 30
0.0
 11
146.1986352834343
 21
97.5685261031098
 31
0.0
  0
LINE
  5
81D
330
68A
100
AcDbEntity
  8
TEXT
 62
     0
100
AcDbLine
 10
133.9486352834333
 20
91.1652414838509
 30
0.0
 11
133.9486352834333
 21
97.5685261031098
 31
0.0
  0
LINE
  5
81E
330
68A
100
AcDbEntity
  8
TEXT
 62
     0
100
AcDbLine
 10
144.9986352834343
 20
96.96852610310982
 30
0.0
 11
135.1486352834333
 21
96.96852610310982
 31
0.0
  0
LINE
  5
81F
330
68A
100
AcDbEntity
  8
TEXT
 62
     0
100
AcDbLine
 10
152.1283386383966
 20
96.96852610310982
 30
0.0
 11
146.1986352834343
 21
96.96852610310982
 31
0.0
  0
MTEXT
  5
820
330
68A
100
AcDbEntity
  8
TEXT
 62
     0
100
AcDbMText
 10
159.6753265902038
 20
96.96852610310982
 30
0.0
 40
2.399999999999999
 41
0.0
 71
     5
 72
     1
  1
\A1;12 1/4"
 73
     1
 44
1.0
  0
SOLID
  5
821
330
68A
100
AcDbEntity
  8
TEXT
 62
     0
100
AcDbTrace
 10
144.9986352834343
 20
97.16852610310981
 30
0.0
 11
144.9986352834343
 21
96.7685261031098
 31
0.0
 12
146.1986352834343
 22
96.96852610310982
 32
0.0
 13
146.1986352834343
 23
96.96852610310982
 33
0.0
  0
SOLID
  5
822
330
68A
100
AcDbEntity
  8
TEXT
 62
     0
100
AcDbTrace
 10
135.1486352834333
 20
97.16852610310981
 30
0.0
 11
135.1486352834333
 21
96.7685261031098
 31
0.0
 12
133.9486352834333
 22
96.96852610310982
 32
0.0
 13
133.9486352834333
 23
96.96852610310982
 33
0.0
  0
POINT
  5
823
330
68A
100
AcDbEntity
  8
Defpoints
 62
     0
100
AcDbPoint
 10
146.1986352834343
 20
88.7652414838509
 30
0.0
  0
POINT
  5
824
330
68A
100
AcDbEntity
  8
Defpoints
 62
     0
100
AcDbPoint
 10
133.9486352834333
 20
88.7652414838509
 30
0.0
  0
POINT
  5
825
330
68A
100
AcDbEntity
  8
Defpoints
 62
     0
100
AcDbPoint
 10
133.9486352834333
 20
96.96852610310982
 30
0.0
  0
ENDBLK
  5
698
330
68A
100
AcDbEntity
  8
0
 62
     7
100
AcDbBlockEnd
  0
BLOCK
  5
6A5
330
69A
100
AcDbEntity
  8
0
 62
     7
100
AcDbBlockBegin
  2
*D8
 70
     1
 10
0.0
 20
0.0
 30
0.0
  3
*D8
  1

  0
LINE
  5
826
330
69A
100
AcDbEntity
  8
TEXT
 62
     0
100
AcDbLine
 10
145.3599915334341
 20
58.5402414838511
 30
0.0
 11
152.5557249724346
 21
58.5402414838511
 31
0.0
  0
LINE
  5
827
330
69A
100
AcDbEntity
  8
TEXT
 62
     0
100
AcDbLine
 10
145.3599915334341
 20
84.5402414838511
 30
0.0
 11
152.5557249724346
 21
84.5402414838511
 31
0.0
  0
LINE
  5
828
330
69A
100
AcDbEntity
  8
TEXT
 62
     0
100
AcDbLine
 10
151.9557249724346
 20
59.7402414838511
 30
0.0
 11
151.9557249724346
 21
68.91051120218694
 31
0.0
  0
LINE
  5
829
330
69A
100
AcDbEntity
  8
TEXT
 62
     0
100
AcDbLine
 10
151.9557249724346
 20
83.34024148385109
 30
0.0
 11
151.9557249724346
 21
73.80066003280354
 31
0.0
  0
MTEXT
  5
82A
330
69A
100
AcDbEntity
  8
TEXT
 62
     0
100
AcDbMText
 10
151.9557249724346
 20
71.35558561749525
 30
0.0
 40
2.399999999999999
 41
0.0
 71
     5
 72
     1
  1
\A1;26"
 73
     1
 44
1.0
  0
SOLID
  5
82B
330
69A
100
AcDbEntity
  8
TEXT
 62
     0
100
AcDbTrace
 10
151.7557249724346
 20
59.7402414838511
 30
0.0
 11
152.1557249724346
 21
59.7402414838511
 31
0.0
 12
151.9557249724346
 22
58.5402414838511
 32
0.0
 13
151.9557249724346
 23
58.5402414838511
 33
0.0
  0
SOLID
  5
82C
330
69A
100
AcDbEntity
  8
TEXT
 62
     0
100
AcDbTrace
 10
151.7557249724346
 20
83.34024148385109
 30
0.0
 11
152.1557249724346
 21
83.34024148385109
 31
0.0
 12
151.9557249724346
 22
84.5402414838511
 32
0.0
 13
151.9557249724346
 23
84.5402414838511
 33
0.0
  0
POINT
  5
82D
330
69A
100
AcDbEntity
  8
Defpoints
 62
     0
100
AcDbPoint
 10
142.9599915334341
 20
58.54024148385111
 30
0.0
  0
POINT
  5
82E
330
69A
100
AcDbEntity
  8
Defpoints
 62
     0
100
AcDbPoint
 10
142.9599915334341
 20
84.5402414838511
 30
0.0
  0
POINT
  5
82F
330
69A
100
AcDbEntity
  8
Defpoints
 62
     0
100
AcDbPoint
 10
151.9557249724346
 20
84.5402414838511
 30
0.0
  0
ENDBLK
  5
6A6
330
69A
100
AcDbEntity
  8
0
 62
     7
100
AcDbBlockEnd
  0
ENDSEC
  0
SECTION
  2
ENTITIES
  0
ATTDEF
  5
29
330
2
100
AcDbEntity
  8
leaders
 62
     1
370
    30
100
AcDbText
 10
21.99244824859465
 20
50.94171797808349
 30
0.0
 40
2.879999999999999
  1

100
AcDbAttributeDefinition
  3
ADD LINK NUMBER (WMF)
  2
TS0995
 70
     0
  0
ATTDEF
  5
2B
330
2
100
AcDbEntity
  8
leaders
 62
     1
370
    30
100
AcDbText
 10
22.22079936205409
 20
63.03653371939617
 30
0.0
 40
2.879999999999999
  1

100
AcDbAttributeDefinition
  3
ADD LINK NUMBER (WMF)
  2
TS1618
 70
     0
  0
ATTDEF
  5
2C
330
2
100
AcDbEntity
  8
leaders
 62
     1
370
    30
100
AcDbText
 10
22.22079936205409
 20
85.74788805690308
 30
0.0
 40
2.879999999999999
  1

100
AcDbAttributeDefinition
  3
ADD LINK NUMBER (WMF)
  2
TS1157
 70
     0
  0
ATTDEF
  5
2D
330
2
100
AcDbEntity
  8
leaders
 62
     1
370
    30
100
AcDbText
 10
20.63782274950779
 20
38.9959169741154
 30
0.0
 40
2.879999999999999
  1

100
AcDbAttributeDefinition
  3
ADD LINK NUMBER (WMF)
  2
TS054M
 70
     0
  0
ATTDEF
  5
2E
330
2
100
AcDbEntity
  8
leaders
 62
     1
370
    30
100
AcDbText
 10
22.05615058453031
 20
110.4341416478243
 30
0.0
 40
2.879999999999999
  1

100
AcDbAttributeDefinition
  3
ADD LINK NUMBER (WMF)
  2
TS0175
 70
     0
  0
INSERT
  5
2F
330
2
100
AcDbEntity
  8
LINEWORK
 62
     7
370
    13
100
AcDbBlockReference
 66
     1
  2
TSFORMB
 10
2.671883258688907
 20
2.12099696810975
 30
0.0
 41
1.658700000000035
 42
1.658700000000035
 43
1.658699999999999
  0
ATTRIB
  5
30
330
2F
100
AcDbEntity
  8
A1
 62
     1
100
AcDbText
 10
57.45031591558324
 20
3.641169227789902
 30
0.0
 40
1.701145469519999
  1
BALUSTRADE 4" CODE
 72
     1
 11
71.11011617756878
 21
3.641169227789902
 31
0.0
100
AcDbAttribute
  2
XXXXXX
 70
     0
  0
ATTRIB
  5
32
330
2F
100
AcDbEntity
  8
A1
 62
     1
100
AcDbText
 10
30.77811649234658
 20
5.231090492609851
 30
0.0
 40
1.393308
  1
TSB004
 72
     2
 11
38.42304245691073
 21
5.231090492609851
 31
0.0
100
AcDbAttribute
  2
XXXXXX
 70
     0
  0
ATTRIB
  5
33
330
2F
100
AcDbEntity
  8
A1
 62
     1
100
AcDbText
 10
13.94535259985065
 20
7.292761868570494
 30
0.0
 40
10.1711484
  1
TSB004
  7
barcoder
 72
     1
 11
23.98936164485065
 21
7.292761868570494
 31
0.0
100
AcDbAttribute
  2
BARCODE
 70
     0
  0
ATTRIB
  5
35
330
2F
100
AcDbEntity
  8
A1
 62
     1
100
AcDbText
 10
157.7591231141396
 20
123.8696040587417
 30
0.0
 40
3.448437300000001
  1
TSB004
 72
     1
 11
167.2197189952877
 21
123.8696040587417
 31
0.0
100
AcDbAttribute
  2
TS00XX
 70
     0
  0
ATTRIB
  5
36
330
2F
100
AcDbEntity
  8
A1
 62
     1
100
AcDbText
 10
170.4924701778734
 20
18.83904159171989
 30
0.0
 40
1.5674715
  1

 72
     1
 11
170.4924701778734
 21
18.83904159171989
 31
0.0
100
AcDbAttribute
  2
XXXXX
 70
     0
  0
ATTRIB
  5
37
330
2F
100
AcDbEntity
  8
A1
 62
     1
100
AcDbText
 10
170.435797254272
 20
14.09604566966254
 30
0.0
 40
1.5674715
  1

 72
     1
 11
170.435797254272
 21
14.09604566966254
 31
0.0
100
AcDbAttribute
  2
XXXXX
 70
     0
  0
SEQEND
  5
69
330
2F
100
AcDbEntity
  8
LINEWORK
 62
     7
  0
LINE
  5
6A
330
2
100
AcDbEntity
  8
leaders
 62
     1
370
    30
100
AcDbLine
 10
99.15671657177552
 20
90.70128785496434
 30
0.0
 11
107.9657821867721
 21
112.2874713893969
 31
0.0
  0
LINE
  5
6B
330
2
100
AcDbEntity
  8
LINEWORK
 62
     7
370
    30
100
AcDbLine
 10
109.0889696413157
 20
76.86232898385094
 30
0.0
 11
107.3425149538156
 21
76.86232898385094
 31
0.0
  0
LINE
  5
6C
330
2
100
AcDbEntity
  8
LINEWORK
 62
     7
370
    30
100
AcDbLine
 10
107.3425149538156
 20
76.73683523385091
 30
0.0
 11
108.9634758913157
 21
76.73683523385091
 31
0.0
  0
LINE
  5
6D
330
2
100
AcDbEntity
  8
LINEWORK
 62
     7
370
    30
100
AcDbLine
 10
107.3425149538156
 20
77.61529148385102
 30
0.0
 11
109.0889696413157
 21
77.61529148385102
 31
0.0
  0
LINE
  5
6E
330
2
100
AcDbEntity
  8
LINEWORK
 62
     7
370
    30
100
AcDbLine
 10
107.3425149538156
 20
76.86232898385094
 30
0.0
 11
109.0889696413157
 21
76.86232898385094
 31
0.0
  0
LINE
  5
6F
330
2
100
AcDbEntity
  8
LINEWORK
 62
     7
370
    30
100
AcDbLine
 10
109.0889696413157
 20
77.61529148385102
 30
0.0
 11
107.3425149538156
 21
77.61529148385102
 31
0.0
  0
LINE
  5
70
330
2
100
AcDbEntity
  8
LINEWORK
 62
     7
370
    30
100
AcDbLine
 10
108.9634758913157
 20
76.73683523385114
 30
0.0
 11
107.3425149538156
 21
76.73683523385091
 31
0.0
  0
LINE
  5
71
330
2
100
AcDbEntity
  8
LINEWORK
 62
     7
370
    30
100
AcDbLine
 10
107.3425149538156
 20
78.74473523385097
 30
0.0
 11
109.0889696413157
 21
78.74473523385097
 31
0.0
  0
LINE
  5
72
330
2
100
AcDbEntity
  8
LINEWORK
 62
     7
370
    30
100
AcDbLine
 10
107.3425149538156
 20
79.99967273385107
 30
0.0
 11
109.0889696413157
 21
79.99967273385107
 31
0.0
  0
LINE
  5
73
330
2
100
AcDbEntity
  8
LINEWORK
 62
     7
370
    30
100
AcDbLine
 10
107.3425149538156
 20
79.99967273385107
 30
0.0
 11
109.0889696413157
 21
79.99967273385107
 31
0.0
  0
LINE
  5
74
330
2
100
AcDbEntity
  8
LINEWORK
 62
     7
370
    30
100
AcDbLine
 10
109.0889696413157
 20
80.62714148385101
 30
0.0
 11
107.3425149538156
 21
80.62714148385101
 31
0.0
  0
LINE
  5
75
330
2
100
AcDbEntity
  8
LINEWORK
 62
     7
370
    30
100
AcDbLine
 10
107.3425149538156
 20
80.62714148385101
 30
0.0
 11
109.0889696413157
 21
80.62714148385101
 31
0.0
  0
LINE
  5
76
330
2
100
AcDbEntity
  8
LINEWORK
 62
     7
370
    30
100
AcDbLine
 10
107.3425149538156
 20
62.80702898385095
 30
0.0
 11
109.5386555788156
 21
62.80702898385095
 31
0.0
  0
LINE
  5
77
330
2
100
AcDbEntity
  8
LINEWORK
 62
     7
370
    30
100
AcDbLine
 10
107.3425149538156
 20
62.80702898385107
 30
0.0
 11
109.5386555788157
 21
62.80702898385107
 31
0.0
  0
LINE
  5
78
330
2
100
AcDbEntity
  8
LINEWORK
 62
     7
370
    30
100
AcDbLine
 10
107.3425149538156
 20
66.57184148385102
 30
0.0
 11
108.8379821413157
 21
66.57184148385102
 31
0.0
  0
LINE
  5
79
330
2
100
AcDbEntity
  8
LINEWORK
 62
     7
370
    30
100
AcDbLine
 10
107.3425149538156
 20
66.57184148385102
 30
0.0
 11
108.8379821413157
 21
66.57184148385102
 31
0.0
  0
LINE
  5
7A
330
2
100
AcDbEntity
  8
LINEWORK
 62
     7
370
    30
100
AcDbLine
 10
107.3425149538156
 20
65.56789148385099
 30
0.0
 11
108.8379821413157
 21
65.56789148385099
 31
0.0
  0
LINE
  5
7B
330
2
100
AcDbEntity
  8
LINEWORK
 62
     7
370
    30
100
AcDbLine
 10
108.8379821413157
 20
65.56789148385099
 30
0.0
 11
107.3425149538156
 21
65.56789148385099
 31
0.0
  0
LINE
  5
7C
330
2
100
AcDbEntity
  8
LINEWORK
 62
     7
370
    30
100
AcDbLine
 10
107.3425149538156
 20
63.43449773385088
 30
0.0
 11
109.5386555788156
 21
63.43449773385088
 31
0.0
  0
LINE
  5
7D
330
2
100
AcDbEntity
  8
LINEWORK
 62
     7
370
    30
100
AcDbLine
 10
109.5386555788156
 20
63.43449773385112
 30
0.0
 11
107.3425149538156
 21
63.43449773385112
 31
0.0
  0
LINE
  5
7E
330
2
100
AcDbEntity
  8
LINEWORK
 62
     7
370
    30
100
AcDbLine
 10
103.4675149538157
 20
85.46524148385094
 30
0.0
 11
113.3550676627866
 21
85.46524148385094
 31
0.0
  0
LINE
  5
7F
330
2
100
AcDbEntity
  8
LINEWORK
 62
     7
370
    30
100
AcDbLine
 10
103.4675149538156
 20
86.0152414838509
 30
0.0
 11
113.1526626750993
 21
86.0152414838509
 31
0.0
  0
LINE
  5
80
330
2
100
AcDbEntity
  8
LINEWORK
 62
     7
370
    30
100
AcDbLine
 10
103.4675149538157
 20
88.7652414838509
 30
0.0
 11
113.348140251576
 21
88.7652414838509
 31
0.0
  0
LINE
  5
81
330
2
100
AcDbEntity
  8
LINEWORK
 62
     7
370
    30
100
AcDbLine
 10
103.4675149538157
 20
87.80274148385093
 30
0.0
 11
113.1039191195285
 21
87.80274148385093
 31
0.0
  0
LINE
  5
82
330
2
100
AcDbEntity
  8
LINEWORK
 62
     7
370
    30
100
AcDbLine
 10
103.4675149538157
 20
89.59024148385095
 30
0.0
 11
113.5574726504738
 21
89.59024148385095
 31
0.0
  0
LINE
  5
83
330
2
100
AcDbEntity
  8
LINEWORK
 62
     7
370
    30
100
AcDbLine
 10
103.4675149538157
 20
84.91524148385099
 30
0.0
 11
113.5574726504738
 21
84.91524148385099
 31
0.0
  0
LINE
  5
84
330
2
100
AcDbEntity
  8
LINEWORK
 62
     7
370
    30
100
AcDbLine
 10
107.3425149538156
 20
61.05011648385096
 30
0.0
 11
110.2288712038157
 21
61.05011648385096
 31
0.0
  0
LINE
  5
85
330
2
100
AcDbEntity
  8
LINEWORK
 62
     7
370
    30
100
AcDbLine
 10
110.2288712038157
 20
61.05011648385096
 30
0.0
 11
107.3425149538156
 21
61.05011648385096
 31
0.0
  0
LINE
  5
86
330
2
100
AcDbEntity
  8
LINEWORK
 62
     7
370
    30
100
AcDbLine
 10
107.3425149538156
 20
61.42659773385105
 30
0.0
 11
109.6641493288157
 21
61.42659773385105
 31
0.0
  0
LINE
  5
87
330
2
100
AcDbEntity
  8
LINEWORK
 62
     7
370
    30
100
AcDbLine
 10
107.3425149538156
 20
61.17561023385099
 30
0.0
 11
109.6641493288157
 21
61.17561023385099
 31
0.0
  0
LINE
  5
88
330
2
100
AcDbEntity
  8
LINEWORK
 62
     7
370
    30
100
AcDbLine
 10
109.6641493288157
 20
61.42659773385105
 30
0.0
 11
107.3425149538156
 21
61.42659773385105
 31
0.0
  0
LINE
  5
89
330
2
100
AcDbEntity
  8
LINEWORK
 62
     7
370
    30
100
AcDbLine
 10
109.6641493288157
 20
61.17561023385099
 30
0.0
 11
107.3425149538156
 21
61.17561023385099
 31
0.0
  0
LINE
  5
8A
330
2
100
AcDbEntity
  8
LINEWORK
 62
     7
370
    30
100
AcDbLine
 10
110.2288712038157
 20
84.540241483851
 30
0.0
 11
104.4561587038157
 21
84.540241483851
 31
0.0
  0
LINE
  5
8B
330
2
100
AcDbEntity
  8
LINEWORK
 62
     7
370
    30
100
AcDbLine
 10
107.3425149538156
 20
82.38405398385101
 30
0.0
 11
110.2288712038157
 21
82.38405398385101
 31
0.0
  0
LINE
  5
8C
330
2
100
AcDbEntity
  8
LINEWORK
 62
     7
370
    30
100
AcDbLine
 10
107.3425149538156
 20
82.38405398385101
 30
0.0
 11
110.2288712038157
 21
82.38405398385101
 31
0.0
  0
LINE
  5
8D
330
2
100
AcDbEntity
  8
LINEWORK
 62
     7
370
    30
100
AcDbLine
 10
110.1556665163156
 20
82.25856023385109
 30
0.0
 11
107.3425149538156
 21
82.25856023385096
 31
0.0
  0
LINE
  5
8E
330
2
100
AcDbEntity
  8
LINEWORK
 62
     7
370
    30
100
AcDbLine
 10
107.3425149538156
 20
82.25856023385096
 30
0.0
 11
110.1556665163156
 21
82.25856023385109
 31
0.0
  0
LINE
  5
8F
330
2
100
AcDbEntity
  8
LINEWORK
 62
     7
370
    30
100
AcDbLine
 10
103.4675149538156
 20
58.16524148385099
 30
0.0
 11
113.5595737758884
 21
58.16524148385099
 31
0.0
  0
LINE
  5
90
330
2
100
AcDbEntity
  8
LINEWORK
 62
     7
370
    30
100
AcDbLine
 10
103.4675149538156
 20
57.66524148385099
 30
0.0
 11
113.4327056553443
 21
57.66524148385099
 31
0.0
  0
LINE
  5
91
330
2
100
AcDbEntity
  8
LINEWORK
 62
     7
370
    30
100
AcDbLine
 10
103.4675149538156
 20
54.16524148385099
 30
0.0
 11
113.3640788625491
 21
54.16524148385099
 31
0.0
  0
LINE
  5
92
330
2
100
AcDbEntity
  8
LINEWORK
 62
     7
370
    30
100
AcDbLine
 10
104.4561587038157
 20
58.54024148385099
 30
0.0
 11
110.2288712038157
 21
58.54024148385099
 31
0.0
  0
LINE
  5
93
330
2
100
AcDbEntity
  8
LINEWORK
  6
PHANTOM
 62
     7
 48
3.0
370
    30
100
AcDbLine
 10
52.44914336511169
 20
53.79024148385099
 30
0.0
 11
113.3640788625491
 21
53.79024148385099
 31
0.0
  0
LINE
  5
95
330
2
100
AcDbEntity
  8
leaders
 62
     1
370
    30
100
AcDbLine
 10
66.86270334788026
 20
67.48200282488824
 30
0.0
 11
45.46505977676815
 21
52.41184431925694
 31
0.0
  0
LWPOLYLINE
  5
96
330
2
100
AcDbEntity
  8
LINEWORK
370
    30
100
AcDbPolyline
 90
        4
 70
     1
 43
0.12
 10
63.9491433651117
 20
58.54024148385099
 10
63.9491433651117
 20
84.540241483851
 10
52.94914336511169
 20
84.540241483851
 10
52.94914336511169
 20
58.54024148385099
  0
LINE
  5
97
330
2
100
AcDbEntity
  8
LINEWORK
  6
DASHED
 62
     7
 48
2.0
370
    30
100
AcDbLine
 10
58.19914336511169
 20
60.35024148385094
 30
0.0
 11
58.19914336511169
 21
56.35024148385094
 31
0.0
  0
LINE
  5
99
330
2
100
AcDbEntity
  8
LINEWORK
  6
DASHED
 62
     7
 48
2.0
370
    30
100
AcDbLine
 10
58.69914336511169
 20
56.35024148385094
 30
0.0
 11
58.69914336511169
 21
60.35024148385094
 31
0.0
  0
LINE
  5
9A
330
2
100
AcDbEntity
  8
LINEWORK
 62
     7
370
    30
100
AcDbLine
 10
67.58115870381573
 20
61.05011648385096
 30
0.0
 11
67.58115870381573
 21
58.54024148385099
 31
0.0
  0
LINE
  5
9B
330
2
100
AcDbEntity
  8
LINEWORK
 62
     7
370
    30
100
AcDbLine
 10
67.58115870381573
 20
58.54024148385099
 30
0.0
 11
67.58115870381573
 21
61.05011648385096
 31
0.0
  0
LINE
  5
9C
330
2
100
AcDbEntity
  8
LINEWORK
  6
DASHED
 62
     7
 48
2.0
370
    30
100
AcDbLine
 10
70.7175149538158
 20
56.35024148385094
 30
0.0
 11
70.7175149538158
 21
60.35024148385094
 31
0.0
  0
LINE
  5
9D
330
2
100
AcDbEntity
  8
LINEWORK
  6
DASHED
 62
     7
 48
2.0
370
    30
100
AcDbLine
 10
70.21751495381579
 20
60.35024148385094
 30
0.0
 11
70.21751495381579
 21
56.35024148385094
 31
0.0
  0
LINE
  5
9E
330
2
100
AcDbEntity
  8
LINEWORK
 62
     7
370
    30
100
AcDbLine
 10
74.95615870381573
 20
58.54024148385099
 30
0.0
 11
74.95615870381573
 21
61.05011648385096
 31
0.0
  0
LINE
  5
9F
330
2
100
AcDbEntity
  8
LINEWORK
 62
     7
370
    30
100
AcDbLine
 10
74.95615870381573
 20
61.05011648385096
 30
0.0
 11
74.95615870381573
 21
58.54024148385099
 31
0.0
  0
LINE
  5
A0
330
2
100
AcDbEntity
  8
LINEWORK
 62
     7
370
    30
100
AcDbLine
 10
73.35387120381574
 20
61.05011648385096
 30
0.0
 11
73.35387120381574
 21
58.54024148385099
 31
0.0
  0
LINE
  5
A1
330
2
100
AcDbEntity
  8
LINEWORK
 62
     7
370
    30
100
AcDbLine
 10
73.35387120381574
 20
58.54024148385099
 30
0.0
 11
73.35387120381574
 21
61.05011648385096
 31
0.0
  0
LINE
  5
A2
330
2
100
AcDbEntity
  8
LINEWORK
  6
DASHED
 62
     7
 48
2.0
370
    30
100
AcDbLine
 10
77.5925149538158
 20
60.35024148385094
 30
0.0
 11
77.5925149538158
 21
56.35024148385094
 31
0.0
  0
LINE
  5
A3
330
2
100
AcDbEntity
  8
LINEWORK
  6
DASHED
 62
     7
 48
2.0
370
    30
100
AcDbLine
 10
78.09251495381579
 20
56.35024148385094
 30
0.0
 11
78.09251495381579
 21
60.35024148385094
 31
0.0
  0
LINE
  5
A4
330
2
100
AcDbEntity
  8
LINEWORK
 62
     7
370
    30
100
AcDbLine
 10
82.33115870381572
 20
58.54024148385099
 30
0.0
 11
82.33115870381572
 21
61.05011648385096
 31
0.0
  0
LINE
  5
A5
330
2
100
AcDbEntity
  8
LINEWORK
 62
     7
370
    30
100
AcDbLine
 10
82.33115870381572
 20
61.05011648385096
 30
0.0
 11
82.33115870381572
 21
58.54024148385099
 31
0.0
  0
LINE
  5
A6
330
2
100
AcDbEntity
  8
LINEWORK
 62
     7
370
    30
100
AcDbLine
 10
80.72887120381574
 20
58.54024148385099
 30
0.0
 11
80.72887120381574
 21
61.05011648385096
 31
0.0
  0
LINE
  5
A7
330
2
100
AcDbEntity
  8
LINEWORK
 62
     7
370
    30
100
AcDbLine
 10
80.72887120381574
 20
61.05011648385096
 30
0.0
 11
80.72887120381574
 21
58.54024148385099
 31
0.0
  0
LINE
  5
A8
330
2
100
AcDbEntity
  8
LINEWORK
  6
DASHED
 62
     7
 48
2.0
370
    30
100
AcDbLine
 10
84.96751495381579
 20
60.35024148385094
 30
0.0
 11
84.96751495381579
 21
56.35024148385094
 31
0.0
  0
LINE
  5
A9
330
2
100
AcDbEntity
  8
LINEWORK
  6
DASHED
 62
     7
 48
2.0
370
    30
100
AcDbLine
 10
85.46751495381579
 20
56.35024148385094
 30
0.0
 11
85.46751495381579
 21
60.35024148385094
 31
0.0
  0
LINE
  5
AA
330
2
100
AcDbEntity
  8
LINEWORK
 62
     7
370
    30
100
AcDbLine
 10
89.70615870381573
 20
58.54024148385099
 30
0.0
 11
89.70615870381573
 21
61.05011648385096
 31
0.0
  0
LINE
  5
AB
330
2
100
AcDbEntity
  8
LINEWORK
 62
     7
370
    30
100
AcDbLine
 10
89.70615870381573
 20
61.05011648385096
 30
0.0
 11
89.70615870381573
 21
58.54024148385099
 31
0.0
  0
LINE
  5
AC
330
2
100
AcDbEntity
  8
LINEWORK
 62
     7
370
    30
100
AcDbLine
 10
88.10387120381575
 20
58.54024148385099
 30
0.0
 11
88.10387120381575
 21
61.05011648385096
 31
0.0
  0
LINE
  5
AD
330
2
100
AcDbEntity
  8
LINEWORK
 62
     7
370
    30
100
AcDbLine
 10
88.10387120381575
 20
61.05011648385096
 30
0.0
 11
88.10387120381575
 21
58.54024148385099
 31
0.0
  0
LINE
  5
AE
330
2
100
AcDbEntity
  8
LINEWORK
  6
DASHED
 62
     7
 48
2.0
370
    30
100
AcDbLine
 10
92.34251495381579
 20
60.35024148385094
 30
0.0
 11
92.34251495381579
 21
56.35024148385094
 31
0.0
  0
LINE
  5
AF
330
2
100
AcDbEntity
  8
LINEWORK
  6
DASHED
 62
     7
 48
2.0
370
    30
100
AcDbLine
 10
92.8425149538158
 20
56.35024148385094
 30
0.0
 11
92.8425149538158
 21
60.35024148385094
 31
0.0
  0
LINE
  5
B0
330
2
100
AcDbEntity
  8
LINEWORK
 62
     7
370
    30
100
AcDbLine
 10
95.47887120381574
 20
58.54024148385099
 30
0.0
 11
95.47887120381574
 21
61.05011648385096
 31
0.0
  0
LINE
  5
B1
330
2
100
AcDbEntity
  8
LINEWORK
 62
     7
370
    30
100
AcDbLine
 10
95.47887120381574
 20
61.05011648385096
 30
0.0
 11
95.47887120381574
 21
58.54024148385099
 31
0.0
  0
LINE
  5
B2
330
2
100
AcDbEntity
  8
LINEWORK
 62
     7
370
    30
100
AcDbLine
 10
97.08115870381574
 20
58.54024148385099
 30
0.0
 11
97.08115870381574
 21
61.05011648385096
 31
0.0
  0
LINE
  5
B3
330
2
100
AcDbEntity
  8
LINEWORK
 62
     7
370
    30
100
AcDbLine
 10
97.08115870381574
 20
61.05011648385096
 30
0.0
 11
97.08115870381574
 21
58.54024148385099
 31
0.0
  0
LINE
  5
B4
330
2
100
AcDbEntity
  8
LINEWORK
  6
DASHED
 62
     7
 48
2.0
370
    30
100
AcDbLine
 10
99.7175149538158
 20
60.35024148385094
 30
0.0
 11
99.7175149538158
 21
56.35024148385094
 31
0.0
  0
LINE
  5
B5
330
2
100
AcDbEntity
  8
LINEWORK
  6
DASHED
 62
     7
 48
2.0
370
    30
100
AcDbLine
 10
100.2175149538157
 20
56.35024148385094
 30
0.0
 11
100.2175149538157
 21
60.35024148385094
 31
0.0
  0
LINE
  5
B6
330
2
100
AcDbEntity
  8
LINEWORK
 62
     7
370
    30
100
AcDbLine
 10
102.8538712038157
 20
58.54024148385099
 30
0.0
 11
102.8538712038157
 21
61.05011648385096
 31
0.0
  0
LINE
  5
B7
330
2
100
AcDbEntity
  8
LINEWORK
 62
     7
370
    30
100
AcDbLine
 10
102.8538712038157
 20
61.05011648385096
 30
0.0
 11
102.8538712038157
 21
58.54024148385099
 31
0.0
  0
LINE
  5
B8
330
2
100
AcDbEntity
  8
LINEWORK
 62
     7
370
    30
100
AcDbLine
 10
104.4561587038157
 20
58.54024148385099
 30
0.0
 11
104.4561587038157
 21
61.05011648385096
 31
0.0
  0
LINE
  5
B9
330
2
100
AcDbEntity
  8
LINEWORK
 62
     7
370
    30
100
AcDbLine
 10
104.4561587038157
 20
61.05011648385096
 30
0.0
 11
104.4561587038157
 21
58.54024148385099
 31
0.0
  0
LINE
  5
BA
330
2
100
AcDbEntity
  8
LINEWORK
  6
DASHED
 62
     7
 48
2.0
370
    30
100
AcDbLine
 10
107.0925149538157
 20
60.35024148385094
 30
0.0
 11
107.0925149538157
 21
56.35024148385094
 31
0.0
  0
LINE
  5
BB
330
2
100
AcDbEntity
  8
LINEWORK
  6
DASHED
 62
     7
 48
2.0
370
    30
100
AcDbLine
 10
107.5925149538157
 20
56.35024148385094
 30
0.0
 11
107.5925149538157
 21
60.35024148385094
 31
0.0
  0
LINE
  5
BC
330
2
100
AcDbEntity
  8
LINEWORK
 62
     7
370
    30
100
AcDbLine
 10
52.94914336511169
 20
58.16524148385099
 30
0.0
 11
66.71751495381579
 21
58.16524148385099
 31
0.0
  0
LINE
  5
BD
330
2
100
AcDbEntity
  8
LINEWORK
 62
     7
370
    30
100
AcDbLine
 10
52.44914336511169
 20
57.66524148385099
 30
0.0
 11
66.71751495381579
 21
57.66524148385099
 31
0.0
  0
LINE
  5
BE
330
2
100
AcDbEntity
  8
LINEWORK
 62
     7
370
    30
100
AcDbLine
 10
52.44914336511169
 20
54.16524148385099
 30
0.0
 11
66.71751495381579
 21
54.16524148385099
 31
0.0
  0
LINE
  5
BF
330
2
100
AcDbEntity
  8
leaders
 62
     1
370
    30
100
AcDbLine
 10
71.37557981740679
 20
53.54448931937998
 30
0.0
 11
49.21505977676815
 21
40.14955578333763
 31
0.0
  0
LINE
  5
C0
330
2
100
AcDbEntity
  8
leaders
 62
     1
370
    30
100
AcDbLine
 10
39.41750083348916
 20
52.41184431925694
 30
0.0
 11
45.46505977676815
 21
52.41184431925694
 31
0.0
  0
LINE
  5
C1
330
2
100
AcDbEntity
  8
leaders
 62
     1
370
    30
100
AcDbLine
 10
39.41750083348927
 20
40.14955578333752
 30
0.0
 11
49.21505977676815
 21
40.14955578333763
 31
0.0
  0
LINE
  5
C2
330
2
100
AcDbEntity
  8
leaders
 62
     1
370
    30
100
AcDbLine
 10
39.41750083348916
 20
50.15583057534422
 30
0.0
 11
39.41750083348916
 21
54.66785806316955
 31
0.0
  0
LINE
  5
C3
330
2
100
AcDbEntity
  8
leaders
 62
     1
370
    30
100
AcDbLine
 10
39.41750083348927
 20
37.8935420394248
 30
0.0
 11
39.41750083348916
 21
42.40556952725012
 31
0.0
  0
LINE
  5
C4
330
2
100
AcDbEntity
  8
LINEWORK
 62
     7
370
    30
100
AcDbLine
 10
52.44914336511169
 20
57.66524148385099
 30
0.0
 11
52.44914336511169
 21
54.16524148385099
 31
0.0
  0
LINE
  5
C5
330
2
100
AcDbEntity
  8
LINEWORK
 62
     7
370
    30
100
AcDbLine
 10
52.94914336511169
 20
58.16524148385099
 30
0.0
 11
52.44914336511169
 21
57.66524148385099
 31
0.0
  0
LINE
  5
C6
330
2
100
AcDbEntity
  8
LINEWORK
 62
     7
370
    30
100
AcDbLine
 10
63.94914336511249
 20
58.16524148385122
 30
0.0
 11
64.44914336511249
 21
57.66524148385122
 31
0.0
  0
LINE
  5
C7
330
2
100
AcDbEntity
  8
LINEWORK
 62
     7
370
    30
100
AcDbLine
 10
64.44914336511249
 20
57.66524148385122
 30
0.0
 11
64.44914336511271
 21
54.16524148385121
 31
0.0
  0
LINE
  5
C8
330
2
100
AcDbEntity
  8
LINEWORK
  6
DASHED
 62
     7
 48
2.0
370
    30
100
AcDbLine
 10
58.19914336511169
 20
56.35024148385094
 30
0.0
 11
58.69914336511169
 21
56.35024148385094
 31
0.0
  0
DIMENSION
  5
C9
330
2
100
AcDbEntity
  8
DIM
 62
     7
370
    30
100
AcDbDimension
  2
*D2
 10
85.21751495381579
 20
48.66153344881855
 30
0.0
 11
93.86902238851531
 21
48.66153344881855
 31
0.0
 70
   160
 71
     5
 42
-1.0
  3
STANDARD
100
AcDbAlignedDimension
 13
77.84251495381579
 23
56.35024148385094
 33
0.0
 14
85.21751495381579
 24
56.35024148385094
 34
0.0
100
AcDbRotatedDimension
1001
ACAD
1000
DSTYLE
1002
{
1070
   287
1070
     4
1070
   287
1070
     4
1070
   287
1070
     4
1070
   287
1070
     4
1070
   287
1070
     4
1070
    40
1040
2.399999999999999
1070
    73
1070
     1
1070
    74
1070
     1
1070
    77
1070
     0
1070
   147
1040
0.5
1070
   279
1070
     1
1070
   288
1070
     1
1070
   289
1070
     3
1002
}
  0
DIMENSION
  5
D9
330
2
100
AcDbEntity
  8
DIM
 62
     7
370
    30
100
AcDbDimension
  2
*D3
 10
103.0925149538156
 20
42.1729459303973
 30
0.0
 11
86.58666251990792
 21
42.1729459303973
 31
0.0
 70
   161
 71
     5
 42
-1.0
  3
STANDARD
100
AcDbAlignedDimension
 13
67.09251495381579
 23
54.16524148385099
 33
0.0
 14
103.0925149538156
 24
54.16524148385099
 34
0.0
1001
ACAD
1000
DSTYLE
1002
{
1070
   287
1070
     4
1070
   287
1070
     4
1070
   287
1070
     4
1070
   287
1070
     4
1070
   287
1070
     4
1070
    40
1040
2.399999999999999
1070
    73
1070
     1
1070
    74
1070
     1
1070
    77
1070
     0
1070
   147
1040
0.5
1070
   279
1070
     1
1070
   288
1070
     1
1070
   289
1070
     3
1002
}
  0
LINE
  5
E7
330
2
100
AcDbEntity
  8
LINEWORK
 62
     7
370
    30
100
AcDbLine
 10
82.33115870381572
 20
58.54024148385099
 30
0.0
 11
88.10387120381575
 21
58.54024148385099
 31
0.0
  0
LINE
  5
E8
330
2
100
AcDbEntity
  8
LINEWORK
 62
     7
370
    30
100
AcDbLine
 10
67.09251495381579
 20
54.16524148385099
 30
0.0
 11
103.0925149538156
 21
54.16524148385099
 31
0.0
  0
LINE
  5
E9
330
2
100
AcDbEntity
  8
LINEWORK
 62
     7
370
    30
100
AcDbLine
 10
67.09251495381579
 20
57.66524148385099
 30
0.0
 11
103.0925149538156
 21
57.66524148385099
 31
0.0
  0
LINE
  5
EA
330
2
100
AcDbEntity
  8
LINEWORK
 62
     7
370
    30
100
AcDbLine
 10
67.09251495381579
 20
58.16524148385099
 30
0.0
 11
103.0925149538157
 21
58.16524148385099
 31
0.0
  0
LINE
  5
EB
330
2
100
AcDbEntity
  8
LINEWORK
 62
     7
370
    30
100
AcDbLine
 10
74.95615870381573
 20
58.54024148385099
 30
0.0
 11
80.72887120381574
 21
58.54024148385099
 31
0.0
  0
SOLID
  5
EC
330
2
100
AcDbEntity
  8
leaders
 62
     1
370
    30
100
AcDbTrace
 10
71.27212112332836
 20
53.71565093487709
 30
0.0
 11
71.47903851148533
 21
53.37332770388286
 31
0.0
 12
72.40254951038934
 22
54.16524148385099
 32
0.0
 13
72.40254951038934
 23
54.16524148385099
 33
0.0
  0
LINE
  5
ED
330
2
100
AcDbEntity
  8
LINEWORK
 62
     7
370
    30
100
AcDbLine
 10
67.09251495381579
 20
58.16524148385099
 30
0.0
 11
67.09251495381579
 21
54.16524148385099
 31
0.0
  0
LINE
  5
EE
330
2
100
AcDbEntity
  8
LINEWORK
 62
     7
370
    30
100
AcDbLine
 10
66.71751495381579
 20
58.16524148385099
 30
0.0
 11
66.71751495381579
 21
54.16524148385099
 31
0.0
  0
LINE
  5
EF
330
2
100
AcDbEntity
  8
LINEWORK
 62
     7
370
    30
100
AcDbLine
 10
67.58115870381573
 20
58.54024148385099
 30
0.0
 11
73.35387120381574
 21
58.54024148385099
 31
0.0
  0
LINE
  5
F0
330
2
100
AcDbEntity
  8
LINEWORK
  6
DASHED
 62
     7
 48
2.0
370
    30
100
AcDbLine
 10
70.21751495381579
 20
56.35024148385094
 30
0.0
 11
70.7175149538158
 21
56.35024148385094
 31
0.0
  0
POINT
  5
F1
330
2
100
AcDbEntity
  8
LINEWORK
 62
     7
370
    30
100
AcDbPoint
 10
73.35387120381574
 20
58.54024148385099
 30
0.0
  0
LINE
  5
F2
330
2
100
AcDbEntity
  8
LINEWORK
  6
DASHED
 62
     7
 48
2.0
370
    30
100
AcDbLine
 10
84.96751495381579
 20
56.35024148385094
 30
0.0
 11
85.46751495381579
 21
56.35024148385094
 31
0.0
  0
POINT
  5
F3
330
2
100
AcDbEntity
  8
LINEWORK
 62
     7
370
    30
100
AcDbPoint
 10
80.72887120381574
 20
58.54024148385099
 30
0.0
  0
LINE
  5
F4
330
2
100
AcDbEntity
  8
LINEWORK
  6
DASHED
 62
     7
 48
2.0
370
    30
100
AcDbLine
 10
77.5925149538158
 20
56.35024148385094
 30
0.0
 11
78.09251495381579
 21
56.35024148385094
 31
0.0
  0
LINE
  5
F5
330
2
100
AcDbEntity
  8
LINEWORK
 62
     7
370
    30
100
AcDbLine
 10
97.08115870381574
 20
58.54024148385099
 30
0.0
 11
102.8538712038157
 21
58.54024148385099
 31
0.0
  0
POINT
  5
F6
330
2
100
AcDbEntity
  8
LINEWORK
 62
     7
370
    30
100
AcDbPoint
 10
95.47887120381574
 20
58.54024148385099
 30
0.0
  0
POINT
  5
F7
330
2
100
AcDbEntity
  8
LINEWORK
 62
     7
370
    30
100
AcDbPoint
 10
88.10387120381575
 20
58.54024148385099
 30
0.0
  0
LINE
  5
F8
330
2
100
AcDbEntity
  8
LINEWORK
  6
DASHED
 62
     7
 48
2.0
370
    30
100
AcDbLine
 10
92.34251495381579
 20
56.35024148385094
 30
0.0
 11
92.8425149538158
 21
56.35024148385094
 31
0.0
  0
LINE
  5
F9
330
2
100
AcDbEntity
  8
LINEWORK
 62
     7
370
    30
100
AcDbLine
 10
89.70615870381573
 20
58.54024148385099
 30
0.0
 11
95.47887120381574
 21
58.54024148385099
 31
0.0
  0
LINE
  5
FA
330
2
100
AcDbEntity
  8
LINEWORK
 62
     7
370
    30
100
AcDbLine
 10
103.4675149538156
 20
58.16524148385099
 30
0.0
 11
103.4675149538156
 21
54.16524148385099
 31
0.0
  0
LINE
  5
FB
330
2
100
AcDbEntity
  8
LINEWORK
 62
     7
370
    30
100
AcDbLine
 10
103.0925149538156
 20
58.16524148385099
 30
0.0
 11
103.0925149538156
 21
54.16524148385099
 31
0.0
  0
POINT
  5
FC
330
2
100
AcDbEntity
  8
LINEWORK
 62
     7
370
    30
100
AcDbPoint
 10
102.8538712038157
 20
58.54024148385099
 30
0.0
  0
LINE
  5
FD
330
2
100
AcDbEntity
  8
LINEWORK
  6
DASHED
 62
     7
 48
2.0
370
    30
100
AcDbLine
 10
107.0925149538157
 20
56.35024148385094
 30
0.0
 11
107.5925149538157
 21
56.35024148385094
 31
0.0
  0
LINE
  5
FE
330
2
100
AcDbEntity
  8
LINEWORK
  6
DASHED
 62
     7
 48
2.0
370
    30
100
AcDbLine
 10
99.7175149538158
 20
56.35024148385094
 30
0.0
 11
100.2175149538157
 21
56.35024148385094
 31
0.0
  0
LINE
  5
FF
330
2
100
AcDbEntity
  8
LINEWORK
 62
     7
370
    30
100
AcDbLine
 10
66.71751495381579
 20
88.7652414838509
 30
0.0
 11
64.39251797699398
 21
89.59024148385095
 31
0.0
  0
ARC
  5
100
330
2
100
AcDbEntity
  8
LINEWORK
370
    30
100
AcDbCircle
 10
64.98603738474685
 20
87.31307966591396
 30
0.0
 40
1.299371506374636
100
AcDbArc
 50
272.7837529373822
 51
354.2984521406139
  0
LINE
  5
101
330
2
100
AcDbEntity
  8
LINEWORK
 62
     7
370
    30
100
AcDbLine
 10
63.9491433651117
 20
84.91524148385099
 30
0.0
 11
66.71751495381579
 21
84.91524148385099
 31
0.0
  0
LINE
  5
102
330
2
100
AcDbEntity
  8
LINEWORK
 62
     7
370
    30
100
AcDbLine
 10
65.04914336511217
 20
85.46524148385094
 30
0.0
 11
66.71751495381579
 21
85.46524148385094
 31
0.0
  0
LINE
  5
103
330
2
100
AcDbEntity
  8
LINEWORK
 62
     7
370
    30
100
AcDbLine
 10
65.04914336511217
 20
86.0152414838509
 30
0.0
 11
66.71751495381579
 21
86.0152414838509
 31
0.0
  0
LINE
  5
104
330
2
100
AcDbEntity
  8
LINEWORK
 62
     7
370
    30
100
AcDbLine
 10
64.39251797699398
 20
89.59024148385095
 30
0.0
 11
66.71751495381579
 21
89.59024148385095
 31
0.0
  0
LINE
  5
105
330
2
100
AcDbEntity
  8
LINEWORK
 62
     7
370
    30
100
AcDbLine
 10
66.71751495381579
 20
88.7652414838509
 30
0.0
 11
50.18077177640771
 21
88.7652414838509
 31
0.0
  0
LINE
  5
106
330
2
100
AcDbEntity
  8
LINEWORK
 62
     7
370
    30
100
AcDbLine
 10
50.19914336511465
 20
87.80274148385103
 30
0.0
 11
66.69914336510874
 21
87.80274148385103
 31
0.0
  0
LINE
  5
107
330
2
100
AcDbEntity
  8
leaders
 62
     1
370
    30
100
AcDbLine
 10
74.77551934292751
 20
90.36069730771657
 30
0.0
 11
49.05041099924426
 21
111.9042679889977
 31
0.0
  0
LINE
  5
108
330
2
100
AcDbEntity
  8
leaders
 62
     1
370
    30
100
AcDbLine
 10
39.41750083348916
 20
87.21801439807654
 30
0.0
 11
45.46505977676815
 21
87.21801439807654
 31
0.0
  0
LINE
  5
109
330
2
100
AcDbEntity
  8
leaders
 62
     1
370
    30
100
AcDbLine
 10
39.41750083348916
 20
64.50666006056974
 30
0.0
 11
45.46505977676815
 21
64.50666006056974
 31
0.0
  0
LINE
  5
10A
330
2
100
AcDbEntity
  8
leaders
 62
     1
370
    30
100
AcDbLine
 10
39.41750083348916
 20
62.25064631665702
 30
0.0
 11
39.41750083348916
 21
66.76267380448234
 31
0.0
  0
LINE
  5
10B
330
2
100
AcDbEntity
  8
leaders
 62
     1
370
    30
100
AcDbLine
 10
39.41750083348916
 20
84.96200065416383
 30
0.0
 11
39.41750083348916
 21
89.47402814198914
 31
0.0
  0
LINE
  5
10C
330
2
100
AcDbEntity
  8
LINEWORK
370
    30
100
AcDbLine
 10
54.94914336511169
 20
61.7902414838519
 30
0.0
 11
54.94914336511169
 21
81.29024148385132
 31
0.0
  0
LINE
  5
10D
330
2
100
AcDbEntity
  8
LINEWORK
370
    30
100
AcDbLine
 10
61.94914336511169
 20
61.79024148385076
 30
0.0
 11
61.94914336511169
 21
81.29024148385065
 31
0.0
  0
ARC
  5
10E
330
2
100
AcDbEntity
  8
LINEWORK
370
    30
100
AcDbCircle
 10
54.94914336511169
 20
60.54024148385167
 30
0.0
 40
1.25
100
AcDbArc
 50
359.9999999999934
 51
89.99999999999349
  0
LINE
  5
10F
330
2
100
AcDbEntity
  8
leaders
 62
     1
370
    30
100
AcDbLine
 10
51.88540369030374
 20
67.85879031945501
 30
0.0
 11
45.46505977676815
 21
64.50666006056974
 31
0.0
  0
SOLID
  5
110
330
2
100
AcDbEntity
  8
leaders
 62
     1
370
    30
100
AcDbTrace
 10
51.79283871248947
 20
68.03608026525637
 30
0.0
 11
51.97796866811813
 21
67.68150037365365
 31
0.0
 12
52.94914336511169
 22
68.4141801863409
 32
0.0
 13
52.94914336511169
 23
68.4141801863409
 33
0.0
  0
ARC
  5
111
330
2
100
AcDbEntity
  8
LINEWORK
370
    30
100
AcDbCircle
 10
61.94914336511169
 20
60.54024148385099
 30
0.0
 40
1.25
100
AcDbArc
 50
89.99999999999349
 51
179.9999999999934
  0
LINE
  5
112
330
2
100
AcDbEntity
  8
LINEWORK
  6
DASHED
 62
     7
 48
2.0
370
    30
100
AcDbLine
 10
58.69914336511169
 20
60.35024148385094
 30
0.0
 11
58.19914336511169
 21
60.35024148385094
 31
0.0
  0
POINT
  5
113
330
2
100
AcDbEntity
  8
LINEWORK
 62
     7
370
    30
100
AcDbPoint
 10
59.07228913640529
 20
60.71282075377201
 30
0.0
  0
LINE
  5
114
330
2
100
AcDbEntity
  8
LINEWORK
370
    30
100
AcDbLine
 10
56.19914336511169
 20
60.54024148385099
 30
0.0
 11
60.69914336511238
 21
60.54024148385099
 31
0.0
  0
LINE
  5
115
330
2
100
AcDbEntity
  8
LINEWORK
 62
     7
370
    30
100
AcDbLine
 10
52.94914336511169
 20
84.91524148385099
 30
0.0
 11
63.9491433651117
 21
84.91524148385099
 31
0.0
  0
LINE
  5
116
330
2
100
AcDbEntity
  8
LINEWORK
 62
     7
370
    30
100
AcDbLine
 10
52.5057687532294
 20
89.59024148385095
 30
0.0
 11
64.39251797699398
 21
89.59024148385095
 31
0.0
  0
ARC
  5
117
330
2
100
AcDbEntity
  8
LINEWORK
370
    30
100
AcDbCircle
 10
54.94914336511169
 20
82.54024148385099
 30
0.0
 40
1.25
100
AcDbArc
 50
270.0
 51
0.0
  0
LINE
  5
118
330
2
100
AcDbEntity
  8
LINEWORK
 62
     7
370
    30
100
AcDbLine
 10
65.04914336511217
 20
86.0152414838509
 30
0.0
 11
51.84914336511133
 21
86.0152414838509
 31
0.0
  0
LINE
  5
119
330
2
100
AcDbEntity
  8
LINEWORK
 62
     7
370
    30
100
AcDbLine
 10
51.84914336511122
 20
85.46524148385094
 30
0.0
 11
65.04914336511217
 21
85.46524148385094
 31
0.0
  0
ARC
  5
11A
330
2
100
AcDbEntity
  8
LINEWORK
370
    30
100
AcDbCircle
 10
52.39914336511152
 20
84.91524148385076
 30
0.0
 40
0.5500000000002502
100
AcDbArc
 50
0.0000000000260551
 51
90.00000000002605
  0
LINE
  5
11B
330
2
100
AcDbEntity
  8
LINEWORK
 62
     7
370
    30
100
AcDbLine
 10
50.19914336511465
 20
87.80274148385093
 30
0.0
 11
50.19914336511113
 21
88.7652414838509
 31
0.0
  0
ARC
  5
11C
330
2
100
AcDbEntity
  8
LINEWORK
 62
     7
370
    30
100
AcDbCircle
 10
49.82885286120859
 20
87.09926460768906
 30
0.0
 40
0.7949809888151388
100
AcDbArc
 50
6.118045468722999
 51
62.23893912947431
  0
ARC
  5
11D
330
2
100
AcDbEntity
  8
LINEWORK
370
    30
100
AcDbCircle
 10
51.91224934547665
 20
87.31307966591396
 30
0.0
 40
1.299371506374636
100
AcDbArc
 50
185.701547859386
 51
267.2162470626178
  0
LINE
  5
11E
330
2
100
AcDbEntity
  8
LINEWORK
370
    30
100
AcDbLine
 10
51.84914336511122
 20
85.46524148385094
 30
0.0
 11
51.84914336511122
 21
86.0152414838509
 31
0.0
  0
SOLID
  5
11F
330
2
100
AcDbEntity
  8
leaders
 62
     1
370
    30
100
AcDbTrace
 10
48.98516860960978
 20
88.24860613484622
 30
0.0
 11
49.07646030574858
 21
87.85916316570171
 31
0.0
 12
50.19914336511272
 22
88.32775973869047
 32
0.0
 13
50.19914336511272
 23
88.32775973869047
 33
0.0
  0
LINE
  5
120
330
2
100
AcDbEntity
  8
leaders
 62
     1
370
    30
100
AcDbLine
 10
49.03081445767918
 20
88.05388465027396
 30
0.0
 11
45.46505977676815
 21
87.21801439807654
 31
0.0
  0
LINE
  5
121
330
2
100
AcDbEntity
  8
LINEWORK
 62
     7
370
    30
100
AcDbLine
 10
50.18077177640771
 20
88.7652414838509
 30
0.0
 11
52.5057687532294
 21
89.59024148385095
 31
0.0
  0
ARC
  5
122
330
2
100
AcDbEntity
  8
LINEWORK
370
    30
100
AcDbCircle
 10
64.49914336511199
 20
84.91524148385076
 30
0.0
 40
0.5500000000002502
100
AcDbArc
 50
89.99999999997395
 51
179.9999999999739
  0
LINE
  5
123
330
2
100
AcDbEntity
  8
LINEWORK
370
    30
100
AcDbLine
 10
65.04914336511217
 20
85.46524148385094
 30
0.0
 11
65.04914336511217
 21
86.0152414838509
 31
0.0
  0
LINE
  5
124
330
2
100
AcDbEntity
  8
LINEWORK
  6
DASHED
 62
     7
 48
2.0
370
    30
100
AcDbLine
 10
58.19914336511169
 20
86.73024148385218
 30
0.0
 11
58.69914336511169
 21
86.73024148385218
 31
0.0
  0
ARC
  5
125
330
2
100
AcDbEntity
  8
LINEWORK
370
    30
100
AcDbCircle
 10
61.94914336511169
 20
82.54024148385099
 30
0.0
 40
1.25
100
AcDbArc
 50
180.0
 51
270.0
  0
LINE
  5
126
330
2
100
AcDbEntity
  8
LINEWORK
  6
DASHED
 62
     7
 48
2.0
370
    30
100
AcDbLine
 10
58.69914336511169
 20
82.73024148385218
 30
0.0
 11
58.19914336511169
 21
82.73024148385218
 31
0.0
  0
LINE
  5
127
330
2
100
AcDbEntity
  8
LINEWORK
370
    30
100
AcDbLine
 10
56.19914336511135
 20
82.54024148385099
 30
0.0
 11
60.69914336511169
 21
82.54024148385099
 31
0.0
  0
LINE
  5
128
330
2
100
AcDbEntity
  8
LINEWORK
  6
DASHED
 62
     7
 48
2.0
370
    30
100
AcDbLine
 10
58.69914336511169
 20
86.73024148385218
 30
0.0
 11
58.69914336511169
 21
82.73024148385218
 31
0.0
  0
LINE
  5
129
330
2
100
AcDbEntity
  8
LINEWORK
  6
DASHED
 62
     7
 48
2.0
370
    30
100
AcDbLine
 10
58.19914336511169
 20
82.73024148385218
 30
0.0
 11
58.19914336511169
 21
86.73024148385218
 31
0.0
  0
LINE
  5
12A
330
2
100
AcDbEntity
  8
leaders
 62
     1
370
    30
100
AcDbLine
 10
39.25285205596537
 20
111.9042679889977
 30
0.0
 11
49.05041099924426
 21
111.9042679889977
 31
0.0
  0
LINE
  5
12B
330
2
100
AcDbEntity
  8
leaders
 62
     1
370
    30
100
AcDbLine
 10
39.25285205596537
 20
109.648254245085
 30
0.0
 11
39.25285205596537
 21
114.1602817329104
 31
0.0
  0
LINE
  5
12C
330
2
100
AcDbEntity
  8
LINEWORK
 62
     7
370
    30
100
AcDbLine
 10
88.10387120381575
 20
84.540241483851
 30
0.0
 11
82.33115870381572
 21
84.540241483851
 31
0.0
  0
ARC
  5
12D
330
2
100
AcDbEntity
  8
LINEWORK
 62
     7
370
    30
100
AcDbCircle
 10
89.12873682881571
 20
74.12499656197599
 30
0.0
 40
2.22763833761492
100
AcDbArc
 50
180.6052145972454
 51
207.467272338611
  0
ARC
  5
12E
330
2
100
AcDbEntity
  8
LINEWORK
 62
     7
370
    30
100
AcDbCircle
 10
89.12861287391548
 20
74.12496557325096
 30
0.0
 40
2.22751406250017
100
AcDbArc
 50
180.6044512322847
 51
207.4680357035701
  0
LINE
  5
12F
330
2
100
AcDbEntity
  8
LINEWORK
 62
     7
370
    30
100
AcDbLine
 10
86.96396964131578
 20
76.86232898385094
 30
0.0
 11
85.21751495381568
 21
76.86232898385094
 31
0.0
  0
LINE
  5
130
330
2
100
AcDbEntity
  8
LINEWORK
 62
     7
370
    30
100
AcDbLine
 10
85.21751495381568
 20
77.61529148385102
 30
0.0
 11
86.96396964131578
 21
77.61529148385102
 31
0.0
  0
LINE
  5
131
330
2
100
AcDbEntity
  8
LINEWORK
 62
     7
370
    30
100
AcDbLine
 10
85.21751495381568
 20
76.86232898385094
 30
0.0
 11
86.96396964131578
 21
76.86232898385094
 31
0.0
  0
LINE
  5
132
330
2
100
AcDbEntity
  8
LINEWORK
 62
     7
370
    30
100
AcDbLine
 10
86.96396964131578
 20
77.61529148385102
 30
0.0
 11
85.21751495381568
 21
77.61529148385102
 31
0.0
  0
LINE
  5
133
330
2
100
AcDbEntity
  8
LINEWORK
 62
     7
370
    30
100
AcDbLine
 10
86.96396964131578
 20
76.86232898385094
 30
0.0
 11
86.83847589131573
 21
76.73683523385091
 31
0.0
  0
LINE
  5
134
330
2
100
AcDbEntity
  8
LINEWORK
 62
     7
370
    30
100
AcDbLine
 10
86.96396964131578
 20
76.86232898385094
 30
0.0
 11
86.83847589131573
 21
76.73683523385091
 31
0.0
  0
ARC
  5
135
330
2
100
AcDbEntity
  8
LINEWORK
 62
     7
370
    30
100
AcDbCircle
 10
87.87379932881572
 20
79.37220398385102
 30
0.0
 40
1.105218119867257
100
AcDbArc
 50
145.4077113124904
 51
214.5922886875095
  0
ARC
  5
136
330
2
100
AcDbEntity
  8
LINEWORK
 62
     7
370
    30
100
AcDbCircle
 10
87.86510302709576
 20
79.37220398385102
 30
0.0
 40
1.09807031250002
100
AcDbArc
 50
145.1500954209564
 51
214.8499045790435
  0
LINE
  5
137
330
2
100
AcDbEntity
  8
LINEWORK
 62
     7
370
    30
100
AcDbLine
 10
85.21751495381568
 20
78.74473523385097
 30
0.0
 11
86.96396964131578
 21
78.74473523385097
 31
0.0
  0
LINE
  5
138
330
2
100
AcDbEntity
  8
LINEWORK
 62
     7
370
    30
100
AcDbLine
 10
85.21751495381568
 20
79.99967273385107
 30
0.0
 11
86.96396964131578
 21
79.99967273385107
 31
0.0
  0
LINE
  5
139
330
2
100
AcDbEntity
  8
LINEWORK
 62
     7
370
    30
100
AcDbLine
 10
85.21751495381568
 20
79.99967273385107
 30
0.0
 11
86.96396964131578
 21
79.99967273385107
 31
0.0
  0
LINE
  5
13A
330
2
100
AcDbEntity
  8
LINEWORK
 62
     7
370
    30
100
AcDbLine
 10
86.96396964131578
 20
80.62714148385101
 30
0.0
 11
85.21751495381568
 21
80.62714148385101
 31
0.0
  0
LINE
  5
13B
330
2
100
AcDbEntity
  8
LINEWORK
 62
     7
370
    30
100
AcDbLine
 10
85.21751495381568
 20
80.62714148385101
 30
0.0
 11
86.96396964131578
 21
80.62714148385101
 31
0.0
  0
LINE
  5
13C
330
2
100
AcDbEntity
  8
LINEWORK
 62
     7
370
    30
100
AcDbLine
 10
85.21751495381568
 20
82.38405398385101
 30
0.0
 11
88.10387120381575
 21
82.38405398385101
 31
0.0
  0
LINE
  5
13D
330
2
100
AcDbEntity
  8
LINEWORK
 62
     7
370
    30
100
AcDbLine
 10
85.21751495381568
 20
82.38405398385101
 30
0.0
 11
88.10387120381575
 21
82.38405398385101
 31
0.0
  0
LINE
  5
13E
330
2
100
AcDbEntity
  8
LINEWORK
 62
     7
370
    30
100
AcDbLine
 10
88.03066651631571
 20
82.25856023385109
 30
0.0
 11
85.21751495381568
 21
82.25856023385096
 31
0.0
  0
LINE
  5
13F
330
2
100
AcDbEntity
  8
LINEWORK
 62
     7
370
    30
100
AcDbLine
 10
85.21751495381568
 20
82.25856023385096
 30
0.0
 11
88.03066651631571
 21
82.25856023385109
 31
0.0
  0
LINE
  5
140
330
2
100
AcDbEntity
  8
LINEWORK
 62
     7
370
    30
100
AcDbLine
 10
85.21751495381568
 20
61.42659773385105
 30
0.0
 11
87.53914932881571
 21
61.42659773385105
 31
0.0
  0
LINE
  5
141
330
2
100
AcDbEntity
  8
LINEWORK
 62
     7
370
    30
100
AcDbLine
 10
85.21751495381568
 20
61.17561023385099
 30
0.0
 11
87.53914932881571
 21
61.17561023385099
 31
0.0
  0
LINE
  5
142
330
2
100
AcDbEntity
  8
LINEWORK
 62
     7
370
    30
100
AcDbLine
 10
87.53914932881571
 20
61.42659773385105
 30
0.0
 11
85.21751495381568
 21
61.42659773385105
 31
0.0
  0
LINE
  5
143
330
2
100
AcDbEntity
  8
LINEWORK
 62
     7
370
    30
100
AcDbLine
 10
87.53914932881571
 20
61.17561023385099
 30
0.0
 11
85.21751495381568
 21
61.17561023385099
 31
0.0
  0
LINE
  5
144
330
2
100
AcDbEntity
  8
LINEWORK
 62
     7
370
    30
100
AcDbLine
 10
85.21751495381568
 20
62.80702898385095
 30
0.0
 11
87.41365557881568
 21
62.80702898385095
 31
0.0
  0
LINE
  5
145
330
2
100
AcDbEntity
  8
LINEWORK
 62
     7
370
    30
100
AcDbLine
 10
85.21751495381568
 20
62.80702898385107
 30
0.0
 11
87.41365557881579
 21
62.80702898385107
 31
0.0
  0
ARC
  5
146
330
2
100
AcDbEntity
  8
LINEWORK
 62
     7
370
    30
100
AcDbCircle
 10
86.40796261006574
 20
66.06986648385088
 30
0.0
 40
0.587380468750003
100
AcDbArc
 50
301.2844929144161
 51
58.71550708558374
  0
ARC
  5
147
330
2
100
AcDbEntity
  8
LINEWORK
 62
     7
370
    30
100
AcDbCircle
 10
86.39150007189096
 20
66.06986648385316
 30
0.0
 40
0.5960953125000341
100
AcDbArc
 50
302.6368975040358
 51
57.36310249606355
  0
ARC
  5
148
330
2
100
AcDbEntity
  8
LINEWORK
 62
     7
370
    30
100
AcDbCircle
 10
88.40218030537824
 20
64.84303435494485
 30
0.0
 40
1.720801135514404
100
AcDbArc
 50
204.6726943310067
 51
234.9384478535201
  0
ARC
  5
149
330
2
100
AcDbEntity
  8
LINEWORK
 62
     7
370
    30
100
AcDbCircle
 10
88.40595045378904
 20
64.84617614528713
 30
0.0
 40
1.725539062499889
100
AcDbArc
 50
204.715235337887
 51
234.8959068466427
  0
LINE
  5
14A
330
2
100
AcDbEntity
  8
LINEWORK
 62
     7
370
    30
100
AcDbLine
 10
85.21751495381568
 20
63.43449773385088
 30
0.0
 11
87.41365557881568
 21
63.43449773385088
 31
0.0
  0
LINE
  5
14B
330
2
100
AcDbEntity
  8
LINEWORK
 62
     7
370
    30
100
AcDbLine
 10
87.41365557881568
 20
63.43449773385112
 30
0.0
 11
85.21751495381568
 21
63.43449773385112
 31
0.0
  0
LINE
  5
14C
330
2
100
AcDbEntity
  8
LINEWORK
 62
     7
370
    30
100
AcDbLine
 10
85.21751495381568
 20
61.05011648385096
 30
0.0
 11
88.10387120381575
 21
61.05011648385096
 31
0.0
  0
LINE
  5
14D
330
2
100
AcDbEntity
  8
LINEWORK
 62
     7
370
    30
100
AcDbLine
 10
88.10387120381575
 20
61.05011648385096
 30
0.0
 11
85.21751495381568
 21
61.05011648385096
 31
0.0
  0
ARC
  5
14E
330
2
100
AcDbEntity
  8
LINEWORK
 62
     7
370
    30
100
AcDbCircle
 10
84.22675173075777
 20
69.52185345919986
 30
0.0
 40
3.857967380510689
100
AcDbArc
 50
310.1237387019697
 51
0.9184135598970037
  0
ARC
  5
14F
330
2
100
AcDbEntity
  8
LINEWORK
 62
     7
370
    30
100
AcDbCircle
 10
84.22577910323127
 20
69.5222962790882
 30
0.0
 40
3.858932812500603
100
AcDbArc
 50
310.1305441294352
 51
0.9116081324222738
  0
LINE
  5
150
330
2
100
AcDbEntity
  8
LINEWORK
 62
     7
370
    30
100
AcDbLine
 10
67.09251495381579
 20
85.46524148385094
 30
0.0
 11
103.0925149538156
 21
85.46524148385094
 31
0.0
  0
LINE
  5
151
330
2
100
AcDbEntity
  8
LINEWORK
 62
     7
370
    30
100
AcDbLine
 10
67.09251495381579
 20
86.0152414838509
 30
0.0
 11
103.0925149538157
 21
86.0152414838509
 31
0.0
  0
LINE
  5
152
330
2
100
AcDbEntity
  8
LINEWORK
 62
     7
370
    30
100
AcDbLine
 10
67.09251495381579
 20
88.7652414838509
 30
0.0
 11
103.0925149538157
 21
88.7652414838509
 31
0.0
  0
LINE
  5
153
330
2
100
AcDbEntity
  8
LINEWORK
 62
     7
370
    30
100
AcDbLine
 10
67.09251495381579
 20
87.80274148385093
 30
0.0
 11
103.0925149538157
 21
87.80274148385093
 31
0.0
  0
LINE
  5
154
330
2
100
AcDbEntity
  8
LINEWORK
 62
     7
370
    30
100
AcDbLine
 10
67.09251495381579
 20
89.59024148385095
 30
0.0
 11
103.0925149538156
 21
89.59024148385095
 31
0.0
  0
LINE
  5
155
330
2
100
AcDbEntity
  8
LINEWORK
 62
     7
370
    30
100
AcDbLine
 10
67.09251495381579
 20
84.91524148385099
 30
0.0
 11
103.0925149538156
 21
84.91524148385099
 31
0.0
  0
ARC
  5
156
330
2
100
AcDbEntity
  8
LINEWORK
 62
     7
370
    30
100
AcDbCircle
 10
84.0327306604521
 20
82.15882471030557
 30
0.0
 40
1.631418750000056
100
AcDbArc
 50
176.4950813054347
 51
249.8619420133486
  0
LINE
  5
157
330
2
100
AcDbEntity
  8
LINEWORK
 62
     7
370
    30
100
AcDbLine
 10
83.47106026631569
 20
79.99967273385107
 30
0.0
 11
83.47106026631569
 21
80.62714148385101
 31
0.0
  0
LINE
  5
158
330
2
100
AcDbEntity
  8
LINEWORK
 62
     7
370
    30
100
AcDbLine
 10
83.47106026631582
 20
79.99967273385107
 30
0.0
 11
83.47106026631569
 21
80.62714148385101
 31
0.0
  0
ARC
  5
159
330
2
100
AcDbEntity
  8
LINEWORK
 62
     7
370
    30
100
AcDbCircle
 10
76.6577306604521
 20
82.15882471030557
 30
0.0
 40
1.631418750000056
100
AcDbArc
 50
176.4950813054347
 51
249.8619420133486
  0
LINE
  5
15A
330
2
100
AcDbEntity
  8
LINEWORK
 62
     7
370
    30
100
AcDbLine
 10
76.09606026631571
 20
79.99967273385107
 30
0.0
 11
76.09606026631571
 21
80.62714148385101
 31
0.0
  0
LINE
  5
15B
330
2
100
AcDbEntity
  8
LINEWORK
 62
     7
370
    30
100
AcDbLine
 10
76.09606026631581
 20
79.99967273385107
 30
0.0
 11
76.09606026631571
 21
80.62714148385101
 31
0.0
  0
LINE
  5
15C
330
2
100
AcDbEntity
  8
LINEWORK
 62
     7
370
    30
100
AcDbLine
 10
79.58896964131577
 20
79.99967273385107
 30
0.0
 11
79.58896964131577
 21
80.62714148385101
 31
0.0
  0
LINE
  5
15D
330
2
100
AcDbEntity
  8
LINEWORK
 62
     7
370
    30
100
AcDbLine
 10
79.58896964131577
 20
79.99967273385107
 30
0.0
 11
79.58896964131577
 21
80.62714148385101
 31
0.0
  0
ARC
  5
15E
330
2
100
AcDbEntity
  8
LINEWORK
 62
     7
370
    30
100
AcDbCircle
 10
69.2827306604521
 20
82.15882471030557
 30
0.0
 40
1.631418750000056
100
AcDbArc
 50
176.4950813054347
 51
249.8619420133486
  0
LINE
  5
15F
330
2
100
AcDbEntity
  8
LINEWORK
 62
     7
370
    30
100
AcDbLine
 10
68.72106026631581
 20
79.99967273385107
 30
0.0
 11
68.7210602663157
 21
80.62714148385101
 31
0.0
  0
LINE
  5
160
330
2
100
AcDbEntity
  8
LINEWORK
 62
     7
370
    30
100
AcDbLine
 10
68.7210602663157
 20
79.99967273385107
 30
0.0
 11
68.7210602663157
 21
80.62714148385101
 31
0.0
  0
LINE
  5
161
330
2
100
AcDbEntity
  8
LINEWORK
 62
     7
370
    30
100
AcDbLine
 10
72.21396964131577
 20
79.99967273385107
 30
0.0
 11
72.21396964131577
 21
80.62714148385101
 31
0.0
  0
LINE
  5
162
330
2
100
AcDbEntity
  8
LINEWORK
 62
     7
370
    30
100
AcDbLine
 10
72.21396964131577
 20
79.99967273385107
 30
0.0
 11
72.21396964131577
 21
80.62714148385101
 31
0.0
  0
ARC
  5
163
330
2
100
AcDbEntity
  8
LINEWORK
 62
     7
370
    30
100
AcDbCircle
 10
71.65229924717937
 20
82.15882471030557
 30
0.0
 40
1.631418750000088
100
AcDbArc
 50
290.1380579866513
 51
3.504918694565252
  0
ARC
  5
164
330
2
100
AcDbEntity
  8
LINEWORK
 62
     7
370
    30
100
AcDbCircle
 10
79.02729924717937
 20
82.15882471030557
 30
0.0
 40
1.631418750000088
100
AcDbArc
 50
290.1380579866513
 51
3.504918694565252
  0
LINE
  5
165
330
2
100
AcDbEntity
  8
LINEWORK
 62
     7
370
    30
100
AcDbLine
 10
77.84251495381568
 20
77.61529148385102
 30
0.0
 11
76.09606026631571
 21
77.61529148385102
 31
0.0
  0
LINE
  5
166
330
2
100
AcDbEntity
  8
LINEWORK
 62
     7
370
    30
100
AcDbLine
 10
77.84251495381568
 20
76.73683523385091
 30
0.0
 11
76.22155401631573
 21
76.73683523385091
 31
0.0
  0
LINE
  5
167
330
2
100
AcDbEntity
  8
LINEWORK
 62
     7
370
    30
100
AcDbLine
 10
76.09606026631571
 20
76.86232898385094
 30
0.0
 11
77.84251495381568
 21
76.86232898385094
 31
0.0
  0
LINE
  5
168
330
2
100
AcDbEntity
  8
LINEWORK
 62
     7
370
    30
100
AcDbLine
 10
76.09606026631581
 20
77.61529148385102
 30
0.0
 11
77.84251495381568
 21
77.61529148385102
 31
0.0
  0
LINE
  5
169
330
2
100
AcDbEntity
  8
LINEWORK
 62
     7
370
    30
100
AcDbLine
 10
77.84251495381568
 20
76.86232898385094
 30
0.0
 11
76.09606026631571
 21
76.86232898385094
 31
0.0
  0
LINE
  5
16A
330
2
100
AcDbEntity
  8
LINEWORK
 62
     7
370
    30
100
AcDbLine
 10
76.22155401631573
 20
76.73683523385114
 30
0.0
 11
77.84251495381568
 21
76.73683523385091
 31
0.0
  0
LINE
  5
16B
330
2
100
AcDbEntity
  8
LINEWORK
 62
     7
370
    30
100
AcDbLine
 10
77.84251495381568
 20
79.99967273385107
 30
0.0
 11
76.09606026631571
 21
79.99967273385107
 31
0.0
  0
LINE
  5
16C
330
2
100
AcDbEntity
  8
LINEWORK
 62
     7
370
    30
100
AcDbLine
 10
77.84251495381568
 20
78.74473523385097
 30
0.0
 11
76.09606026631571
 21
78.74473523385097
 31
0.0
  0
LINE
  5
16D
330
2
100
AcDbEntity
  8
LINEWORK
 62
     7
370
    30
100
AcDbLine
 10
77.84251495381568
 20
79.99967273385107
 30
0.0
 11
76.09606026631581
 21
79.99967273385107
 31
0.0
  0
LINE
  5
16E
330
2
100
AcDbEntity
  8
LINEWORK
 62
     7
370
    30
100
AcDbLine
 10
77.84251495381568
 20
61.05011648385096
 30
0.0
 11
74.95615870381573
 21
61.05011648385096
 31
0.0
  0
LINE
  5
16F
330
2
100
AcDbEntity
  8
LINEWORK
 62
     7
370
    30
100
AcDbLine
 10
74.95615870381573
 20
61.05011648385096
 30
0.0
 11
77.84251495381568
 21
61.05011648385096
 31
0.0
  0
LINE
  5
170
330
2
100
AcDbEntity
  8
LINEWORK
 62
     7
370
    30
100
AcDbLine
 10
77.84251495381568
 20
62.80702898385095
 30
0.0
 11
75.64637432881568
 21
62.80702898385095
 31
0.0
  0
LINE
  5
171
330
2
100
AcDbEntity
  8
LINEWORK
 62
     7
370
    30
100
AcDbLine
 10
77.84251495381568
 20
62.80702898385107
 30
0.0
 11
75.64637432881568
 21
62.80702898385107
 31
0.0
  0
LINE
  5
172
330
2
100
AcDbEntity
  8
LINEWORK
 62
     7
370
    30
100
AcDbLine
 10
77.84251495381568
 20
61.17561023385099
 30
0.0
 11
75.52088057881565
 21
61.17561023385099
 31
0.0
  0
LINE
  5
173
330
2
100
AcDbEntity
  8
LINEWORK
 62
     7
370
    30
100
AcDbLine
 10
77.84251495381568
 20
61.42659773385105
 30
0.0
 11
75.52088057881565
 21
61.42659773385105
 31
0.0
  0
LINE
  5
174
330
2
100
AcDbEntity
  8
LINEWORK
 62
     7
370
    30
100
AcDbLine
 10
75.52088057881565
 20
61.17561023385099
 30
0.0
 11
77.84251495381568
 21
61.17561023385099
 31
0.0
  0
LINE
  5
175
330
2
100
AcDbEntity
  8
LINEWORK
 62
     7
370
    30
100
AcDbLine
 10
75.52088057881565
 20
61.42659773385105
 30
0.0
 11
77.84251495381568
 21
61.42659773385105
 31
0.0
  0
LINE
  5
176
330
2
100
AcDbEntity
  8
LINEWORK
 62
     7
370
    30
100
AcDbLine
 10
77.84251495381568
 20
63.43449773385088
 30
0.0
 11
75.64637432881568
 21
63.43449773385088
 31
0.0
  0
LINE
  5
177
330
2
100
AcDbEntity
  8
LINEWORK
 62
     7
370
    30
100
AcDbLine
 10
75.64637432881568
 20
63.43449773385112
 30
0.0
 11
77.84251495381568
 21
63.43449773385112
 31
0.0
  0
LINE
  5
178
330
2
100
AcDbEntity
  8
LINEWORK
 62
     7
370
    30
100
AcDbLine
 10
77.84251495381568
 20
66.57184148385102
 30
0.0
 11
76.34704776631576
 21
66.57184148385102
 31
0.0
  0
LINE
  5
179
330
2
100
AcDbEntity
  8
LINEWORK
 62
     7
370
    30
100
AcDbLine
 10
77.84251495381568
 20
66.57184148385102
 30
0.0
 11
76.34704776631576
 21
66.57184148385102
 31
0.0
  0
LINE
  5
17A
330
2
100
AcDbEntity
  8
LINEWORK
 62
     7
370
    30
100
AcDbLine
 10
77.84251495381568
 20
65.56789148385099
 30
0.0
 11
76.34704776631576
 21
65.56789148385099
 31
0.0
  0
LINE
  5
17B
330
2
100
AcDbEntity
  8
LINEWORK
 62
     7
370
    30
100
AcDbLine
 10
76.34704776631576
 20
65.56789148385099
 30
0.0
 11
77.84251495381568
 21
65.56789148385099
 31
0.0
  0
ARC
  5
17C
330
2
100
AcDbEntity
  8
LINEWORK
 62
     7
370
    30
100
AcDbCircle
 10
73.62661723154463
 20
65.07740534828759
 30
0.0
 40
2.764293570461533
100
AcDbArc
 50
339.8400491762129
 51
10.22046936756176
  0
ARC
  5
17D
330
2
100
AcDbEntity
  8
LINEWORK
 62
     7
370
    30
100
AcDbCircle
 10
73.63015931567577
 20
65.07709734097159
 30
0.0
 40
2.760862499999871
100
AcDbArc
 50
339.8207155174592
 51
10.23980302638167
  0
SOLID
  5
17E
330
2
100
AcDbEntity
  8
leaders
 62
     1
370
    30
100
AcDbTrace
 10
66.747540495772
 20
67.64551893264002
 30
0.0
 11
66.9778661999884
 21
67.31848671713635
 31
0.0
 12
67.84379999439124
 22
68.17297993753732
 32
0.0
 13
67.84379999439124
 23
68.17297993753732
 33
0.0
  0
ARC
  5
17F
330
2
100
AcDbEntity
  8
LINEWORK
 62
     7
370
    30
100
AcDbCircle
 10
48.59482895621908
 20
76.07618304034133
 30
0.0
 40
27.63462319024747
100
AcDbArc
 50
355.9022623541395
 51
1.369882582655912
  0
ARC
  5
180
330
2
100
AcDbEntity
  8
LINEWORK
 62
     7
370
    30
100
AcDbCircle
 10
48.58944911032313
 20
76.0763111319103
 30
0.0
 40
27.63999843750035
100
AcDbArc
 50
355.9027944114711
 51
1.369350525323726
  0
ARC
  5
181
330
2
100
AcDbEntity
  8
LINEWORK
 62
     7
370
    30
100
AcDbCircle
 10
73.93129307881577
 20
74.12499656197599
 30
0.0
 40
2.22763833761492
100
AcDbArc
 50
332.532727661389
 51
359.3947854027546
  0
ARC
  5
182
330
2
100
AcDbEntity
  8
LINEWORK
 62
     7
370
    30
100
AcDbCircle
 10
73.931417033716
 20
74.12496557325096
 30
0.0
 40
2.227514062500199
100
AcDbArc
 50
332.5319642964298
 51
359.3955487677153
  0
ARC
  5
183
330
2
100
AcDbEntity
  8
LINEWORK
 62
     7
370
    30
100
AcDbCircle
 10
76.6058786256907
 20
78.18001335885094
 30
0.0
 40
0.760805859375
100
AcDbArc
 50
132.0750220508426
 51
227.9249779491573
  0
ARC
  5
184
330
2
100
AcDbEntity
  8
LINEWORK
 62
     7
370
    30
100
AcDbCircle
 10
76.59409814670505
 20
78.18001335885094
 30
0.0
 40
0.7529625000000308
100
AcDbArc
 50
131.4096221092697
 51
228.5903778907302
  0
LINE
  5
185
330
2
100
AcDbEntity
  8
LINEWORK
 62
     7
370
    30
100
AcDbLine
 10
76.09606026631571
 20
76.86232898385094
 30
0.0
 11
76.22155401631573
 21
76.73683523385091
 31
0.0
  0
LINE
  5
186
330
2
100
AcDbEntity
  8
LINEWORK
 62
     7
370
    30
100
AcDbLine
 10
76.09606026631571
 20
76.86232898385094
 30
0.0
 11
76.09606026631571
 21
77.61529148385102
 31
0.0
  0
LINE
  5
187
330
2
100
AcDbEntity
  8
LINEWORK
 62
     7
370
    30
100
AcDbLine
 10
76.09606026631571
 20
76.86232898385094
 30
0.0
 11
76.09606026631581
 21
77.61529148385102
 31
0.0
  0
LINE
  5
188
330
2
100
AcDbEntity
  8
LINEWORK
 62
     7
370
    30
100
AcDbLine
 10
76.09606026631571
 20
76.86232898385094
 30
0.0
 11
76.22155401631573
 21
76.73683523385091
 31
0.0
  0
ARC
  5
189
330
2
100
AcDbEntity
  8
LINEWORK
 62
     7
370
    30
100
AcDbCircle
 10
75.18623057881575
 20
79.37220398385102
 30
0.0
 40
1.105218119867257
100
AcDbArc
 50
325.4077113124903
 51
34.59228868750958
  0
ARC
  5
18A
330
2
100
AcDbEntity
  8
LINEWORK
 62
     7
370
    30
100
AcDbCircle
 10
75.19492688053571
 20
79.37220398385102
 30
0.0
 40
1.098070312499993
100
AcDbArc
 50
325.1500954209564
 51
34.84990457904352
  0
LINE
  5
18B
330
2
100
AcDbEntity
  8
LINEWORK
 62
     7
370
    30
100
AcDbLine
 10
70.46751495381568
 20
79.99967273385107
 30
0.0
 11
68.72106026631581
 21
79.99967273385107
 31
0.0
  0
LINE
  5
18C
330
2
100
AcDbEntity
  8
LINEWORK
 62
     7
370
    30
100
AcDbLine
 10
70.46751495381568
 20
78.74473523385097
 30
0.0
 11
68.7210602663157
 21
78.74473523385097
 31
0.0
  0
LINE
  5
18D
330
2
100
AcDbEntity
  8
LINEWORK
 62
     7
370
    30
100
AcDbLine
 10
70.46751495381568
 20
79.99967273385107
 30
0.0
 11
68.7210602663157
 21
79.99967273385107
 31
0.0
  0
LINE
  5
18E
330
2
100
AcDbEntity
  8
LINEWORK
 62
     7
370
    30
100
AcDbLine
 10
68.84655401631573
 20
76.73683523385114
 30
0.0
 11
70.46751495381568
 21
76.73683523385091
 31
0.0
  0
LINE
  5
18F
330
2
100
AcDbEntity
  8
LINEWORK
 62
     7
370
    30
100
AcDbLine
 10
70.46751495381568
 20
76.86232898385094
 30
0.0
 11
68.7210602663157
 21
76.86232898385094
 31
0.0
  0
LINE
  5
190
330
2
100
AcDbEntity
  8
LINEWORK
 62
     7
370
    30
100
AcDbLine
 10
68.72106026631581
 20
77.61529148385102
 30
0.0
 11
70.46751495381568
 21
77.61529148385102
 31
0.0
  0
LINE
  5
191
330
2
100
AcDbEntity
  8
LINEWORK
 62
     7
370
    30
100
AcDbLine
 10
68.7210602663157
 20
76.86232898385094
 30
0.0
 11
70.46751495381568
 21
76.86232898385094
 31
0.0
  0
LINE
  5
192
330
2
100
AcDbEntity
  8
LINEWORK
 62
     7
370
    30
100
AcDbLine
 10
70.46751495381568
 20
76.73683523385091
 30
0.0
 11
68.84655401631573
 21
76.73683523385091
 31
0.0
  0
LINE
  5
193
330
2
100
AcDbEntity
  8
LINEWORK
 62
     7
370
    30
100
AcDbLine
 10
70.46751495381568
 20
77.61529148385102
 30
0.0
 11
68.7210602663157
 21
77.61529148385102
 31
0.0
  0
ARC
  5
194
330
2
100
AcDbEntity
  8
LINEWORK
 62
     7
370
    30
100
AcDbCircle
 10
41.21444911032313
 20
76.0763111319103
 30
0.0
 40
27.63999843750035
100
AcDbArc
 50
355.9027944114711
 51
1.369350525323726
  0
ARC
  5
195
330
2
100
AcDbEntity
  8
LINEWORK
 62
     7
370
    30
100
AcDbCircle
 10
41.21982895621909
 20
76.07618304034133
 30
0.0
 40
27.63462319024747
100
AcDbArc
 50
355.9022623541395
 51
1.369882582655912
  0
ARC
  5
196
330
2
100
AcDbEntity
  8
LINEWORK
 62
     7
370
    30
100
AcDbCircle
 10
66.556417033716
 20
74.12496557325096
 30
0.0
 40
2.227514062500199
100
AcDbArc
 50
332.5319642964298
 51
359.3955487677153
  0
ARC
  5
197
330
2
100
AcDbEntity
  8
LINEWORK
 62
     7
370
    30
100
AcDbCircle
 10
66.55629307881577
 20
74.12499656197599
 30
0.0
 40
2.22763833761492
100
AcDbArc
 50
332.532727661389
 51
359.3947854027546
  0
ARC
  5
198
330
2
100
AcDbEntity
  8
LINEWORK
 62
     7
370
    30
100
AcDbCircle
 10
67.81992688053572
 20
79.37220398385102
 30
0.0
 40
1.098070312499993
100
AcDbArc
 50
325.1500954209564
 51
34.84990457904352
  0
ARC
  5
199
330
2
100
AcDbEntity
  8
LINEWORK
 62
     7
370
    30
100
AcDbCircle
 10
67.81123057881575
 20
79.37220398385102
 30
0.0
 40
1.105218119867257
100
AcDbArc
 50
325.4077113124903
 51
34.59228868750958
  0
LINE
  5
19A
330
2
100
AcDbEntity
  8
LINEWORK
 62
     7
370
    30
100
AcDbLine
 10
68.7210602663157
 20
76.86232898385094
 30
0.0
 11
68.84655401631573
 21
76.73683523385091
 31
0.0
  0
LINE
  5
19B
330
2
100
AcDbEntity
  8
LINEWORK
 62
     7
370
    30
100
AcDbLine
 10
68.7210602663157
 20
76.86232898385094
 30
0.0
 11
68.72106026631581
 21
77.61529148385102
 31
0.0
  0
LINE
  5
19C
330
2
100
AcDbEntity
  8
LINEWORK
 62
     7
370
    30
100
AcDbLine
 10
68.7210602663157
 20
76.86232898385094
 30
0.0
 11
68.7210602663157
 21
77.61529148385102
 31
0.0
  0
LINE
  5
19D
330
2
100
AcDbEntity
  8
LINEWORK
 62
     7
370
    30
100
AcDbLine
 10
68.7210602663157
 20
76.86232898385094
 30
0.0
 11
68.84655401631573
 21
76.73683523385091
 31
0.0
  0
ARC
  5
19E
330
2
100
AcDbEntity
  8
LINEWORK
 62
     7
370
    30
100
AcDbCircle
 10
69.21909814670505
 20
78.18001335885094
 30
0.0
 40
0.7529625000000308
100
AcDbArc
 50
131.4096221092697
 51
228.5903778907302
  0
ARC
  5
19F
330
2
100
AcDbEntity
  8
LINEWORK
 62
     7
370
    30
100
AcDbCircle
 10
69.23087862569071
 20
78.18001335885094
 30
0.0
 40
0.760805859375
100
AcDbArc
 50
132.0750220508426
 51
227.9249779491573
  0
ARC
  5
1A0
330
2
100
AcDbEntity
  8
LINEWORK
 62
     7
370
    30
100
AcDbCircle
 10
99.72058079730835
 20
76.0763111319103
 30
0.0
 40
27.63999843750035
100
AcDbArc
 50
178.6306494746762
 51
184.0972055885288
  0
ARC
  5
1A1
330
2
100
AcDbEntity
  8
LINEWORK
 62
     7
370
    30
100
AcDbCircle
 10
99.71520095141251
 20
76.07618304034133
 30
0.0
 40
27.63462319024747
100
AcDbArc
 50
178.630117417344
 51
184.0977376458605
  0
ARC
  5
1A2
330
2
100
AcDbEntity
  8
LINEWORK
 62
     7
370
    30
100
AcDbCircle
 10
74.37861287391547
 20
74.12496557325096
 30
0.0
 40
2.22751406250017
100
AcDbArc
 50
180.6044512322847
 51
207.4680357035701
  0
ARC
  5
1A3
330
2
100
AcDbEntity
  8
LINEWORK
 62
     7
370
    30
100
AcDbCircle
 10
74.3787368288157
 20
74.12499656197599
 30
0.0
 40
2.22763833761492
100
AcDbArc
 50
180.6052145972454
 51
207.467272338611
  0
LINE
  5
1A4
330
2
100
AcDbEntity
  8
LINEWORK
 62
     7
370
    30
100
AcDbLine
 10
70.46751495381568
 20
79.99967273385107
 30
0.0
 11
72.21396964131577
 21
79.99967273385107
 31
0.0
  0
LINE
  5
1A5
330
2
100
AcDbEntity
  8
LINEWORK
 62
     7
370
    30
100
AcDbLine
 10
70.46751495381568
 20
79.99967273385107
 30
0.0
 11
72.21396964131577
 21
79.99967273385107
 31
0.0
  0
LINE
  5
1A6
330
2
100
AcDbEntity
  8
LINEWORK
 62
     7
370
    30
100
AcDbLine
 10
70.46751495381568
 20
78.74473523385097
 30
0.0
 11
72.21396964131577
 21
78.74473523385097
 31
0.0
  0
ARC
  5
1A7
330
2
100
AcDbEntity
  8
LINEWORK
 62
     7
370
    30
100
AcDbCircle
 10
73.11510302709575
 20
79.37220398385102
 30
0.0
 40
1.09807031250002
100
AcDbArc
 50
145.1500954209564
 51
214.8499045790435
  0
ARC
  5
1A8
330
2
100
AcDbEntity
  8
LINEWORK
 62
     7
370
    30
100
AcDbCircle
 10
73.12379932881572
 20
79.37220398385102
 30
0.0
 40
1.105218119867257
100
AcDbArc
 50
145.4077113124904
 51
214.5922886875095
  0
LINE
  5
1A9
330
2
100
AcDbEntity
  8
LINEWORK
 62
     7
370
    30
100
AcDbLine
 10
72.21396964131577
 20
76.86232898385094
 30
0.0
 11
72.21396964131577
 21
77.61529148385102
 31
0.0
  0
LINE
  5
1AA
330
2
100
AcDbEntity
  8
LINEWORK
 62
     7
370
    30
100
AcDbLine
 10
72.21396964131577
 20
76.86232898385094
 30
0.0
 11
72.08847589131574
 21
76.73683523385091
 31
0.0
  0
LINE
  5
1AB
330
2
100
AcDbEntity
  8
LINEWORK
 62
     7
370
    30
100
AcDbLine
 10
72.21396964131577
 20
76.86232898385094
 30
0.0
 11
72.08847589131574
 21
76.73683523385091
 31
0.0
  0
LINE
  5
1AC
330
2
100
AcDbEntity
  8
LINEWORK
 62
     7
370
    30
100
AcDbLine
 10
72.21396964131577
 20
76.86232898385094
 30
0.0
 11
72.21396964131577
 21
77.61529148385102
 31
0.0
  0
LINE
  5
1AD
330
2
100
AcDbEntity
  8
LINEWORK
 62
     7
370
    30
100
AcDbLine
 10
72.08847589131574
 20
76.73683523385114
 30
0.0
 11
70.46751495381568
 21
76.73683523385091
 31
0.0
  0
LINE
  5
1AE
330
2
100
AcDbEntity
  8
LINEWORK
 62
     7
370
    30
100
AcDbLine
 10
72.21396964131577
 20
77.61529148385102
 30
0.0
 11
70.46751495381568
 21
77.61529148385102
 31
0.0
  0
LINE
  5
1AF
330
2
100
AcDbEntity
  8
LINEWORK
 62
     7
370
    30
100
AcDbLine
 10
70.46751495381568
 20
76.86232898385094
 30
0.0
 11
72.21396964131577
 21
76.86232898385094
 31
0.0
  0
LINE
  5
1B0
330
2
100
AcDbEntity
  8
LINEWORK
 62
     7
370
    30
100
AcDbLine
 10
70.46751495381568
 20
77.61529148385102
 30
0.0
 11
72.21396964131577
 21
77.61529148385102
 31
0.0
  0
LINE
  5
1B1
330
2
100
AcDbEntity
  8
LINEWORK
 62
     7
370
    30
100
AcDbLine
 10
70.46751495381568
 20
76.73683523385091
 30
0.0
 11
72.08847589131574
 21
76.73683523385091
 31
0.0
  0
LINE
  5
1B2
330
2
100
AcDbEntity
  8
LINEWORK
 62
     7
370
    30
100
AcDbLine
 10
72.21396964131577
 20
76.86232898385094
 30
0.0
 11
70.46751495381568
 21
76.86232898385094
 31
0.0
  0
ARC
  5
1B3
330
2
100
AcDbEntity
  8
LINEWORK
 62
     7
370
    30
100
AcDbCircle
 10
71.71593176092642
 20
78.18001335885094
 30
0.0
 40
0.7529625000000308
100
AcDbArc
 50
311.4096221092697
 51
48.59037789073025
  0
ARC
  5
1B4
330
2
100
AcDbEntity
  8
LINEWORK
 62
     7
370
    30
100
AcDbCircle
 10
71.70415128194076
 20
78.18001335885094
 30
0.0
 40
0.760805859375
100
AcDbArc
 50
312.0750220508427
 51
47.9249779491573
  0
ARC
  5
1B5
330
2
100
AcDbEntity
  8
LINEWORK
 62
     7
370
    30
100
AcDbCircle
 10
80.30132996800785
 20
69.80299827717806
 30
0.0
 40
5.330037199451427
100
AcDbArc
 50
160.3928811039786
 51
182.3581264680186
  0
ARC
  5
1B6
330
2
100
AcDbEntity
  8
LINEWORK
 62
     7
370
    30
100
AcDbCircle
 10
80.30480170752946
 20
69.80247170758673
 30
0.0
 40
5.333484374999923
100
AcDbArc
 50
160.4000676171826
 51
182.3509399547389
  0
ARC
  5
1B7
330
2
100
AcDbEntity
  8
LINEWORK
 62
     7
370
    30
100
AcDbCircle
 10
78.8332781768737
 20
69.52185345919986
 30
0.0
 40
3.857967380510689
100
AcDbArc
 50
179.0815864401029
 51
229.8762612980302
  0
ARC
  5
1B8
330
2
100
AcDbEntity
  8
LINEWORK
 62
     7
370
    30
100
AcDbCircle
 10
78.83425080440031
 20
69.5222962790882
 30
0.0
 40
3.858932812500603
100
AcDbArc
 50
179.0883918675777
 51
229.8694558705647
  0
LINE
  5
1B9
330
2
100
AcDbEntity
  8
LINEWORK
 62
     7
370
    30
100
AcDbLine
 10
74.95615870381573
 20
61.05011648385096
 30
0.0
 11
75.52088057881565
 21
61.17561023385099
 31
0.0
  0
LINE
  5
1BA
330
2
100
AcDbEntity
  8
LINEWORK
 62
     7
370
    30
100
AcDbLine
 10
75.52088057881565
 20
61.17561023385099
 30
0.0
 11
74.95615870381573
 21
61.05011648385096
 31
0.0
  0
LINE
  5
1BB
330
2
100
AcDbEntity
  8
LINEWORK
 62
     7
370
    30
100
AcDbLine
 10
75.64637432881568
 20
63.43449773385088
 30
0.0
 11
75.64637432881568
 21
62.80702898385095
 31
0.0
  0
LINE
  5
1BC
330
2
100
AcDbEntity
  8
LINEWORK
 62
     7
370
    30
100
AcDbLine
 10
75.64637432881568
 20
62.80702898385107
 30
0.0
 11
75.64637432881568
 21
63.43449773385112
 31
0.0
  0
LINE
  5
1BD
330
2
100
AcDbEntity
  8
LINEWORK
 62
     7
370
    30
100
AcDbLine
 10
75.52088057881565
 20
61.17561023385099
 30
0.0
 11
75.52088057881565
 21
61.42659773385105
 31
0.0
  0
LINE
  5
1BE
330
2
100
AcDbEntity
  8
LINEWORK
 62
     7
370
    30
100
AcDbLine
 10
75.52088057881565
 20
61.42659773385105
 30
0.0
 11
75.52088057881565
 21
61.17561023385099
 31
0.0
  0
ARC
  5
1BF
330
2
100
AcDbEntity
  8
LINEWORK
 62
     7
370
    30
100
AcDbCircle
 10
75.91057169723672
 20
62.08709115490353
 30
0.0
 40
0.7668837767419853
100
AcDbArc
 50
110.1517470342128
 51
239.4593951503178
  0
ARC
  5
1C0
330
2
100
AcDbEntity
  8
LINEWORK
 62
     7
370
    30
100
AcDbCircle
 10
75.87672771917948
 20
62.09016788018164
 30
0.0
 40
0.7529625000000071
100
AcDbArc
 50
107.8140895270852
 51
241.7970526574468
  0
ARC
  5
1C1
330
2
100
AcDbEntity
  8
LINEWORK
 62
     7
370
    30
100
AcDbCircle
 10
74.65784960225324
 20
64.84303435494485
 30
0.0
 40
1.720801135514404
100
AcDbArc
 50
305.0615521464798
 51
335.3273056689872
  0
ARC
  5
1C2
330
2
100
AcDbEntity
  8
LINEWORK
 62
     7
370
    30
100
AcDbCircle
 10
74.65407945384242
 20
64.84617614528724
 30
0.0
 40
1.725539062499979
100
AcDbArc
 50
305.1040931533572
 51
335.284764662113
  0
ARC
  5
1C3
330
2
100
AcDbEntity
  8
LINEWORK
 62
     7
370
    30
100
AcDbCircle
 10
76.65206729756573
 20
66.06986648385088
 30
0.0
 40
0.587380468750003
100
AcDbArc
 50
121.2844929144162
 51
238.7155070855837
  0
ARC
  5
1C4
330
2
100
AcDbEntity
  8
LINEWORK
 62
     7
370
    30
100
AcDbCircle
 10
76.66852983574063
 20
66.06986648385316
 30
0.0
 40
0.5960953125000341
100
AcDbArc
 50
122.6368975039364
 51
237.3631024959551
  0
ARC
  5
1C5
330
2
100
AcDbEntity
  8
LINEWORK
 62
     7
370
    30
100
AcDbCircle
 10
68.00522820010201
 20
69.80247170758673
 30
0.0
 40
5.333484374999923
100
AcDbArc
 50
357.649060045261
 51
19.59993238281736
  0
ARC
  5
1C6
330
2
100
AcDbEntity
  8
LINEWORK
 62
     7
370
    30
100
AcDbCircle
 10
68.00869993962374
 20
69.80299827717806
 30
0.0
 40
5.330037199451427
100
AcDbArc
 50
357.6418735319813
 51
19.60711889602133
  0
ARC
  5
1C7
330
2
100
AcDbEntity
  8
LINEWORK
 62
     7
370
    30
100
AcDbCircle
 10
72.92980170752946
 20
69.80247170758673
 30
0.0
 40
5.333484374999923
100
AcDbArc
 50
160.4000676171826
 51
182.3509399547389
  0
ARC
  5
1C8
330
2
100
AcDbEntity
  8
LINEWORK
 62
     7
370
    30
100
AcDbCircle
 10
72.92632996800785
 20
69.80299827717806
 30
0.0
 40
5.330037199451427
100
AcDbArc
 50
160.3928811039786
 51
182.3581264680186
  0
LINE
  5
1C9
330
2
100
AcDbEntity
  8
LINEWORK
 62
     7
370
    30
100
AcDbLine
 10
68.97204776631577
 20
65.56789148385099
 30
0.0
 11
70.46751495381568
 21
65.56789148385099
 31
0.0
  0
LINE
  5
1CA
330
2
100
AcDbEntity
  8
LINEWORK
 62
     7
370
    30
100
AcDbLine
 10
70.46751495381568
 20
65.56789148385099
 30
0.0
 11
68.97204776631577
 21
65.56789148385099
 31
0.0
  0
LINE
  5
1CB
330
2
100
AcDbEntity
  8
LINEWORK
 62
     7
370
    30
100
AcDbLine
 10
70.46751495381568
 20
66.57184148385102
 30
0.0
 11
68.97204776631577
 21
66.57184148385102
 31
0.0
  0
LINE
  5
1CC
330
2
100
AcDbEntity
  8
LINEWORK
 62
     7
370
    30
100
AcDbLine
 10
70.46751495381568
 20
66.57184148385102
 30
0.0
 11
68.97204776631577
 21
66.57184148385102
 31
0.0
  0
LINE
  5
1CD
330
2
100
AcDbEntity
  8
LINEWORK
 62
     7
370
    30
100
AcDbLine
 10
68.14588057881564
 20
61.42659773385105
 30
0.0
 11
70.46751495381568
 21
61.42659773385105
 31
0.0
  0
LINE
  5
1CE
330
2
100
AcDbEntity
  8
LINEWORK
 62
     7
370
    30
100
AcDbLine
 10
68.14588057881564
 20
61.17561023385099
 30
0.0
 11
70.46751495381568
 21
61.17561023385099
 31
0.0
  0
LINE
  5
1CF
330
2
100
AcDbEntity
  8
LINEWORK
 62
     7
370
    30
100
AcDbLine
 10
67.58115870381573
 20
61.05011648385096
 30
0.0
 11
70.46751495381568
 21
61.05011648385096
 31
0.0
  0
LINE
  5
1D0
330
2
100
AcDbEntity
  8
LINEWORK
 62
     7
370
    30
100
AcDbLine
 10
70.46751495381568
 20
61.42659773385105
 30
0.0
 11
68.14588057881564
 21
61.42659773385105
 31
0.0
  0
LINE
  5
1D1
330
2
100
AcDbEntity
  8
LINEWORK
 62
     7
370
    30
100
AcDbLine
 10
70.46751495381568
 20
61.17561023385099
 30
0.0
 11
68.14588057881564
 21
61.17561023385099
 31
0.0
  0
LINE
  5
1D2
330
2
100
AcDbEntity
  8
LINEWORK
 62
     7
370
    30
100
AcDbLine
 10
70.46751495381568
 20
61.05011648385096
 30
0.0
 11
67.58115870381573
 21
61.05011648385096
 31
0.0
  0
LINE
  5
1D3
330
2
100
AcDbEntity
  8
LINEWORK
 62
     7
370
    30
100
AcDbLine
 10
68.27137432881568
 20
63.43449773385112
 30
0.0
 11
70.46751495381568
 21
63.43449773385112
 31
0.0
  0
LINE
  5
1D4
330
2
100
AcDbEntity
  8
LINEWORK
 62
     7
370
    30
100
AcDbLine
 10
70.46751495381568
 20
62.80702898385107
 30
0.0
 11
68.27137432881568
 21
62.80702898385107
 31
0.0
  0
LINE
  5
1D5
330
2
100
AcDbEntity
  8
LINEWORK
 62
     7
370
    30
100
AcDbLine
 10
70.46751495381568
 20
63.43449773385088
 30
0.0
 11
68.27137432881568
 21
63.43449773385088
 31
0.0
  0
LINE
  5
1D6
330
2
100
AcDbEntity
  8
LINEWORK
 62
     7
370
    30
100
AcDbLine
 10
70.46751495381568
 20
62.80702898385095
 30
0.0
 11
68.27137432881568
 21
62.80702898385095
 31
0.0
  0
LINE
  5
1D7
330
2
100
AcDbEntity
  8
LINEWORK
 62
     7
370
    30
100
AcDbLine
 10
68.27137432881568
 20
62.80702898385107
 30
0.0
 11
68.27137432881568
 21
63.43449773385112
 31
0.0
  0
LINE
  5
1D8
330
2
100
AcDbEntity
  8
LINEWORK
 62
     7
370
    30
100
AcDbLine
 10
68.27137432881568
 20
63.43449773385088
 30
0.0
 11
68.27137432881568
 21
62.80702898385095
 31
0.0
  0
LINE
  5
1D9
330
2
100
AcDbEntity
  8
LINEWORK
 62
     7
370
    30
100
AcDbLine
 10
68.14588057881564
 20
61.17561023385099
 30
0.0
 11
67.58115870381573
 21
61.05011648385096
 31
0.0
  0
LINE
  5
1DA
330
2
100
AcDbEntity
  8
LINEWORK
 62
     7
370
    30
100
AcDbLine
 10
67.58115870381573
 20
61.05011648385096
 30
0.0
 11
68.14588057881564
 21
61.17561023385099
 31
0.0
  0
ARC
  5
1DB
330
2
100
AcDbEntity
  8
LINEWORK
 62
     7
370
    30
100
AcDbCircle
 10
68.50172771917948
 20
62.09016788018164
 30
0.0
 40
0.7529625000000071
100
AcDbArc
 50
107.8140895270852
 51
241.7970526574468
  0
ARC
  5
1DC
330
2
100
AcDbEntity
  8
LINEWORK
 62
     7
370
    30
100
AcDbCircle
 10
68.53557169723671
 20
62.08709115490353
 30
0.0
 40
0.7668837767419853
100
AcDbArc
 50
110.1517470342128
 51
239.4593951503178
  0
LINE
  5
1DD
330
2
100
AcDbEntity
  8
LINEWORK
 62
     7
370
    30
100
AcDbLine
 10
68.14588057881564
 20
61.42659773385105
 30
0.0
 11
68.14588057881564
 21
61.17561023385099
 31
0.0
  0
LINE
  5
1DE
330
2
100
AcDbEntity
  8
LINEWORK
 62
     7
370
    30
100
AcDbLine
 10
68.14588057881564
 20
61.17561023385099
 30
0.0
 11
68.14588057881564
 21
61.42659773385105
 31
0.0
  0
ARC
  5
1DF
330
2
100
AcDbEntity
  8
LINEWORK
 62
     7
370
    30
100
AcDbCircle
 10
71.45925080440031
 20
69.5222962790882
 30
0.0
 40
3.858932812500603
100
AcDbArc
 50
179.0883918675777
 51
229.8694558705647
  0
ARC
  5
1E0
330
2
100
AcDbEntity
  8
LINEWORK
 62
     7
370
    30
100
AcDbCircle
 10
71.4582781768737
 20
69.52185345919986
 30
0.0
 40
3.857967380510689
100
AcDbArc
 50
179.0815864401029
 51
229.8762612980302
  0
ARC
  5
1E1
330
2
100
AcDbEntity
  8
LINEWORK
 62
     7
370
    30
100
AcDbCircle
 10
69.29352983574062
 20
66.06986648385316
 30
0.0
 40
0.5960953125000341
100
AcDbArc
 50
122.6368975039364
 51
237.3631024959551
  0
ARC
  5
1E2
330
2
100
AcDbEntity
  8
LINEWORK
 62
     7
370
    30
100
AcDbCircle
 10
69.27706729756573
 20
66.06986648385088
 30
0.0
 40
0.587380468750003
100
AcDbArc
 50
121.2844929144162
 51
238.7155070855837
  0
ARC
  5
1E3
330
2
100
AcDbEntity
  8
LINEWORK
 62
     7
370
    30
100
AcDbCircle
 10
66.25515931567576
 20
65.07709734097159
 30
0.0
 40
2.760862499999871
100
AcDbArc
 50
339.8207155174592
 51
10.23980302638167
  0
ARC
  5
1E4
330
2
100
AcDbEntity
  8
LINEWORK
 62
     7
370
    30
100
AcDbCircle
 10
66.25161723154462
 20
65.07740534828759
 30
0.0
 40
2.764293570461533
100
AcDbArc
 50
339.8400491762129
 51
10.22046936756176
  0
ARC
  5
1E5
330
2
100
AcDbEntity
  8
LINEWORK
 62
     7
370
    30
100
AcDbCircle
 10
67.27907945384242
 20
64.84617614528724
 30
0.0
 40
1.725539062499979
100
AcDbArc
 50
305.1040931533572
 51
335.284764662113
  0
ARC
  5
1E6
330
2
100
AcDbEntity
  8
LINEWORK
 62
     7
370
    30
100
AcDbCircle
 10
67.28284960225323
 20
64.84303435494485
 30
0.0
 40
1.720801135514404
100
AcDbArc
 50
305.0615521464798
 51
335.3273056689872
  0
LINE
  5
1E7
330
2
100
AcDbEntity
  8
LINEWORK
 62
     7
370
    30
100
AcDbLine
 10
72.66365557881579
 20
62.80702898385107
 30
0.0
 11
72.66365557881568
 21
63.43449773385112
 31
0.0
  0
LINE
  5
1E8
330
2
100
AcDbEntity
  8
LINEWORK
 62
     7
370
    30
100
AcDbLine
 10
72.66365557881568
 20
63.43449773385088
 30
0.0
 11
72.66365557881568
 21
62.80702898385095
 31
0.0
  0
LINE
  5
1E9
330
2
100
AcDbEntity
  8
LINEWORK
 62
     7
370
    30
100
AcDbLine
 10
73.35387120381574
 20
61.05011648385096
 30
0.0
 11
70.46751495381568
 21
61.05011648385096
 31
0.0
  0
LINE
  5
1EA
330
2
100
AcDbEntity
  8
LINEWORK
 62
     7
370
    30
100
AcDbLine
 10
72.78914932881571
 20
61.17561023385099
 30
0.0
 11
70.46751495381568
 21
61.17561023385099
 31
0.0
  0
LINE
  5
1EB
330
2
100
AcDbEntity
  8
LINEWORK
 62
     7
370
    30
100
AcDbLine
 10
72.78914932881571
 20
61.42659773385105
 30
0.0
 11
70.46751495381568
 21
61.42659773385105
 31
0.0
  0
LINE
  5
1EC
330
2
100
AcDbEntity
  8
LINEWORK
 62
     7
370
    30
100
AcDbLine
 10
70.46751495381568
 20
61.05011648385096
 30
0.0
 11
73.35387120381574
 21
61.05011648385096
 31
0.0
  0
LINE
  5
1ED
330
2
100
AcDbEntity
  8
LINEWORK
 62
     7
370
    30
100
AcDbLine
 10
70.46751495381568
 20
61.17561023385099
 30
0.0
 11
72.78914932881571
 21
61.17561023385099
 31
0.0
  0
LINE
  5
1EE
330
2
100
AcDbEntity
  8
LINEWORK
 62
     7
370
    30
100
AcDbLine
 10
70.46751495381568
 20
61.42659773385105
 30
0.0
 11
72.78914932881571
 21
61.42659773385105
 31
0.0
  0
LINE
  5
1EF
330
2
100
AcDbEntity
  8
LINEWORK
 62
     7
370
    30
100
AcDbLine
 10
70.46751495381568
 20
62.80702898385107
 30
0.0
 11
72.66365557881579
 21
62.80702898385107
 31
0.0
  0
LINE
  5
1F0
330
2
100
AcDbEntity
  8
LINEWORK
 62
     7
370
    30
100
AcDbLine
 10
70.46751495381568
 20
62.80702898385095
 30
0.0
 11
72.66365557881568
 21
62.80702898385095
 31
0.0
  0
LINE
  5
1F1
330
2
100
AcDbEntity
  8
LINEWORK
  6
DASHED
 62
     7
 48
2.0
370
    30
100
AcDbLine
 10
70.7175149538158
 20
60.35024148385094
 30
0.0
 11
70.21751495381579
 21
60.35024148385094
 31
0.0
  0
POINT
  5
1F2
330
2
100
AcDbEntity
  8
LINEWORK
 62
     7
370
    30
100
AcDbPoint
 10
71.09066072510938
 20
60.71282075377201
 30
0.0
  0
ARC
  5
1F3
330
2
100
AcDbEntity
  8
LINEWORK
 62
     7
370
    30
100
AcDbCircle
 10
72.43330218845199
 20
62.09016788018164
 30
0.0
 40
0.752962499999997
100
AcDbArc
 50
298.202947342553
 51
72.18591047291477
  0
ARC
  5
1F4
330
2
100
AcDbEntity
  8
LINEWORK
 62
     7
370
    30
100
AcDbCircle
 10
72.39945821039464
 20
62.08709115490353
 30
0.0
 40
0.7668837767419853
100
AcDbArc
 50
300.5406048496821
 51
69.84825296578716
  0
LWPOLYLINE
  5
1F5
330
2
100
AcDbEntity
  8
LINEWORK
 62
     7
370
    30
100
AcDbPolyline
 90
        2
 70
     1
 43
0.0
 10
72.78914932881571
 20
61.17561023385099
 10
73.35387120381574
 20
61.05011648385096
  0
LINE
  5
1F6
330
2
100
AcDbEntity
  8
LINEWORK
 62
     7
370
    30
100
AcDbLine
 10
72.78914932881571
 20
61.42659773385105
 30
0.0
 11
72.78914932881571
 21
61.17561023385099
 31
0.0
  0
LINE
  5
1F7
330
2
100
AcDbEntity
  8
LINEWORK
 62
     7
370
    30
100
AcDbLine
 10
72.78914932881571
 20
61.17561023385099
 30
0.0
 11
72.78914932881571
 21
61.42659773385105
 31
0.0
  0
LINE
  5
1F8
330
2
100
AcDbEntity
  8
LINEWORK
 62
     7
370
    30
100
AcDbLine
 10
72.66365557881568
 20
63.43449773385112
 30
0.0
 11
70.46751495381568
 21
63.43449773385112
 31
0.0
  0
LINE
  5
1F9
330
2
100
AcDbEntity
  8
LINEWORK
 62
     7
370
    30
100
AcDbLine
 10
70.46751495381568
 20
63.43449773385088
 30
0.0
 11
72.66365557881568
 21
63.43449773385088
 31
0.0
  0
ARC
  5
1FA
330
2
100
AcDbEntity
  8
LINEWORK
 62
     7
370
    30
100
AcDbCircle
 10
73.65595045378904
 20
64.84617614528713
 30
0.0
 40
1.725539062499889
100
AcDbArc
 50
204.715235337887
 51
234.8959068466427
  0
ARC
  5
1FB
330
2
100
AcDbEntity
  8
LINEWORK
 62
     7
370
    30
100
AcDbCircle
 10
73.65218030537824
 20
64.84303435494485
 30
0.0
 40
1.720801135514404
100
AcDbArc
 50
204.6726943310067
 51
234.9384478535201
  0
LINE
  5
1FC
330
2
100
AcDbEntity
  8
LINEWORK
 62
     7
370
    30
100
AcDbLine
 10
71.9629821413157
 20
65.56789148385099
 30
0.0
 11
70.46751495381568
 21
65.56789148385099
 31
0.0
  0
LINE
  5
1FD
330
2
100
AcDbEntity
  8
LINEWORK
 62
     7
370
    30
100
AcDbLine
 10
70.46751495381568
 20
65.56789148385099
 30
0.0
 11
71.9629821413157
 21
65.56789148385099
 31
0.0
  0
LINE
  5
1FE
330
2
100
AcDbEntity
  8
LINEWORK
 62
     7
370
    30
100
AcDbLine
 10
70.46751495381568
 20
66.57184148385102
 30
0.0
 11
71.9629821413157
 21
66.57184148385102
 31
0.0
  0
LINE
  5
1FF
330
2
100
AcDbEntity
  8
LINEWORK
 62
     7
370
    30
100
AcDbLine
 10
70.46751495381568
 20
66.57184148385102
 30
0.0
 11
71.9629821413157
 21
66.57184148385102
 31
0.0
  0
ARC
  5
200
330
2
100
AcDbEntity
  8
LINEWORK
 62
     7
370
    30
100
AcDbCircle
 10
71.64150007189096
 20
66.06986648385316
 30
0.0
 40
0.5960953125000341
100
AcDbArc
 50
302.6368975040358
 51
57.36310249606355
  0
ARC
  5
201
330
2
100
AcDbEntity
  8
LINEWORK
 62
     7
370
    30
100
AcDbCircle
 10
71.65796261006573
 20
66.06986648385088
 30
0.0
 40
0.587380468750003
100
AcDbArc
 50
301.2844929144161
 51
58.71550708558374
  0
ARC
  5
202
330
2
100
AcDbEntity
  8
LINEWORK
 62
     7
370
    30
100
AcDbCircle
 10
74.67987059195571
 20
65.07709734097159
 30
0.0
 40
2.760862499999871
100
AcDbArc
 50
169.7601969736183
 51
200.1792844825406
  0
ARC
  5
203
330
2
100
AcDbEntity
  8
LINEWORK
 62
     7
370
    30
100
AcDbCircle
 10
74.68341267608685
 20
65.07740534828759
 30
0.0
 40
2.764293570461533
100
AcDbArc
 50
169.7795306324382
 51
200.159950823787
  0
ARC
  5
204
330
2
100
AcDbEntity
  8
LINEWORK
 62
     7
370
    30
100
AcDbCircle
 10
69.47577910323127
 20
69.5222962790882
 30
0.0
 40
3.858932812500603
100
AcDbArc
 50
310.1305441294352
 51
0.9116081324222738
  0
ARC
  5
205
330
2
100
AcDbEntity
  8
LINEWORK
 62
     7
370
    30
100
AcDbCircle
 10
69.47675173075777
 20
69.52185345919986
 30
0.0
 40
3.857967380510689
100
AcDbArc
 50
310.1237387019697
 51
0.9184135598970037
  0
ARC
  5
206
330
2
100
AcDbEntity
  8
LINEWORK
 62
     7
370
    30
100
AcDbCircle
 10
82.24453487972301
 20
66.50061664494512
 30
0.0
 40
15.2161171874998
100
AcDbArc
 50
154.3071356404088
 51
160.4531344586555
  0
ARC
  5
207
330
2
100
AcDbEntity
  8
LINEWORK
 62
     7
370
    30
100
AcDbCircle
 10
58.69049502790836
 20
66.50061664494512
 30
0.0
 40
15.21611718749983
100
AcDbArc
 50
19.54686554134448
 51
25.6928643595911
  0
ARC
  5
208
330
2
100
AcDbEntity
  8
LINEWORK
 62
     7
370
    30
100
AcDbCircle
 10
89.619534879723
 20
66.50061664494512
 30
0.0
 40
15.2161171874998
100
AcDbArc
 50
154.3071356404088
 51
160.4531344586555
  0
LINE
  5
209
330
2
100
AcDbEntity
  8
LINEWORK
 62
     7
370
    30
100
AcDbLine
 10
85.21751495381568
 20
77.61529148385102
 30
0.0
 11
83.47106026631569
 21
77.61529148385102
 31
0.0
  0
LINE
  5
20A
330
2
100
AcDbEntity
  8
LINEWORK
 62
     7
370
    30
100
AcDbLine
 10
85.21751495381568
 20
76.73683523385091
 30
0.0
 11
83.59655401631574
 21
76.73683523385091
 31
0.0
  0
LINE
  5
20B
330
2
100
AcDbEntity
  8
LINEWORK
 62
     7
370
    30
100
AcDbLine
 10
83.47106026631569
 20
76.86232898385094
 30
0.0
 11
85.21751495381568
 21
76.86232898385094
 31
0.0
  0
LINE
  5
20C
330
2
100
AcDbEntity
  8
LINEWORK
 62
     7
370
    30
100
AcDbLine
 10
83.47106026631582
 20
77.61529148385102
 30
0.0
 11
85.21751495381568
 21
77.61529148385102
 31
0.0
  0
LINE
  5
20D
330
2
100
AcDbEntity
  8
LINEWORK
 62
     7
370
    30
100
AcDbLine
 10
85.21751495381568
 20
76.86232898385094
 30
0.0
 11
83.47106026631569
 21
76.86232898385094
 31
0.0
  0
LINE
  5
20E
330
2
100
AcDbEntity
  8
LINEWORK
 62
     7
370
    30
100
AcDbLine
 10
83.59655401631574
 20
76.73683523385114
 30
0.0
 11
85.21751495381568
 21
76.73683523385091
 31
0.0
  0
LINE
  5
20F
330
2
100
AcDbEntity
  8
LINEWORK
 62
     7
370
    30
100
AcDbLine
 10
85.21751495381568
 20
79.99967273385107
 30
0.0
 11
83.47106026631569
 21
79.99967273385107
 31
0.0
  0
LINE
  5
210
330
2
100
AcDbEntity
  8
LINEWORK
 62
     7
370
    30
100
AcDbLine
 10
85.21751495381568
 20
78.74473523385097
 30
0.0
 11
83.47106026631569
 21
78.74473523385097
 31
0.0
  0
LINE
  5
211
330
2
100
AcDbEntity
  8
LINEWORK
 62
     7
370
    30
100
AcDbLine
 10
85.21751495381568
 20
79.99967273385107
 30
0.0
 11
83.47106026631582
 21
79.99967273385107
 31
0.0
  0
ARC
  5
212
330
2
100
AcDbEntity
  8
LINEWORK
 62
     7
370
    30
100
AcDbCircle
 10
55.96982895621909
 20
76.07618304034133
 30
0.0
 40
27.63462319024747
100
AcDbArc
 50
355.9022623541395
 51
1.369882582655912
  0
ARC
  5
213
330
2
100
AcDbEntity
  8
LINEWORK
 62
     7
370
    30
100
AcDbCircle
 10
55.96444911032313
 20
76.0763111319103
 30
0.0
 40
27.63999843750035
100
AcDbArc
 50
355.9027944114711
 51
1.369350525323726
  0
ARC
  5
214
330
2
100
AcDbEntity
  8
LINEWORK
 62
     7
370
    30
100
AcDbCircle
 10
81.30629307881577
 20
74.12499656197599
 30
0.0
 40
2.22763833761492
100
AcDbArc
 50
332.532727661389
 51
359.3947854027546
  0
ARC
  5
215
330
2
100
AcDbEntity
  8
LINEWORK
 62
     7
370
    30
100
AcDbCircle
 10
81.30641703371599
 20
74.12496557325096
 30
0.0
 40
2.227514062500199
100
AcDbArc
 50
332.5319642964298
 51
359.3955487677153
  0
ARC
  5
216
330
2
100
AcDbEntity
  8
LINEWORK
 62
     7
370
    30
100
AcDbCircle
 10
83.9808786256907
 20
78.18001335885094
 30
0.0
 40
0.760805859375
100
AcDbArc
 50
132.0750220508426
 51
227.9249779491573
  0
ARC
  5
217
330
2
100
AcDbEntity
  8
LINEWORK
 62
     7
370
    30
100
AcDbCircle
 10
83.96909814670506
 20
78.18001335885094
 30
0.0
 40
0.7529625000000308
100
AcDbArc
 50
131.4096221092697
 51
228.5903778907302
  0
LINE
  5
218
330
2
100
AcDbEntity
  8
LINEWORK
 62
     7
370
    30
100
AcDbLine
 10
83.47106026631569
 20
76.86232898385094
 30
0.0
 11
83.59655401631574
 21
76.73683523385091
 31
0.0
  0
LINE
  5
219
330
2
100
AcDbEntity
  8
LINEWORK
 62
     7
370
    30
100
AcDbLine
 10
83.47106026631569
 20
76.86232898385094
 30
0.0
 11
83.47106026631569
 21
77.61529148385102
 31
0.0
  0
LINE
  5
21A
330
2
100
AcDbEntity
  8
LINEWORK
 62
     7
370
    30
100
AcDbLine
 10
83.47106026631569
 20
76.86232898385094
 30
0.0
 11
83.47106026631582
 21
77.61529148385102
 31
0.0
  0
LINE
  5
21B
330
2
100
AcDbEntity
  8
LINEWORK
 62
     7
370
    30
100
AcDbLine
 10
83.47106026631569
 20
76.86232898385094
 30
0.0
 11
83.59655401631574
 21
76.73683523385091
 31
0.0
  0
ARC
  5
21C
330
2
100
AcDbEntity
  8
LINEWORK
 62
     7
370
    30
100
AcDbCircle
 10
82.56123057881575
 20
79.37220398385102
 30
0.0
 40
1.105218119867257
100
AcDbArc
 50
325.4077113124903
 51
34.59228868750958
  0
ARC
  5
21D
330
2
100
AcDbEntity
  8
LINEWORK
 62
     7
370
    30
100
AcDbCircle
 10
82.56992688053571
 20
79.37220398385102
 30
0.0
 40
1.098070312499993
100
AcDbArc
 50
325.1500954209564
 51
34.84990457904352
  0
ARC
  5
21E
330
2
100
AcDbEntity
  8
LINEWORK
 62
     7
370
    30
100
AcDbCircle
 10
114.4652009514125
 20
76.07618304034133
 30
0.0
 40
27.63462319024747
100
AcDbArc
 50
178.630117417344
 51
184.0977376458605
  0
ARC
  5
21F
330
2
100
AcDbEntity
  8
LINEWORK
 62
     7
370
    30
100
AcDbCircle
 10
114.4705807973083
 20
76.0763111319103
 30
0.0
 40
27.63999843750035
100
AcDbArc
 50
178.6306494746762
 51
184.0972055885288
  0
LINE
  5
220
330
2
100
AcDbEntity
  8
LINEWORK
 62
     7
370
    30
100
AcDbLine
 10
85.21751495381568
 20
76.73683523385091
 30
0.0
 11
86.83847589131573
 21
76.73683523385091
 31
0.0
  0
LINE
  5
221
330
2
100
AcDbEntity
  8
LINEWORK
 62
     7
370
    30
100
AcDbLine
 10
86.83847589131573
 20
76.73683523385114
 30
0.0
 11
85.21751495381568
 21
76.73683523385091
 31
0.0
  0
ARC
  5
222
330
2
100
AcDbEntity
  8
LINEWORK
 62
     7
370
    30
100
AcDbCircle
 10
87.67632996800784
 20
69.80299827717806
 30
0.0
 40
5.330037199451427
100
AcDbArc
 50
160.3928811039786
 51
182.3581264680186
  0
ARC
  5
223
330
2
100
AcDbEntity
  8
LINEWORK
 62
     7
370
    30
100
AcDbCircle
 10
87.67980170752947
 20
69.80247170758673
 30
0.0
 40
5.333484374999923
100
AcDbArc
 50
160.4000676171826
 51
182.3509399547389
  0
LINE
  5
224
330
2
100
AcDbEntity
  8
LINEWORK
  6
DASHED
 62
     7
 48
2.0
370
    30
100
AcDbLine
 10
85.46751495381579
 20
60.35024148385094
 30
0.0
 11
84.96751495381579
 21
60.35024148385094
 31
0.0
  0
LINE
  5
225
330
2
100
AcDbEntity
  8
LINEWORK
 62
     7
370
    30
100
AcDbLine
 10
85.21751495381568
 20
62.80702898385095
 30
0.0
 11
83.02137432881568
 21
62.80702898385095
 31
0.0
  0
LINE
  5
226
330
2
100
AcDbEntity
  8
LINEWORK
 62
     7
370
    30
100
AcDbLine
 10
85.21751495381568
 20
63.43449773385088
 30
0.0
 11
83.02137432881568
 21
63.43449773385088
 31
0.0
  0
LINE
  5
227
330
2
100
AcDbEntity
  8
LINEWORK
 62
     7
370
    30
100
AcDbLine
 10
85.21751495381568
 20
62.80702898385107
 30
0.0
 11
83.02137432881568
 21
62.80702898385107
 31
0.0
  0
LINE
  5
228
330
2
100
AcDbEntity
  8
LINEWORK
 62
     7
370
    30
100
AcDbLine
 10
83.02137432881568
 20
63.43449773385112
 30
0.0
 11
85.21751495381568
 21
63.43449773385112
 31
0.0
  0
LINE
  5
229
330
2
100
AcDbEntity
  8
LINEWORK
 62
     7
370
    30
100
AcDbLine
 10
85.21751495381568
 20
61.05011648385096
 30
0.0
 11
82.33115870381572
 21
61.05011648385096
 31
0.0
  0
LINE
  5
22A
330
2
100
AcDbEntity
  8
LINEWORK
 62
     7
370
    30
100
AcDbLine
 10
85.21751495381568
 20
61.17561023385099
 30
0.0
 11
82.89588057881564
 21
61.17561023385099
 31
0.0
  0
LINE
  5
22B
330
2
100
AcDbEntity
  8
LINEWORK
 62
     7
370
    30
100
AcDbLine
 10
85.21751495381568
 20
61.42659773385105
 30
0.0
 11
82.89588057881564
 21
61.42659773385105
 31
0.0
  0
LINE
  5
22C
330
2
100
AcDbEntity
  8
LINEWORK
 62
     7
370
    30
100
AcDbLine
 10
82.33115870381572
 20
61.05011648385096
 30
0.0
 11
85.21751495381568
 21
61.05011648385096
 31
0.0
  0
LINE
  5
22D
330
2
100
AcDbEntity
  8
LINEWORK
 62
     7
370
    30
100
AcDbLine
 10
82.89588057881564
 20
61.17561023385099
 30
0.0
 11
85.21751495381568
 21
61.17561023385099
 31
0.0
  0
LINE
  5
22E
330
2
100
AcDbEntity
  8
LINEWORK
 62
     7
370
    30
100
AcDbLine
 10
82.89588057881564
 20
61.42659773385105
 30
0.0
 11
85.21751495381568
 21
61.42659773385105
 31
0.0
  0
LINE
  5
22F
330
2
100
AcDbEntity
  8
LINEWORK
 62
     7
370
    30
100
AcDbLine
 10
85.21751495381568
 20
66.57184148385102
 30
0.0
 11
83.72204776631576
 21
66.57184148385102
 31
0.0
  0
LINE
  5
230
330
2
100
AcDbEntity
  8
LINEWORK
 62
     7
370
    30
100
AcDbLine
 10
85.21751495381568
 20
66.57184148385102
 30
0.0
 11
83.72204776631576
 21
66.57184148385102
 31
0.0
  0
LINE
  5
231
330
2
100
AcDbEntity
  8
LINEWORK
 62
     7
370
    30
100
AcDbLine
 10
85.21751495381568
 20
65.56789148385099
 30
0.0
 11
83.72204776631576
 21
65.56789148385099
 31
0.0
  0
LINE
  5
232
330
2
100
AcDbEntity
  8
LINEWORK
 62
     7
370
    30
100
AcDbLine
 10
83.72204776631576
 20
65.56789148385099
 30
0.0
 11
85.21751495381568
 21
65.56789148385099
 31
0.0
  0
LINE
  5
233
330
2
100
AcDbEntity
  8
LINEWORK
 62
     7
370
    30
100
AcDbLine
 10
83.02137432881568
 20
63.43449773385088
 30
0.0
 11
83.02137432881568
 21
62.80702898385095
 31
0.0
  0
LINE
  5
234
330
2
100
AcDbEntity
  8
LINEWORK
 62
     7
370
    30
100
AcDbLine
 10
83.02137432881568
 20
62.80702898385107
 30
0.0
 11
83.02137432881568
 21
63.43449773385112
 31
0.0
  0
ARC
  5
235
330
2
100
AcDbEntity
  8
LINEWORK
 62
     7
370
    30
100
AcDbCircle
 10
83.28557169723671
 20
62.08709115490353
 30
0.0
 40
0.7668837767419853
100
AcDbArc
 50
110.1517470342128
 51
239.4593951503178
  0
ARC
  5
236
330
2
100
AcDbEntity
  8
LINEWORK
 62
     7
370
    30
100
AcDbCircle
 10
83.25172771917948
 20
62.09016788018164
 30
0.0
 40
0.7529625000000071
100
AcDbArc
 50
107.8140895270852
 51
241.7970526574468
  0
LINE
  5
237
330
2
100
AcDbEntity
  8
LINEWORK
 62
     7
370
    30
100
AcDbLine
 10
82.33115870381572
 20
61.05011648385096
 30
0.0
 11
82.89588057881564
 21
61.17561023385099
 31
0.0
  0
LINE
  5
238
330
2
100
AcDbEntity
  8
LINEWORK
 62
     7
370
    30
100
AcDbLine
 10
82.89588057881564
 20
61.17561023385099
 30
0.0
 11
82.33115870381572
 21
61.05011648385096
 31
0.0
  0
LINE
  5
239
330
2
100
AcDbEntity
  8
LINEWORK
 62
     7
370
    30
100
AcDbLine
 10
82.89588057881564
 20
61.17561023385099
 30
0.0
 11
82.89588057881564
 21
61.42659773385105
 31
0.0
  0
LINE
  5
23A
330
2
100
AcDbEntity
  8
LINEWORK
 62
     7
370
    30
100
AcDbLine
 10
82.89588057881564
 20
61.42659773385105
 30
0.0
 11
82.89588057881564
 21
61.17561023385099
 31
0.0
  0
ARC
  5
23B
330
2
100
AcDbEntity
  8
LINEWORK
 62
     7
370
    30
100
AcDbCircle
 10
86.2082781768737
 20
69.52185345919986
 30
0.0
 40
3.857967380510689
100
AcDbArc
 50
179.0815864401029
 51
229.8762612980302
  0
ARC
  5
23C
330
2
100
AcDbEntity
  8
LINEWORK
 62
     7
370
    30
100
AcDbCircle
 10
86.20925080440031
 20
69.5222962790882
 30
0.0
 40
3.858932812500603
100
AcDbArc
 50
179.0883918675777
 51
229.8694558705647
  0
ARC
  5
23D
330
2
100
AcDbEntity
  8
LINEWORK
 62
     7
370
    30
100
AcDbCircle
 10
82.03284960225323
 20
64.84303435494485
 30
0.0
 40
1.720801135514404
100
AcDbArc
 50
305.0615521464798
 51
335.3273056689872
  0
ARC
  5
23E
330
2
100
AcDbEntity
  8
LINEWORK
 62
     7
370
    30
100
AcDbCircle
 10
82.02907945384243
 20
64.84617614528724
 30
0.0
 40
1.725539062499979
100
AcDbArc
 50
305.1040931533572
 51
335.284764662113
  0
ARC
  5
23F
330
2
100
AcDbEntity
  8
LINEWORK
 62
     7
370
    30
100
AcDbCircle
 10
81.00161723154462
 20
65.07740534828759
 30
0.0
 40
2.764293570461533
100
AcDbArc
 50
339.8400491762129
 51
10.22046936756176
  0
ARC
  5
240
330
2
100
AcDbEntity
  8
LINEWORK
 62
     7
370
    30
100
AcDbCircle
 10
81.00515931567576
 20
65.07709734097159
 30
0.0
 40
2.760862499999871
100
AcDbArc
 50
339.8207155174592
 51
10.23980302638167
  0
ARC
  5
241
330
2
100
AcDbEntity
  8
LINEWORK
 62
     7
370
    30
100
AcDbCircle
 10
84.02706729756573
 20
66.06986648385088
 30
0.0
 40
0.587380468750003
100
AcDbArc
 50
121.2844929144162
 51
238.7155070855837
  0
ARC
  5
242
330
2
100
AcDbEntity
  8
LINEWORK
 62
     7
370
    30
100
AcDbCircle
 10
84.04352983574062
 20
66.06986648385316
 30
0.0
 40
0.5960953125000341
100
AcDbArc
 50
122.6368975039364
 51
237.3631024959551
  0
POINT
  5
243
330
2
100
AcDbEntity
  8
LINEWORK
 62
     7
370
    30
100
AcDbPoint
 10
85.84066072510939
 20
60.71282075377201
 30
0.0
  0
ARC
  5
244
330
2
100
AcDbEntity
  8
LINEWORK
 62
     7
370
    30
100
AcDbCircle
 10
89.43341267608685
 20
65.07740534828759
 30
0.0
 40
2.764293570461533
100
AcDbArc
 50
169.7795306324382
 51
200.159950823787
  0
ARC
  5
245
330
2
100
AcDbEntity
  8
LINEWORK
 62
     7
370
    30
100
AcDbCircle
 10
89.42987059195571
 20
65.07709734097159
 30
0.0
 40
2.760862499999871
100
AcDbArc
 50
169.7601969736183
 51
200.1792844825406
  0
LINE
  5
246
330
2
100
AcDbEntity
  8
LINEWORK
 62
     7
370
    30
100
AcDbLine
 10
85.21751495381568
 20
66.57184148385102
 30
0.0
 11
86.71298214131571
 21
66.57184148385102
 31
0.0
  0
LINE
  5
247
330
2
100
AcDbEntity
  8
LINEWORK
 62
     7
370
    30
100
AcDbLine
 10
85.21751495381568
 20
66.57184148385102
 30
0.0
 11
86.71298214131571
 21
66.57184148385102
 31
0.0
  0
LINE
  5
248
330
2
100
AcDbEntity
  8
LINEWORK
 62
     7
370
    30
100
AcDbLine
 10
85.21751495381568
 20
65.56789148385099
 30
0.0
 11
86.71298214131571
 21
65.56789148385099
 31
0.0
  0
LINE
  5
249
330
2
100
AcDbEntity
  8
LINEWORK
 62
     7
370
    30
100
AcDbLine
 10
86.71298214131571
 20
65.56789148385099
 30
0.0
 11
85.21751495381568
 21
65.56789148385099
 31
0.0
  0
ARC
  5
24A
330
2
100
AcDbEntity
  8
LINEWORK
 62
     7
370
    30
100
AcDbCircle
 10
96.994534879723
 20
66.50061664494512
 30
0.0
 40
15.2161171874998
100
AcDbArc
 50
154.3071356404088
 51
160.4531344586555
  0
ARC
  5
24B
330
2
100
AcDbEntity
  8
LINEWORK
 62
     7
370
    30
100
AcDbCircle
 10
107.0902009514125
 20
76.07618304034133
 30
0.0
 40
27.63462319024747
100
AcDbArc
 50
178.630117417344
 51
184.0977376458605
  0
ARC
  5
24C
330
2
100
AcDbEntity
  8
LINEWORK
 62
     7
370
    30
100
AcDbCircle
 10
107.0955807973083
 20
76.0763111319103
 30
0.0
 40
27.63999843750035
100
AcDbArc
 50
178.6306494746762
 51
184.0972055885288
  0
ARC
  5
24D
330
2
100
AcDbEntity
  8
LINEWORK
 62
     7
370
    30
100
AcDbCircle
 10
81.7537368288157
 20
74.12499656197599
 30
0.0
 40
2.22763833761492
100
AcDbArc
 50
180.6052145972454
 51
207.467272338611
  0
ARC
  5
24E
330
2
100
AcDbEntity
  8
LINEWORK
 62
     7
370
    30
100
AcDbCircle
 10
81.75361287391547
 20
74.12496557325096
 30
0.0
 40
2.22751406250017
100
AcDbArc
 50
180.6044512322847
 51
207.4680357035701
  0
ARC
  5
24F
330
2
100
AcDbEntity
  8
LINEWORK
 62
     7
370
    30
100
AcDbCircle
 10
79.07915128194076
 20
78.18001335885094
 30
0.0
 40
0.760805859375
100
AcDbArc
 50
312.0750220508427
 51
47.9249779491573
  0
ARC
  5
250
330
2
100
AcDbEntity
  8
LINEWORK
 62
     7
370
    30
100
AcDbCircle
 10
79.09093176092643
 20
78.18001335885094
 30
0.0
 40
0.7529625000000308
100
AcDbArc
 50
311.4096221092697
 51
48.59037789073025
  0
LINE
  5
251
330
2
100
AcDbEntity
  8
LINEWORK
 62
     7
370
    30
100
AcDbLine
 10
79.58896964131577
 20
76.86232898385094
 30
0.0
 11
77.84251495381568
 21
76.86232898385094
 31
0.0
  0
LINE
  5
252
330
2
100
AcDbEntity
  8
LINEWORK
 62
     7
370
    30
100
AcDbLine
 10
77.84251495381568
 20
76.73683523385091
 30
0.0
 11
79.46347589131574
 21
76.73683523385091
 31
0.0
  0
LINE
  5
253
330
2
100
AcDbEntity
  8
LINEWORK
 62
     7
370
    30
100
AcDbLine
 10
77.84251495381568
 20
77.61529148385102
 30
0.0
 11
79.58896964131577
 21
77.61529148385102
 31
0.0
  0
LINE
  5
254
330
2
100
AcDbEntity
  8
LINEWORK
 62
     7
370
    30
100
AcDbLine
 10
77.84251495381568
 20
76.86232898385094
 30
0.0
 11
79.58896964131577
 21
76.86232898385094
 31
0.0
  0
LINE
  5
255
330
2
100
AcDbEntity
  8
LINEWORK
 62
     7
370
    30
100
AcDbLine
 10
79.58896964131577
 20
77.61529148385102
 30
0.0
 11
77.84251495381568
 21
77.61529148385102
 31
0.0
  0
LINE
  5
256
330
2
100
AcDbEntity
  8
LINEWORK
 62
     7
370
    30
100
AcDbLine
 10
79.46347589131574
 20
76.73683523385114
 30
0.0
 11
77.84251495381568
 21
76.73683523385091
 31
0.0
  0
LINE
  5
257
330
2
100
AcDbEntity
  8
LINEWORK
 62
     7
370
    30
100
AcDbLine
 10
79.58896964131577
 20
76.86232898385094
 30
0.0
 11
79.58896964131577
 21
77.61529148385102
 31
0.0
  0
LINE
  5
258
330
2
100
AcDbEntity
  8
LINEWORK
 62
     7
370
    30
100
AcDbLine
 10
79.58896964131577
 20
76.86232898385094
 30
0.0
 11
79.46347589131574
 21
76.73683523385091
 31
0.0
  0
LINE
  5
259
330
2
100
AcDbEntity
  8
LINEWORK
 62
     7
370
    30
100
AcDbLine
 10
79.58896964131577
 20
76.86232898385094
 30
0.0
 11
79.46347589131574
 21
76.73683523385091
 31
0.0
  0
LINE
  5
25A
330
2
100
AcDbEntity
  8
LINEWORK
 62
     7
370
    30
100
AcDbLine
 10
79.58896964131577
 20
76.86232898385094
 30
0.0
 11
79.58896964131577
 21
77.61529148385102
 31
0.0
  0
ARC
  5
25B
330
2
100
AcDbEntity
  8
LINEWORK
 62
     7
370
    30
100
AcDbCircle
 10
80.49879932881571
 20
79.37220398385102
 30
0.0
 40
1.105218119867257
100
AcDbArc
 50
145.4077113124904
 51
214.5922886875095
  0
ARC
  5
25C
330
2
100
AcDbEntity
  8
LINEWORK
 62
     7
370
    30
100
AcDbCircle
 10
80.49010302709575
 20
79.37220398385102
 30
0.0
 40
1.09807031250002
100
AcDbArc
 50
145.1500954209564
 51
214.8499045790435
  0
LINE
  5
25D
330
2
100
AcDbEntity
  8
LINEWORK
 62
     7
370
    30
100
AcDbLine
 10
77.84251495381568
 20
78.74473523385097
 30
0.0
 11
79.58896964131577
 21
78.74473523385097
 31
0.0
  0
LINE
  5
25E
330
2
100
AcDbEntity
  8
LINEWORK
 62
     7
370
    30
100
AcDbLine
 10
77.84251495381568
 20
79.99967273385107
 30
0.0
 11
79.58896964131577
 21
79.99967273385107
 31
0.0
  0
LINE
  5
25F
330
2
100
AcDbEntity
  8
LINEWORK
 62
     7
370
    30
100
AcDbLine
 10
77.84251495381568
 20
79.99967273385107
 30
0.0
 11
79.58896964131577
 21
79.99967273385107
 31
0.0
  0
ARC
  5
260
330
2
100
AcDbEntity
  8
LINEWORK
 62
     7
370
    30
100
AcDbCircle
 10
81.02718030537824
 20
64.84303435494485
 30
0.0
 40
1.720801135514404
100
AcDbArc
 50
204.6726943310067
 51
234.9384478535201
  0
ARC
  5
261
330
2
100
AcDbEntity
  8
LINEWORK
 62
     7
370
    30
100
AcDbCircle
 10
81.03095045378905
 20
64.84617614528713
 30
0.0
 40
1.725539062499889
100
AcDbArc
 50
204.715235337887
 51
234.8959068466427
  0
LINE
  5
262
330
2
100
AcDbEntity
  8
LINEWORK
 62
     7
370
    30
100
AcDbLine
 10
77.84251495381568
 20
63.43449773385088
 30
0.0
 11
80.03865557881567
 21
63.43449773385088
 31
0.0
  0
LINE
  5
263
330
2
100
AcDbEntity
  8
LINEWORK
 62
     7
370
    30
100
AcDbLine
 10
80.03865557881567
 20
63.43449773385112
 30
0.0
 11
77.84251495381568
 21
63.43449773385112
 31
0.0
  0
LINE
  5
264
330
2
100
AcDbEntity
  8
LINEWORK
 62
     7
370
    30
100
AcDbLine
 10
77.84251495381568
 20
62.80702898385095
 30
0.0
 11
80.03865557881567
 21
62.80702898385095
 31
0.0
  0
LINE
  5
265
330
2
100
AcDbEntity
  8
LINEWORK
 62
     7
370
    30
100
AcDbLine
 10
77.84251495381568
 20
62.80702898385107
 30
0.0
 11
80.0386555788158
 21
62.80702898385107
 31
0.0
  0
LINE
  5
266
330
2
100
AcDbEntity
  8
LINEWORK
 62
     7
370
    30
100
AcDbLine
 10
77.84251495381568
 20
61.42659773385105
 30
0.0
 11
80.16414932881572
 21
61.42659773385105
 31
0.0
  0
LINE
  5
267
330
2
100
AcDbEntity
  8
LINEWORK
 62
     7
370
    30
100
AcDbLine
 10
77.84251495381568
 20
61.17561023385099
 30
0.0
 11
80.16414932881572
 21
61.17561023385099
 31
0.0
  0
LINE
  5
268
330
2
100
AcDbEntity
  8
LINEWORK
 62
     7
370
    30
100
AcDbLine
 10
80.16414932881572
 20
61.42659773385105
 30
0.0
 11
77.84251495381568
 21
61.42659773385105
 31
0.0
  0
LINE
  5
269
330
2
100
AcDbEntity
  8
LINEWORK
 62
     7
370
    30
100
AcDbLine
 10
80.16414932881572
 20
61.17561023385099
 30
0.0
 11
77.84251495381568
 21
61.17561023385099
 31
0.0
  0
POINT
  5
26A
330
2
100
AcDbEntity
  8
LINEWORK
 62
     7
370
    30
100
AcDbPoint
 10
78.46566072510938
 20
60.71282075377201
 30
0.0
  0
LINE
  5
26B
330
2
100
AcDbEntity
  8
LINEWORK
  6
DASHED
 62
     7
 48
2.0
370
    30
100
AcDbLine
 10
78.09251495381579
 20
60.35024148385094
 30
0.0
 11
77.5925149538158
 21
60.35024148385094
 31
0.0
  0
ARC
  5
26C
330
2
100
AcDbEntity
  8
LINEWORK
 62
     7
370
    30
100
AcDbCircle
 10
82.05841267608684
 20
65.07740534828759
 30
0.0
 40
2.764293570461533
100
AcDbArc
 50
169.7795306324382
 51
200.159950823787
  0
ARC
  5
26D
330
2
100
AcDbEntity
  8
LINEWORK
 62
     7
370
    30
100
AcDbCircle
 10
82.0548705919557
 20
65.07709734097159
 30
0.0
 40
2.760862499999871
100
AcDbArc
 50
169.7601969736183
 51
200.1792844825406
  0
ARC
  5
26E
330
2
100
AcDbEntity
  8
LINEWORK
 62
     7
370
    30
100
AcDbCircle
 10
79.03296261006573
 20
66.06986648385088
 30
0.0
 40
0.587380468750003
100
AcDbArc
 50
301.2844929144161
 51
58.71550708558374
  0
ARC
  5
26F
330
2
100
AcDbEntity
  8
LINEWORK
 62
     7
370
    30
100
AcDbCircle
 10
79.01650007189096
 20
66.06986648385316
 30
0.0
 40
0.5960953125000341
100
AcDbArc
 50
302.6368975040358
 51
57.36310249606355
  0
LINE
  5
270
330
2
100
AcDbEntity
  8
LINEWORK
 62
     7
370
    30
100
AcDbLine
 10
77.84251495381568
 20
66.57184148385102
 30
0.0
 11
79.3379821413157
 21
66.57184148385102
 31
0.0
  0
LINE
  5
271
330
2
100
AcDbEntity
  8
LINEWORK
 62
     7
370
    30
100
AcDbLine
 10
77.84251495381568
 20
66.57184148385102
 30
0.0
 11
79.3379821413157
 21
66.57184148385102
 31
0.0
  0
LINE
  5
272
330
2
100
AcDbEntity
  8
LINEWORK
 62
     7
370
    30
100
AcDbLine
 10
77.84251495381568
 20
65.56789148385099
 30
0.0
 11
79.3379821413157
 21
65.56789148385099
 31
0.0
  0
LINE
  5
273
330
2
100
AcDbEntity
  8
LINEWORK
 62
     7
370
    30
100
AcDbLine
 10
79.3379821413157
 20
65.56789148385099
 30
0.0
 11
77.84251495381568
 21
65.56789148385099
 31
0.0
  0
LINE
  5
274
330
2
100
AcDbEntity
  8
LINEWORK
 62
     7
370
    30
100
AcDbLine
 10
80.03865557881567
 20
63.43449773385088
 30
0.0
 11
80.03865557881567
 21
62.80702898385095
 31
0.0
  0
LINE
  5
275
330
2
100
AcDbEntity
  8
LINEWORK
 62
     7
370
    30
100
AcDbLine
 10
80.0386555788158
 20
62.80702898385107
 30
0.0
 11
80.03865557881567
 21
63.43449773385112
 31
0.0
  0
LINE
  5
276
330
2
100
AcDbEntity
  8
LINEWORK
 62
     7
370
    30
100
AcDbLine
 10
80.16414932881572
 20
61.17561023385099
 30
0.0
 11
80.16414932881572
 21
61.42659773385105
 31
0.0
  0
LINE
  5
277
330
2
100
AcDbEntity
  8
LINEWORK
 62
     7
370
    30
100
AcDbLine
 10
80.16414932881572
 20
61.42659773385105
 30
0.0
 11
80.16414932881572
 21
61.17561023385099
 31
0.0
  0
ARC
  5
278
330
2
100
AcDbEntity
  8
LINEWORK
 62
     7
370
    30
100
AcDbCircle
 10
79.77445821039464
 20
62.08709115490353
 30
0.0
 40
0.7668837767419853
100
AcDbArc
 50
300.5406048496821
 51
69.84825296578716
  0
ARC
  5
279
330
2
100
AcDbEntity
  8
LINEWORK
 62
     7
370
    30
100
AcDbCircle
 10
79.80830218845198
 20
62.09016788018164
 30
0.0
 40
0.752962499999997
100
AcDbArc
 50
298.202947342553
 51
72.18591047291477
  0
ARC
  5
27A
330
2
100
AcDbEntity
  8
LINEWORK
 62
     7
370
    30
100
AcDbCircle
 10
66.06549502790835
 20
66.50061664494512
 30
0.0
 40
15.21611718749983
100
AcDbArc
 50
19.54686554134448
 51
25.6928643595911
  0
ARC
  5
27B
330
2
100
AcDbEntity
  8
LINEWORK
 62
     7
370
    30
100
AcDbCircle
 10
75.38369993962374
 20
69.80299827717806
 30
0.0
 40
5.330037199451427
100
AcDbArc
 50
357.6418735319813
 51
19.60711889602133
  0
ARC
  5
27C
330
2
100
AcDbEntity
  8
LINEWORK
 62
     7
370
    30
100
AcDbCircle
 10
75.38022820010201
 20
69.80247170758673
 30
0.0
 40
5.333484374999923
100
AcDbArc
 50
357.649060045261
 51
19.59993238281736
  0
ARC
  5
27D
330
2
100
AcDbEntity
  8
LINEWORK
 62
     7
370
    30
100
AcDbCircle
 10
76.85175173075776
 20
69.52185345919986
 30
0.0
 40
3.857967380510689
100
AcDbArc
 50
310.1237387019697
 51
0.9184135598970037
  0
ARC
  5
27E
330
2
100
AcDbEntity
  8
LINEWORK
 62
     7
370
    30
100
AcDbCircle
 10
76.85077910323127
 20
69.5222962790882
 30
0.0
 40
3.858932812500603
100
AcDbArc
 50
310.1305441294352
 51
0.9116081324222738
  0
LINE
  5
27F
330
2
100
AcDbEntity
  8
LINEWORK
 62
     7
370
    30
100
AcDbLine
 10
77.84251495381568
 20
61.05011648385096
 30
0.0
 11
80.72887120381574
 21
61.05011648385096
 31
0.0
  0
LINE
  5
280
330
2
100
AcDbEntity
  8
LINEWORK
 62
     7
370
    30
100
AcDbLine
 10
80.72887120381574
 20
61.05011648385096
 30
0.0
 11
77.84251495381568
 21
61.05011648385096
 31
0.0
  0
LWPOLYLINE
  5
281
330
2
100
AcDbEntity
  8
LINEWORK
 62
     7
370
    30
100
AcDbPolyline
 90
        2
 70
     1
 43
0.0
 10
80.16414932881572
 20
61.17561023385099
 10
80.72887120381574
 20
61.05011648385096
  0
LINE
  5
282
330
2
100
AcDbEntity
  8
LINEWORK
 62
     7
370
    30
100
AcDbLine
 10
77.84251495381568
 20
82.38405398385101
 30
0.0
 11
74.95615870381573
 21
82.38405398385101
 31
0.0
  0
LINE
  5
283
330
2
100
AcDbEntity
  8
LINEWORK
 62
     7
370
    30
100
AcDbLine
 10
77.84251495381568
 20
82.25856023385096
 30
0.0
 11
75.02936339131577
 21
82.25856023385096
 31
0.0
  0
LINE
  5
284
330
2
100
AcDbEntity
  8
LINEWORK
 62
     7
370
    30
100
AcDbLine
 10
77.84251495381568
 20
82.38405398385101
 30
0.0
 11
74.95615870381573
 21
82.38405398385101
 31
0.0
  0
LINE
  5
285
330
2
100
AcDbEntity
  8
LINEWORK
 62
     7
370
    30
100
AcDbLine
 10
77.84251495381568
 20
82.25856023385109
 30
0.0
 11
75.02936339131577
 21
82.25856023385109
 31
0.0
  0
LINE
  5
286
330
2
100
AcDbEntity
  8
LINEWORK
 62
     7
370
    30
100
AcDbLine
 10
77.84251495381568
 20
80.62714148385101
 30
0.0
 11
76.09606026631571
 21
80.62714148385101
 31
0.0
  0
LINE
  5
287
330
2
100
AcDbEntity
  8
LINEWORK
 62
     7
370
    30
100
AcDbLine
 10
76.09606026631571
 20
80.62714148385101
 30
0.0
 11
77.84251495381568
 21
80.62714148385101
 31
0.0
  0
LINE
  5
288
330
2
100
AcDbEntity
  8
LINEWORK
 62
     7
370
    30
100
AcDbLine
 10
80.72887120381574
 20
84.540241483851
 30
0.0
 11
74.95615870381573
 21
84.540241483851
 31
0.0
  0
SOLID
  5
289
330
2
100
AcDbEntity
  8
leaders
 62
     1
370
    30
100
AcDbTrace
 10
74.90392864690512
 20
90.51403044390042
 30
0.0
 11
74.64711003895001
 21
90.20736417153262
 31
0.0
 12
75.69551816003104
 22
89.59024148385095
 32
0.0
 13
75.69551816003104
 23
89.59024148385095
 33
0.0
  0
POINT
  5
28A
330
2
100
AcDbEntity
  8
LINEWORK
 62
     7
370
    30
100
AcDbPoint
 10
74.95615870381573
 20
84.64294148385112
 30
0.0
  0
POINT
  5
28B
330
2
100
AcDbEntity
  8
LINEWORK
 62
     7
370
    30
100
AcDbPoint
 10
74.95615870381573
 20
84.64294148385112
 30
0.0
  0
LINE
  5
28C
330
2
100
AcDbEntity
  8
LINEWORK
370
    30
100
AcDbLine
 10
66.69914336510874
 20
87.80274148385093
 30
0.0
 11
66.69914336511226
 21
88.7652414838509
 31
0.0
  0
LINE
  5
28D
330
2
100
AcDbEntity
  8
LINEWORK
 62
     7
370
    30
100
AcDbLine
 10
66.69914336510863
 20
87.80274148385093
 30
0.0
 11
66.71751495381579
 21
87.80274148385093
 31
0.0
  0
LINE
  5
28E
330
2
100
AcDbEntity
  8
LINEWORK
 62
     7
370
    30
100
AcDbLine
 10
66.69914336511226
 20
88.7652414838509
 30
0.0
 11
66.71751495381579
 21
88.7652414838509
 31
0.0
  0
LINE
  5
28F
330
2
100
AcDbEntity
  8
LINEWORK
 62
     7
370
    30
100
AcDbLine
 10
66.71751495381579
 20
84.91524148385099
 30
0.0
 11
66.71751495381579
 21
89.59024148385095
 31
0.0
  0
LINE
  5
290
330
2
100
AcDbEntity
  8
LINEWORK
 62
     7
370
    30
100
AcDbLine
 10
67.09251495381579
 20
84.91524148385099
 30
0.0
 11
67.09251495381579
 21
89.59024148385095
 31
0.0
  0
LINE
  5
291
330
2
100
AcDbEntity
  8
LINEWORK
 62
     7
370
    30
100
AcDbLine
 10
73.35387120381574
 20
84.540241483851
 30
0.0
 11
67.58115870381573
 21
84.540241483851
 31
0.0
  0
POINT
  5
292
330
2
100
AcDbEntity
  8
LINEWORK
 62
     7
370
    30
100
AcDbPoint
 10
67.58115870381573
 20
84.64294148385112
 30
0.0
  0
POINT
  5
293
330
2
100
AcDbEntity
  8
LINEWORK
 62
     7
370
    30
100
AcDbPoint
 10
67.58115870381573
 20
84.64294148385112
 30
0.0
  0
LINE
  5
294
330
2
100
AcDbEntity
  8
LINEWORK
  6
DASHED
 62
     7
 48
2.0
370
    30
100
AcDbLine
 10
70.21751495381579
 20
86.73024148385229
 30
0.0
 11
70.7175149538158
 21
86.73024148385229
 31
0.0
  0
POINT
  5
295
330
2
100
AcDbEntity
  8
LINEWORK
 62
     1
370
    30
100
AcDbPoint
 10
73.35387120381574
 20
84.64294148385112
 30
0.0
  0
ARC
  5
296
330
2
100
AcDbEntity
  8
LINEWORK
370
    30
100
AcDbCircle
 10
67.0694338690148
 20
87.09926460768906
 30
0.0
 40
0.7949809888151388
100
AcDbArc
 50
117.7610608705256
 51
173.8819545312769
  0
LINE
  5
297
330
2
100
AcDbEntity
  8
LINEWORK
 62
     7
370
    30
100
AcDbLine
 10
74.95615870381573
 20
82.38405398385101
 30
0.0
 11
75.02936339131577
 21
82.25856023385096
 31
0.0
  0
LINE
  5
298
330
2
100
AcDbEntity
  8
LINEWORK
 62
     7
370
    30
100
AcDbLine
 10
74.95615870381573
 20
82.38405398385101
 30
0.0
 11
75.02936339131577
 21
82.25856023385109
 31
0.0
  0
LINE
  5
299
330
2
100
AcDbEntity
  8
LINEWORK
 62
     7
370
    30
100
AcDbLine
 10
68.7210602663157
 20
80.62714148385101
 30
0.0
 11
70.46751495381568
 21
80.62714148385101
 31
0.0
  0
LINE
  5
29A
330
2
100
AcDbEntity
  8
LINEWORK
 62
     7
370
    30
100
AcDbLine
 10
70.46751495381568
 20
80.62714148385101
 30
0.0
 11
68.7210602663157
 21
80.62714148385101
 31
0.0
  0
LINE
  5
29B
330
2
100
AcDbEntity
  8
LINEWORK
 62
     7
370
    30
100
AcDbLine
 10
70.46751495381568
 20
82.25856023385109
 30
0.0
 11
67.65436339131577
 21
82.25856023385109
 31
0.0
  0
LINE
  5
29C
330
2
100
AcDbEntity
  8
LINEWORK
 62
     7
370
    30
100
AcDbLine
 10
70.46751495381568
 20
82.38405398385101
 30
0.0
 11
67.58115870381573
 21
82.38405398385101
 31
0.0
  0
LINE
  5
29D
330
2
100
AcDbEntity
  8
LINEWORK
 62
     7
370
    30
100
AcDbLine
 10
70.46751495381568
 20
82.25856023385096
 30
0.0
 11
67.65436339131577
 21
82.25856023385096
 31
0.0
  0
LINE
  5
29E
330
2
100
AcDbEntity
  8
LINEWORK
 62
     7
370
    30
100
AcDbLine
 10
70.46751495381568
 20
82.38405398385101
 30
0.0
 11
67.58115870381573
 21
82.38405398385101
 31
0.0
  0
LINE
  5
29F
330
2
100
AcDbEntity
  8
LINEWORK
 62
     7
370
    30
100
AcDbLine
 10
67.58115870381573
 20
82.38405398385101
 30
0.0
 11
67.65436339131577
 21
82.25856023385109
 31
0.0
  0
LINE
  5
2A0
330
2
100
AcDbEntity
  8
LINEWORK
 62
     7
370
    30
100
AcDbLine
 10
67.58115870381573
 20
82.38405398385101
 30
0.0
 11
67.65436339131577
 21
82.25856023385096
 31
0.0
  0
LINE
  5
2A1
330
2
100
AcDbEntity
  8
LINEWORK
 62
     7
370
    30
100
AcDbLine
 10
70.46751495381568
 20
82.25856023385096
 30
0.0
 11
73.2806665163157
 21
82.25856023385109
 31
0.0
  0
LINE
  5
2A2
330
2
100
AcDbEntity
  8
LINEWORK
 62
     7
370
    30
100
AcDbLine
 10
73.2806665163157
 20
82.25856023385109
 30
0.0
 11
70.46751495381568
 21
82.25856023385096
 31
0.0
  0
LINE
  5
2A3
330
2
100
AcDbEntity
  8
LINEWORK
 62
     7
370
    30
100
AcDbLine
 10
70.46751495381568
 20
82.38405398385101
 30
0.0
 11
73.35387120381574
 21
82.38405398385101
 31
0.0
  0
LINE
  5
2A4
330
2
100
AcDbEntity
  8
LINEWORK
 62
     7
370
    30
100
AcDbLine
 10
70.46751495381568
 20
82.38405398385101
 30
0.0
 11
73.35387120381574
 21
82.38405398385101
 31
0.0
  0
LINE
  5
2A5
330
2
100
AcDbEntity
  8
LINEWORK
 62
     7
370
    30
100
AcDbLine
 10
70.46751495381568
 20
80.62714148385101
 30
0.0
 11
72.21396964131577
 21
80.62714148385101
 31
0.0
  0
LINE
  5
2A6
330
2
100
AcDbEntity
  8
LINEWORK
 62
     7
370
    30
100
AcDbLine
 10
72.21396964131577
 20
80.62714148385101
 30
0.0
 11
70.46751495381568
 21
80.62714148385101
 31
0.0
  0
LINE
  5
2A7
330
2
100
AcDbEntity
  8
LINEWORK
  6
DASHED
 62
     7
 48
2.0
370
    30
100
AcDbLine
 10
70.7175149538158
 20
82.7302414838523
 30
0.0
 11
70.21751495381579
 21
82.7302414838523
 31
0.0
  0
LINE
  5
2A8
330
2
100
AcDbEntity
  8
LINEWORK
 62
     7
370
    30
100
AcDbLine
 10
73.35387120381574
 20
82.38405398385101
 30
0.0
 11
73.2806665163157
 21
82.25856023385109
 31
0.0
  0
LINE
  5
2A9
330
2
100
AcDbEntity
  8
LINEWORK
 62
     7
370
    30
100
AcDbLine
 10
73.35387120381574
 20
82.38405398385101
 30
0.0
 11
73.2806665163157
 21
82.25856023385096
 31
0.0
  0
LINE
  5
2AA
330
2
100
AcDbEntity
  8
LINEWORK
 62
     7
370
    30
100
AcDbLine
 10
74.95615870381573
 20
84.540241483851
 30
0.0
 11
74.95615870381573
 21
82.38405398385101
 31
0.0
  0
LINE
  5
2AB
330
2
100
AcDbEntity
  8
LINEWORK
 62
     7
370
    30
100
AcDbLine
 10
74.95615870381573
 20
82.38405398385101
 30
0.0
 11
74.95615870381573
 21
84.540241483851
 31
0.0
  0
LINE
  5
2AC
330
2
100
AcDbEntity
  8
LINEWORK
 62
     7
370
    30
100
AcDbLine
 10
73.35387120381574
 20
82.38405398385101
 30
0.0
 11
73.35387120381574
 21
84.540241483851
 31
0.0
  0
LINE
  5
2AD
330
2
100
AcDbEntity
  8
LINEWORK
 62
     7
370
    30
100
AcDbLine
 10
73.35387120381574
 20
84.540241483851
 30
0.0
 11
73.35387120381574
 21
82.38405398385101
 31
0.0
  0
LINE
  5
2AE
330
2
100
AcDbEntity
  8
LINEWORK
 62
     7
370
    30
100
AcDbLine
 10
67.58115870381573
 20
82.38405398385101
 30
0.0
 11
67.58115870381573
 21
84.540241483851
 31
0.0
  0
LINE
  5
2AF
330
2
100
AcDbEntity
  8
LINEWORK
 62
     7
370
    30
100
AcDbLine
 10
67.58115870381573
 20
84.540241483851
 30
0.0
 11
67.58115870381573
 21
82.38405398385101
 31
0.0
  0
LINE
  5
2B0
330
2
100
AcDbEntity
  8
LINEWORK
  6
DASHED
 62
     7
 48
2.0
370
    30
100
AcDbLine
 10
70.7175149538158
 20
86.73024148385229
 30
0.0
 11
70.7175149538158
 21
82.7302414838523
 31
0.0
  0
LINE
  5
2B1
330
2
100
AcDbEntity
  8
LINEWORK
  6
DASHED
 62
     7
 48
2.0
370
    30
100
AcDbLine
 10
70.21751495381579
 20
82.7302414838523
 30
0.0
 11
70.21751495381579
 21
86.73024148385229
 31
0.0
  0
LINE
  5
2B2
330
2
100
AcDbEntity
  8
LINEWORK
  6
DASHED
 62
     7
 48
2.0
370
    30
100
AcDbLine
 10
84.96751495381579
 20
86.73024148385229
 30
0.0
 11
85.46751495381579
 21
86.73024148385229
 31
0.0
  0
POINT
  5
2B3
330
2
100
AcDbEntity
  8
LINEWORK
 62
     7
370
    30
100
AcDbPoint
 10
82.33115870381572
 20
84.64294148385112
 30
0.0
  0
POINT
  5
2B4
330
2
100
AcDbEntity
  8
LINEWORK
 62
     7
370
    30
100
AcDbPoint
 10
82.33115870381572
 20
84.64294148385112
 30
0.0
  0
POINT
  5
2B5
330
2
100
AcDbEntity
  8
LINEWORK
 62
     1
370
    30
100
AcDbPoint
 10
80.72887120381574
 20
84.64294148385112
 30
0.0
  0
LINE
  5
2B6
330
2
100
AcDbEntity
  8
LINEWORK
  6
DASHED
 62
     7
 48
2.0
370
    30
100
AcDbLine
 10
85.46751495381579
 20
82.7302414838523
 30
0.0
 11
84.96751495381579
 21
82.7302414838523
 31
0.0
  0
LINE
  5
2B7
330
2
100
AcDbEntity
  8
LINEWORK
 62
     7
370
    30
100
AcDbLine
 10
85.21751495381568
 20
82.38405398385101
 30
0.0
 11
82.33115870381572
 21
82.38405398385101
 31
0.0
  0
LINE
  5
2B8
330
2
100
AcDbEntity
  8
LINEWORK
 62
     7
370
    30
100
AcDbLine
 10
85.21751495381568
 20
82.25856023385096
 30
0.0
 11
82.40436339131576
 21
82.25856023385096
 31
0.0
  0
LINE
  5
2B9
330
2
100
AcDbEntity
  8
LINEWORK
 62
     7
370
    30
100
AcDbLine
 10
85.21751495381568
 20
82.38405398385101
 30
0.0
 11
82.33115870381572
 21
82.38405398385101
 31
0.0
  0
LINE
  5
2BA
330
2
100
AcDbEntity
  8
LINEWORK
 62
     7
370
    30
100
AcDbLine
 10
85.21751495381568
 20
82.25856023385109
 30
0.0
 11
82.40436339131576
 21
82.25856023385109
 31
0.0
  0
LINE
  5
2BB
330
2
100
AcDbEntity
  8
LINEWORK
 62
     7
370
    30
100
AcDbLine
 10
85.21751495381568
 20
80.62714148385101
 30
0.0
 11
83.47106026631569
 21
80.62714148385101
 31
0.0
  0
LINE
  5
2BC
330
2
100
AcDbEntity
  8
LINEWORK
 62
     7
370
    30
100
AcDbLine
 10
83.47106026631569
 20
80.62714148385101
 30
0.0
 11
85.21751495381568
 21
80.62714148385101
 31
0.0
  0
LINE
  5
2BD
330
2
100
AcDbEntity
  8
LINEWORK
 62
     7
370
    30
100
AcDbLine
 10
82.33115870381572
 20
82.38405398385101
 30
0.0
 11
82.40436339131576
 21
82.25856023385096
 31
0.0
  0
LINE
  5
2BE
330
2
100
AcDbEntity
  8
LINEWORK
 62
     7
370
    30
100
AcDbLine
 10
82.33115870381572
 20
82.38405398385101
 30
0.0
 11
82.40436339131576
 21
82.25856023385109
 31
0.0
  0
LINE
  5
2BF
330
2
100
AcDbEntity
  8
LINEWORK
  6
DASHED
 62
     7
 48
2.0
370
    30
100
AcDbLine
 10
84.96751495381579
 20
82.7302414838523
 30
0.0
 11
84.96751495381579
 21
86.73024148385229
 31
0.0
  0
LINE
  5
2C0
330
2
100
AcDbEntity
  8
LINEWORK
 62
     7
370
    30
100
AcDbLine
 10
82.33115870381572
 20
84.540241483851
 30
0.0
 11
82.33115870381572
 21
82.38405398385101
 31
0.0
  0
LINE
  5
2C1
330
2
100
AcDbEntity
  8
LINEWORK
 62
     7
370
    30
100
AcDbLine
 10
82.33115870381572
 20
82.38405398385101
 30
0.0
 11
82.33115870381572
 21
84.540241483851
 31
0.0
  0
LINE
  5
2C2
330
2
100
AcDbEntity
  8
LINEWORK
 62
     7
370
    30
100
AcDbLine
 10
80.72887120381574
 20
84.540241483851
 30
0.0
 11
80.72887120381574
 21
82.38405398385101
 31
0.0
  0
LINE
  5
2C3
330
2
100
AcDbEntity
  8
LINEWORK
 62
     7
370
    30
100
AcDbLine
 10
80.72887120381574
 20
82.38405398385101
 30
0.0
 11
80.72887120381574
 21
84.540241483851
 31
0.0
  0
LINE
  5
2C4
330
2
100
AcDbEntity
  8
LINEWORK
  6
DASHED
 62
     7
 48
2.0
370
    30
100
AcDbLine
 10
85.46751495381579
 20
86.73024148385229
 30
0.0
 11
85.46751495381579
 21
82.7302414838523
 31
0.0
  0
LINE
  5
2C5
330
2
100
AcDbEntity
  8
LINEWORK
  6
DASHED
 62
     7
 48
2.0
370
    30
100
AcDbLine
 10
77.5925149538158
 20
86.73024148385229
 30
0.0
 11
78.09251495381579
 21
86.73024148385229
 31
0.0
  0
LINE
  5
2C6
330
2
100
AcDbEntity
  8
LINEWORK
 62
     7
370
    30
100
AcDbLine
 10
80.6556665163157
 20
82.25856023385109
 30
0.0
 11
77.84251495381568
 21
82.25856023385096
 31
0.0
  0
LINE
  5
2C7
330
2
100
AcDbEntity
  8
LINEWORK
 62
     7
370
    30
100
AcDbLine
 10
77.84251495381568
 20
82.25856023385096
 30
0.0
 11
80.6556665163157
 21
82.25856023385109
 31
0.0
  0
LINE
  5
2C8
330
2
100
AcDbEntity
  8
LINEWORK
  6
DASHED
 62
     7
 48
2.0
370
    30
100
AcDbLine
 10
78.09251495381579
 20
82.7302414838523
 30
0.0
 11
77.5925149538158
 21
82.7302414838523
 31
0.0
  0
LINE
  5
2C9
330
2
100
AcDbEntity
  8
LINEWORK
 62
     7
370
    30
100
AcDbLine
 10
79.58896964131577
 20
80.62714148385101
 30
0.0
 11
77.84251495381568
 21
80.62714148385101
 31
0.0
  0
LINE
  5
2CA
330
2
100
AcDbEntity
  8
LINEWORK
 62
     7
370
    30
100
AcDbLine
 10
77.84251495381568
 20
80.62714148385101
 30
0.0
 11
79.58896964131577
 21
80.62714148385101
 31
0.0
  0
LINE
  5
2CB
330
2
100
AcDbEntity
  8
LINEWORK
  6
DASHED
 62
     7
 48
2.0
370
    30
100
AcDbLine
 10
77.5925149538158
 20
82.7302414838523
 30
0.0
 11
77.5925149538158
 21
86.73024148385229
 31
0.0
  0
LINE
  5
2CC
330
2
100
AcDbEntity
  8
LINEWORK
  6
DASHED
 62
     7
 48
2.0
370
    30
100
AcDbLine
 10
78.09251495381579
 20
86.73024148385229
 30
0.0
 11
78.09251495381579
 21
82.7302414838523
 31
0.0
  0
LINE
  5
2CD
330
2
100
AcDbEntity
  8
LINEWORK
 62
     7
370
    30
100
AcDbLine
 10
77.84251495381568
 20
82.38405398385101
 30
0.0
 11
80.72887120381574
 21
82.38405398385101
 31
0.0
  0
LINE
  5
2CE
330
2
100
AcDbEntity
  8
LINEWORK
 62
     7
370
    30
100
AcDbLine
 10
77.84251495381568
 20
82.38405398385101
 30
0.0
 11
80.72887120381574
 21
82.38405398385101
 31
0.0
  0
LINE
  5
2CF
330
2
100
AcDbEntity
  8
LINEWORK
 62
     7
370
    30
100
AcDbLine
 10
80.72887120381574
 20
82.38405398385101
 30
0.0
 11
80.6556665163157
 21
82.25856023385096
 31
0.0
  0
LINE
  5
2D0
330
2
100
AcDbEntity
  8
LINEWORK
 62
     7
370
    30
100
AcDbLine
 10
80.72887120381574
 20
82.38405398385101
 30
0.0
 11
80.6556665163157
 21
82.25856023385109
 31
0.0
  0
ARC
  5
2D1
330
2
100
AcDbEntity
  8
LINEWORK
 62
     7
370
    30
100
AcDbCircle
 10
106.1577306604521
 20
82.15882471030557
 30
0.0
 40
1.631418750000056
100
AcDbArc
 50
176.4950813054347
 51
249.8619420133486
  0
LINE
  5
2D2
330
2
100
AcDbEntity
  8
LINEWORK
 62
     7
370
    30
100
AcDbLine
 10
105.5960602663156
 20
79.99967273385107
 30
0.0
 11
105.5960602663156
 21
80.62714148385101
 31
0.0
  0
LINE
  5
2D3
330
2
100
AcDbEntity
  8
LINEWORK
 62
     7
370
    30
100
AcDbLine
 10
105.5960602663158
 20
79.99967273385107
 30
0.0
 11
105.5960602663156
 21
80.62714148385101
 31
0.0
  0
ARC
  5
2D4
330
2
100
AcDbEntity
  8
LINEWORK
 62
     7
370
    30
100
AcDbCircle
 10
98.7827306604521
 20
82.15882471030557
 30
0.0
 40
1.631418750000056
100
AcDbArc
 50
176.4950813054347
 51
249.8619420133486
  0
LINE
  5
2D5
330
2
100
AcDbEntity
  8
LINEWORK
 62
     7
370
    30
100
AcDbLine
 10
98.22106026631571
 20
79.99967273385107
 30
0.0
 11
98.22106026631571
 21
80.62714148385101
 31
0.0
  0
LINE
  5
2D6
330
2
100
AcDbEntity
  8
LINEWORK
 62
     7
370
    30
100
AcDbLine
 10
98.22106026631582
 20
79.99967273385107
 30
0.0
 11
98.22106026631571
 21
80.62714148385101
 31
0.0
  0
LINE
  5
2D7
330
2
100
AcDbEntity
  8
LINEWORK
 62
     7
370
    30
100
AcDbLine
 10
101.7139696413157
 20
79.99967273385107
 30
0.0
 11
101.7139696413157
 21
80.62714148385101
 31
0.0
  0
LINE
  5
2D8
330
2
100
AcDbEntity
  8
LINEWORK
 62
     7
370
    30
100
AcDbLine
 10
101.7139696413157
 20
79.99967273385107
 30
0.0
 11
101.7139696413157
 21
80.62714148385101
 31
0.0
  0
ARC
  5
2D9
330
2
100
AcDbEntity
  8
LINEWORK
 62
     7
370
    30
100
AcDbCircle
 10
101.1522992471793
 20
82.15882471030557
 30
0.0
 40
1.631418750000088
100
AcDbArc
 50
290.1380579866513
 51
3.504918694565252
  0
ARC
  5
2DA
330
2
100
AcDbEntity
  8
LINEWORK
 62
     7
370
    30
100
AcDbCircle
 10
91.40773066045211
 20
82.15882471030557
 30
0.0
 40
1.631418750000056
100
AcDbArc
 50
176.4950813054347
 51
249.8619420133486
  0
LINE
  5
2DB
330
2
100
AcDbEntity
  8
LINEWORK
 62
     7
370
    30
100
AcDbLine
 10
90.8460602663157
 20
79.99967273385107
 30
0.0
 11
90.8460602663157
 21
80.62714148385101
 31
0.0
  0
LINE
  5
2DC
330
2
100
AcDbEntity
  8
LINEWORK
 62
     7
370
    30
100
AcDbLine
 10
90.84606026631581
 20
79.99967273385107
 30
0.0
 11
90.8460602663157
 21
80.62714148385101
 31
0.0
  0
LINE
  5
2DD
330
2
100
AcDbEntity
  8
LINEWORK
 62
     7
370
    30
100
AcDbLine
 10
94.33896964131577
 20
79.99967273385107
 30
0.0
 11
94.33896964131577
 21
80.62714148385101
 31
0.0
  0
LINE
  5
2DE
330
2
100
AcDbEntity
  8
LINEWORK
 62
     7
370
    30
100
AcDbLine
 10
94.33896964131577
 20
79.99967273385107
 30
0.0
 11
94.33896964131577
 21
80.62714148385101
 31
0.0
  0
LINE
  5
2DF
330
2
100
AcDbEntity
  8
LINEWORK
 62
     7
370
    30
100
AcDbLine
 10
86.96396964131578
 20
79.99967273385107
 30
0.0
 11
86.96396964131578
 21
80.62714148385101
 31
0.0
  0
LINE
  5
2E0
330
2
100
AcDbEntity
  8
LINEWORK
 62
     7
370
    30
100
AcDbLine
 10
86.96396964131578
 20
79.99967273385107
 30
0.0
 11
86.96396964131578
 21
80.62714148385101
 31
0.0
  0
ARC
  5
2E1
330
2
100
AcDbEntity
  8
LINEWORK
 62
     7
370
    30
100
AcDbCircle
 10
86.40229924717937
 20
82.15882471030557
 30
0.0
 40
1.631418750000088
100
AcDbArc
 50
290.1380579866513
 51
3.504918694565252
  0
ARC
  5
2E2
330
2
100
AcDbEntity
  8
LINEWORK
 62
     7
370
    30
100
AcDbCircle
 10
93.77729924717938
 20
82.15882471030557
 30
0.0
 40
1.631418750000088
100
AcDbArc
 50
290.1380579866513
 51
3.504918694565252
  0
LINE
  5
2E3
330
2
100
AcDbEntity
  8
LINEWORK
 62
     7
370
    30
100
AcDbLine
 10
99.96751495381568
 20
61.05011648385096
 30
0.0
 11
97.08115870381574
 21
61.05011648385096
 31
0.0
  0
LINE
  5
2E4
330
2
100
AcDbEntity
  8
LINEWORK
 62
     7
370
    30
100
AcDbLine
 10
97.08115870381574
 20
61.05011648385096
 30
0.0
 11
99.96751495381568
 21
61.05011648385096
 31
0.0
  0
ARC
  5
2E5
330
2
100
AcDbEntity
  8
LINEWORK
 62
     7
370
    30
100
AcDbCircle
 10
98.03557169723672
 20
62.08709115490353
 30
0.0
 40
0.7668837767419853
100
AcDbArc
 50
110.1517470342128
 51
239.4593951503178
  0
ARC
  5
2E6
330
2
100
AcDbEntity
  8
LINEWORK
 62
     7
370
    30
100
AcDbCircle
 10
98.00172771917949
 20
62.09016788018164
 30
0.0
 40
0.7529625000000071
100
AcDbArc
 50
107.8140895270852
 51
241.7970526574468
  0
LINE
  5
2E7
330
2
100
AcDbEntity
  8
LINEWORK
 62
     7
370
    30
100
AcDbLine
 10
97.08115870381574
 20
61.05011648385096
 30
0.0
 11
97.64588057881566
 21
61.17561023385099
 31
0.0
  0
LINE
  5
2E8
330
2
100
AcDbEntity
  8
LINEWORK
 62
     7
370
    30
100
AcDbLine
 10
97.64588057881566
 20
61.17561023385099
 30
0.0
 11
97.08115870381574
 21
61.05011648385096
 31
0.0
  0
ARC
  5
2E9
330
2
100
AcDbEntity
  8
LINEWORK
 62
     7
370
    30
100
AcDbCircle
 10
100.9582781768737
 20
69.52185345919986
 30
0.0
 40
3.857967380510689
100
AcDbArc
 50
179.0815864401029
 51
229.8762612980302
  0
ARC
  5
2EA
330
2
100
AcDbEntity
  8
LINEWORK
 62
     7
370
    30
100
AcDbCircle
 10
100.9592508044003
 20
69.5222962790882
 30
0.0
 40
3.858932812500603
100
AcDbArc
 50
179.0883918675777
 51
229.8694558705647
  0
ARC
  5
2EB
330
2
100
AcDbEntity
  8
LINEWORK
 62
     7
370
    30
100
AcDbCircle
 10
111.744534879723
 20
66.50061664494512
 30
0.0
 40
15.2161171874998
100
AcDbArc
 50
154.3071356404088
 51
160.4531344586555
  0
ARC
  5
2EC
330
2
100
AcDbEntity
  8
LINEWORK
 62
     7
370
    30
100
AcDbCircle
 10
90.13369993962374
 20
69.80299827717806
 30
0.0
 40
5.330037199451427
100
AcDbArc
 50
357.6418735319813
 51
19.60711889602133
  0
ARC
  5
2ED
330
2
100
AcDbEntity
  8
LINEWORK
 62
     7
370
    30
100
AcDbCircle
 10
90.13022820010201
 20
69.80247170758673
 30
0.0
 40
5.333484374999923
100
AcDbArc
 50
357.649060045261
 51
19.59993238281736
  0
ARC
  5
2EE
330
2
100
AcDbEntity
  8
LINEWORK
 62
     7
370
    30
100
AcDbCircle
 10
102.4263299680078
 20
69.80299827717806
 30
0.0
 40
5.330037199451427
100
AcDbArc
 50
160.3928811039786
 51
182.3581264680186
  0
ARC
  5
2EF
330
2
100
AcDbEntity
  8
LINEWORK
 62
     7
370
    30
100
AcDbCircle
 10
102.4298017075294
 20
69.80247170758673
 30
0.0
 40
5.333484374999923
100
AcDbArc
 50
160.4000676171826
 51
182.3509399547389
  0
ARC
  5
2F0
330
2
100
AcDbEntity
  8
LINEWORK
 62
     7
370
    30
100
AcDbCircle
 10
121.8402009514125
 20
76.07618304034133
 30
0.0
 40
27.63462319024747
100
AcDbArc
 50
178.630117417344
 51
184.0977376458605
  0
ARC
  5
2F1
330
2
100
AcDbEntity
  8
LINEWORK
 62
     7
370
    30
100
AcDbCircle
 10
121.8455807973083
 20
76.0763111319103
 30
0.0
 40
27.63999843750035
100
AcDbArc
 50
178.6306494746762
 51
184.0972055885288
  0
ARC
  5
2F2
330
2
100
AcDbEntity
  8
LINEWORK
 62
     7
370
    30
100
AcDbCircle
 10
63.34482895621909
 20
76.07618304034133
 30
0.0
 40
27.63462319024747
100
AcDbArc
 50
355.9022623541395
 51
1.369882582655912
  0
ARC
  5
2F3
330
2
100
AcDbEntity
  8
LINEWORK
 62
     7
370
    30
100
AcDbCircle
 10
63.33944911032313
 20
76.0763111319103
 30
0.0
 40
27.63999843750035
100
AcDbArc
 50
355.9027944114711
 51
1.369350525323726
  0
ARC
  5
2F4
330
2
100
AcDbEntity
  8
LINEWORK
 62
     7
370
    30
100
AcDbCircle
 10
88.68129307881577
 20
74.12499656197599
 30
0.0
 40
2.22763833761492
100
AcDbArc
 50
332.532727661389
 51
359.3947854027546
  0
ARC
  5
2F5
330
2
100
AcDbEntity
  8
LINEWORK
 62
     7
370
    30
100
AcDbCircle
 10
88.681417033716
 20
74.12496557325096
 30
0.0
 40
2.227514062500199
100
AcDbArc
 50
332.5319642964298
 51
359.3955487677153
  0
ARC
  5
2F6
330
2
100
AcDbEntity
  8
LINEWORK
 62
     7
370
    30
100
AcDbCircle
 10
96.50373682881571
 20
74.12499656197599
 30
0.0
 40
2.22763833761492
100
AcDbArc
 50
180.6052145972454
 51
207.467272338611
  0
ARC
  5
2F7
330
2
100
AcDbEntity
  8
LINEWORK
 62
     7
370
    30
100
AcDbCircle
 10
96.50361287391547
 20
74.12496557325096
 30
0.0
 40
2.22751406250017
100
AcDbArc
 50
180.6044512322847
 51
207.4680357035701
  0
LINE
  5
2F8
330
2
100
AcDbEntity
  8
LINEWORK
 62
     7
370
    30
100
AcDbLine
 10
92.59251495381567
 20
77.61529148385102
 30
0.0
 11
90.8460602663157
 21
77.61529148385102
 31
0.0
  0
LINE
  5
2F9
330
2
100
AcDbEntity
  8
LINEWORK
 62
     7
370
    30
100
AcDbLine
 10
92.59251495381567
 20
76.73683523385091
 30
0.0
 11
90.97155401631573
 21
76.73683523385091
 31
0.0
  0
LINE
  5
2FA
330
2
100
AcDbEntity
  8
LINEWORK
 62
     7
370
    30
100
AcDbLine
 10
90.8460602663157
 20
76.86232898385094
 30
0.0
 11
92.59251495381567
 21
76.86232898385094
 31
0.0
  0
LINE
  5
2FB
330
2
100
AcDbEntity
  8
LINEWORK
 62
     7
370
    30
100
AcDbLine
 10
90.84606026631581
 20
77.61529148385102
 30
0.0
 11
92.59251495381567
 21
77.61529148385102
 31
0.0
  0
LINE
  5
2FC
330
2
100
AcDbEntity
  8
LINEWORK
 62
     7
370
    30
100
AcDbLine
 10
92.59251495381567
 20
76.86232898385094
 30
0.0
 11
90.8460602663157
 21
76.86232898385094
 31
0.0
  0
LINE
  5
2FD
330
2
100
AcDbEntity
  8
LINEWORK
 62
     7
370
    30
100
AcDbLine
 10
90.97155401631573
 20
76.73683523385114
 30
0.0
 11
92.59251495381567
 21
76.73683523385091
 31
0.0
  0
LINE
  5
2FE
330
2
100
AcDbEntity
  8
LINEWORK
 62
     7
370
    30
100
AcDbLine
 10
92.59251495381567
 20
79.99967273385107
 30
0.0
 11
90.8460602663157
 21
79.99967273385107
 31
0.0
  0
LINE
  5
2FF
330
2
100
AcDbEntity
  8
LINEWORK
 62
     7
370
    30
100
AcDbLine
 10
92.59251495381567
 20
78.74473523385097
 30
0.0
 11
90.8460602663157
 21
78.74473523385097
 31
0.0
  0
LINE
  5
300
330
2
100
AcDbEntity
  8
LINEWORK
 62
     7
370
    30
100
AcDbLine
 10
92.59251495381567
 20
79.99967273385107
 30
0.0
 11
90.84606026631581
 21
79.99967273385107
 31
0.0
  0
ARC
  5
301
330
2
100
AcDbEntity
  8
LINEWORK
 62
     7
370
    30
100
AcDbCircle
 10
91.35587862569071
 20
78.18001335885094
 30
0.0
 40
0.760805859375
100
AcDbArc
 50
132.0750220508426
 51
227.9249779491573
  0
ARC
  5
302
330
2
100
AcDbEntity
  8
LINEWORK
 62
     7
370
    30
100
AcDbCircle
 10
91.34409814670505
 20
78.18001335885094
 30
0.0
 40
0.7529625000000308
100
AcDbArc
 50
131.4096221092697
 51
228.5903778907302
  0
LINE
  5
303
330
2
100
AcDbEntity
  8
LINEWORK
 62
     7
370
    30
100
AcDbLine
 10
90.8460602663157
 20
76.86232898385094
 30
0.0
 11
90.97155401631573
 21
76.73683523385091
 31
0.0
  0
LINE
  5
304
330
2
100
AcDbEntity
  8
LINEWORK
 62
     7
370
    30
100
AcDbLine
 10
90.8460602663157
 20
76.86232898385094
 30
0.0
 11
90.8460602663157
 21
77.61529148385102
 31
0.0
  0
LINE
  5
305
330
2
100
AcDbEntity
  8
LINEWORK
 62
     7
370
    30
100
AcDbLine
 10
90.8460602663157
 20
76.86232898385094
 30
0.0
 11
90.84606026631581
 21
77.61529148385102
 31
0.0
  0
LINE
  5
306
330
2
100
AcDbEntity
  8
LINEWORK
 62
     7
370
    30
100
AcDbLine
 10
90.8460602663157
 20
76.86232898385094
 30
0.0
 11
90.97155401631573
 21
76.73683523385091
 31
0.0
  0
ARC
  5
307
330
2
100
AcDbEntity
  8
LINEWORK
 62
     7
370
    30
100
AcDbCircle
 10
89.93623057881576
 20
79.37220398385102
 30
0.0
 40
1.105218119867257
100
AcDbArc
 50
325.4077113124903
 51
34.59228868750958
  0
ARC
  5
308
330
2
100
AcDbEntity
  8
LINEWORK
 62
     7
370
    30
100
AcDbCircle
 10
89.94492688053572
 20
79.37220398385102
 30
0.0
 40
1.098070312499993
100
AcDbArc
 50
325.1500954209564
 51
34.84990457904352
  0
ARC
  5
309
330
2
100
AcDbEntity
  8
LINEWORK
 62
     7
370
    30
100
AcDbCircle
 10
93.82915128194076
 20
78.18001335885094
 30
0.0
 40
0.760805859375
100
AcDbArc
 50
312.0750220508427
 51
47.9249779491573
  0
ARC
  5
30A
330
2
100
AcDbEntity
  8
LINEWORK
 62
     7
370
    30
100
AcDbCircle
 10
93.84093176092642
 20
78.18001335885094
 30
0.0
 40
0.7529625000000308
100
AcDbArc
 50
311.4096221092697
 51
48.59037789073025
  0
LINE
  5
30B
330
2
100
AcDbEntity
  8
LINEWORK
 62
     7
370
    30
100
AcDbLine
 10
94.33896964131577
 20
76.86232898385094
 30
0.0
 11
92.59251495381567
 21
76.86232898385094
 31
0.0
  0
LINE
  5
30C
330
2
100
AcDbEntity
  8
LINEWORK
 62
     7
370
    30
100
AcDbLine
 10
92.59251495381567
 20
76.73683523385091
 30
0.0
 11
94.21347589131574
 21
76.73683523385091
 31
0.0
  0
LINE
  5
30D
330
2
100
AcDbEntity
  8
LINEWORK
 62
     7
370
    30
100
AcDbLine
 10
92.59251495381567
 20
77.61529148385102
 30
0.0
 11
94.33896964131577
 21
77.61529148385102
 31
0.0
  0
LINE
  5
30E
330
2
100
AcDbEntity
  8
LINEWORK
 62
     7
370
    30
100
AcDbLine
 10
92.59251495381567
 20
76.86232898385094
 30
0.0
 11
94.33896964131577
 21
76.86232898385094
 31
0.0
  0
LINE
  5
30F
330
2
100
AcDbEntity
  8
LINEWORK
 62
     7
370
    30
100
AcDbLine
 10
94.33896964131577
 20
77.61529148385102
 30
0.0
 11
92.59251495381567
 21
77.61529148385102
 31
0.0
  0
LINE
  5
310
330
2
100
AcDbEntity
  8
LINEWORK
 62
     7
370
    30
100
AcDbLine
 10
94.21347589131574
 20
76.73683523385114
 30
0.0
 11
92.59251495381567
 21
76.73683523385091
 31
0.0
  0
LINE
  5
311
330
2
100
AcDbEntity
  8
LINEWORK
 62
     7
370
    30
100
AcDbLine
 10
94.33896964131577
 20
76.86232898385094
 30
0.0
 11
94.33896964131577
 21
77.61529148385102
 31
0.0
  0
LINE
  5
312
330
2
100
AcDbEntity
  8
LINEWORK
 62
     7
370
    30
100
AcDbLine
 10
94.33896964131577
 20
76.86232898385094
 30
0.0
 11
94.21347589131574
 21
76.73683523385091
 31
0.0
  0
LINE
  5
313
330
2
100
AcDbEntity
  8
LINEWORK
 62
     7
370
    30
100
AcDbLine
 10
94.33896964131577
 20
76.86232898385094
 30
0.0
 11
94.21347589131574
 21
76.73683523385091
 31
0.0
  0
LINE
  5
314
330
2
100
AcDbEntity
  8
LINEWORK
 62
     7
370
    30
100
AcDbLine
 10
94.33896964131577
 20
76.86232898385094
 30
0.0
 11
94.33896964131577
 21
77.61529148385102
 31
0.0
  0
ARC
  5
315
330
2
100
AcDbEntity
  8
LINEWORK
 62
     7
370
    30
100
AcDbCircle
 10
95.24879932881573
 20
79.37220398385102
 30
0.0
 40
1.105218119867257
100
AcDbArc
 50
145.4077113124904
 51
214.5922886875095
  0
ARC
  5
316
330
2
100
AcDbEntity
  8
LINEWORK
 62
     7
370
    30
100
AcDbCircle
 10
95.24010302709575
 20
79.37220398385102
 30
0.0
 40
1.09807031250002
100
AcDbArc
 50
145.1500954209564
 51
214.8499045790435
  0
LINE
  5
317
330
2
100
AcDbEntity
  8
LINEWORK
 62
     7
370
    30
100
AcDbLine
 10
92.59251495381567
 20
78.74473523385097
 30
0.0
 11
94.33896964131577
 21
78.74473523385097
 31
0.0
  0
LINE
  5
318
330
2
100
AcDbEntity
  8
LINEWORK
 62
     7
370
    30
100
AcDbLine
 10
92.59251495381567
 20
79.99967273385107
 30
0.0
 11
94.33896964131577
 21
79.99967273385107
 31
0.0
  0
LINE
  5
319
330
2
100
AcDbEntity
  8
LINEWORK
 62
     7
370
    30
100
AcDbLine
 10
92.59251495381567
 20
79.99967273385107
 30
0.0
 11
94.33896964131577
 21
79.99967273385107
 31
0.0
  0
ARC
  5
31A
330
2
100
AcDbEntity
  8
LINEWORK
 62
     7
370
    30
100
AcDbCircle
 10
86.45415128194077
 20
78.18001335885094
 30
0.0
 40
0.760805859375
100
AcDbArc
 50
312.0750220508427
 51
47.9249779491573
  0
ARC
  5
31B
330
2
100
AcDbEntity
  8
LINEWORK
 62
     7
370
    30
100
AcDbCircle
 10
86.46593176092641
 20
78.18001335885094
 30
0.0
 40
0.7529625000000308
100
AcDbArc
 50
311.4096221092697
 51
48.59037789073025
  0
LINE
  5
31C
330
2
100
AcDbEntity
  8
LINEWORK
 62
     7
370
    30
100
AcDbLine
 10
86.96396964131578
 20
76.86232898385094
 30
0.0
 11
86.96396964131578
 21
77.61529148385102
 31
0.0
  0
LINE
  5
31D
330
2
100
AcDbEntity
  8
LINEWORK
 62
     7
370
    30
100
AcDbLine
 10
86.96396964131578
 20
76.86232898385094
 30
0.0
 11
86.96396964131578
 21
77.61529148385102
 31
0.0
  0
ARC
  5
31E
330
2
100
AcDbEntity
  8
LINEWORK
 62
     7
370
    30
100
AcDbCircle
 10
95.05132996800785
 20
69.80299827717806
 30
0.0
 40
5.330037199451427
100
AcDbArc
 50
160.3928811039786
 51
182.3581264680186
  0
ARC
  5
31F
330
2
100
AcDbEntity
  8
LINEWORK
 62
     7
370
    30
100
AcDbCircle
 10
95.05480170752946
 20
69.80247170758673
 30
0.0
 40
5.333484374999923
100
AcDbArc
 50
160.4000676171826
 51
182.3509399547389
  0
ARC
  5
320
330
2
100
AcDbEntity
  8
LINEWORK
 62
     7
370
    30
100
AcDbCircle
 10
93.58327817687371
 20
69.52185345919986
 30
0.0
 40
3.857967380510689
100
AcDbArc
 50
179.0815864401029
 51
229.8762612980302
  0
ARC
  5
321
330
2
100
AcDbEntity
  8
LINEWORK
 62
     7
370
    30
100
AcDbCircle
 10
93.58425080440031
 20
69.5222962790882
 30
0.0
 40
3.858932812500603
100
AcDbArc
 50
179.0883918675777
 51
229.8694558705647
  0
ARC
  5
322
330
2
100
AcDbEntity
  8
LINEWORK
 62
     7
370
    30
100
AcDbCircle
 10
90.66057169723672
 20
62.08709115490353
 30
0.0
 40
0.7668837767419853
100
AcDbArc
 50
110.1517470342128
 51
239.4593951503178
  0
ARC
  5
323
330
2
100
AcDbEntity
  8
LINEWORK
 62
     7
370
    30
100
AcDbCircle
 10
90.62672771917949
 20
62.09016788018164
 30
0.0
 40
0.7529625000000071
100
AcDbArc
 50
107.8140895270852
 51
241.7970526574468
  0
LINE
  5
324
330
2
100
AcDbEntity
  8
LINEWORK
 62
     7
370
    30
100
AcDbLine
 10
89.70615870381573
 20
61.05011648385096
 30
0.0
 11
90.27088057881565
 21
61.17561023385099
 31
0.0
  0
LINE
  5
325
330
2
100
AcDbEntity
  8
LINEWORK
 62
     7
370
    30
100
AcDbLine
 10
90.27088057881565
 20
61.17561023385099
 30
0.0
 11
89.70615870381573
 21
61.05011648385096
 31
0.0
  0
LINE
  5
326
330
2
100
AcDbEntity
  8
LINEWORK
 62
     7
370
    30
100
AcDbLine
 10
92.59251495381567
 20
61.05011648385096
 30
0.0
 11
89.70615870381573
 21
61.05011648385096
 31
0.0
  0
LINE
  5
327
330
2
100
AcDbEntity
  8
LINEWORK
 62
     7
370
    30
100
AcDbLine
 10
89.70615870381573
 20
61.05011648385096
 30
0.0
 11
92.59251495381567
 21
61.05011648385096
 31
0.0
  0
LINE
  5
328
330
2
100
AcDbEntity
  8
LINEWORK
 62
     7
370
    30
100
AcDbLine
 10
94.78865557881567
 20
63.43449773385088
 30
0.0
 11
94.78865557881567
 21
62.80702898385095
 31
0.0
  0
LINE
  5
329
330
2
100
AcDbEntity
  8
LINEWORK
 62
     7
370
    30
100
AcDbLine
 10
94.78865557881579
 20
62.80702898385107
 30
0.0
 11
94.78865557881567
 21
63.43449773385112
 31
0.0
  0
LINE
  5
32A
330
2
100
AcDbEntity
  8
LINEWORK
 62
     7
370
    30
100
AcDbLine
 10
90.39637432881567
 20
63.43449773385088
 30
0.0
 11
90.39637432881567
 21
62.80702898385095
 31
0.0
  0
LINE
  5
32B
330
2
100
AcDbEntity
  8
LINEWORK
 62
     7
370
    30
100
AcDbLine
 10
90.39637432881567
 20
62.80702898385107
 30
0.0
 11
90.39637432881567
 21
63.43449773385112
 31
0.0
  0
LINE
  5
32C
330
2
100
AcDbEntity
  8
LINEWORK
  6
DASHED
 62
     7
 48
2.0
370
    30
100
AcDbLine
 10
92.8425149538158
 20
60.35024148385094
 30
0.0
 11
92.34251495381579
 21
60.35024148385094
 31
0.0
  0
LINE
  5
32D
330
2
100
AcDbEntity
  8
LINEWORK
 62
     7
370
    30
100
AcDbLine
 10
92.59251495381567
 20
62.80702898385095
 30
0.0
 11
90.39637432881567
 21
62.80702898385095
 31
0.0
  0
LINE
  5
32E
330
2
100
AcDbEntity
  8
LINEWORK
 62
     7
370
    30
100
AcDbLine
 10
92.59251495381567
 20
62.80702898385107
 30
0.0
 11
90.39637432881567
 21
62.80702898385107
 31
0.0
  0
LINE
  5
32F
330
2
100
AcDbEntity
  8
LINEWORK
 62
     7
370
    30
100
AcDbLine
 10
92.59251495381567
 20
61.17561023385099
 30
0.0
 11
90.27088057881565
 21
61.17561023385099
 31
0.0
  0
LINE
  5
330
330
2
100
AcDbEntity
  8
LINEWORK
 62
     7
370
    30
100
AcDbLine
 10
92.59251495381567
 20
61.42659773385105
 30
0.0
 11
90.27088057881565
 21
61.42659773385105
 31
0.0
  0
LINE
  5
331
330
2
100
AcDbEntity
  8
LINEWORK
 62
     7
370
    30
100
AcDbLine
 10
90.27088057881565
 20
61.17561023385099
 30
0.0
 11
92.59251495381567
 21
61.17561023385099
 31
0.0
  0
LINE
  5
332
330
2
100
AcDbEntity
  8
LINEWORK
 62
     7
370
    30
100
AcDbLine
 10
90.27088057881565
 20
61.42659773385105
 30
0.0
 11
92.59251495381567
 21
61.42659773385105
 31
0.0
  0
LINE
  5
333
330
2
100
AcDbEntity
  8
LINEWORK
 62
     7
370
    30
100
AcDbLine
 10
90.27088057881565
 20
61.17561023385099
 30
0.0
 11
90.27088057881565
 21
61.42659773385105
 31
0.0
  0
LINE
  5
334
330
2
100
AcDbEntity
  8
LINEWORK
 62
     7
370
    30
100
AcDbLine
 10
90.27088057881565
 20
61.42659773385105
 30
0.0
 11
90.27088057881565
 21
61.17561023385099
 31
0.0
  0
LINE
  5
335
330
2
100
AcDbEntity
  8
LINEWORK
 62
     7
370
    30
100
AcDbLine
 10
94.91414932881571
 20
61.17561023385099
 30
0.0
 11
94.91414932881571
 21
61.42659773385105
 31
0.0
  0
LINE
  5
336
330
2
100
AcDbEntity
  8
LINEWORK
 62
     7
370
    30
100
AcDbLine
 10
94.91414932881571
 20
61.42659773385105
 30
0.0
 11
94.91414932881571
 21
61.17561023385099
 31
0.0
  0
POINT
  5
337
330
2
100
AcDbEntity
  8
LINEWORK
 62
     7
370
    30
100
AcDbPoint
 10
93.21566072510938
 20
60.71282075377201
 30
0.0
  0
LINE
  5
338
330
2
100
AcDbEntity
  8
LINEWORK
 62
     7
370
    30
100
AcDbLine
 10
92.59251495381567
 20
62.80702898385095
 30
0.0
 11
94.78865557881567
 21
62.80702898385095
 31
0.0
  0
LINE
  5
339
330
2
100
AcDbEntity
  8
LINEWORK
 62
     7
370
    30
100
AcDbLine
 10
92.59251495381567
 20
62.80702898385107
 30
0.0
 11
94.78865557881579
 21
62.80702898385107
 31
0.0
  0
LINE
  5
33A
330
2
100
AcDbEntity
  8
LINEWORK
 62
     7
370
    30
100
AcDbLine
 10
92.59251495381567
 20
61.42659773385105
 30
0.0
 11
94.91414932881571
 21
61.42659773385105
 31
0.0
  0
LINE
  5
33B
330
2
100
AcDbEntity
  8
LINEWORK
 62
     7
370
    30
100
AcDbLine
 10
92.59251495381567
 20
61.17561023385099
 30
0.0
 11
94.91414932881571
 21
61.17561023385099
 31
0.0
  0
LINE
  5
33C
330
2
100
AcDbEntity
  8
LINEWORK
 62
     7
370
    30
100
AcDbLine
 10
94.91414932881571
 20
61.42659773385105
 30
0.0
 11
92.59251495381567
 21
61.42659773385105
 31
0.0
  0
LINE
  5
33D
330
2
100
AcDbEntity
  8
LINEWORK
 62
     7
370
    30
100
AcDbLine
 10
94.91414932881571
 20
61.17561023385099
 30
0.0
 11
92.59251495381567
 21
61.17561023385099
 31
0.0
  0
LINE
  5
33E
330
2
100
AcDbEntity
  8
LINEWORK
 62
     7
370
    30
100
AcDbLine
 10
92.59251495381567
 20
63.43449773385088
 30
0.0
 11
90.39637432881567
 21
63.43449773385088
 31
0.0
  0
LINE
  5
33F
330
2
100
AcDbEntity
  8
LINEWORK
 62
     7
370
    30
100
AcDbLine
 10
90.39637432881567
 20
63.43449773385112
 30
0.0
 11
92.59251495381567
 21
63.43449773385112
 31
0.0
  0
LINE
  5
340
330
2
100
AcDbEntity
  8
LINEWORK
 62
     7
370
    30
100
AcDbLine
 10
92.59251495381567
 20
66.57184148385102
 30
0.0
 11
91.09704776631577
 21
66.57184148385102
 31
0.0
  0
LINE
  5
341
330
2
100
AcDbEntity
  8
LINEWORK
 62
     7
370
    30
100
AcDbLine
 10
92.59251495381567
 20
66.57184148385102
 30
0.0
 11
91.09704776631577
 21
66.57184148385102
 31
0.0
  0
LINE
  5
342
330
2
100
AcDbEntity
  8
LINEWORK
 62
     7
370
    30
100
AcDbLine
 10
92.59251495381567
 20
65.56789148385099
 30
0.0
 11
91.09704776631577
 21
65.56789148385099
 31
0.0
  0
LINE
  5
343
330
2
100
AcDbEntity
  8
LINEWORK
 62
     7
370
    30
100
AcDbLine
 10
91.09704776631577
 20
65.56789148385099
 30
0.0
 11
92.59251495381567
 21
65.56789148385099
 31
0.0
  0
ARC
  5
344
330
2
100
AcDbEntity
  8
LINEWORK
 62
     7
370
    30
100
AcDbCircle
 10
89.40784960225323
 20
64.84303435494485
 30
0.0
 40
1.720801135514404
100
AcDbArc
 50
305.0615521464798
 51
335.3273056689872
  0
ARC
  5
345
330
2
100
AcDbEntity
  8
LINEWORK
 62
     7
370
    30
100
AcDbCircle
 10
89.40407945384242
 20
64.84617614528724
 30
0.0
 40
1.725539062499979
100
AcDbArc
 50
305.1040931533572
 51
335.284764662113
  0
ARC
  5
346
330
2
100
AcDbEntity
  8
LINEWORK
 62
     7
370
    30
100
AcDbCircle
 10
88.37661723154463
 20
65.07740534828759
 30
0.0
 40
2.764293570461533
100
AcDbArc
 50
339.8400491762129
 51
10.22046936756176
  0
ARC
  5
347
330
2
100
AcDbEntity
  8
LINEWORK
 62
     7
370
    30
100
AcDbCircle
 10
88.38015931567577
 20
65.07709734097159
 30
0.0
 40
2.760862499999871
100
AcDbArc
 50
339.8207155174592
 51
10.23980302638167
  0
ARC
  5
348
330
2
100
AcDbEntity
  8
LINEWORK
 62
     7
370
    30
100
AcDbCircle
 10
91.40206729756574
 20
66.06986648385088
 30
0.0
 40
0.587380468750003
100
AcDbArc
 50
121.2844929144162
 51
238.7155070855837
  0
ARC
  5
349
330
2
100
AcDbEntity
  8
LINEWORK
 62
     7
370
    30
100
AcDbCircle
 10
91.41852983574063
 20
66.06986648385316
 30
0.0
 40
0.5960953125000341
100
AcDbArc
 50
122.6368975039364
 51
237.3631024959551
  0
ARC
  5
34A
330
2
100
AcDbEntity
  8
LINEWORK
 62
     7
370
    30
100
AcDbCircle
 10
96.80841267608684
 20
65.07740534828759
 30
0.0
 40
2.764293570461533
100
AcDbArc
 50
169.7795306324382
 51
200.159950823787
  0
ARC
  5
34B
330
2
100
AcDbEntity
  8
LINEWORK
 62
     7
370
    30
100
AcDbCircle
 10
96.8048705919557
 20
65.07709734097159
 30
0.0
 40
2.760862499999871
100
AcDbArc
 50
169.7601969736183
 51
200.1792844825406
  0
ARC
  5
34C
330
2
100
AcDbEntity
  8
LINEWORK
 62
     7
370
    30
100
AcDbCircle
 10
93.78296261006573
 20
66.06986648385088
 30
0.0
 40
0.587380468750003
100
AcDbArc
 50
301.2844929144161
 51
58.71550708558374
  0
ARC
  5
34D
330
2
100
AcDbEntity
  8
LINEWORK
 62
     7
370
    30
100
AcDbCircle
 10
93.76650007189097
 20
66.06986648385316
 30
0.0
 40
0.5960953125000341
100
AcDbArc
 50
302.6368975040358
 51
57.36310249606355
  0
LINE
  5
34E
330
2
100
AcDbEntity
  8
LINEWORK
 62
     7
370
    30
100
AcDbLine
 10
92.59251495381567
 20
66.57184148385102
 30
0.0
 11
94.0879821413157
 21
66.57184148385102
 31
0.0
  0
LINE
  5
34F
330
2
100
AcDbEntity
  8
LINEWORK
 62
     7
370
    30
100
AcDbLine
 10
92.59251495381567
 20
66.57184148385102
 30
0.0
 11
94.0879821413157
 21
66.57184148385102
 31
0.0
  0
LINE
  5
350
330
2
100
AcDbEntity
  8
LINEWORK
 62
     7
370
    30
100
AcDbLine
 10
92.59251495381567
 20
65.56789148385099
 30
0.0
 11
94.0879821413157
 21
65.56789148385099
 31
0.0
  0
LINE
  5
351
330
2
100
AcDbEntity
  8
LINEWORK
 62
     7
370
    30
100
AcDbLine
 10
94.0879821413157
 20
65.56789148385099
 30
0.0
 11
92.59251495381567
 21
65.56789148385099
 31
0.0
  0
ARC
  5
352
330
2
100
AcDbEntity
  8
LINEWORK
 62
     7
370
    30
100
AcDbCircle
 10
95.77718030537823
 20
64.84303435494485
 30
0.0
 40
1.720801135514404
100
AcDbArc
 50
204.6726943310067
 51
234.9384478535201
  0
ARC
  5
353
330
2
100
AcDbEntity
  8
LINEWORK
 62
     7
370
    30
100
AcDbCircle
 10
95.78095045378905
 20
64.84617614528713
 30
0.0
 40
1.725539062499889
100
AcDbArc
 50
204.715235337887
 51
234.8959068466427
  0
LINE
  5
354
330
2
100
AcDbEntity
  8
LINEWORK
 62
     7
370
    30
100
AcDbLine
 10
92.59251495381567
 20
63.43449773385088
 30
0.0
 11
94.78865557881567
 21
63.43449773385088
 31
0.0
  0
LINE
  5
355
330
2
100
AcDbEntity
  8
LINEWORK
 62
     7
370
    30
100
AcDbLine
 10
94.78865557881567
 20
63.43449773385112
 30
0.0
 11
92.59251495381567
 21
63.43449773385112
 31
0.0
  0
LINE
  5
356
330
2
100
AcDbEntity
  8
LINEWORK
 62
     7
370
    30
100
AcDbLine
 10
87.41365557881568
 20
63.43449773385088
 30
0.0
 11
87.41365557881568
 21
62.80702898385095
 31
0.0
  0
LINE
  5
357
330
2
100
AcDbEntity
  8
LINEWORK
 62
     7
370
    30
100
AcDbLine
 10
87.41365557881579
 20
62.80702898385107
 30
0.0
 11
87.41365557881568
 21
63.43449773385112
 31
0.0
  0
LINE
  5
358
330
2
100
AcDbEntity
  8
LINEWORK
 62
     7
370
    30
100
AcDbLine
 10
87.53914932881571
 20
61.17561023385099
 30
0.0
 11
87.53914932881571
 21
61.42659773385105
 31
0.0
  0
LINE
  5
359
330
2
100
AcDbEntity
  8
LINEWORK
 62
     7
370
    30
100
AcDbLine
 10
87.53914932881571
 20
61.42659773385105
 30
0.0
 11
87.53914932881571
 21
61.17561023385099
 31
0.0
  0
ARC
  5
35A
330
2
100
AcDbEntity
  8
LINEWORK
 62
     7
370
    30
100
AcDbCircle
 10
82.75869993962373
 20
69.80299827717806
 30
0.0
 40
5.330037199451427
100
AcDbArc
 50
357.6418735319813
 51
19.60711889602133
  0
ARC
  5
35B
330
2
100
AcDbEntity
  8
LINEWORK
 62
     7
370
    30
100
AcDbCircle
 10
82.755228200102
 20
69.80247170758673
 30
0.0
 40
5.333484374999923
100
AcDbArc
 50
357.649060045261
 51
19.59993238281736
  0
ARC
  5
35C
330
2
100
AcDbEntity
  8
LINEWORK
 62
     7
370
    30
100
AcDbCircle
 10
87.14945821039464
 20
62.08709115490353
 30
0.0
 40
0.7668837767419853
100
AcDbArc
 50
300.5406048496821
 51
69.84825296578716
  0
ARC
  5
35D
330
2
100
AcDbEntity
  8
LINEWORK
 62
     7
370
    30
100
AcDbCircle
 10
87.18330218845199
 20
62.09016788018164
 30
0.0
 40
0.752962499999997
100
AcDbArc
 50
298.202947342553
 51
72.18591047291477
  0
LWPOLYLINE
  5
35E
330
2
100
AcDbEntity
  8
LINEWORK
 62
     7
370
    30
100
AcDbPolyline
 90
        2
 70
     1
 43
0.0
 10
87.53914932881571
 20
61.17561023385099
 10
88.10387120381575
 20
61.05011648385096
  0
ARC
  5
35F
330
2
100
AcDbEntity
  8
LINEWORK
 62
     7
370
    30
100
AcDbCircle
 10
73.44049502790835
 20
66.50061664494512
 30
0.0
 40
15.21611718749983
100
AcDbArc
 50
19.54686554134448
 51
25.6928643595911
  0
ARC
  5
360
330
2
100
AcDbEntity
  8
LINEWORK
 62
     7
370
    30
100
AcDbCircle
 10
104.369534879723
 20
66.50061664494512
 30
0.0
 40
15.2161171874998
100
AcDbArc
 50
154.3071356404088
 51
160.4531344586555
  0
ARC
  5
361
330
2
100
AcDbEntity
  8
LINEWORK
 62
     7
370
    30
100
AcDbCircle
 10
91.60175173075776
 20
69.52185345919986
 30
0.0
 40
3.857967380510689
100
AcDbArc
 50
310.1237387019697
 51
0.9184135598970037
  0
ARC
  5
362
330
2
100
AcDbEntity
  8
LINEWORK
 62
     7
370
    30
100
AcDbCircle
 10
91.60077910323128
 20
69.5222962790882
 30
0.0
 40
3.858932812500603
100
AcDbArc
 50
310.1305441294352
 51
0.9116081324222738
  0
LWPOLYLINE
  5
363
330
2
100
AcDbEntity
  8
LINEWORK
 62
     7
370
    30
100
AcDbPolyline
 90
        2
 70
     1
 43
0.0
 10
94.91414932881571
 20
61.17561023385099
 10
95.47887120381574
 20
61.05011648385096
  0
ARC
  5
364
330
2
100
AcDbEntity
  8
LINEWORK
 62
     7
370
    30
100
AcDbCircle
 10
94.52445821039464
 20
62.08709115490353
 30
0.0
 40
0.7668837767419853
100
AcDbArc
 50
300.5406048496821
 51
69.84825296578716
  0
ARC
  5
365
330
2
100
AcDbEntity
  8
LINEWORK
 62
     7
370
    30
100
AcDbCircle
 10
94.55830218845198
 20
62.09016788018164
 30
0.0
 40
0.752962499999997
100
AcDbArc
 50
298.202947342553
 51
72.18591047291477
  0
LINE
  5
366
330
2
100
AcDbEntity
  8
LINEWORK
 62
     7
370
    30
100
AcDbLine
 10
92.59251495381567
 20
61.05011648385096
 30
0.0
 11
95.47887120381574
 21
61.05011648385096
 31
0.0
  0
LINE
  5
367
330
2
100
AcDbEntity
  8
LINEWORK
 62
     7
370
    30
100
AcDbLine
 10
95.47887120381574
 20
61.05011648385096
 30
0.0
 11
92.59251495381567
 21
61.05011648385096
 31
0.0
  0
ARC
  5
368
330
2
100
AcDbEntity
  8
LINEWORK
 62
     7
370
    30
100
AcDbCircle
 10
80.81549502790835
 20
66.50061664494512
 30
0.0
 40
15.21611718749983
100
AcDbArc
 50
19.54686554134448
 51
25.6928643595911
  0
ARC
  5
369
330
2
100
AcDbEntity
  8
LINEWORK
 62
     7
370
    30
100
AcDbCircle
 10
78.09482895621909
 20
76.07618304034133
 30
0.0
 40
27.63462319024747
100
AcDbArc
 50
355.9022623541395
 51
1.369882582655912
  0
ARC
  5
36A
330
2
100
AcDbEntity
  8
LINEWORK
 62
     7
370
    30
100
AcDbCircle
 10
78.08944911032313
 20
76.0763111319103
 30
0.0
 40
27.63999843750035
100
AcDbArc
 50
355.9027944114711
 51
1.369350525323726
  0
ARC
  5
36B
330
2
100
AcDbEntity
  8
LINEWORK
 62
     7
370
    30
100
AcDbCircle
 10
103.4312930788157
 20
74.12499656197599
 30
0.0
 40
2.22763833761492
100
AcDbArc
 50
332.532727661389
 51
359.3947854027546
  0
ARC
  5
36C
330
2
100
AcDbEntity
  8
LINEWORK
 62
     7
370
    30
100
AcDbCircle
 10
103.431417033716
 20
74.12496557325096
 30
0.0
 40
2.227514062500199
100
AcDbArc
 50
332.5319642964298
 51
359.3955487677153
  0
ARC
  5
36D
330
2
100
AcDbEntity
  8
LINEWORK
 62
     7
370
    30
100
AcDbCircle
 10
106.1058786256907
 20
78.18001335885094
 30
0.0
 40
0.760805859375
100
AcDbArc
 50
132.0750220508426
 51
227.9249779491573
  0
ARC
  5
36E
330
2
100
AcDbEntity
  8
LINEWORK
 62
     7
370
    30
100
AcDbCircle
 10
106.094098146705
 20
78.18001335885094
 30
0.0
 40
0.7529625000000308
100
AcDbArc
 50
131.4096221092697
 51
228.5903778907302
  0
LINE
  5
36F
330
2
100
AcDbEntity
  8
LINEWORK
 62
     7
370
    30
100
AcDbLine
 10
105.5960602663156
 20
76.86232898385094
 30
0.0
 11
105.7215540163157
 21
76.73683523385091
 31
0.0
  0
LINE
  5
370
330
2
100
AcDbEntity
  8
LINEWORK
 62
     7
370
    30
100
AcDbLine
 10
105.5960602663156
 20
76.86232898385094
 30
0.0
 11
105.5960602663156
 21
77.61529148385102
 31
0.0
  0
LINE
  5
371
330
2
100
AcDbEntity
  8
LINEWORK
 62
     7
370
    30
100
AcDbLine
 10
105.5960602663156
 20
76.86232898385094
 30
0.0
 11
105.5960602663158
 21
77.61529148385102
 31
0.0
  0
LINE
  5
372
330
2
100
AcDbEntity
  8
LINEWORK
 62
     7
370
    30
100
AcDbLine
 10
105.5960602663156
 20
76.86232898385094
 30
0.0
 11
105.7215540163157
 21
76.73683523385091
 31
0.0
  0
ARC
  5
373
330
2
100
AcDbEntity
  8
LINEWORK
 62
     7
370
    30
100
AcDbCircle
 10
104.6862305788157
 20
79.37220398385102
 30
0.0
 40
1.105218119867257
100
AcDbArc
 50
325.4077113124903
 51
34.59228868750958
  0
ARC
  5
374
330
2
100
AcDbEntity
  8
LINEWORK
 62
     7
370
    30
100
AcDbCircle
 10
104.6949268805357
 20
79.37220398385102
 30
0.0
 40
1.098070312499993
100
AcDbArc
 50
325.1500954209564
 51
34.84990457904352
  0
LINE
  5
375
330
2
100
AcDbEntity
  8
LINEWORK
 62
     7
370
    30
100
AcDbLine
 10
107.3425149538156
 20
77.61529148385102
 30
0.0
 11
105.5960602663156
 21
77.61529148385102
 31
0.0
  0
LINE
  5
376
330
2
100
AcDbEntity
  8
LINEWORK
 62
     7
370
    30
100
AcDbLine
 10
107.3425149538156
 20
76.73683523385091
 30
0.0
 11
105.7215540163157
 21
76.73683523385091
 31
0.0
  0
LINE
  5
377
330
2
100
AcDbEntity
  8
LINEWORK
 62
     7
370
    30
100
AcDbLine
 10
105.5960602663156
 20
76.86232898385094
 30
0.0
 11
107.3425149538156
 21
76.86232898385094
 31
0.0
  0
LINE
  5
378
330
2
100
AcDbEntity
  8
LINEWORK
 62
     7
370
    30
100
AcDbLine
 10
105.5960602663158
 20
77.61529148385102
 30
0.0
 11
107.3425149538156
 21
77.61529148385102
 31
0.0
  0
LINE
  5
379
330
2
100
AcDbEntity
  8
LINEWORK
 62
     7
370
    30
100
AcDbLine
 10
107.3425149538156
 20
76.86232898385094
 30
0.0
 11
105.5960602663156
 21
76.86232898385094
 31
0.0
  0
LINE
  5
37A
330
2
100
AcDbEntity
  8
LINEWORK
 62
     7
370
    30
100
AcDbLine
 10
105.7215540163157
 20
76.73683523385114
 30
0.0
 11
107.3425149538156
 21
76.73683523385091
 31
0.0
  0
LINE
  5
37B
330
2
100
AcDbEntity
  8
LINEWORK
 62
     7
370
    30
100
AcDbLine
 10
107.3425149538156
 20
79.99967273385107
 30
0.0
 11
105.5960602663156
 21
79.99967273385107
 31
0.0
  0
LINE
  5
37C
330
2
100
AcDbEntity
  8
LINEWORK
 62
     7
370
    30
100
AcDbLine
 10
107.3425149538156
 20
78.74473523385097
 30
0.0
 11
105.5960602663156
 21
78.74473523385097
 31
0.0
  0
LINE
  5
37D
330
2
100
AcDbEntity
  8
LINEWORK
 62
     7
370
    30
100
AcDbLine
 10
107.3425149538156
 20
79.99967273385107
 30
0.0
 11
105.5960602663158
 21
79.99967273385107
 31
0.0
  0
LINE
  5
37E
330
2
100
AcDbEntity
  8
LINEWORK
 62
     7
370
    30
100
AcDbLine
 10
99.96751495381568
 20
77.61529148385102
 30
0.0
 11
98.22106026631571
 21
77.61529148385102
 31
0.0
  0
LINE
  5
37F
330
2
100
AcDbEntity
  8
LINEWORK
 62
     7
370
    30
100
AcDbLine
 10
99.96751495381568
 20
76.73683523385091
 30
0.0
 11
98.34655401631573
 21
76.73683523385091
 31
0.0
  0
LINE
  5
380
330
2
100
AcDbEntity
  8
LINEWORK
 62
     7
370
    30
100
AcDbLine
 10
98.22106026631571
 20
76.86232898385094
 30
0.0
 11
99.96751495381568
 21
76.86232898385094
 31
0.0
  0
LINE
  5
381
330
2
100
AcDbEntity
  8
LINEWORK
 62
     7
370
    30
100
AcDbLine
 10
98.22106026631582
 20
77.61529148385102
 30
0.0
 11
99.96751495381568
 21
77.61529148385102
 31
0.0
  0
LINE
  5
382
330
2
100
AcDbEntity
  8
LINEWORK
 62
     7
370
    30
100
AcDbLine
 10
99.96751495381568
 20
76.86232898385094
 30
0.0
 11
98.22106026631571
 21
76.86232898385094
 31
0.0
  0
LINE
  5
383
330
2
100
AcDbEntity
  8
LINEWORK
 62
     7
370
    30
100
AcDbLine
 10
98.34655401631573
 20
76.73683523385114
 30
0.0
 11
99.96751495381568
 21
76.73683523385091
 31
0.0
  0
LINE
  5
384
330
2
100
AcDbEntity
  8
LINEWORK
 62
     7
370
    30
100
AcDbLine
 10
99.96751495381568
 20
79.99967273385107
 30
0.0
 11
98.22106026631571
 21
79.99967273385107
 31
0.0
  0
LINE
  5
385
330
2
100
AcDbEntity
  8
LINEWORK
 62
     7
370
    30
100
AcDbLine
 10
99.96751495381568
 20
78.74473523385097
 30
0.0
 11
98.22106026631571
 21
78.74473523385097
 31
0.0
  0
LINE
  5
386
330
2
100
AcDbEntity
  8
LINEWORK
 62
     7
370
    30
100
AcDbLine
 10
99.96751495381568
 20
79.99967273385107
 30
0.0
 11
98.22106026631582
 21
79.99967273385107
 31
0.0
  0
ARC
  5
387
330
2
100
AcDbEntity
  8
LINEWORK
 62
     7
370
    30
100
AcDbCircle
 10
70.71982895621909
 20
76.07618304034133
 30
0.0
 40
27.63462319024747
100
AcDbArc
 50
355.9022623541395
 51
1.369882582655912
  0
ARC
  5
388
330
2
100
AcDbEntity
  8
LINEWORK
 62
     7
370
    30
100
AcDbCircle
 10
70.71444911032313
 20
76.0763111319103
 30
0.0
 40
27.63999843750035
100
AcDbArc
 50
355.9027944114711
 51
1.369350525323726
  0
ARC
  5
389
330
2
100
AcDbEntity
  8
LINEWORK
 62
     7
370
    30
100
AcDbCircle
 10
96.05629307881578
 20
74.12499656197599
 30
0.0
 40
2.22763833761492
100
AcDbArc
 50
332.532727661389
 51
359.3947854027546
  0
ARC
  5
38A
330
2
100
AcDbEntity
  8
LINEWORK
 62
     7
370
    30
100
AcDbCircle
 10
96.05641703371601
 20
74.12496557325096
 30
0.0
 40
2.227514062500199
100
AcDbArc
 50
332.5319642964298
 51
359.3955487677153
  0
ARC
  5
38B
330
2
100
AcDbEntity
  8
LINEWORK
 62
     7
370
    30
100
AcDbCircle
 10
98.73087862569072
 20
78.18001335885094
 30
0.0
 40
0.760805859375
100
AcDbArc
 50
132.0750220508426
 51
227.9249779491573
  0
ARC
  5
38C
330
2
100
AcDbEntity
  8
LINEWORK
 62
     7
370
    30
100
AcDbCircle
 10
98.71909814670505
 20
78.18001335885094
 30
0.0
 40
0.7529625000000308
100
AcDbArc
 50
131.4096221092697
 51
228.5903778907302
  0
LINE
  5
38D
330
2
100
AcDbEntity
  8
LINEWORK
 62
     7
370
    30
100
AcDbLine
 10
98.22106026631571
 20
76.86232898385094
 30
0.0
 11
98.34655401631573
 21
76.73683523385091
 31
0.0
  0
LINE
  5
38E
330
2
100
AcDbEntity
  8
LINEWORK
 62
     7
370
    30
100
AcDbLine
 10
98.22106026631571
 20
76.86232898385094
 30
0.0
 11
98.22106026631571
 21
77.61529148385102
 31
0.0
  0
LINE
  5
38F
330
2
100
AcDbEntity
  8
LINEWORK
 62
     7
370
    30
100
AcDbLine
 10
98.22106026631571
 20
76.86232898385094
 30
0.0
 11
98.22106026631582
 21
77.61529148385102
 31
0.0
  0
LINE
  5
390
330
2
100
AcDbEntity
  8
LINEWORK
 62
     7
370
    30
100
AcDbLine
 10
98.22106026631571
 20
76.86232898385094
 30
0.0
 11
98.34655401631573
 21
76.73683523385091
 31
0.0
  0
ARC
  5
391
330
2
100
AcDbEntity
  8
LINEWORK
 62
     7
370
    30
100
AcDbCircle
 10
97.31123057881575
 20
79.37220398385102
 30
0.0
 40
1.105218119867257
100
AcDbArc
 50
325.4077113124903
 51
34.59228868750958
  0
ARC
  5
392
330
2
100
AcDbEntity
  8
LINEWORK
 62
     7
370
    30
100
AcDbCircle
 10
97.31992688053573
 20
79.37220398385102
 30
0.0
 40
1.098070312499993
100
AcDbArc
 50
325.1500954209564
 51
34.84990457904352
  0
ARC
  5
393
330
2
100
AcDbEntity
  8
LINEWORK
 62
     7
370
    30
100
AcDbCircle
 10
129.2152009514125
 20
76.07618304034133
 30
0.0
 40
27.63462319024747
100
AcDbArc
 50
178.630117417344
 51
184.0977376458605
  0
ARC
  5
394
330
2
100
AcDbEntity
  8
LINEWORK
 62
     7
370
    30
100
AcDbCircle
 10
129.2205807973083
 20
76.0763111319103
 30
0.0
 40
27.63999843750035
100
AcDbArc
 50
178.6306494746762
 51
184.0972055885288
  0
ARC
  5
395
330
2
100
AcDbEntity
  8
LINEWORK
 62
     7
370
    30
100
AcDbCircle
 10
103.8787368288156
 20
74.12499656197599
 30
0.0
 40
2.22763833761492
100
AcDbArc
 50
180.6052145972454
 51
207.467272338611
  0
ARC
  5
396
330
2
100
AcDbEntity
  8
LINEWORK
 62
     7
370
    30
100
AcDbCircle
 10
103.8786128739154
 20
74.12496557325096
 30
0.0
 40
2.22751406250017
100
AcDbArc
 50
180.6044512322847
 51
207.4680357035701
  0
ARC
  5
397
330
2
100
AcDbEntity
  8
LINEWORK
 62
     7
370
    30
100
AcDbCircle
 10
101.2041512819407
 20
78.18001335885094
 30
0.0
 40
0.760805859375
100
AcDbArc
 50
312.0750220508427
 51
47.9249779491573
  0
ARC
  5
398
330
2
100
AcDbEntity
  8
LINEWORK
 62
     7
370
    30
100
AcDbCircle
 10
101.2159317609264
 20
78.18001335885094
 30
0.0
 40
0.7529625000000308
100
AcDbArc
 50
311.4096221092697
 51
48.59037789073025
  0
LINE
  5
399
330
2
100
AcDbEntity
  8
LINEWORK
 62
     7
370
    30
100
AcDbLine
 10
101.7139696413157
 20
76.86232898385094
 30
0.0
 11
101.7139696413157
 21
77.61529148385102
 31
0.0
  0
LINE
  5
39A
330
2
100
AcDbEntity
  8
LINEWORK
 62
     7
370
    30
100
AcDbLine
 10
101.7139696413157
 20
76.86232898385094
 30
0.0
 11
101.5884758913157
 21
76.73683523385091
 31
0.0
  0
LINE
  5
39B
330
2
100
AcDbEntity
  8
LINEWORK
 62
     7
370
    30
100
AcDbLine
 10
101.7139696413157
 20
76.86232898385094
 30
0.0
 11
101.5884758913157
 21
76.73683523385091
 31
0.0
  0
LINE
  5
39C
330
2
100
AcDbEntity
  8
LINEWORK
 62
     7
370
    30
100
AcDbLine
 10
101.7139696413157
 20
76.86232898385094
 30
0.0
 11
101.7139696413157
 21
77.61529148385102
 31
0.0
  0
ARC
  5
39D
330
2
100
AcDbEntity
  8
LINEWORK
 62
     7
370
    30
100
AcDbCircle
 10
102.6237993288157
 20
79.37220398385102
 30
0.0
 40
1.105218119867257
100
AcDbArc
 50
145.4077113124904
 51
214.5922886875095
  0
ARC
  5
39E
330
2
100
AcDbEntity
  8
LINEWORK
 62
     7
370
    30
100
AcDbCircle
 10
102.6151030270957
 20
79.37220398385102
 30
0.0
 40
1.09807031250002
100
AcDbArc
 50
145.1500954209564
 51
214.8499045790435
  0
LINE
  5
39F
330
2
100
AcDbEntity
  8
LINEWORK
 62
     7
370
    30
100
AcDbLine
 10
101.7139696413157
 20
76.86232898385094
 30
0.0
 11
99.96751495381568
 21
76.86232898385094
 31
0.0
  0
LINE
  5
3A0
330
2
100
AcDbEntity
  8
LINEWORK
 62
     7
370
    30
100
AcDbLine
 10
99.96751495381568
 20
76.73683523385091
 30
0.0
 11
101.5884758913157
 21
76.73683523385091
 31
0.0
  0
LINE
  5
3A1
330
2
100
AcDbEntity
  8
LINEWORK
 62
     7
370
    30
100
AcDbLine
 10
99.96751495381568
 20
77.61529148385102
 30
0.0
 11
101.7139696413157
 21
77.61529148385102
 31
0.0
  0
LINE
  5
3A2
330
2
100
AcDbEntity
  8
LINEWORK
 62
     7
370
    30
100
AcDbLine
 10
99.96751495381568
 20
76.86232898385094
 30
0.0
 11
101.7139696413157
 21
76.86232898385094
 31
0.0
  0
LINE
  5
3A3
330
2
100
AcDbEntity
  8
LINEWORK
 62
     7
370
    30
100
AcDbLine
 10
101.7139696413157
 20
77.61529148385102
 30
0.0
 11
99.96751495381568
 21
77.61529148385102
 31
0.0
  0
LINE
  5
3A4
330
2
100
AcDbEntity
  8
LINEWORK
 62
     7
370
    30
100
AcDbLine
 10
101.5884758913157
 20
76.73683523385114
 30
0.0
 11
99.96751495381568
 21
76.73683523385091
 31
0.0
  0
LINE
  5
3A5
330
2
100
AcDbEntity
  8
LINEWORK
 62
     7
370
    30
100
AcDbLine
 10
99.96751495381568
 20
78.74473523385097
 30
0.0
 11
101.7139696413157
 21
78.74473523385097
 31
0.0
  0
LINE
  5
3A6
330
2
100
AcDbEntity
  8
LINEWORK
 62
     7
370
    30
100
AcDbLine
 10
99.96751495381568
 20
79.99967273385107
 30
0.0
 11
101.7139696413157
 21
79.99967273385107
 31
0.0
  0
LINE
  5
3A7
330
2
100
AcDbEntity
  8
LINEWORK
 62
     7
370
    30
100
AcDbLine
 10
99.96751495381568
 20
79.99967273385107
 30
0.0
 11
101.7139696413157
 21
79.99967273385107
 31
0.0
  0
ARC
  5
3A8
330
2
100
AcDbEntity
  8
LINEWORK
 62
     7
370
    30
100
AcDbCircle
 10
97.50869993962375
 20
69.80299827717806
 30
0.0
 40
5.330037199451427
100
AcDbArc
 50
357.6418735319813
 51
19.60711889602133
  0
ARC
  5
3A9
330
2
100
AcDbEntity
  8
LINEWORK
 62
     7
370
    30
100
AcDbCircle
 10
97.50522820010202
 20
69.80247170758673
 30
0.0
 40
5.333484374999923
100
AcDbArc
 50
357.649060045261
 51
19.59993238281736
  0
ARC
  5
3AA
330
2
100
AcDbEntity
  8
LINEWORK
 62
     7
370
    30
100
AcDbCircle
 10
109.8013299680078
 20
69.80299827717806
 30
0.0
 40
5.330037199451427
100
AcDbArc
 50
160.3928811039786
 51
182.3581264680186
  0
ARC
  5
3AB
330
2
100
AcDbEntity
  8
LINEWORK
 62
     7
370
    30
100
AcDbCircle
 10
109.8048017075294
 20
69.80247170758673
 30
0.0
 40
5.333484374999923
100
AcDbArc
 50
160.4000676171826
 51
182.3509399547389
  0
ARC
  5
3AC
330
2
100
AcDbEntity
  8
LINEWORK
 62
     7
370
    30
100
AcDbCircle
 10
105.4105716972367
 20
62.08709115490353
 30
0.0
 40
0.7668837767419853
100
AcDbArc
 50
110.1517470342128
 51
239.4593951503178
  0
ARC
  5
3AD
330
2
100
AcDbEntity
  8
LINEWORK
 62
     7
370
    30
100
AcDbCircle
 10
105.3767277191794
 20
62.09016788018164
 30
0.0
 40
0.7529625000000071
100
AcDbArc
 50
107.8140895270852
 51
241.7970526574468
  0
LINE
  5
3AE
330
2
100
AcDbEntity
  8
LINEWORK
 62
     7
370
    30
100
AcDbLine
 10
107.3425149538156
 20
61.05011648385096
 30
0.0
 11
104.4561587038157
 21
61.05011648385096
 31
0.0
  0
LINE
  5
3AF
330
2
100
AcDbEntity
  8
LINEWORK
 62
     7
370
    30
100
AcDbLine
 10
104.4561587038157
 20
61.05011648385096
 30
0.0
 11
107.3425149538156
 21
61.05011648385096
 31
0.0
  0
LINE
  5
3B0
330
2
100
AcDbEntity
  8
LINEWORK
 62
     7
370
    30
100
AcDbLine
 10
104.4561587038157
 20
61.05011648385096
 30
0.0
 11
105.0208805788156
 21
61.17561023385099
 31
0.0
  0
LINE
  5
3B1
330
2
100
AcDbEntity
  8
LINEWORK
 62
     7
370
    30
100
AcDbLine
 10
105.0208805788156
 20
61.17561023385099
 30
0.0
 11
104.4561587038157
 21
61.05011648385096
 31
0.0
  0
ARC
  5
3B2
330
2
100
AcDbEntity
  8
LINEWORK
 62
     7
370
    30
100
AcDbCircle
 10
108.3332781768737
 20
69.52185345919986
 30
0.0
 40
3.857967380510689
100
AcDbArc
 50
179.0815864401029
 51
229.8762612980302
  0
ARC
  5
3B3
330
2
100
AcDbEntity
  8
LINEWORK
 62
     7
370
    30
100
AcDbCircle
 10
108.3342508044003
 20
69.5222962790882
 30
0.0
 40
3.858932812500603
100
AcDbArc
 50
179.0883918675777
 51
229.8694558705647
  0
LINE
  5
3B4
330
2
100
AcDbEntity
  8
LINEWORK
 62
     7
370
    30
100
AcDbLine
 10
105.1463743288156
 20
63.43449773385088
 30
0.0
 11
105.1463743288156
 21
62.80702898385095
 31
0.0
  0
LINE
  5
3B5
330
2
100
AcDbEntity
  8
LINEWORK
 62
     7
370
    30
100
AcDbLine
 10
105.1463743288156
 20
62.80702898385107
 30
0.0
 11
105.1463743288156
 21
63.43449773385112
 31
0.0
  0
LINE
  5
3B6
330
2
100
AcDbEntity
  8
LINEWORK
  6
DASHED
 62
     7
 48
2.0
370
    30
100
AcDbLine
 10
107.5925149538157
 20
60.35024148385094
 30
0.0
 11
107.0925149538157
 21
60.35024148385094
 31
0.0
  0
LINE
  5
3B7
330
2
100
AcDbEntity
  8
LINEWORK
 62
     7
370
    30
100
AcDbLine
 10
105.0208805788156
 20
61.17561023385099
 30
0.0
 11
105.0208805788156
 21
61.42659773385105
 31
0.0
  0
LINE
  5
3B8
330
2
100
AcDbEntity
  8
LINEWORK
 62
     7
370
    30
100
AcDbLine
 10
105.0208805788156
 20
61.42659773385105
 30
0.0
 11
105.0208805788156
 21
61.17561023385099
 31
0.0
  0
LINE
  5
3B9
330
2
100
AcDbEntity
  8
LINEWORK
 62
     7
370
    30
100
AcDbLine
 10
107.3425149538156
 20
62.80702898385095
 30
0.0
 11
105.1463743288156
 21
62.80702898385095
 31
0.0
  0
LINE
  5
3BA
330
2
100
AcDbEntity
  8
LINEWORK
 62
     7
370
    30
100
AcDbLine
 10
107.3425149538156
 20
62.80702898385107
 30
0.0
 11
105.1463743288156
 21
62.80702898385107
 31
0.0
  0
LINE
  5
3BB
330
2
100
AcDbEntity
  8
LINEWORK
 62
     7
370
    30
100
AcDbLine
 10
107.3425149538156
 20
61.17561023385099
 30
0.0
 11
105.0208805788156
 21
61.17561023385099
 31
0.0
  0
LINE
  5
3BC
330
2
100
AcDbEntity
  8
LINEWORK
 62
     7
370
    30
100
AcDbLine
 10
107.3425149538156
 20
61.42659773385105
 30
0.0
 11
105.0208805788156
 21
61.42659773385105
 31
0.0
  0
LINE
  5
3BD
330
2
100
AcDbEntity
  8
LINEWORK
 62
     7
370
    30
100
AcDbLine
 10
105.0208805788156
 20
61.17561023385099
 30
0.0
 11
107.3425149538156
 21
61.17561023385099
 31
0.0
  0
LINE
  5
3BE
330
2
100
AcDbEntity
  8
LINEWORK
 62
     7
370
    30
100
AcDbLine
 10
105.0208805788156
 20
61.42659773385105
 30
0.0
 11
107.3425149538156
 21
61.42659773385105
 31
0.0
  0
ARC
  5
3BF
330
2
100
AcDbEntity
  8
LINEWORK
 62
     7
370
    30
100
AcDbCircle
 10
104.1578496022532
 20
64.84303435494485
 30
0.0
 40
1.720801135514404
100
AcDbArc
 50
305.0615521464798
 51
335.3273056689872
  0
ARC
  5
3C0
330
2
100
AcDbEntity
  8
LINEWORK
 62
     7
370
    30
100
AcDbCircle
 10
104.1540794538424
 20
64.84617614528724
 30
0.0
 40
1.725539062499979
100
AcDbArc
 50
305.1040931533572
 51
335.284764662113
  0
ARC
  5
3C1
330
2
100
AcDbEntity
  8
LINEWORK
 62
     7
370
    30
100
AcDbCircle
 10
103.1266172315446
 20
65.07740534828759
 30
0.0
 40
2.764293570461533
100
AcDbArc
 50
339.8400491762129
 51
10.22046936756176
  0
ARC
  5
3C2
330
2
100
AcDbEntity
  8
LINEWORK
 62
     7
370
    30
100
AcDbCircle
 10
103.1301593156757
 20
65.07709734097159
 30
0.0
 40
2.760862499999871
100
AcDbArc
 50
339.8207155174592
 51
10.23980302638167
  0
ARC
  5
3C3
330
2
100
AcDbEntity
  8
LINEWORK
 62
     7
370
    30
100
AcDbCircle
 10
106.1520672975657
 20
66.06986648385088
 30
0.0
 40
0.587380468750003
100
AcDbArc
 50
121.2844929144162
 51
238.7155070855837
  0
ARC
  5
3C4
330
2
100
AcDbEntity
  8
LINEWORK
 62
     7
370
    30
100
AcDbCircle
 10
106.1685298357406
 20
66.06986648385316
 30
0.0
 40
0.5960953125000341
100
AcDbArc
 50
122.6368975039364
 51
237.3631024959551
  0
LINE
  5
3C5
330
2
100
AcDbEntity
  8
LINEWORK
 62
     7
370
    30
100
AcDbLine
 10
107.3425149538156
 20
63.43449773385088
 30
0.0
 11
105.1463743288156
 21
63.43449773385088
 31
0.0
  0
LINE
  5
3C6
330
2
100
AcDbEntity
  8
LINEWORK
 62
     7
370
    30
100
AcDbLine
 10
105.1463743288156
 20
63.43449773385112
 30
0.0
 11
107.3425149538156
 21
63.43449773385112
 31
0.0
  0
LINE
  5
3C7
330
2
100
AcDbEntity
  8
LINEWORK
 62
     7
370
    30
100
AcDbLine
 10
107.3425149538156
 20
66.57184148385102
 30
0.0
 11
105.8470477663157
 21
66.57184148385102
 31
0.0
  0
LINE
  5
3C8
330
2
100
AcDbEntity
  8
LINEWORK
 62
     7
370
    30
100
AcDbLine
 10
107.3425149538156
 20
66.57184148385102
 30
0.0
 11
105.8470477663157
 21
66.57184148385102
 31
0.0
  0
LINE
  5
3C9
330
2
100
AcDbEntity
  8
LINEWORK
 62
     7
370
    30
100
AcDbLine
 10
107.3425149538156
 20
65.56789148385099
 30
0.0
 11
105.8470477663157
 21
65.56789148385099
 31
0.0
  0
LINE
  5
3CA
330
2
100
AcDbEntity
  8
LINEWORK
 62
     7
370
    30
100
AcDbLine
 10
105.8470477663157
 20
65.56789148385099
 30
0.0
 11
107.3425149538156
 21
65.56789148385099
 31
0.0
  0
LINE
  5
3CB
330
2
100
AcDbEntity
  8
LINEWORK
 62
     7
370
    30
100
AcDbLine
 10
99.96751495381568
 20
62.80702898385095
 30
0.0
 11
97.77137432881568
 21
62.80702898385095
 31
0.0
  0
LINE
  5
3CC
330
2
100
AcDbEntity
  8
LINEWORK
 62
     7
370
    30
100
AcDbLine
 10
99.96751495381568
 20
62.80702898385107
 30
0.0
 11
97.77137432881568
 21
62.80702898385107
 31
0.0
  0
LINE
  5
3CD
330
2
100
AcDbEntity
  8
LINEWORK
 62
     7
370
    30
100
AcDbLine
 10
99.96751495381568
 20
61.17561023385099
 30
0.0
 11
97.64588057881566
 21
61.17561023385099
 31
0.0
  0
LINE
  5
3CE
330
2
100
AcDbEntity
  8
LINEWORK
 62
     7
370
    30
100
AcDbLine
 10
99.96751495381568
 20
61.42659773385105
 30
0.0
 11
97.64588057881566
 21
61.42659773385105
 31
0.0
  0
LINE
  5
3CF
330
2
100
AcDbEntity
  8
LINEWORK
 62
     7
370
    30
100
AcDbLine
 10
97.64588057881566
 20
61.17561023385099
 30
0.0
 11
99.96751495381568
 21
61.17561023385099
 31
0.0
  0
LINE
  5
3D0
330
2
100
AcDbEntity
  8
LINEWORK
 62
     7
370
    30
100
AcDbLine
 10
97.64588057881566
 20
61.42659773385105
 30
0.0
 11
99.96751495381568
 21
61.42659773385105
 31
0.0
  0
LINE
  5
3D1
330
2
100
AcDbEntity
  8
LINEWORK
 62
     7
370
    30
100
AcDbLine
 10
99.96751495381568
 20
63.43449773385088
 30
0.0
 11
97.77137432881568
 21
63.43449773385088
 31
0.0
  0
LINE
  5
3D2
330
2
100
AcDbEntity
  8
LINEWORK
 62
     7
370
    30
100
AcDbLine
 10
97.77137432881568
 20
63.43449773385112
 30
0.0
 11
99.96751495381568
 21
63.43449773385112
 31
0.0
  0
LINE
  5
3D3
330
2
100
AcDbEntity
  8
LINEWORK
 62
     7
370
    30
100
AcDbLine
 10
99.96751495381568
 20
66.57184148385102
 30
0.0
 11
98.47204776631578
 21
66.57184148385102
 31
0.0
  0
LINE
  5
3D4
330
2
100
AcDbEntity
  8
LINEWORK
 62
     7
370
    30
100
AcDbLine
 10
99.96751495381568
 20
66.57184148385102
 30
0.0
 11
98.47204776631578
 21
66.57184148385102
 31
0.0
  0
LINE
  5
3D5
330
2
100
AcDbEntity
  8
LINEWORK
 62
     7
370
    30
100
AcDbLine
 10
99.96751495381568
 20
65.56789148385099
 30
0.0
 11
98.47204776631578
 21
65.56789148385099
 31
0.0
  0
LINE
  5
3D6
330
2
100
AcDbEntity
  8
LINEWORK
 62
     7
370
    30
100
AcDbLine
 10
98.47204776631578
 20
65.56789148385099
 30
0.0
 11
99.96751495381568
 21
65.56789148385099
 31
0.0
  0
LINE
  5
3D7
330
2
100
AcDbEntity
  8
LINEWORK
 62
     7
370
    30
100
AcDbLine
 10
97.77137432881568
 20
63.43449773385088
 30
0.0
 11
97.77137432881568
 21
62.80702898385095
 31
0.0
  0
LINE
  5
3D8
330
2
100
AcDbEntity
  8
LINEWORK
 62
     7
370
    30
100
AcDbLine
 10
97.77137432881568
 20
62.80702898385107
 30
0.0
 11
97.77137432881568
 21
63.43449773385112
 31
0.0
  0
LINE
  5
3D9
330
2
100
AcDbEntity
  8
LINEWORK
 62
     7
370
    30
100
AcDbLine
 10
97.64588057881566
 20
61.17561023385099
 30
0.0
 11
97.64588057881566
 21
61.42659773385105
 31
0.0
  0
LINE
  5
3DA
330
2
100
AcDbEntity
  8
LINEWORK
 62
     7
370
    30
100
AcDbLine
 10
97.64588057881566
 20
61.42659773385105
 30
0.0
 11
97.64588057881566
 21
61.17561023385099
 31
0.0
  0
ARC
  5
3DB
330
2
100
AcDbEntity
  8
LINEWORK
 62
     7
370
    30
100
AcDbCircle
 10
96.78284960225324
 20
64.84303435494485
 30
0.0
 40
1.720801135514404
100
AcDbArc
 50
305.0615521464798
 51
335.3273056689872
  0
ARC
  5
3DC
330
2
100
AcDbEntity
  8
LINEWORK
 62
     7
370
    30
100
AcDbCircle
 10
96.77907945384243
 20
64.84617614528724
 30
0.0
 40
1.725539062499979
100
AcDbArc
 50
305.1040931533572
 51
335.284764662113
  0
ARC
  5
3DD
330
2
100
AcDbEntity
  8
LINEWORK
 62
     7
370
    30
100
AcDbCircle
 10
95.75161723154463
 20
65.07740534828759
 30
0.0
 40
2.764293570461533
100
AcDbArc
 50
339.8400491762129
 51
10.22046936756176
  0
ARC
  5
3DE
330
2
100
AcDbEntity
  8
LINEWORK
 62
     7
370
    30
100
AcDbCircle
 10
95.75515931567577
 20
65.07709734097159
 30
0.0
 40
2.760862499999871
100
AcDbArc
 50
339.8207155174592
 51
10.23980302638167
  0
ARC
  5
3DF
330
2
100
AcDbEntity
  8
LINEWORK
 62
     7
370
    30
100
AcDbCircle
 10
98.77706729756575
 20
66.06986648385088
 30
0.0
 40
0.587380468750003
100
AcDbArc
 50
121.2844929144162
 51
238.7155070855837
  0
ARC
  5
3E0
330
2
100
AcDbEntity
  8
LINEWORK
 62
     7
370
    30
100
AcDbCircle
 10
98.79352983574063
 20
66.06986648385316
 30
0.0
 40
0.5960953125000341
100
AcDbArc
 50
122.6368975039364
 51
237.3631024959551
  0
LINE
  5
3E1
330
2
100
AcDbEntity
  8
LINEWORK
 62
     7
370
    30
100
AcDbLine
 10
102.1636555788156
 20
63.43449773385088
 30
0.0
 11
102.1636555788156
 21
62.80702898385095
 31
0.0
  0
LINE
  5
3E2
330
2
100
AcDbEntity
  8
LINEWORK
 62
     7
370
    30
100
AcDbLine
 10
102.1636555788157
 20
62.80702898385107
 30
0.0
 11
102.1636555788156
 21
63.43449773385112
 31
0.0
  0
LINE
  5
3E3
330
2
100
AcDbEntity
  8
LINEWORK
 62
     7
370
    30
100
AcDbLine
 10
99.96751495381568
 20
62.80702898385095
 30
0.0
 11
102.1636555788156
 21
62.80702898385095
 31
0.0
  0
LINE
  5
3E4
330
2
100
AcDbEntity
  8
LINEWORK
 62
     7
370
    30
100
AcDbLine
 10
99.96751495381568
 20
62.80702898385107
 30
0.0
 11
102.1636555788157
 21
62.80702898385107
 31
0.0
  0
LINE
  5
3E5
330
2
100
AcDbEntity
  8
LINEWORK
 62
     7
370
    30
100
AcDbLine
 10
99.96751495381568
 20
61.42659773385105
 30
0.0
 11
102.2891493288157
 21
61.42659773385105
 31
0.0
  0
LINE
  5
3E6
330
2
100
AcDbEntity
  8
LINEWORK
 62
     7
370
    30
100
AcDbLine
 10
99.96751495381568
 20
61.17561023385099
 30
0.0
 11
102.2891493288157
 21
61.17561023385099
 31
0.0
  0
LINE
  5
3E7
330
2
100
AcDbEntity
  8
LINEWORK
 62
     7
370
    30
100
AcDbLine
 10
102.2891493288157
 20
61.42659773385105
 30
0.0
 11
99.96751495381568
 21
61.42659773385105
 31
0.0
  0
LINE
  5
3E8
330
2
100
AcDbEntity
  8
LINEWORK
 62
     7
370
    30
100
AcDbLine
 10
102.2891493288157
 20
61.17561023385099
 30
0.0
 11
99.96751495381568
 21
61.17561023385099
 31
0.0
  0
LINE
  5
3E9
330
2
100
AcDbEntity
  8
LINEWORK
  6
DASHED
 62
     7
 48
2.0
370
    30
100
AcDbLine
 10
100.2175149538157
 20
60.35024148385094
 30
0.0
 11
99.7175149538158
 21
60.35024148385094
 31
0.0
  0
POINT
  5
3EA
330
2
100
AcDbEntity
  8
LINEWORK
 62
     7
370
    30
100
AcDbPoint
 10
100.5906607251093
 20
60.71282075377201
 30
0.0
  0
LINE
  5
3EB
330
2
100
AcDbEntity
  8
LINEWORK
 62
     7
370
    30
100
AcDbLine
 10
102.2891493288157
 20
61.17561023385099
 30
0.0
 11
102.2891493288157
 21
61.42659773385105
 31
0.0
  0
LINE
  5
3EC
330
2
100
AcDbEntity
  8
LINEWORK
 62
     7
370
    30
100
AcDbLine
 10
102.2891493288157
 20
61.42659773385105
 30
0.0
 11
102.2891493288157
 21
61.17561023385099
 31
0.0
  0
ARC
  5
3ED
330
2
100
AcDbEntity
  8
LINEWORK
 62
     7
370
    30
100
AcDbCircle
 10
103.1521803053782
 20
64.84303435494485
 30
0.0
 40
1.720801135514404
100
AcDbArc
 50
204.6726943310067
 51
234.9384478535201
  0
ARC
  5
3EE
330
2
100
AcDbEntity
  8
LINEWORK
 62
     7
370
    30
100
AcDbCircle
 10
103.155950453789
 20
64.84617614528713
 30
0.0
 40
1.725539062499889
100
AcDbArc
 50
204.715235337887
 51
234.8959068466427
  0
LINE
  5
3EF
330
2
100
AcDbEntity
  8
LINEWORK
 62
     7
370
    30
100
AcDbLine
 10
99.96751495381568
 20
63.43449773385088
 30
0.0
 11
102.1636555788156
 21
63.43449773385088
 31
0.0
  0
LINE
  5
3F0
330
2
100
AcDbEntity
  8
LINEWORK
 62
     7
370
    30
100
AcDbLine
 10
102.1636555788156
 20
63.43449773385112
 30
0.0
 11
99.96751495381568
 21
63.43449773385112
 31
0.0
  0
ARC
  5
3F1
330
2
100
AcDbEntity
  8
LINEWORK
 62
     7
370
    30
100
AcDbCircle
 10
104.1834126760868
 20
65.07740534828759
 30
0.0
 40
2.764293570461533
100
AcDbArc
 50
169.7795306324382
 51
200.159950823787
  0
ARC
  5
3F2
330
2
100
AcDbEntity
  8
LINEWORK
 62
     7
370
    30
100
AcDbCircle
 10
104.1798705919557
 20
65.07709734097159
 30
0.0
 40
2.760862499999871
100
AcDbArc
 50
169.7601969736183
 51
200.1792844825406
  0
ARC
  5
3F3
330
2
100
AcDbEntity
  8
LINEWORK
 62
     7
370
    30
100
AcDbCircle
 10
101.1579626100657
 20
66.06986648385088
 30
0.0
 40
0.587380468750003
100
AcDbArc
 50
301.2844929144161
 51
58.71550708558374
  0
ARC
  5
3F4
330
2
100
AcDbEntity
  8
LINEWORK
 62
     7
370
    30
100
AcDbCircle
 10
101.1415000718909
 20
66.06986648385316
 30
0.0
 40
0.5960953125000341
100
AcDbArc
 50
302.6368975040358
 51
57.36310249606355
  0
LINE
  5
3F5
330
2
100
AcDbEntity
  8
LINEWORK
 62
     7
370
    30
100
AcDbLine
 10
99.96751495381568
 20
66.57184148385102
 30
0.0
 11
101.4629821413157
 21
66.57184148385102
 31
0.0
  0
LINE
  5
3F6
330
2
100
AcDbEntity
  8
LINEWORK
 62
     7
370
    30
100
AcDbLine
 10
99.96751495381568
 20
66.57184148385102
 30
0.0
 11
101.4629821413157
 21
66.57184148385102
 31
0.0
  0
LINE
  5
3F7
330
2
100
AcDbEntity
  8
LINEWORK
 62
     7
370
    30
100
AcDbLine
 10
99.96751495381568
 20
65.56789148385099
 30
0.0
 11
101.4629821413157
 21
65.56789148385099
 31
0.0
  0
LINE
  5
3F8
330
2
100
AcDbEntity
  8
LINEWORK
 62
     7
370
    30
100
AcDbLine
 10
101.4629821413157
 20
65.56789148385099
 30
0.0
 11
99.96751495381568
 21
65.56789148385099
 31
0.0
  0
LINE
  5
3F9
330
2
100
AcDbEntity
  8
LINEWORK
 62
     7
370
    30
100
AcDbLine
 10
99.96751495381568
 20
61.05011648385096
 30
0.0
 11
102.8538712038157
 21
61.05011648385096
 31
0.0
  0
LINE
  5
3FA
330
2
100
AcDbEntity
  8
LINEWORK
 62
     7
370
    30
100
AcDbLine
 10
102.8538712038157
 20
61.05011648385096
 30
0.0
 11
99.96751495381568
 21
61.05011648385096
 31
0.0
  0
LWPOLYLINE
  5
3FB
330
2
100
AcDbEntity
  8
LINEWORK
 62
     7
370
    30
100
AcDbPolyline
 90
        2
 70
     1
 43
0.0
 10
102.2891493288157
 20
61.17561023385099
 10
102.8538712038157
 20
61.05011648385096
  0
ARC
  5
3FC
330
2
100
AcDbEntity
  8
LINEWORK
 62
     7
370
    30
100
AcDbCircle
 10
101.8994582103946
 20
62.08709115490353
 30
0.0
 40
0.7668837767419853
100
AcDbArc
 50
300.5406048496821
 51
69.84825296578716
  0
ARC
  5
3FD
330
2
100
AcDbEntity
  8
LINEWORK
 62
     7
370
    30
100
AcDbCircle
 10
101.933302188452
 20
62.09016788018164
 30
0.0
 40
0.752962499999997
100
AcDbArc
 50
298.202947342553
 51
72.18591047291477
  0
ARC
  5
3FE
330
2
100
AcDbEntity
  8
LINEWORK
 62
     7
370
    30
100
AcDbCircle
 10
98.97675173075777
 20
69.52185345919986
 30
0.0
 40
3.857967380510689
100
AcDbArc
 50
310.1237387019697
 51
0.9184135598970037
  0
ARC
  5
3FF
330
2
100
AcDbEntity
  8
LINEWORK
 62
     7
370
    30
100
AcDbCircle
 10
98.97577910323128
 20
69.5222962790882
 30
0.0
 40
3.858932812500603
100
AcDbArc
 50
310.1305441294352
 51
0.9116081324222738
  0
ARC
  5
400
330
2
100
AcDbEntity
  8
LINEWORK
 62
     7
370
    30
100
AcDbCircle
 10
88.19049502790836
 20
66.50061664494512
 30
0.0
 40
15.21611718749983
100
AcDbArc
 50
19.54686554134448
 51
25.6928643595911
  0
ARC
  5
401
330
2
100
AcDbEntity
  8
LINEWORK
 62
     7
370
    30
100
AcDbCircle
 10
119.1195348797229
 20
66.50061664494512
 30
0.0
 40
15.2161171874998
100
AcDbArc
 50
154.3071356404088
 51
160.4531344586555
  0
LINE
  5
402
330
2
100
AcDbEntity
  8
LINEWORK
 62
     7
370
    30
100
AcDbLine
 10
102.8538712038157
 20
84.540241483851
 30
0.0
 11
97.08115870381574
 21
84.540241483851
 31
0.0
  0
LINE
  5
403
330
2
100
AcDbEntity
  8
LINEWORK
 62
     7
370
    30
100
AcDbLine
 10
99.96751495381568
 20
82.38405398385101
 30
0.0
 11
97.08115870381574
 21
82.38405398385101
 31
0.0
  0
LINE
  5
404
330
2
100
AcDbEntity
  8
LINEWORK
 62
     7
370
    30
100
AcDbLine
 10
99.96751495381568
 20
82.25856023385096
 30
0.0
 11
97.15436339131578
 21
82.25856023385096
 31
0.0
  0
LINE
  5
405
330
2
100
AcDbEntity
  8
LINEWORK
 62
     7
370
    30
100
AcDbLine
 10
99.96751495381568
 20
82.38405398385101
 30
0.0
 11
97.08115870381574
 21
82.38405398385101
 31
0.0
  0
LINE
  5
406
330
2
100
AcDbEntity
  8
LINEWORK
 62
     7
370
    30
100
AcDbLine
 10
99.96751495381568
 20
82.25856023385109
 30
0.0
 11
97.15436339131578
 21
82.25856023385109
 31
0.0
  0
POINT
  5
407
330
2
100
AcDbEntity
  8
LINEWORK
 62
     7
370
    30
100
AcDbPoint
 10
97.08115870381574
 20
84.64294148385112
 30
0.0
  0
POINT
  5
408
330
2
100
AcDbEntity
  8
LINEWORK
 62
     7
370
    30
100
AcDbPoint
 10
97.08115870381574
 20
84.64294148385112
 30
0.0
  0
POINT
  5
409
330
2
100
AcDbEntity
  8
LINEWORK
 62
     7
370
    30
100
AcDbPoint
 10
89.70615870381573
 20
84.64294148385112
 30
0.0
  0
POINT
  5
40A
330
2
100
AcDbEntity
  8
LINEWORK
 62
     7
370
    30
100
AcDbPoint
 10
89.70615870381573
 20
84.64294148385112
 30
0.0
  0
POINT
  5
40B
330
2
100
AcDbEntity
  8
LINEWORK
 62
     1
370
    30
100
AcDbPoint
 10
88.10387120381575
 20
84.64294148385112
 30
0.0
  0
LINE
  5
40C
330
2
100
AcDbEntity
  8
LINEWORK
  6
DASHED
 62
     7
 48
2.0
370
    30
100
AcDbLine
 10
92.34251495381579
 20
86.73024148385229
 30
0.0
 11
92.8425149538158
 21
86.73024148385229
 31
0.0
  0
LINE
  5
40D
330
2
100
AcDbEntity
  8
LINEWORK
 62
     7
370
    30
100
AcDbLine
 10
95.47887120381574
 20
84.540241483851
 30
0.0
 11
89.70615870381573
 21
84.540241483851
 31
0.0
  0
LINE
  5
40E
330
2
100
AcDbEntity
  8
LINEWORK
 62
     7
370
    30
100
AcDbLine
 10
95.47887120381574
 20
82.38405398385101
 30
0.0
 11
95.4056665163157
 21
82.25856023385096
 31
0.0
  0
LINE
  5
40F
330
2
100
AcDbEntity
  8
LINEWORK
 62
     7
370
    30
100
AcDbLine
 10
95.47887120381574
 20
82.38405398385101
 30
0.0
 11
95.4056665163157
 21
82.25856023385109
 31
0.0
  0
LINE
  5
410
330
2
100
AcDbEntity
  8
LINEWORK
 62
     7
370
    30
100
AcDbLine
 10
97.08115870381574
 20
82.38405398385101
 30
0.0
 11
97.15436339131578
 21
82.25856023385096
 31
0.0
  0
LINE
  5
411
330
2
100
AcDbEntity
  8
LINEWORK
 62
     7
370
    30
100
AcDbLine
 10
97.08115870381574
 20
82.38405398385101
 30
0.0
 11
97.15436339131578
 21
82.25856023385109
 31
0.0
  0
LINE
  5
412
330
2
100
AcDbEntity
  8
LINEWORK
 62
     7
370
    30
100
AcDbLine
 10
92.59251495381567
 20
82.38405398385101
 30
0.0
 11
89.70615870381573
 21
82.38405398385101
 31
0.0
  0
LINE
  5
413
330
2
100
AcDbEntity
  8
LINEWORK
 62
     7
370
    30
100
AcDbLine
 10
92.59251495381567
 20
82.25856023385096
 30
0.0
 11
89.77936339131577
 21
82.25856023385096
 31
0.0
  0
LINE
  5
414
330
2
100
AcDbEntity
  8
LINEWORK
 62
     7
370
    30
100
AcDbLine
 10
92.59251495381567
 20
82.38405398385101
 30
0.0
 11
89.70615870381573
 21
82.38405398385101
 31
0.0
  0
LINE
  5
415
330
2
100
AcDbEntity
  8
LINEWORK
 62
     7
370
    30
100
AcDbLine
 10
92.59251495381567
 20
82.25856023385109
 30
0.0
 11
89.77936339131577
 21
82.25856023385109
 31
0.0
  0
LINE
  5
416
330
2
100
AcDbEntity
  8
LINEWORK
 62
     7
370
    30
100
AcDbLine
 10
89.70615870381573
 20
82.38405398385101
 30
0.0
 11
89.77936339131577
 21
82.25856023385096
 31
0.0
  0
LINE
  5
417
330
2
100
AcDbEntity
  8
LINEWORK
 62
     7
370
    30
100
AcDbLine
 10
89.70615870381573
 20
82.38405398385101
 30
0.0
 11
89.77936339131577
 21
82.25856023385109
 31
0.0
  0
LINE
  5
418
330
2
100
AcDbEntity
  8
LINEWORK
 62
     7
370
    30
100
AcDbLine
 10
88.10387120381575
 20
82.38405398385101
 30
0.0
 11
88.03066651631571
 21
82.25856023385096
 31
0.0
  0
LINE
  5
419
330
2
100
AcDbEntity
  8
LINEWORK
 62
     7
370
    30
100
AcDbLine
 10
88.10387120381575
 20
82.38405398385101
 30
0.0
 11
88.03066651631571
 21
82.25856023385109
 31
0.0
  0
LINE
  5
41A
330
2
100
AcDbEntity
  8
LINEWORK
  6
DASHED
 62
     7
 48
2.0
370
    30
100
AcDbLine
 10
92.8425149538158
 20
82.7302414838523
 30
0.0
 11
92.34251495381579
 21
82.7302414838523
 31
0.0
  0
LINE
  5
41B
330
2
100
AcDbEntity
  8
LINEWORK
 62
     7
370
    30
100
AcDbLine
 10
92.59251495381567
 20
80.62714148385101
 30
0.0
 11
90.8460602663157
 21
80.62714148385101
 31
0.0
  0
LINE
  5
41C
330
2
100
AcDbEntity
  8
LINEWORK
 62
     7
370
    30
100
AcDbLine
 10
90.8460602663157
 20
80.62714148385101
 30
0.0
 11
92.59251495381567
 21
80.62714148385101
 31
0.0
  0
LINE
  5
41D
330
2
100
AcDbEntity
  8
LINEWORK
 62
     7
370
    30
100
AcDbLine
 10
94.33896964131577
 20
80.62714148385101
 30
0.0
 11
92.59251495381567
 21
80.62714148385101
 31
0.0
  0
LINE
  5
41E
330
2
100
AcDbEntity
  8
LINEWORK
 62
     7
370
    30
100
AcDbLine
 10
92.59251495381567
 20
80.62714148385101
 30
0.0
 11
94.33896964131577
 21
80.62714148385101
 31
0.0
  0
LINE
  5
41F
330
2
100
AcDbEntity
  8
LINEWORK
 62
     7
370
    30
100
AcDbLine
 10
92.59251495381567
 20
82.38405398385101
 30
0.0
 11
95.47887120381574
 21
82.38405398385101
 31
0.0
  0
LINE
  5
420
330
2
100
AcDbEntity
  8
LINEWORK
 62
     7
370
    30
100
AcDbLine
 10
92.59251495381567
 20
82.38405398385101
 30
0.0
 11
95.47887120381574
 21
82.38405398385101
 31
0.0
  0
LINE
  5
421
330
2
100
AcDbEntity
  8
LINEWORK
 62
     7
370
    30
100
AcDbLine
 10
95.4056665163157
 20
82.25856023385109
 30
0.0
 11
92.59251495381567
 21
82.25856023385096
 31
0.0
  0
LINE
  5
422
330
2
100
AcDbEntity
  8
LINEWORK
 62
     7
370
    30
100
AcDbLine
 10
92.59251495381567
 20
82.25856023385096
 30
0.0
 11
95.4056665163157
 21
82.25856023385109
 31
0.0
  0
LINE
  5
423
330
2
100
AcDbEntity
  8
LINEWORK
  6
DASHED
 62
     7
 48
2.0
370
    30
100
AcDbLine
 10
92.34251495381579
 20
82.7302414838523
 30
0.0
 11
92.34251495381579
 21
86.73024148385229
 31
0.0
  0
LINE
  5
424
330
2
100
AcDbEntity
  8
LINEWORK
  6
DASHED
 62
     7
 48
2.0
370
    30
100
AcDbLine
 10
92.8425149538158
 20
86.73024148385229
 30
0.0
 11
92.8425149538158
 21
82.7302414838523
 31
0.0
  0
LINE
  5
425
330
2
100
AcDbEntity
  8
LINEWORK
 62
     7
370
    30
100
AcDbLine
 10
89.70615870381573
 20
84.540241483851
 30
0.0
 11
89.70615870381573
 21
82.38405398385101
 31
0.0
  0
LINE
  5
426
330
2
100
AcDbEntity
  8
LINEWORK
 62
     7
370
    30
100
AcDbLine
 10
89.70615870381573
 20
82.38405398385101
 30
0.0
 11
89.70615870381573
 21
84.540241483851
 31
0.0
  0
LINE
  5
427
330
2
100
AcDbEntity
  8
LINEWORK
 62
     7
370
    30
100
AcDbLine
 10
88.10387120381575
 20
84.540241483851
 30
0.0
 11
88.10387120381575
 21
82.38405398385101
 31
0.0
  0
LINE
  5
428
330
2
100
AcDbEntity
  8
LINEWORK
 62
     7
370
    30
100
AcDbLine
 10
88.10387120381575
 20
82.38405398385101
 30
0.0
 11
88.10387120381575
 21
84.540241483851
 31
0.0
  0
LINE
  5
429
330
2
100
AcDbEntity
  8
LINEWORK
 62
     7
370
    30
100
AcDbLine
 10
95.47887120381574
 20
84.540241483851
 30
0.0
 11
95.47887120381574
 21
82.38405398385101
 31
0.0
  0
LINE
  5
42A
330
2
100
AcDbEntity
  8
LINEWORK
 62
     7
370
    30
100
AcDbLine
 10
95.47887120381574
 20
82.38405398385101
 30
0.0
 11
95.47887120381574
 21
84.540241483851
 31
0.0
  0
LINE
  5
42B
330
2
100
AcDbEntity
  8
LINEWORK
 62
     7
370
    30
100
AcDbLine
 10
97.08115870381574
 20
84.540241483851
 30
0.0
 11
97.08115870381574
 21
82.38405398385101
 31
0.0
  0
LINE
  5
42C
330
2
100
AcDbEntity
  8
LINEWORK
 62
     7
370
    30
100
AcDbLine
 10
97.08115870381574
 20
82.38405398385101
 30
0.0
 11
97.08115870381574
 21
84.540241483851
 31
0.0
  0
SOLID
  5
42D
330
2
100
AcDbEntity
  8
leaders
 62
     1
370
    30
100
AcDbTrace
 10
99.34189096696105
 20
90.62572037937036
 30
0.0
 11
98.97154217659
 21
90.77685533055841
 31
0.0
 12
98.70331171821124
 22
89.59024148385095
 32
0.0
 13
98.70331171821124
 23
89.59024148385095
 33
0.0
  0
LINE
  5
42E
330
2
100
AcDbEntity
  8
LINEWORK
 62
     7
370
    30
100
AcDbLine
 10
103.0925149538157
 20
84.91524148385099
 30
0.0
 11
103.0925149538157
 21
89.59024148385095
 31
0.0
  0
LINE
  5
42F
330
2
100
AcDbEntity
  8
LINEWORK
 62
     7
370
    30
100
AcDbLine
 10
103.4675149538157
 20
84.91524148385099
 30
0.0
 11
103.4675149538157
 21
89.59024148385095
 31
0.0
  0
POINT
  5
430
330
2
100
AcDbEntity
  8
LINEWORK
 62
     1
370
    30
100
AcDbPoint
 10
102.8538712038157
 20
84.64294148385112
 30
0.0
  0
POINT
  5
431
330
2
100
AcDbEntity
  8
LINEWORK
 62
     7
370
    30
100
AcDbPoint
 10
104.4561587038157
 20
84.64294148385112
 30
0.0
  0
POINT
  5
432
330
2
100
AcDbEntity
  8
LINEWORK
 62
     7
370
    30
100
AcDbPoint
 10
104.4561587038157
 20
84.64294148385112
 30
0.0
  0
LINE
  5
433
330
2
100
AcDbEntity
  8
LINEWORK
  6
DASHED
 62
     7
 48
2.0
370
    30
100
AcDbLine
 10
107.0925149538157
 20
86.73024148385229
 30
0.0
 11
107.5925149538157
 21
86.73024148385229
 31
0.0
  0
LINE
  5
434
330
2
100
AcDbEntity
  8
LINEWORK
  6
DASHED
 62
     7
 48
2.0
370
    30
100
AcDbLine
 10
99.7175149538158
 20
86.73024148385229
 30
0.0
 11
100.2175149538157
 21
86.73024148385229
 31
0.0
  0
LINE
  5
435
330
2
100
AcDbEntity
  8
LINEWORK
 62
     7
370
    30
100
AcDbLine
 10
102.8538712038157
 20
82.38405398385101
 30
0.0
 11
102.7806665163156
 21
82.25856023385096
 31
0.0
  0
LINE
  5
436
330
2
100
AcDbEntity
  8
LINEWORK
 62
     7
370
    30
100
AcDbLine
 10
102.8538712038157
 20
82.38405398385101
 30
0.0
 11
102.7806665163156
 21
82.25856023385109
 31
0.0
  0
LINE
  5
437
330
2
100
AcDbEntity
  8
LINEWORK
 62
     7
370
    30
100
AcDbLine
 10
107.3425149538156
 20
82.25856023385096
 30
0.0
 11
104.5293633913157
 21
82.25856023385096
 31
0.0
  0
LINE
  5
438
330
2
100
AcDbEntity
  8
LINEWORK
 62
     7
370
    30
100
AcDbLine
 10
107.3425149538156
 20
82.25856023385109
 30
0.0
 11
104.5293633913157
 21
82.25856023385109
 31
0.0
  0
LINE
  5
439
330
2
100
AcDbEntity
  8
LINEWORK
 62
     7
370
    30
100
AcDbLine
 10
107.3425149538156
 20
82.38405398385101
 30
0.0
 11
104.4561587038157
 21
82.38405398385101
 31
0.0
  0
LINE
  5
43A
330
2
100
AcDbEntity
  8
LINEWORK
 62
     7
370
    30
100
AcDbLine
 10
107.3425149538156
 20
82.38405398385101
 30
0.0
 11
104.4561587038157
 21
82.38405398385101
 31
0.0
  0
LINE
  5
43B
330
2
100
AcDbEntity
  8
LINEWORK
 62
     7
370
    30
100
AcDbLine
 10
104.4561587038157
 20
82.38405398385101
 30
0.0
 11
104.5293633913157
 21
82.25856023385096
 31
0.0
  0
LINE
  5
43C
330
2
100
AcDbEntity
  8
LINEWORK
 62
     7
370
    30
100
AcDbLine
 10
104.4561587038157
 20
82.38405398385101
 30
0.0
 11
104.5293633913157
 21
82.25856023385109
 31
0.0
  0
LINE
  5
43D
330
2
100
AcDbEntity
  8
LINEWORK
  6
DASHED
 62
     7
 48
2.0
370
    30
100
AcDbLine
 10
107.5925149538157
 20
82.7302414838523
 30
0.0
 11
107.0925149538157
 21
82.7302414838523
 31
0.0
  0
LINE
  5
43E
330
2
100
AcDbEntity
  8
LINEWORK
 62
     7
370
    30
100
AcDbLine
 10
107.3425149538156
 20
80.62714148385101
 30
0.0
 11
105.5960602663156
 21
80.62714148385101
 31
0.0
  0
LINE
  5
43F
330
2
100
AcDbEntity
  8
LINEWORK
 62
     7
370
    30
100
AcDbLine
 10
105.5960602663156
 20
80.62714148385101
 30
0.0
 11
107.3425149538156
 21
80.62714148385101
 31
0.0
  0
LINE
  5
440
330
2
100
AcDbEntity
  8
LINEWORK
 62
     7
370
    30
100
AcDbLine
 10
99.96751495381568
 20
80.62714148385101
 30
0.0
 11
98.22106026631571
 21
80.62714148385101
 31
0.0
  0
LINE
  5
441
330
2
100
AcDbEntity
  8
LINEWORK
 62
     7
370
    30
100
AcDbLine
 10
98.22106026631571
 20
80.62714148385101
 30
0.0
 11
99.96751495381568
 21
80.62714148385101
 31
0.0
  0
LINE
  5
442
330
2
100
AcDbEntity
  8
LINEWORK
  6
DASHED
 62
     7
 48
2.0
370
    30
100
AcDbLine
 10
100.2175149538157
 20
82.7302414838523
 30
0.0
 11
99.7175149538158
 21
82.7302414838523
 31
0.0
  0
LINE
  5
443
330
2
100
AcDbEntity
  8
LINEWORK
 62
     7
370
    30
100
AcDbLine
 10
101.7139696413157
 20
80.62714148385101
 30
0.0
 11
99.96751495381568
 21
80.62714148385101
 31
0.0
  0
LINE
  5
444
330
2
100
AcDbEntity
  8
LINEWORK
 62
     7
370
    30
100
AcDbLine
 10
99.96751495381568
 20
80.62714148385101
 30
0.0
 11
101.7139696413157
 21
80.62714148385101
 31
0.0
  0
LINE
  5
445
330
2
100
AcDbEntity
  8
LINEWORK
 62
     7
370
    30
100
AcDbLine
 10
99.96751495381568
 20
82.38405398385101
 30
0.0
 11
102.8538712038157
 21
82.38405398385101
 31
0.0
  0
LINE
  5
446
330
2
100
AcDbEntity
  8
LINEWORK
 62
     7
370
    30
100
AcDbLine
 10
99.96751495381568
 20
82.38405398385101
 30
0.0
 11
102.8538712038157
 21
82.38405398385101
 31
0.0
  0
LINE
  5
447
330
2
100
AcDbEntity
  8
LINEWORK
 62
     7
370
    30
100
AcDbLine
 10
102.7806665163156
 20
82.25856023385109
 30
0.0
 11
99.96751495381568
 21
82.25856023385096
 31
0.0
  0
LINE
  5
448
330
2
100
AcDbEntity
  8
LINEWORK
 62
     7
370
    30
100
AcDbLine
 10
99.96751495381568
 20
82.25856023385096
 30
0.0
 11
102.7806665163156
 21
82.25856023385109
 31
0.0
  0
LINE
  5
449
330
2
100
AcDbEntity
  8
LINEWORK
  6
DASHED
 62
     7
 48
2.0
370
    30
100
AcDbLine
 10
99.7175149538158
 20
82.7302414838523
 30
0.0
 11
99.7175149538158
 21
86.73024148385229
 31
0.0
  0
LINE
  5
44A
330
2
100
AcDbEntity
  8
LINEWORK
  6
DASHED
 62
     7
 48
2.0
370
    30
100
AcDbLine
 10
100.2175149538157
 20
86.73024148385229
 30
0.0
 11
100.2175149538157
 21
82.7302414838523
 31
0.0
  0
LINE
  5
44B
330
2
100
AcDbEntity
  8
LINEWORK
 62
     7
370
    30
100
AcDbLine
 10
102.8538712038157
 20
84.540241483851
 30
0.0
 11
102.8538712038157
 21
82.38405398385101
 31
0.0
  0
LINE
  5
44C
330
2
100
AcDbEntity
  8
LINEWORK
 62
     7
370
    30
100
AcDbLine
 10
102.8538712038157
 20
82.38405398385101
 30
0.0
 11
102.8538712038157
 21
84.540241483851
 31
0.0
  0
LINE
  5
44D
330
2
100
AcDbEntity
  8
LINEWORK
 62
     7
370
    30
100
AcDbLine
 10
104.4561587038157
 20
84.540241483851
 30
0.0
 11
104.4561587038157
 21
82.38405398385101
 31
0.0
  0
LINE
  5
44E
330
2
100
AcDbEntity
  8
LINEWORK
 62
     7
370
    30
100
AcDbLine
 10
104.4561587038157
 20
82.38405398385101
 30
0.0
 11
104.4561587038157
 21
84.540241483851
 31
0.0
  0
LINE
  5
44F
330
2
100
AcDbEntity
  8
LINEWORK
  6
DASHED
 62
     7
 48
2.0
370
    30
100
AcDbLine
 10
107.0925149538157
 20
82.7302414838523
 30
0.0
 11
107.0925149538157
 21
86.73024148385229
 31
0.0
  0
LINE
  5
450
330
2
100
AcDbEntity
  8
LINEWORK
  6
DASHED
 62
     7
 48
2.0
370
    30
100
AcDbLine
 10
107.5925149538157
 20
86.73024148385229
 30
0.0
 11
107.5925149538157
 21
82.7302414838523
 31
0.0
  0
LINE
  5
451
330
2
100
AcDbEntity
  8
LINEWORK
  6
DASHED
 62
     7
 48
2.0
370
    30
100
AcDbLine
 10
139.8236352834342
 20
60.35024148385116
 30
0.0
 11
139.8236352834342
 21
56.35024148385117
 31
0.0
  0
LINE
  5
452
330
2
100
AcDbEntity
  8
LINEWORK
  6
DASHED
 62
     7
 48
2.0
370
    30
100
AcDbLine
 10
140.3236352834342
 20
56.35024148385117
 30
0.0
 11
140.3236352834342
 21
60.35024148385116
 31
0.0
  0
LINE
  5
453
330
2
100
AcDbEntity
  8
LINEWORK
 62
     7
370
    30
100
AcDbLine
 10
142.9599915334341
 20
61.05011648385119
 30
0.0
 11
142.9599915334341
 21
58.54024148385111
 31
0.0
  0
LINE
  5
454
330
2
100
AcDbEntity
  8
LINEWORK
 62
     7
370
    30
100
AcDbLine
 10
142.9599915334341
 20
58.54024148385111
 30
0.0
 11
142.9599915334341
 21
61.05011648385119
 31
0.0
  0
DIMENSION
  5
455
330
2
100
AcDbEntity
  8
DIM
 62
     7
370
    30
100
AcDbDimension
  2
*D4
 10
161.2867029785429
 20
89.59024148385093
 30
0.0
 11
161.2867029785429
 21
71.27604740249523
 31
0.0
 70
   160
  1
36"
 71
     5
 42
-1.0
  3
STANDARD
100
AcDbAlignedDimension
 13
146.0736352834347
 23
53.79024148385122
 33
0.0
 14
146.017009895316
 24
89.59024148385095
 34
0.0
 50
90.0
100
AcDbRotatedDimension
1001
ACAD
1000
DSTYLE
1002
{
1070
   287
1070
     4
1070
   287
1070
     4
1070
   287
1070
     4
1070
   287
1070
     4
1070
   287
1070
     4
1070
   287
1070
     4
1070
    40
1040
2.399999999999999
1070
    73
1070
     1
1070
    74
1070
     1
1070
    77
1070
     0
1070
   147
1040
0.5
1070
   279
1070
     1
1070
   288
1070
     1
1070
   289
1070
     3
1002
}
  0
DIMENSION
  5
463
330
2
100
AcDbEntity
  8
DIM
 62
     7
370
    30
100
AcDbDimension
  2
*D5
 10
119.9856095701193
 20
84.91524148385099
 30
0.0
 11
119.9856095701193
 21
71.34802770262365
 31
0.0
 70
   160
 71
     5
 42
-1.0
  3
STANDARD
100
AcDbAlignedDimension
 13
113.6346143811771
 23
58.16524148385099
 33
0.0
 14
113.6325132557625
 24
84.91524148385099
 34
0.0
 50
90.0
100
AcDbRotatedDimension
1001
ACAD
1000
DSTYLE
1002
{
1070
   287
1070
     4
1070
   287
1070
     4
1070
   287
1070
     4
1070
   287
1070
     4
1070
   287
1070
     4
1070
   287
1070
     4
1070
    40
1040
2.399999999999999
1070
    73
1070
     1
1070
    74
1070
     1
1070
    77
1070
     0
1070
   147
1040
0.5
1070
   279
1070
     1
1070
   288
1070
     1
1070
   289
1070
     3
1002
}
  0
LINE
  5
471
330
2
100
AcDbEntity
  8
LINEWORK
 62
     7
370
    30
100
AcDbLine
 10
137.1872790334341
 20
61.05011648385119
 30
0.0
 11
137.1872790334341
 21
58.54024148385111
 31
0.0
  0
LINE
  5
472
330
2
100
AcDbEntity
  8
LINEWORK
 62
     7
370
    30
100
AcDbLine
 10
137.1872790334341
 20
58.54024148385111
 30
0.0
 11
137.1872790334341
 21
61.05011648385119
 31
0.0
  0
LINE
  5
473
330
2
100
AcDbEntity
  8
LINEWORK
 62
     7
370
    30
100
AcDbLine
 10
110.2288712038157
 20
58.54024148385099
 30
0.0
 11
110.2288712038157
 21
61.05011648385096
 31
0.0
  0
LINE
  5
474
330
2
100
AcDbEntity
  8
LINEWORK
 62
     7
370
    30
100
AcDbLine
 10
110.2288712038157
 20
61.05011648385096
 30
0.0
 11
110.2288712038157
 21
58.54024148385099
 31
0.0
  0
LINE
  5
482
330
2
100
AcDbEntity
  8
LINEWORK
 62
     7
370
    30
100
AcDbLine
 10
113.940363966205
 20
55.96241050461014
 30
0.0
 11
112.4084714778909
 21
55.96241050461014
 31
0.0
  0
LINE
  5
483
330
2
100
AcDbEntity
  8
LINEWORK
 62
     7
370
    30
100
AcDbLine
 10
113.1480064964739
 20
56.54321351634712
 30
0.0
 11
113.940363966205
 21
55.96241050461014
 31
0.0
  0
LINE
  5
484
330
2
100
AcDbEntity
  8
LINEWORK
 62
     7
370
    30
100
AcDbLine
 10
113.5595737758884
 20
58.16524148385099
 30
0.0
 11
113.1480064964739
 21
56.54321351634712
 31
0.0
  0
LINE
  5
485
330
2
100
AcDbEntity
  8
LINEWORK
 62
     7
370
    30
100
AcDbLine
 10
112.4084714778909
 20
55.96241050461014
 30
0.0
 11
113.3640788625491
 21
54.16524148385099
 31
0.0
  0
POINT
  5
486
330
2
100
AcDbEntity
  8
LINEWORK
 62
     7
370
    30
100
AcDbPoint
 10
110.2288712038157
 20
58.54024148385099
 30
0.0
  0
LINE
  5
487
330
2
100
AcDbEntity
  8
LINEWORK
 62
     7
370
    30
100
AcDbLine
 10
143.8836352834341
 20
54.16524148385121
 30
0.0
 11
136.2636352834341
 21
54.16524148385099
 31
0.0
  0
LINE
  5
488
330
2
100
AcDbEntity
  8
LINEWORK
 62
     7
370
    30
100
AcDbLine
 10
136.7636352834341
 20
58.16524148385099
 30
0.0
 11
143.3836352834339
 21
58.16524148385122
 31
0.0
  0
LINE
  5
489
330
2
100
AcDbEntity
  8
LINEWORK
 62
     7
370
    30
100
AcDbLine
 10
137.1872790334341
 20
58.54024148385111
 30
0.0
 11
142.9599915334341
 21
58.54024148385111
 31
0.0
  0
LINE
  5
48A
330
2
100
AcDbEntity
  8
LINEWORK
 62
     7
370
    30
100
AcDbLine
 10
146.0736352834347
 20
53.79024148385122
 30
0.0
 11
134.0736352834337
 21
53.79024148385099
 31
0.0
  0
INSERT
  5
48B
330
2
100
AcDbEntity
  8
LINEWORK
 62
     7
370
    30
100
AcDbBlockReference
 66
     1
  2
PROFILE LOGO
 10
136.6678654106894
 20
56.29533170939123
 30
0.0
  0
ATTRIB
  5
48C
330
48B
100
AcDbEntity
  8
A1
 62
    22
100
AcDbText
 10
136.9104301848798
 20
54.61703346048477
 30
0.0
 40
0.2126953125
  1
054M
 72
     1
 11
137.3459958159703
 21
54.61703346048477
 31
0.0
100
AcDbAttribute
  2
XXXX
 70
     0
  0
SEQEND
  5
4A8
330
48B
100
AcDbEntity
  8
A1
 62
     7
  0
LINE
  5
4A9
330
2
100
AcDbEntity
  8
LINEWORK
 62
     7
370
    30
100
AcDbLine
 10
136.7636352834341
 20
58.16524148385099
 30
0.0
 11
136.2636352834341
 21
57.66524148385099
 31
0.0
  0
LINE
  5
4AA
330
2
100
AcDbEntity
  8
LINEWORK
 62
     7
370
    30
100
AcDbLine
 10
136.2636352834341
 20
57.66524148385099
 30
0.0
 11
136.2636352834341
 21
54.16524148385099
 31
0.0
  0
LINE
  5
4AB
330
2
100
AcDbEntity
  8
LINEWORK
 62
     7
370
    30
100
AcDbLine
 10
143.8836352834339
 20
57.66524148385122
 30
0.0
 11
143.8836352834341
 21
54.16524148385121
 31
0.0
  0
LINE
  5
4AC
330
2
100
AcDbEntity
  8
LINEWORK
 62
     7
370
    30
100
AcDbLine
 10
143.3836352834339
 20
58.16524148385122
 30
0.0
 11
143.8836352834339
 21
57.66524148385122
 31
0.0
  0
LINE
  5
4AD
330
2
100
AcDbEntity
  8
LINEWORK
  6
DASHED
 62
     7
 48
2.0
370
    30
100
AcDbLine
 10
139.8236352834342
 20
56.35024148385117
 30
0.0
 11
140.3236352834342
 21
56.35024148385117
 31
0.0
  0
POINT
  5
4AE
330
2
100
AcDbEntity
  8
LINEWORK
 62
     7
370
    30
100
AcDbPoint
 10
142.9599915334341
 20
58.54024148385111
 30
0.0
  0
LINE
  5
4AF
330
2
100
AcDbEntity
  8
LINEWORK
 62
     7
370
    30
100
AcDbLine
 10
109.0889696413157
 20
79.99967273385107
 30
0.0
 11
109.0889696413157
 21
80.62714148385101
 31
0.0
  0
LINE
  5
4B0
330
2
100
AcDbEntity
  8
LINEWORK
 62
     7
370
    30
100
AcDbLine
 10
109.0889696413157
 20
79.99967273385107
 30
0.0
 11
109.0889696413157
 21
80.62714148385101
 31
0.0
  0
ARC
  5
4B1
330
2
100
AcDbEntity
  8
LINEWORK
 62
     7
370
    30
100
AcDbCircle
 10
108.5272992471793
 20
82.15882471030557
 30
0.0
 40
1.631418750000088
100
AcDbArc
 50
290.1380579866513
 51
3.504918694565252
  0
ARC
  5
4B2
330
2
100
AcDbEntity
  8
LINEWORK
 62
     7
370
    30
100
AcDbCircle
 10
104.8836999396237
 20
69.80299827717806
 30
0.0
 40
5.330037199451427
100
AcDbArc
 50
357.6418735319813
 51
19.60711889602133
  0
ARC
  5
4B3
330
2
100
AcDbEntity
  8
LINEWORK
 62
     7
370
    30
100
AcDbCircle
 10
104.880228200102
 20
69.80247170758673
 30
0.0
 40
5.333484374999923
100
AcDbArc
 50
357.649060045261
 51
19.59993238281736
  0
LWPOLYLINE
  5
4B4
330
2
100
AcDbEntity
  8
LINEWORK
 62
     7
370
    30
100
AcDbPolyline
 90
        2
 70
     1
 43
0.0
 10
109.6641493288157
 20
61.17561023385099
 10
110.2288712038157
 20
61.05011648385096
  0
LINE
  5
4B5
330
2
100
AcDbEntity
  8
LINEWORK
 62
     7
370
    30
100
AcDbLine
 10
109.6641493288157
 20
61.17561023385099
 30
0.0
 11
109.6641493288157
 21
61.42659773385105
 31
0.0
  0
LINE
  5
4B6
330
2
100
AcDbEntity
  8
LINEWORK
 62
     7
370
    30
100
AcDbLine
 10
109.6641493288157
 20
61.42659773385105
 30
0.0
 11
109.6641493288157
 21
61.17561023385099
 31
0.0
  0
ARC
  5
4B7
330
2
100
AcDbEntity
  8
LINEWORK
 62
     7
370
    30
100
AcDbCircle
 10
136.5902009514124
 20
76.07618304034133
 30
0.0
 40
27.63462319024747
100
AcDbArc
 50
178.630117417344
 51
184.0977376458605
  0
ARC
  5
4B8
330
2
100
AcDbEntity
  8
LINEWORK
 62
     7
370
    30
100
AcDbCircle
 10
136.5955807973083
 20
76.0763111319103
 30
0.0
 40
27.63999843750035
100
AcDbArc
 50
178.6306494746762
 51
184.0972055885288
  0
ARC
  5
4B9
330
2
100
AcDbEntity
  8
LINEWORK
 62
     7
370
    30
100
AcDbCircle
 10
111.2537368288156
 20
74.12499656197599
 30
0.0
 40
2.22763833761492
100
AcDbArc
 50
180.6052145972454
 51
207.467272338611
  0
ARC
  5
4BA
330
2
100
AcDbEntity
  8
LINEWORK
 62
     7
370
    30
100
AcDbCircle
 10
111.2536128739154
 20
74.12496557325096
 30
0.0
 40
2.22751406250017
100
AcDbArc
 50
180.6044512322847
 51
207.4680357035701
  0
ARC
  5
4BB
330
2
100
AcDbEntity
  8
LINEWORK
 62
     7
370
    30
100
AcDbCircle
 10
108.5791512819407
 20
78.18001335885094
 30
0.0
 40
0.760805859375
100
AcDbArc
 50
312.0750220508427
 51
47.9249779491573
  0
ARC
  5
4BC
330
2
100
AcDbEntity
  8
LINEWORK
 62
     7
370
    30
100
AcDbCircle
 10
108.5909317609264
 20
78.18001335885094
 30
0.0
 40
0.7529625000000308
100
AcDbArc
 50
311.4096221092697
 51
48.59037789073025
  0
LINE
  5
4BD
330
2
100
AcDbEntity
  8
LINEWORK
 62
     7
370
    30
100
AcDbLine
 10
109.0889696413157
 20
76.86232898385094
 30
0.0
 11
109.0889696413157
 21
77.61529148385102
 31
0.0
  0
LINE
  5
4BE
330
2
100
AcDbEntity
  8
LINEWORK
 62
     7
370
    30
100
AcDbLine
 10
109.0889696413157
 20
76.86232898385094
 30
0.0
 11
108.9634758913157
 21
76.73683523385091
 31
0.0
  0
LINE
  5
4BF
330
2
100
AcDbEntity
  8
LINEWORK
 62
     7
370
    30
100
AcDbLine
 10
109.0889696413157
 20
76.86232898385094
 30
0.0
 11
108.9634758913157
 21
76.73683523385091
 31
0.0
  0
LINE
  5
4C0
330
2
100
AcDbEntity
  8
LINEWORK
 62
     7
370
    30
100
AcDbLine
 10
109.0889696413157
 20
76.86232898385094
 30
0.0
 11
109.0889696413157
 21
77.61529148385102
 31
0.0
  0
ARC
  5
4C1
330
2
100
AcDbEntity
  8
LINEWORK
 62
     7
370
    30
100
AcDbCircle
 10
109.9987993288157
 20
79.37220398385102
 30
0.0
 40
1.105218119867257
100
AcDbArc
 50
145.4077113124904
 51
214.5922886875095
  0
ARC
  5
4C2
330
2
100
AcDbEntity
  8
LINEWORK
 62
     7
370
    30
100
AcDbCircle
 10
109.9901030270957
 20
79.37220398385102
 30
0.0
 40
1.09807031250002
100
AcDbArc
 50
145.1500954209564
 51
214.8499045790435
  0
LINE
  5
4C3
330
2
100
AcDbEntity
  8
LINEWORK
 62
     7
370
    30
100
AcDbLine
 10
109.5386555788156
 20
63.43449773385088
 30
0.0
 11
109.5386555788156
 21
62.80702898385095
 31
0.0
  0
LINE
  5
4C4
330
2
100
AcDbEntity
  8
LINEWORK
 62
     7
370
    30
100
AcDbLine
 10
109.5386555788157
 20
62.80702898385107
 30
0.0
 11
109.5386555788156
 21
63.43449773385112
 31
0.0
  0
POINT
  5
4C5
330
2
100
AcDbEntity
  8
LINEWORK
 62
     7
370
    30
100
AcDbPoint
 10
107.9656607251093
 20
60.71282075377201
 30
0.0
  0
ARC
  5
4C6
330
2
100
AcDbEntity
  8
LINEWORK
 62
     7
370
    30
100
AcDbCircle
 10
111.5584126760868
 20
65.07740534828759
 30
0.0
 40
2.764293570461533
100
AcDbArc
 50
169.7795306324382
 51
200.159950823787
  0
ARC
  5
4C7
330
2
100
AcDbEntity
  8
LINEWORK
 62
     7
370
    30
100
AcDbCircle
 10
111.5548705919557
 20
65.07709734097159
 30
0.0
 40
2.760862499999871
100
AcDbArc
 50
169.7601969736183
 51
200.1792844825406
  0
ARC
  5
4C8
330
2
100
AcDbEntity
  8
LINEWORK
 62
     7
370
    30
100
AcDbCircle
 10
108.5329626100657
 20
66.06986648385088
 30
0.0
 40
0.587380468750003
100
AcDbArc
 50
301.2844929144161
 51
58.71550708558374
  0
ARC
  5
4C9
330
2
100
AcDbEntity
  8
LINEWORK
 62
     7
370
    30
100
AcDbCircle
 10
108.5165000718909
 20
66.06986648385316
 30
0.0
 40
0.5960953125000341
100
AcDbArc
 50
302.6368975040358
 51
57.36310249606355
  0
ARC
  5
4CA
330
2
100
AcDbEntity
  8
LINEWORK
 62
     7
370
    30
100
AcDbCircle
 10
110.5271803053782
 20
64.84303435494485
 30
0.0
 40
1.720801135514404
100
AcDbArc
 50
204.6726943310067
 51
234.9384478535201
  0
ARC
  5
4CB
330
2
100
AcDbEntity
  8
LINEWORK
 62
     7
370
    30
100
AcDbCircle
 10
110.530950453789
 20
64.84617614528713
 30
0.0
 40
1.725539062499889
100
AcDbArc
 50
204.715235337887
 51
234.8959068466427
  0
ARC
  5
4CC
330
2
100
AcDbEntity
  8
LINEWORK
 62
     7
370
    30
100
AcDbCircle
 10
109.2744582103946
 20
62.08709115490353
 30
0.0
 40
0.7668837767419853
100
AcDbArc
 50
300.5406048496821
 51
69.84825296578716
  0
ARC
  5
4CD
330
2
100
AcDbEntity
  8
LINEWORK
 62
     7
370
    30
100
AcDbCircle
 10
109.308302188452
 20
62.09016788018164
 30
0.0
 40
0.752962499999997
100
AcDbArc
 50
298.202947342553
 51
72.18591047291477
  0
ARC
  5
4CE
330
2
100
AcDbEntity
  8
LINEWORK
 62
     7
370
    30
100
AcDbCircle
 10
106.3517517307577
 20
69.52185345919986
 30
0.0
 40
3.857967380510689
100
AcDbArc
 50
310.1237387019697
 51
0.9184135598970037
  0
ARC
  5
4CF
330
2
100
AcDbEntity
  8
LINEWORK
 62
     7
370
    30
100
AcDbCircle
 10
106.3507791032312
 20
69.5222962790882
 30
0.0
 40
3.858932812500603
100
AcDbArc
 50
310.1305441294352
 51
0.9116081324222738
  0
ARC
  5
4D0
330
2
100
AcDbEntity
  8
LINEWORK
 62
     7
370
    30
100
AcDbCircle
 10
95.56549502790835
 20
66.50061664494512
 30
0.0
 40
15.21611718749983
100
AcDbArc
 50
19.54686554134448
 51
25.6928643595911
  0
LINE
  5
4D1
330
2
100
AcDbEntity
  8
LINEWORK
 62
     7
370
    30
100
AcDbLine
 10
113.5574726504738
 20
89.59024148385095
 30
0.0
 11
113.0082542011864
 21
87.42571643637734
 31
0.0
  0
LINE
  5
4D2
330
2
100
AcDbEntity
  8
LINEWORK
 62
     7
370
    30
100
AcDbLine
 10
113.0082542011864
 20
87.42571643637734
 30
0.0
 11
113.8006116709175
 21
86.84491342464037
 31
0.0
  0
LINE
  5
4D3
330
2
100
AcDbEntity
  8
LINEWORK
 62
     7
370
    30
100
AcDbLine
 10
113.8006116709175
 20
86.84491342464037
 30
0.0
 11
112.2687191826034
 21
86.84491342464037
 31
0.0
  0
LINE
  5
4D4
330
2
100
AcDbEntity
  8
LINEWORK
 62
     7
370
    30
100
AcDbLine
 10
113.0610766523345
 20
86.26411041290351
 30
0.0
 11
112.2687191826034
 21
86.84491342464037
 31
0.0
  0
LINE
  5
4D5
330
2
100
AcDbEntity
  8
LINEWORK
 62
     7
370
    30
100
AcDbLine
 10
113.0610766523345
 20
86.26411041290351
 30
0.0
 11
113.5574726504738
 21
84.91524148385099
 31
0.0
  0
POINT
  5
4D6
330
2
100
AcDbEntity
  8
LINEWORK
 62
     1
370
    30
100
AcDbPoint
 10
110.2288712038157
 20
84.64294148385112
 30
0.0
  0
LINE
  5
4D7
330
2
100
AcDbEntity
  8
LINEWORK
 62
     7
370
    30
100
AcDbLine
 10
110.2288712038157
 20
82.38405398385101
 30
0.0
 11
110.1556665163156
 21
82.25856023385096
 31
0.0
  0
LINE
  5
4D8
330
2
100
AcDbEntity
  8
LINEWORK
 62
     7
370
    30
100
AcDbLine
 10
110.2288712038157
 20
82.38405398385101
 30
0.0
 11
110.1556665163156
 21
82.25856023385109
 31
0.0
  0
LINE
  5
4D9
330
2
100
AcDbEntity
  8
LINEWORK
 62
     7
370
    30
100
AcDbLine
 10
110.2288712038157
 20
84.540241483851
 30
0.0
 11
110.2288712038157
 21
82.38405398385101
 31
0.0
  0
LINE
  5
4DA
330
2
100
AcDbEntity
  8
LINEWORK
 62
     7
370
    30
100
AcDbLine
 10
110.2288712038157
 20
82.38405398385101
 30
0.0
 11
110.2288712038157
 21
84.540241483851
 31
0.0
  0
ARC
  5
4DB
330
2
100
AcDbEntity
  8
LINEWORK
 62
     7
370
    30
100
AcDbCircle
 10
141.2584195767976
 20
82.1588247103058
 30
0.0
 40
1.631418750000088
100
AcDbArc
 50
290.1380579866513
 51
3.504918694565252
  0
LINE
  5
4DC
330
2
100
AcDbEntity
  8
LINEWORK
 62
     7
370
    30
100
AcDbLine
 10
141.820089970934
 20
79.99967273385107
 30
0.0
 11
141.820089970934
 21
80.62714148385111
 31
0.0
  0
LINE
  5
4DD
330
2
100
AcDbEntity
  8
LINEWORK
 62
     7
370
    30
100
AcDbLine
 10
141.820089970934
 20
79.99967273385107
 30
0.0
 11
141.820089970934
 21
80.62714148385111
 31
0.0
  0
ARC
  5
4DE
330
2
100
AcDbEntity
  8
LINEWORK
 62
     7
370
    30
100
AcDbCircle
 10
138.8888509900705
 20
82.1588247103058
 30
0.0
 40
1.631418750000056
100
AcDbArc
 50
176.4950813054347
 51
249.8619420133486
  0
LINE
  5
4DF
330
2
100
AcDbEntity
  8
LINEWORK
 62
     7
370
    30
100
AcDbLine
 10
138.3271805959341
 20
79.99967273385107
 30
0.0
 11
138.3271805959341
 21
80.62714148385111
 31
0.0
  0
LINE
  5
4E0
330
2
100
AcDbEntity
  8
LINEWORK
 62
     7
370
    30
100
AcDbLine
 10
138.3271805959341
 20
79.99967273385107
 30
0.0
 11
138.3271805959341
 21
80.62714148385111
 31
0.0
  0
LINE
  5
4E1
330
2
100
AcDbEntity
  8
LINEWORK
 62
     7
370
    30
100
AcDbLine
 10
138.4526743459341
 20
76.73683523385125
 30
0.0
 11
140.0736352834341
 21
76.73683523385114
 31
0.0
  0
LINE
  5
4E2
330
2
100
AcDbEntity
  8
LINEWORK
 62
     7
370
    30
100
AcDbLine
 10
140.0736352834341
 20
76.73683523385114
 30
0.0
 11
138.4526743459341
 21
76.73683523385114
 31
0.0
  0
LINE
  5
4E3
330
2
100
AcDbEntity
  8
LINEWORK
 62
     7
370
    30
100
AcDbLine
 10
138.5781680959341
 20
65.56789148385121
 30
0.0
 11
140.0736352834341
 21
65.56789148385121
 31
0.0
  0
LINE
  5
4E4
330
2
100
AcDbEntity
  8
LINEWORK
 62
     7
370
    30
100
AcDbLine
 10
140.0736352834341
 20
65.56789148385121
 30
0.0
 11
138.5781680959341
 21
65.56789148385121
 31
0.0
  0
LINE
  5
4E5
330
2
100
AcDbEntity
  8
LINEWORK
 62
     7
370
    30
100
AcDbLine
 10
140.0736352834341
 20
66.57184148385124
 30
0.0
 11
138.5781680959341
 21
66.57184148385124
 31
0.0
  0
LINE
  5
4E6
330
2
100
AcDbEntity
  8
LINEWORK
 62
     7
370
    30
100
AcDbLine
 10
140.0736352834341
 20
66.57184148385102
 30
0.0
 11
138.5781680959341
 21
66.57184148385102
 31
0.0
  0
LINE
  5
4E7
330
2
100
AcDbEntity
  8
LINEWORK
 62
     7
370
    30
100
AcDbLine
 10
137.7520009084341
 20
61.42659773385116
 30
0.0
 11
140.0736352834341
 21
61.42659773385116
 31
0.0
  0
LINE
  5
4E8
330
2
100
AcDbEntity
  8
LINEWORK
 62
     7
370
    30
100
AcDbLine
 10
137.7520009084341
 20
61.17561023385121
 30
0.0
 11
140.0736352834341
 21
61.17561023385121
 31
0.0
  0
LINE
  5
4E9
330
2
100
AcDbEntity
  8
LINEWORK
 62
     7
370
    30
100
AcDbLine
 10
137.1872790334341
 20
61.05011648385119
 30
0.0
 11
140.0736352834341
 21
61.05011648385119
 31
0.0
  0
LINE
  5
4EA
330
2
100
AcDbEntity
  8
LINEWORK
 62
     7
370
    30
100
AcDbLine
 10
140.0736352834341
 20
61.42659773385116
 30
0.0
 11
137.7520009084341
 21
61.42659773385116
 31
0.0
  0
LINE
  5
4EB
330
2
100
AcDbEntity
  8
LINEWORK
 62
     7
370
    30
100
AcDbLine
 10
140.0736352834341
 20
61.17561023385121
 30
0.0
 11
137.7520009084341
 21
61.17561023385121
 31
0.0
  0
LINE
  5
4EC
330
2
100
AcDbEntity
  8
LINEWORK
 62
     7
370
    30
100
AcDbLine
 10
140.0736352834341
 20
61.05011648385119
 30
0.0
 11
137.1872790334341
 21
61.05011648385119
 31
0.0
  0
LINE
  5
4ED
330
2
100
AcDbEntity
  8
LINEWORK
 62
     7
370
    30
100
AcDbLine
 10
137.8774946584341
 20
63.43449773385123
 30
0.0
 11
140.0736352834341
 21
63.43449773385123
 31
0.0
  0
LINE
  5
4EE
330
2
100
AcDbEntity
  8
LINEWORK
 62
     7
370
    30
100
AcDbLine
 10
140.0736352834341
 20
62.80702898385118
 30
0.0
 11
137.8774946584341
 21
62.80702898385118
 31
0.0
  0
LINE
  5
4EF
330
2
100
AcDbEntity
  8
LINEWORK
 62
     7
370
    30
100
AcDbLine
 10
140.0736352834341
 20
63.43449773385112
 30
0.0
 11
137.8774946584341
 21
63.43449773385112
 31
0.0
  0
LINE
  5
4F0
330
2
100
AcDbEntity
  8
LINEWORK
 62
     7
370
    30
100
AcDbLine
 10
140.0736352834341
 20
62.80702898385107
 30
0.0
 11
137.8774946584341
 21
62.80702898385107
 31
0.0
  0
LINE
  5
4F1
330
2
100
AcDbEntity
  8
LINEWORK
 62
     7
370
    30
100
AcDbLine
 10
140.0736352834341
 20
76.86232898385117
 30
0.0
 11
138.3271805959341
 21
76.86232898385117
 31
0.0
  0
LINE
  5
4F2
330
2
100
AcDbEntity
  8
LINEWORK
 62
     7
370
    30
100
AcDbLine
 10
138.3271805959341
 20
76.86232898385117
 30
0.0
 11
140.0736352834341
 21
76.86232898385117
 31
0.0
  0
LINE
  5
4F3
330
2
100
AcDbEntity
  8
LINEWORK
 62
     7
370
    30
100
AcDbLine
 10
138.3271805959341
 20
77.61529148385114
 30
0.0
 11
140.0736352834341
 21
77.61529148385114
 31
0.0
  0
LINE
  5
4F4
330
2
100
AcDbEntity
  8
LINEWORK
 62
     7
370
    30
100
AcDbLine
 10
140.0736352834341
 20
77.61529148385114
 30
0.0
 11
138.3271805959341
 21
77.61529148385114
 31
0.0
  0
LINE
  5
4F5
330
2
100
AcDbEntity
  8
LINEWORK
 62
     7
370
    30
100
AcDbLine
 10
140.0736352834341
 20
79.99967273385107
 30
0.0
 11
138.3271805959341
 21
79.99967273385107
 31
0.0
  0
LINE
  5
4F6
330
2
100
AcDbEntity
  8
LINEWORK
 62
     7
370
    30
100
AcDbLine
 10
140.0736352834341
 20
78.7447352338512
 30
0.0
 11
138.3271805959341
 21
78.7447352338512
 31
0.0
  0
LINE
  5
4F7
330
2
100
AcDbEntity
  8
LINEWORK
 62
     7
370
    30
100
AcDbLine
 10
140.0736352834341
 20
79.99967273385107
 30
0.0
 11
138.3271805959341
 21
79.99967273385107
 31
0.0
  0
ARC
  5
4F8
330
2
100
AcDbEntity
  8
LINEWORK
 62
     7
370
    30
100
AcDbCircle
 10
135.8612796452941
 20
65.07709734097182
 30
0.0
 40
2.760862499999871
100
AcDbArc
 50
339.8207155174592
 51
10.23980302638167
  0
ARC
  5
4F9
330
2
100
AcDbEntity
  8
LINEWORK
 62
     7
370
    30
100
AcDbCircle
 10
135.857737561163
 20
65.07740534828769
 30
0.0
 40
2.764293570461533
100
AcDbArc
 50
339.8400491762129
 51
10.22046936756176
  0
ARC
  5
4FA
330
2
100
AcDbEntity
  8
LINEWORK
 62
     7
370
    30
100
AcDbCircle
 10
138.8252184763234
 20
78.18001335885117
 30
0.0
 40
0.7529625000000308
100
AcDbArc
 50
131.4096221092697
 51
228.5903778907302
  0
ARC
  5
4FB
330
2
100
AcDbEntity
  8
LINEWORK
 62
     7
370
    30
100
AcDbCircle
 10
138.8369989553091
 20
78.18001335885117
 30
0.0
 40
0.760805859375
100
AcDbArc
 50
132.0750220508426
 51
227.9249779491573
  0
LINE
  5
4FC
330
2
100
AcDbEntity
  8
LINEWORK
 62
     7
370
    30
100
AcDbLine
 10
138.3271805959341
 20
76.86232898385117
 30
0.0
 11
138.3271805959341
 21
77.61529148385114
 31
0.0
  0
LINE
  5
4FD
330
2
100
AcDbEntity
  8
LINEWORK
 62
     7
370
    30
100
AcDbLine
 10
138.3271805959341
 20
76.86232898385117
 30
0.0
 11
138.3271805959341
 21
77.61529148385114
 31
0.0
  0
ARC
  5
4FE
330
2
100
AcDbEntity
  8
LINEWORK
 62
     7
370
    30
100
AcDbCircle
 10
138.1078480487978
 20
62.09016788018175
 30
0.0
 40
0.7529625000000071
100
AcDbArc
 50
107.8140895270852
 51
241.7970526574468
  0
ARC
  5
4FF
330
2
100
AcDbEntity
  8
LINEWORK
 62
     7
370
    30
100
AcDbCircle
 10
138.1416920268552
 20
62.08709115490376
 30
0.0
 40
0.7668837767419853
100
AcDbArc
 50
110.1517470342128
 51
239.4593951503178
  0
LINE
  5
500
330
2
100
AcDbEntity
  8
LINEWORK
 62
     7
370
    30
100
AcDbLine
 10
137.7520009084341
 20
61.42659773385116
 30
0.0
 11
137.7520009084341
 21
61.17561023385121
 31
0.0
  0
LINE
  5
501
330
2
100
AcDbEntity
  8
LINEWORK
 62
     7
370
    30
100
AcDbLine
 10
137.7520009084341
 20
61.17561023385121
 30
0.0
 11
137.1872790334341
 21
61.05011648385119
 31
0.0
  0
LINE
  5
502
330
2
100
AcDbEntity
  8
LINEWORK
 62
     7
370
    30
100
AcDbLine
 10
137.7520009084341
 20
61.17561023385121
 30
0.0
 11
137.7520009084341
 21
61.42659773385116
 31
0.0
  0
LINE
  5
503
330
2
100
AcDbEntity
  8
LINEWORK
 62
     7
370
    30
100
AcDbLine
 10
137.1872790334341
 20
61.05011648385119
 30
0.0
 11
137.7520009084341
 21
61.17561023385121
 31
0.0
  0
ARC
  5
504
330
2
100
AcDbEntity
  8
LINEWORK
 62
     7
370
    30
100
AcDbCircle
 10
142.5359220371478
 20
69.80247170758696
 30
0.0
 40
5.333484374999923
100
AcDbArc
 50
160.4000676171826
 51
182.3509399547389
  0
ARC
  5
505
330
2
100
AcDbEntity
  8
LINEWORK
 62
     7
370
    30
100
AcDbCircle
 10
142.5324502976261
 20
69.80299827717818
 30
0.0
 40
5.330037199451427
100
AcDbArc
 50
160.3928811039786
 51
182.3581264680186
  0
LINE
  5
506
330
2
100
AcDbEntity
  8
LINEWORK
 62
     7
370
    30
100
AcDbLine
 10
137.8774946584341
 20
62.80702898385118
 30
0.0
 11
137.8774946584341
 21
63.43449773385123
 31
0.0
  0
LINE
  5
507
330
2
100
AcDbEntity
  8
LINEWORK
 62
     7
370
    30
100
AcDbLine
 10
137.8774946584341
 20
63.43449773385112
 30
0.0
 11
137.8774946584341
 21
62.80702898385107
 31
0.0
  0
ARC
  5
508
330
2
100
AcDbEntity
  8
LINEWORK
 62
     7
370
    30
100
AcDbCircle
 10
151.8506552093414
 20
66.50061664494535
 30
0.0
 40
15.2161171874998
100
AcDbArc
 50
154.3071356404088
 51
160.4531344586555
  0
ARC
  5
509
330
2
100
AcDbEntity
  8
LINEWORK
 62
     7
370
    30
100
AcDbCircle
 10
138.8996501653589
 20
66.06986648385339
 30
0.0
 40
0.5960953125000341
100
AcDbArc
 50
122.6368975039364
 51
237.3631024959551
  0
ARC
  5
50A
330
2
100
AcDbEntity
  8
LINEWORK
 62
     7
370
    30
100
AcDbCircle
 10
138.8831876271841
 20
66.06986648385111
 30
0.0
 40
0.587380468750003
100
AcDbArc
 50
121.2844929144162
 51
238.7155070855837
  0
ARC
  5
50B
330
2
100
AcDbEntity
  8
LINEWORK
 62
     7
370
    30
100
AcDbCircle
 10
141.0653711340187
 20
69.52229627908832
 30
0.0
 40
3.858932812500603
100
AcDbArc
 50
179.0883918675777
 51
229.8694558705647
  0
ARC
  5
50C
330
2
100
AcDbEntity
  8
LINEWORK
 62
     7
370
    30
100
AcDbCircle
 10
141.0643985064921
 20
69.52185345919997
 30
0.0
 40
3.857967380510689
100
AcDbArc
 50
179.0815864401029
 51
229.8762612980302
  0
ARC
  5
50D
330
2
100
AcDbEntity
  8
LINEWORK
 62
     7
370
    30
100
AcDbCircle
 10
136.8851997834608
 20
64.84617614528736
 30
0.0
 40
1.725539062499979
100
AcDbArc
 50
305.1040931533572
 51
335.284764662113
  0
ARC
  5
50E
330
2
100
AcDbEntity
  8
LINEWORK
 62
     7
370
    30
100
AcDbCircle
 10
136.8889699318715
 20
64.84303435494496
 30
0.0
 40
1.720801135514404
100
AcDbArc
 50
305.0615521464798
 51
335.3273056689872
  0
ARC
  5
50F
330
2
100
AcDbEntity
  8
LINEWORK
 62
     7
370
    30
100
AcDbCircle
 10
110.8205694399415
 20
76.07631113191041
 30
0.0
 40
27.63999843750035
100
AcDbArc
 50
355.9027944114711
 51
1.369350525323726
  0
ARC
  5
510
330
2
100
AcDbEntity
  8
LINEWORK
 62
     7
370
    30
100
AcDbCircle
 10
110.8259492858373
 20
76.07618304034156
 30
0.0
 40
27.63462319024747
100
AcDbArc
 50
355.9022623541395
 51
1.369882582655912
  0
ARC
  5
511
330
2
100
AcDbEntity
  8
LINEWORK
 62
     7
370
    30
100
AcDbCircle
 10
136.1625373633344
 20
74.12496557325119
 30
0.0
 40
2.227514062500199
100
AcDbArc
 50
332.5319642964298
 51
359.3955487677153
  0
ARC
  5
512
330
2
100
AcDbEntity
  8
LINEWORK
 62
     7
370
    30
100
AcDbCircle
 10
136.1624134084342
 20
74.12499656197621
 30
0.0
 40
2.22763833761492
100
AcDbArc
 50
332.532727661389
 51
359.3947854027546
  0
LINE
  5
513
330
2
100
AcDbEntity
  8
LINEWORK
 62
     7
370
    30
100
AcDbLine
 10
138.3271805959341
 20
76.86232898385117
 30
0.0
 11
138.4526743459341
 21
76.73683523385114
 31
0.0
  0
LINE
  5
514
330
2
100
AcDbEntity
  8
LINEWORK
 62
     7
370
    30
100
AcDbLine
 10
138.3271805959341
 20
76.86232898385117
 30
0.0
 11
138.4526743459341
 21
76.73683523385114
 31
0.0
  0
ARC
  5
515
330
2
100
AcDbEntity
  8
LINEWORK
 62
     7
370
    30
100
AcDbCircle
 10
137.4260472101541
 20
79.37220398385114
 30
0.0
 40
1.098070312499993
100
AcDbArc
 50
325.1500954209564
 51
34.84990457904352
  0
ARC
  5
516
330
2
100
AcDbEntity
  8
LINEWORK
 62
     7
370
    30
100
AcDbCircle
 10
137.4173509084341
 20
79.37220398385114
 30
0.0
 40
1.105218119867257
100
AcDbArc
 50
325.4077113124903
 51
34.59228868750958
  0
ARC
  5
517
330
2
100
AcDbEntity
  8
LINEWORK
 62
     7
370
    30
100
AcDbCircle
 10
141.3220520905447
 20
78.18001335885117
 30
0.0
 40
0.7529625000000308
100
AcDbArc
 50
311.4096221092697
 51
48.59037789073025
  0
ARC
  5
518
330
2
100
AcDbEntity
  8
LINEWORK
 62
     7
370
    30
100
AcDbCircle
 10
141.310271611559
 20
78.18001335885117
 30
0.0
 40
0.760805859375
100
AcDbArc
 50
312.0750220508427
 51
47.9249779491573
  0
ARC
  5
519
330
2
100
AcDbEntity
  8
LINEWORK
 62
     7
370
    30
100
AcDbCircle
 10
169.3267011269267
 20
76.07631113191041
 30
0.0
 40
27.63999843750035
100
AcDbArc
 50
178.6306494746762
 51
184.0972055885288
  0
ARC
  5
51A
330
2
100
AcDbEntity
  8
LINEWORK
 62
     7
370
    30
100
AcDbCircle
 10
169.3213212810308
 20
76.07618304034156
 30
0.0
 40
27.63462319024747
100
AcDbArc
 50
178.630117417344
 51
184.0977376458605
  0
ARC
  5
51B
330
2
100
AcDbEntity
  8
LINEWORK
 62
     7
370
    30
100
AcDbCircle
 10
143.9847332035339
 20
74.12496557325119
 30
0.0
 40
2.22751406250017
100
AcDbArc
 50
180.6044512322847
 51
207.4680357035701
  0
ARC
  5
51C
330
2
100
AcDbEntity
  8
LINEWORK
 62
     7
370
    30
100
AcDbCircle
 10
143.9848571584341
 20
74.12499656197621
 30
0.0
 40
2.22763833761492
100
AcDbArc
 50
180.6052145972454
 51
207.467272338611
  0
LINE
  5
51D
330
2
100
AcDbEntity
  8
LINEWORK
 62
     7
370
    30
100
AcDbLine
 10
141.820089970934
 20
76.86232898385117
 30
0.0
 11
141.820089970934
 21
77.61529148385114
 31
0.0
  0
LINE
  5
51E
330
2
100
AcDbEntity
  8
LINEWORK
 62
     7
370
    30
100
AcDbLine
 10
141.820089970934
 20
76.86232898385117
 30
0.0
 11
141.820089970934
 21
77.61529148385114
 31
0.0
  0
LINE
  5
51F
330
2
100
AcDbEntity
  8
LINEWORK
 62
     7
370
    30
100
AcDbLine
 10
141.820089970934
 20
76.86232898385117
 30
0.0
 11
141.694596220934
 21
76.73683523385114
 31
0.0
  0
LINE
  5
520
330
2
100
AcDbEntity
  8
LINEWORK
 62
     7
370
    30
100
AcDbLine
 10
141.820089970934
 20
76.86232898385117
 30
0.0
 11
141.694596220934
 21
76.73683523385114
 31
0.0
  0
LINE
  5
521
330
2
100
AcDbEntity
  8
LINEWORK
 62
     7
370
    30
100
AcDbLine
 10
141.694596220934
 20
76.73683523385125
 30
0.0
 11
140.0736352834341
 21
76.73683523385114
 31
0.0
  0
LINE
  5
522
330
2
100
AcDbEntity
  8
LINEWORK
 62
     7
370
    30
100
AcDbLine
 10
140.0736352834341
 20
76.86232898385117
 30
0.0
 11
141.820089970934
 21
76.86232898385117
 31
0.0
  0
LINE
  5
523
330
2
100
AcDbEntity
  8
LINEWORK
 62
     7
370
    30
100
AcDbLine
 10
140.0736352834341
 20
76.73683523385114
 30
0.0
 11
141.694596220934
 21
76.73683523385114
 31
0.0
  0
LINE
  5
524
330
2
100
AcDbEntity
  8
LINEWORK
 62
     7
370
    30
100
AcDbLine
 10
141.820089970934
 20
76.86232898385117
 30
0.0
 11
140.0736352834341
 21
76.86232898385117
 31
0.0
  0
LINE
  5
525
330
2
100
AcDbEntity
  8
LINEWORK
 62
     7
370
    30
100
AcDbLine
 10
141.820089970934
 20
77.61529148385114
 30
0.0
 11
140.0736352834341
 21
77.61529148385114
 31
0.0
  0
LINE
  5
526
330
2
100
AcDbEntity
  8
LINEWORK
 62
     7
370
    30
100
AcDbLine
 10
140.0736352834341
 20
77.61529148385114
 30
0.0
 11
141.820089970934
 21
77.61529148385114
 31
0.0
  0
LINE
  5
527
330
2
100
AcDbEntity
  8
LINEWORK
 62
     7
370
    30
100
AcDbLine
 10
140.0736352834341
 20
79.99967273385107
 30
0.0
 11
141.820089970934
 21
79.99967273385107
 31
0.0
  0
LINE
  5
528
330
2
100
AcDbEntity
  8
LINEWORK
 62
     7
370
    30
100
AcDbLine
 10
140.0736352834341
 20
79.99967273385107
 30
0.0
 11
141.820089970934
 21
79.99967273385107
 31
0.0
  0
LINE
  5
529
330
2
100
AcDbEntity
  8
LINEWORK
 62
     7
370
    30
100
AcDbLine
 10
140.0736352834341
 20
78.7447352338512
 30
0.0
 11
141.820089970934
 21
78.7447352338512
 31
0.0
  0
ARC
  5
52A
330
2
100
AcDbEntity
  8
LINEWORK
 62
     7
370
    30
100
AcDbCircle
 10
142.7212233567141
 20
79.37220398385114
 30
0.0
 40
1.09807031250002
100
AcDbArc
 50
145.1500954209564
 51
214.8499045790435
  0
ARC
  5
52B
330
2
100
AcDbEntity
  8
LINEWORK
 62
     7
370
    30
100
AcDbCircle
 10
142.7299196584342
 20
79.37220398385114
 30
0.0
 40
1.105218119867257
100
AcDbArc
 50
145.4077113124904
 51
214.5922886875095
  0
ARC
  5
52C
330
2
100
AcDbEntity
  8
LINEWORK
 62
     7
370
    30
100
AcDbCircle
 10
142.0394225180702
 20
62.09016788018175
 30
0.0
 40
0.752962499999997
100
AcDbArc
 50
298.202947342553
 51
72.18591047291477
  0
ARC
  5
52D
330
2
100
AcDbEntity
  8
LINEWORK
 62
     7
370
    30
100
AcDbCircle
 10
142.005578540013
 20
62.08709115490376
 30
0.0
 40
0.7668837767419853
100
AcDbArc
 50
300.5406048496821
 51
69.84825296578716
  0
LINE
  5
52E
330
2
100
AcDbEntity
  8
LINEWORK
 62
     7
370
    30
100
AcDbLine
 10
142.3952696584341
 20
61.17561023385121
 30
0.0
 11
140.0736352834341
 21
61.17561023385121
 31
0.0
  0
LINE
  5
52F
330
2
100
AcDbEntity
  8
LINEWORK
 62
     7
370
    30
100
AcDbLine
 10
142.3952696584341
 20
61.42659773385116
 30
0.0
 11
140.0736352834341
 21
61.42659773385116
 31
0.0
  0
LINE
  5
530
330
2
100
AcDbEntity
  8
LINEWORK
 62
     7
370
    30
100
AcDbLine
 10
140.0736352834341
 20
61.17561023385121
 30
0.0
 11
142.3952696584341
 21
61.17561023385121
 31
0.0
  0
LINE
  5
531
330
2
100
AcDbEntity
  8
LINEWORK
 62
     7
370
    30
100
AcDbLine
 10
140.0736352834341
 20
61.42659773385116
 30
0.0
 11
142.3952696584341
 21
61.42659773385116
 31
0.0
  0
LINE
  5
532
330
2
100
AcDbEntity
  8
LINEWORK
 62
     7
370
    30
100
AcDbLine
 10
142.9599915334341
 20
61.05011648385119
 30
0.0
 11
140.0736352834341
 21
61.05011648385119
 31
0.0
  0
LINE
  5
533
330
2
100
AcDbEntity
  8
LINEWORK
 62
     7
370
    30
100
AcDbLine
 10
140.0736352834341
 20
61.05011648385119
 30
0.0
 11
142.9599915334341
 21
61.05011648385119
 31
0.0
  0
LINE
  5
534
330
2
100
AcDbEntity
  8
LINEWORK
  6
DASHED
 62
     7
 48
2.0
370
    30
100
AcDbLine
 10
140.3236352834342
 20
60.35024148385116
 30
0.0
 11
139.8236352834342
 21
60.35024148385116
 31
0.0
  0
LINE
  5
535
330
2
100
AcDbEntity
  8
LINEWORK
  6
DASHED
 62
     7
 48
2.0
370
    30
100
AcDbLine
 10
140.3236352834342
 20
60.35024148385116
 30
0.0
 11
139.8236352834342
 21
60.35024148385116
 31
0.0
  0
LINE
  5
536
330
2
100
AcDbEntity
  8
LINEWORK
 62
     7
370
    30
100
AcDbLine
 10
142.3952696584341
 20
61.42659773385116
 30
0.0
 11
142.3952696584341
 21
61.17561023385121
 31
0.0
  0
LINE
  5
537
330
2
100
AcDbEntity
  8
LINEWORK
 62
     7
370
    30
100
AcDbLine
 10
142.3952696584341
 20
61.17561023385121
 30
0.0
 11
142.3952696584341
 21
61.42659773385116
 31
0.0
  0
LWPOLYLINE
  5
538
330
2
100
AcDbEntity
  8
LINEWORK
 62
     7
370
    30
100
AcDbPolyline
 90
        2
 70
     1
 43
0.0
 10
142.3952696584341
 20
61.17561023385121
 10
142.9599915334341
 20
61.05011648385119
  0
ARC
  5
539
330
2
100
AcDbEntity
  8
LINEWORK
 62
     7
370
    30
100
AcDbCircle
 10
139.0818994328496
 20
69.52229627908832
 30
0.0
 40
3.858932812500603
100
AcDbArc
 50
310.1305441294352
 51
0.9116081324222738
  0
ARC
  5
53A
330
2
100
AcDbEntity
  8
LINEWORK
 62
     7
370
    30
100
AcDbCircle
 10
139.082872060376
 20
69.52185345919997
 30
0.0
 40
3.857967380510689
100
AcDbArc
 50
310.1237387019697
 51
0.9184135598970037
  0
ARC
  5
53B
330
2
100
AcDbEntity
  8
LINEWORK
 62
     7
370
    30
100
AcDbCircle
 10
141.2476204015092
 20
66.06986648385339
 30
0.0
 40
0.5960953125000341
100
AcDbArc
 50
302.6368975040358
 51
57.36310249606355
  0
ARC
  5
53C
330
2
100
AcDbEntity
  8
LINEWORK
 62
     7
370
    30
100
AcDbCircle
 10
141.2640829396841
 20
66.06986648385111
 30
0.0
 40
0.587380468750003
100
AcDbArc
 50
301.2844929144161
 51
58.71550708558374
  0
LINE
  5
53D
330
2
100
AcDbEntity
  8
LINEWORK
 62
     7
370
    30
100
AcDbLine
 10
142.2697759084341
 20
63.43449773385123
 30
0.0
 11
140.0736352834341
 21
63.43449773385123
 31
0.0
  0
LINE
  5
53E
330
2
100
AcDbEntity
  8
LINEWORK
 62
     7
370
    30
100
AcDbLine
 10
140.0736352834341
 20
63.43449773385112
 30
0.0
 11
142.2697759084341
 21
63.43449773385112
 31
0.0
  0
ARC
  5
53F
330
2
100
AcDbEntity
  8
LINEWORK
 62
     7
370
    30
100
AcDbCircle
 10
143.2620707834074
 20
64.84617614528736
 30
0.0
 40
1.725539062499889
100
AcDbArc
 50
204.715235337887
 51
234.8959068466427
  0
ARC
  5
540
330
2
100
AcDbEntity
  8
LINEWORK
 62
     7
370
    30
100
AcDbCircle
 10
143.2583006349966
 20
64.84303435494496
 30
0.0
 40
1.720801135514404
100
AcDbArc
 50
204.6726943310067
 51
234.9384478535201
  0
LINE
  5
541
330
2
100
AcDbEntity
  8
LINEWORK
 62
     7
370
    30
100
AcDbLine
 10
140.0736352834341
 20
62.80702898385118
 30
0.0
 11
142.2697759084342
 21
62.80702898385118
 31
0.0
  0
LINE
  5
542
330
2
100
AcDbEntity
  8
LINEWORK
 62
     7
370
    30
100
AcDbLine
 10
140.0736352834341
 20
62.80702898385107
 30
0.0
 11
142.2697759084341
 21
62.80702898385107
 31
0.0
  0
LINE
  5
543
330
2
100
AcDbEntity
  8
LINEWORK
 62
     7
370
    30
100
AcDbLine
 10
141.5691024709342
 20
65.56789148385121
 30
0.0
 11
140.0736352834341
 21
65.56789148385121
 31
0.0
  0
LINE
  5
544
330
2
100
AcDbEntity
  8
LINEWORK
 62
     7
370
    30
100
AcDbLine
 10
140.0736352834341
 20
65.56789148385121
 30
0.0
 11
141.5691024709342
 21
65.56789148385121
 31
0.0
  0
ARC
  5
545
330
2
100
AcDbEntity
  8
LINEWORK
 62
     7
370
    30
100
AcDbCircle
 10
144.285990921574
 20
65.07709734097182
 30
0.0
 40
2.760862499999871
100
AcDbArc
 50
169.7601969736183
 51
200.1792844825406
  0
ARC
  5
546
330
2
100
AcDbEntity
  8
LINEWORK
 62
     7
370
    30
100
AcDbCircle
 10
144.2895330057052
 20
65.07740534828769
 30
0.0
 40
2.764293570461533
100
AcDbArc
 50
169.7795306324382
 51
200.159950823787
  0
LINE
  5
547
330
2
100
AcDbEntity
  8
LINEWORK
 62
     7
370
    30
100
AcDbLine
 10
142.2697759084342
 20
62.80702898385118
 30
0.0
 11
142.2697759084341
 21
63.43449773385123
 31
0.0
  0
LINE
  5
548
330
2
100
AcDbEntity
  8
LINEWORK
 62
     7
370
    30
100
AcDbLine
 10
142.2697759084341
 20
63.43449773385112
 30
0.0
 11
142.2697759084341
 21
62.80702898385107
 31
0.0
  0
LINE
  5
549
330
2
100
AcDbEntity
  8
LINEWORK
 62
     7
370
    30
100
AcDbLine
 10
140.0736352834341
 20
66.57184148385124
 30
0.0
 11
141.5691024709342
 21
66.57184148385124
 31
0.0
  0
LINE
  5
54A
330
2
100
AcDbEntity
  8
LINEWORK
 62
     7
370
    30
100
AcDbLine
 10
140.0736352834341
 20
66.57184148385102
 30
0.0
 11
141.5691024709342
 21
66.57184148385102
 31
0.0
  0
ARC
  5
54B
330
2
100
AcDbEntity
  8
LINEWORK
 62
     7
370
    30
100
AcDbCircle
 10
137.6113485297204
 20
69.80247170758696
 30
0.0
 40
5.333484374999923
100
AcDbArc
 50
357.649060045261
 51
19.59993238281736
  0
ARC
  5
54C
330
2
100
AcDbEntity
  8
LINEWORK
 62
     7
370
    30
100
AcDbCircle
 10
137.614820269242
 20
69.80299827717818
 30
0.0
 40
5.330037199451427
100
AcDbArc
 50
357.6418735319813
 51
19.60711889602133
  0
ARC
  5
54D
330
2
100
AcDbEntity
  8
LINEWORK
 62
     7
370
    30
100
AcDbCircle
 10
128.2966153575268
 20
66.50061664494535
 30
0.0
 40
15.21611718749983
100
AcDbArc
 50
19.54686554134448
 51
25.6928643595911
  0
LINE
  5
54E
330
2
100
AcDbEntity
  8
LINEWORK
  6
PHANTOM
 62
     7
 48
4.0
370
    30
100
AcDbLine
 10
133.9486352834333
 20
89.59024148385095
 30
0.0
 11
146.1986352834343
 21
89.59024148385095
 31
0.0
  0
LINE
  5
54F
330
2
100
AcDbEntity
  8
LINEWORK
 62
     7
370
    30
100
AcDbLine
 10
136.6986352834337
 20
84.91524148385099
 30
0.0
 11
143.4486352834337
 21
84.91524148385099
 31
0.0
  0
LINE
  5
550
330
2
100
AcDbEntity
  8
LINEWORK
 62
     7
370
    30
100
AcDbLine
 10
133.9486352834333
 20
88.7652414838509
 30
0.0
 11
140.0736352834337
 21
89.21524148385094
 31
0.0
  0
LINE
  5
551
330
2
100
AcDbEntity
  8
LINEWORK
 62
     7
370
    30
100
AcDbLine
 10
142.9599915334341
 20
84.5402414838511
 30
0.0
 11
137.1872790334341
 21
84.5402414838511
 31
0.0
  0
LINE
  5
552
330
2
100
AcDbEntity
  8
LINEWORK
 62
     7
370
    30
100
AcDbLine
 10
138.3271805959341
 20
80.62714148385111
 30
0.0
 11
140.0736352834341
 21
80.62714148385111
 31
0.0
  0
LINE
  5
553
330
2
100
AcDbEntity
  8
LINEWORK
 62
     7
370
    30
100
AcDbLine
 10
140.0736352834341
 20
80.62714148385111
 30
0.0
 11
138.3271805959341
 21
80.62714148385111
 31
0.0
  0
LINE
  5
554
330
2
100
AcDbEntity
  8
LINEWORK
 62
     7
370
    30
100
AcDbLine
 10
140.0736352834341
 20
82.25856023385119
 30
0.0
 11
137.2604837209342
 21
82.25856023385119
 31
0.0
  0
LINE
  5
555
330
2
100
AcDbEntity
  8
LINEWORK
 62
     7
370
    30
100
AcDbLine
 10
140.0736352834341
 20
82.38405398385111
 30
0.0
 11
137.1872790334341
 21
82.38405398385111
 31
0.0
  0
LINE
  5
556
330
2
100
AcDbEntity
  8
LINEWORK
 62
     7
370
    30
100
AcDbLine
 10
140.0736352834341
 20
82.25856023385109
 30
0.0
 11
137.2604837209342
 21
82.25856023385109
 31
0.0
  0
LINE
  5
557
330
2
100
AcDbEntity
  8
LINEWORK
 62
     7
370
    30
100
AcDbLine
 10
140.0736352834341
 20
82.38405398385111
 30
0.0
 11
137.1872790334341
 21
82.38405398385111
 31
0.0
  0
LINE
  5
558
330
2
100
AcDbEntity
  8
LINEWORK
 62
     7
370
    30
100
AcDbLine
 10
135.5986352834332
 20
85.46524148385094
 30
0.0
 11
136.1486352834333
 21
85.46524148385094
 31
0.0
  0
ARC
  5
559
330
2
100
AcDbEntity
  8
LINEWORK
370
    30
100
AcDbCircle
 10
133.5783447795306
 20
87.09926460768906
 30
0.0
 40
0.7949809888151388
100
AcDbArc
 50
6.118045468722999
 51
62.23893912947431
  0
LINE
  5
55A
330
2
100
AcDbEntity
  8
LINEWORK
370
    30
100
AcDbLine
 10
133.9486352834367
 20
87.80274148385093
 30
0.0
 11
133.9486352834333
 21
88.7652414838509
 31
0.0
  0
ARC
  5
55B
330
2
100
AcDbEntity
  8
LINEWORK
370
    30
100
AcDbCircle
 10
135.6617412637987
 20
87.31307966591396
 30
0.0
 40
1.299371506374636
100
AcDbArc
 50
185.701547859386
 51
267.2162470626178
  0
LINE
  5
55C
330
2
100
AcDbEntity
  8
LINEWORK
370
    30
100
AcDbLine
 10
135.5986352834332
 20
85.46524148385094
 30
0.0
 11
135.5986352834332
 21
86.0152414838509
 31
0.0
  0
ARC
  5
55D
330
2
100
AcDbEntity
  8
LINEWORK
370
    30
100
AcDbCircle
 10
136.1486352834335
 20
84.91524148385076
 30
0.0
 40
0.5500000000002502
100
AcDbArc
 50
0.0000000000260551
 51
90.00000000002605
  0
INSERT
  5
55E
330
2
100
AcDbEntity
  8
LINEWORK
 62
     7
370
    30
100
AcDbBlockReference
 66
     1
  2
PROFILE LOGO
 10
135.5738849911367
 20
87.71460152933105
 30
0.0
 41
0.7562500000000228
 42
0.7562500000000228
 43
0.756250000000001
  0
ATTRIB
  5
55F
330
55E
100
AcDbEntity
  8
A1
 62
    22
100
AcDbText
 10
135.7890729759461
 20
86.44538847859564
 30
0.0
 40
0.1608508300781252
  1
0175
 72
     1
 11
136.0867211101303
 21
86.44538847859564
 31
0.0
100
AcDbAttribute
  2
XXXX
 70
     0
  0
SEQEND
  5
560
330
55E
100
AcDbEntity
  8
A1
 62
     7
  0
POINT
  5
561
330
2
100
AcDbEntity
  8
LINEWORK
 62
     7
370
    30
100
AcDbPoint
 10
137.1872790334341
 20
84.64294148385112
 30
0.0
  0
POINT
  5
562
330
2
100
AcDbEntity
  8
LINEWORK
 62
     7
370
    30
100
AcDbPoint
 10
137.1872790334341
 20
84.64294148385112
 30
0.0
  0
INSERT
  5
563
330
2
100
AcDbEntity
  8
LINEWORK
 62
     7
370
    30
100
AcDbBlockReference
 66
     1
  2
PROFILE LOGO
 10
137.3866201577495
 20
84.3673921693446
 30
0.0
 41
0.7000000000000455
 42
0.7000000000000455
 43
0.7
  0
ATTRIB
  5
564
330
563
100
AcDbEntity
  8
A1
 62
    22
100
AcDbText
 10
137.5858024246806
 20
83.19258339511009
 30
0.0
 40
0.14888671875
  1
0995
 72
     1
 11
137.8613114414462
 21
83.19258339511009
 31
0.0
100
AcDbAttribute
  2
XXXX
 70
     0
  0
SEQEND
  5
565
330
563
100
AcDbEntity
  8
A1
 62
     7
  0
LINE
  5
566
330
2
100
AcDbEntity
  8
LINEWORK
 62
     7
370
    30
100
AcDbLine
 10
137.1872790334341
 20
82.38405398385111
 30
0.0
 11
137.2604837209342
 21
82.25856023385119
 31
0.0
  0
LINE
  5
567
330
2
100
AcDbEntity
  8
LINEWORK
 62
     7
370
    30
100
AcDbLine
 10
137.1872790334341
 20
82.38405398385111
 30
0.0
 11
137.2604837209342
 21
82.25856023385109
 31
0.0
  0
LINE
  5
568
330
2
100
AcDbEntity
  8
LINEWORK
 62
     7
370
    30
100
AcDbLine
 10
137.1872790334341
 20
84.5402414838511
 30
0.0
 11
137.1872790334341
 21
82.38405398385111
 31
0.0
  0
LINE
  5
569
330
2
100
AcDbEntity
  8
LINEWORK
 62
     7
370
    30
100
AcDbLine
 10
137.1872790334341
 20
82.38405398385111
 30
0.0
 11
137.1872790334341
 21
84.5402414838511
 31
0.0
  0
LINE
  5
56A
330
2
100
AcDbEntity
  8
LINEWORK
 62
     7
370
    30
100
AcDbLine
 10
143.9986352834342
 20
85.46524148385094
 30
0.0
 11
144.5486352834342
 21
85.46524148385094
 31
0.0
  0
LINE
  5
56B
330
2
100
AcDbEntity
  8
LINEWORK
 62
     7
370
    30
100
AcDbLine
 10
140.0736352834337
 20
89.21524148385094
 30
0.0
 11
146.1986352834343
 21
88.7652414838509
 31
0.0
  0
LINE
  5
56C
330
2
100
AcDbEntity
  8
LINEWORK
 62
     7
370
    30
100
AcDbLine
 10
140.0736352834337
 20
89.21524148385094
 30
0.0
 11
140.0736352834337
 21
89.21524148385094
 31
0.0
  0
ARC
  5
56D
330
2
100
AcDbEntity
  8
LINEWORK
370
    30
100
AcDbCircle
 10
146.5689257873368
 20
87.09926460768906
 30
0.0
 40
0.7949809888151388
100
AcDbArc
 50
117.7610608705256
 51
173.8819545312769
  0
ARC
  5
56E
330
2
100
AcDbEntity
  8
LINEWORK
370
    30
100
AcDbCircle
 10
143.998635283434
 20
84.91524148385076
 30
0.0
 40
0.5500000000002502
100
AcDbArc
 50
89.99999999997395
 51
179.9999999999739
  0
LINE
  5
56F
330
2
100
AcDbEntity
  8
LINEWORK
370
    30
100
AcDbLine
 10
144.5486352834342
 20
85.46524148385094
 30
0.0
 11
144.5486352834342
 21
86.0152414838509
 31
0.0
  0
ARC
  5
570
330
2
100
AcDbEntity
  8
LINEWORK
370
    30
100
AcDbCircle
 10
144.4855293030689
 20
87.31307966591396
 30
0.0
 40
1.299371506374636
100
AcDbArc
 50
272.7837529373822
 51
354.2984521406139
  0
LINE
  5
571
330
2
100
AcDbEntity
  8
LINEWORK
370
    30
100
AcDbLine
 10
146.1986352834308
 20
87.80274148385093
 30
0.0
 11
146.1986352834343
 21
88.7652414838509
 31
0.0
  0
LINE
  5
572
330
2
100
AcDbEntity
  8
LINEWORK
  6
DASHED
 62
     7
 48
2.0
370
    30
100
AcDbLine
 10
139.8236352834342
 20
86.73024148385241
 30
0.0
 11
140.3236352834342
 21
86.73024148385241
 31
0.0
  0
POINT
  5
573
330
2
100
AcDbEntity
  8
LINEWORK
 62
     1
370
    30
100
AcDbPoint
 10
142.9599915334341
 20
84.64294148385112
 30
0.0
  0
LINE
  5
574
330
2
100
AcDbEntity
  8
LINEWORK
 62
     7
370
    30
100
AcDbLine
 10
140.0736352834341
 20
82.25856023385109
 30
0.0
 11
142.8867868459342
 21
82.25856023385119
 31
0.0
  0
LINE
  5
575
330
2
100
AcDbEntity
  8
LINEWORK
 62
     7
370
    30
100
AcDbLine
 10
142.8867868459342
 20
82.25856023385119
 30
0.0
 11
140.0736352834341
 21
82.25856023385109
 31
0.0
  0
LINE
  5
576
330
2
100
AcDbEntity
  8
LINEWORK
 62
     7
370
    30
100
AcDbLine
 10
140.0736352834341
 20
82.38405398385111
 30
0.0
 11
142.9599915334341
 21
82.38405398385111
 31
0.0
  0
LINE
  5
577
330
2
100
AcDbEntity
  8
LINEWORK
 62
     7
370
    30
100
AcDbLine
 10
140.0736352834341
 20
82.38405398385111
 30
0.0
 11
142.9599915334341
 21
82.38405398385111
 31
0.0
  0
LINE
  5
578
330
2
100
AcDbEntity
  8
LINEWORK
 62
     7
370
    30
100
AcDbLine
 10
140.0736352834341
 20
80.62714148385111
 30
0.0
 11
141.820089970934
 21
80.62714148385111
 31
0.0
  0
LINE
  5
579
330
2
100
AcDbEntity
  8
LINEWORK
 62
     7
370
    30
100
AcDbLine
 10
141.820089970934
 20
80.62714148385111
 30
0.0
 11
140.0736352834341
 21
80.62714148385111
 31
0.0
  0
LINE
  5
57A
330
2
100
AcDbEntity
  8
LINEWORK
  6
DASHED
 62
     7
 48
2.0
370
    30
100
AcDbLine
 10
140.3236352834342
 20
82.73024148385241
 30
0.0
 11
139.8236352834342
 21
82.73024148385241
 31
0.0
  0
LINE
  5
57B
330
2
100
AcDbEntity
  8
LINEWORK
  6
DASHED
 62
     7
 48
2.0
370
    30
100
AcDbLine
 10
140.3236352834342
 20
82.73024148385241
 30
0.0
 11
139.8236352834342
 21
82.73024148385241
 31
0.0
  0
LINE
  5
57C
330
2
100
AcDbEntity
  8
LINEWORK
 62
     7
370
    30
100
AcDbLine
 10
142.9599915334341
 20
82.38405398385111
 30
0.0
 11
142.8867868459342
 21
82.25856023385119
 31
0.0
  0
LINE
  5
57D
330
2
100
AcDbEntity
  8
LINEWORK
 62
     7
370
    30
100
AcDbLine
 10
142.9599915334341
 20
82.38405398385111
 30
0.0
 11
142.8867868459342
 21
82.25856023385109
 31
0.0
  0
LINE
  5
57E
330
2
100
AcDbEntity
  8
LINEWORK
  6
DASHED
 62
     7
 48
2.0
370
    30
100
AcDbLine
 10
140.185645307195
 20
82.73024148385241
 30
0.0
 11
139.8236352834342
 21
82.73024148385241
 31
0.0
  0
LINE
  5
57F
330
2
100
AcDbEntity
  8
LINEWORK
  6
DASHED
 62
     7
 48
2.0
370
    30
100
AcDbLine
 10
139.8236352834342
 20
82.73024148385241
 30
0.0
 11
139.8236352834342
 21
86.73024148385241
 31
0.0
  0
LINE
  5
580
330
2
100
AcDbEntity
  8
LINEWORK
  6
DASHED
 62
     7
 48
2.0
370
    30
100
AcDbLine
 10
140.3236352834342
 20
86.73024148385241
 30
0.0
 11
140.3236352834342
 21
82.73024148385241
 31
0.0
  0
LINE
  5
581
330
2
100
AcDbEntity
  8
LINEWORK
 62
     7
370
    30
100
AcDbLine
 10
142.9599915334341
 20
84.5402414838511
 30
0.0
 11
142.9599915334341
 21
82.38405398385111
 31
0.0
  0
LINE
  5
582
330
2
100
AcDbEntity
  8
LINEWORK
 62
     7
370
    30
100
AcDbLine
 10
142.9599915334341
 20
82.38405398385111
 30
0.0
 11
142.9599915334341
 21
84.5402414838511
 31
0.0
  0
ATTDEF
  5
583
330
2
100
AcDbEntity
  8
leaders
 62
     1
370
    30
100
AcDbText
 10
120.8653990286327
 20
113.4357786130328
 30
0.0
 40
3.0
  1

100
AcDbAttributeDefinition
  3
ADD LINK NUMBER (WMF)
  2
TSB004
 70
     0
  0
MTEXT
  5
584
330
2
100
AcDbEntity
  8
leaders
 62
     1
370
    30
100
AcDbMText
 10
120.9818966215577
 20
111.1939529454884
 30
0.0
 40
3.0
 41
0.0
 71
     1
 72
     1
  1
TannerStone
 73
     1
 44
1.0
1001
ACAD
1000
MTEXTBEGIN
1070
    73
1070
     1
1070
    44
1040
1.0
1070
    74
1070
     0
1000
MTEXTEND
1000
MTEXTBEGIN
1070
    73
1070
     1
1070
    44
1040
1.0
1070
    74
1070
     0
1000
MTEXTEND
1000
MTEXTBEGIN
1070
    73
1070
     1
1070
    44
1040
1.0
1070
    74
1070
     0
1000
MTEXTEND
1000
MTEXTBEGIN
1070
    73
1070
     1
1070
    44
1040
1.0
1070
    74
1070
     0
1000
MTEXTEND
1000
MTEXTBEGIN
1070
    73
1070
     1
1070
    44
1040
1.0
1070
    74
1070
     0
1000
MTEXTEND
1000
MTEXTBEGIN
1070
    73
1070
     1
1070
    44
1040
1.0
1070
    74
1070
     0
1000
MTEXTEND
1000
MTEXTBEGIN
1070
    73
1070
     1
1070
    44
1040
1.0
1070
    74
1070
     0
1000
MTEXTEND
  0
MTEXT
  5
585
330
2
100
AcDbEntity
  8
leaders
 62
     1
370
    30
100
AcDbMText
 10
121.2151238436028
 20
106.6424727465049
 30
0.0
 40
2.216024999999999
 41
0.0
 71
     1
 72
     1
  1
1-800-789-4841
 73
     1
 44
1.0
1001
ACAD
1000
MTEXTBEGIN
1070
    73
1070
     1
1070
    44
1040
1.0
1070
    74
1070
     0
1000
MTEXTEND
1000
MTEXTBEGIN
1070
    73
1070
     1
1070
    44
1040
1.0
1070
    74
1070
     0
1000
MTEXTEND
1000
MTEXTBEGIN
1070
    73
1070
     1
1070
    44
1040
1.0
1070
    74
1070
     0
1000
MTEXTEND
1000
MTEXTBEGIN
1070
    73
1070
     1
1070
    44
1040
1.0
1070
    74
1070
     0
1000
MTEXTEND
1000
MTEXTBEGIN
1070
    73
1070
     1
1070
    44
1040
1.0
1070
    74
1070
     0
1000
MTEXTEND
1000
MTEXTBEGIN
1070
    73
1070
     1
1070
    44
1040
1.0
1070
    74
1070
     0
1000
MTEXTEND
1000
MTEXTBEGIN
1070
    73
1070
     1
1070
    44
1040
1.0
1070
    74
1070
     0
1000
MTEXTEND
  0
LINE
  5
586
330
2
100
AcDbEntity
  8
leaders
 62
     1
370
    30
100
AcDbLine
 10
107.9657821867721
 20
112.2874713893969
 30
0.0
 11
146.7271042653622
 21
112.2874713893969
 31
0.0
  0
LINE
  5
587
330
2
100
AcDbEntity
  8
leaders
 62
     1
370
    30
100
AcDbLine
 10
119.4049079813994
 20
103.3241387340699
 30
0.0
 11
119.4049079813994
 21
116.9875000225482
 31
0.0
  0
DIMENSION
  5
679
330
2
100
AcDbEntity
  8
TEXT
 62
     7
370
    30
100
AcDbDimension
  2
*D6
 10
143.8836352834341
 20
45.41427383656321
 30
0.0
 11
156.226143141661
 21
45.41427383656321
 31
0.0
 70
   160
 71
     5
 42
-1.0
  3
STANDARD
100
AcDbAlignedDimension
 13
136.2636352834341
 23
54.16524148385099
 33
0.0
 14
143.8836352834341
 24
54.16524148385121
 34
0.0
100
AcDbRotatedDimension
1001
ACAD
1000
DSTYLE
1002
{
1070
   287
1070
     4
1070
    40
1040
2.399999999999999
1070
    73
1070
     1
1070
    74
1070
     1
1070
    77
1070
     0
1070
   147
1040
0.5
1070
   279
1070
     1
1070
   288
1070
     1
1070
   289
1070
     3
1002
}
  0
DIMENSION
  5
689
330
2
100
AcDbEntity
  8
TEXT
 62
     7
370
    30
100
AcDbDimension
  2
*D7
 10
133.9486352834333
 20
96.96852610310982
 30
0.0
 11
159.6753265902038
 21
96.96852610310982
 31
0.0
 70
   160
 71
     5
 42
-1.0
  3
STANDARD
100
AcDbAlignedDimension
 13
146.1986352834343
 23
88.7652414838509
 33
0.0
 14
133.9486352834333
 24
88.7652414838509
 34
0.0
100
AcDbRotatedDimension
1001
ACAD
1000
DSTYLE
1002
{
1070
   287
1070
     4
1070
    40
1040
2.399999999999999
1070
    73
1070
     1
1070
    74
1070
     1
1070
    77
1070
     0
1070
   147
1040
0.5
1070
   279
1070
     1
1070
   288
1070
     1
1070
   289
1070
     3
1002
}
  0
DIMENSION
  5
699
330
2
100
AcDbEntity
  8
TEXT
 62
     7
370
    30
100
AcDbDimension
  2
*D8
 10
151.9557249724346
 20
84.5402414838511
 30
0.0
 11
151.9557249724346
 21
71.35558561749525
 31
0.0
 70
   160
 71
     5
 42
-1.0
  3
STANDARD
100
AcDbAlignedDimension
 13
142.9599915334341
 23
58.54024148385111
 33
0.0
 14
142.9599915334341
 24
84.5402414838511
 34
0.0
 50
90.0
100
AcDbRotatedDimension
1001
ACAD
1000
DSTYLE
1002
{
1070
   287
1070
     4
1070
    40
1040
2.399999999999999
1070
    73
1070
     1
1070
    74
1070
     1
1070
    77
1070
     0
1070
   147
1040
0.5
1070
   279
1070
     1
1070
   288
1070
     1
1070
   289
1070
     3
1002
}
  0
ENDSEC
  0
SECTION
  2
OBJECTS
  0
DICTIONARY
  5
9
330
0
100
AcDbDictionary
281
     1
  3
ACAD_GROUP
350
23
  3
ACAD_LAYOUT
350
D
  3
ACAD_MLINESTYLE
350
24
  3
ACAD_PLOTSETTINGS
350
25
  3
ACAD_PLOTSTYLENAME
350
8
  0
DICTIONARY
  5
3
330
2
100
AcDbDictionary
280
     1
281
     1
  3
ACAD_LAYOUTSELFREF
360
7E4
  0
DICTIONARY
  5
F
330
E
100
AcDbDictionary
280
     1
281
     1
  3
ACAD_LAYOUTSELFREF
360
7E7
  0
DICTIONARY
  5
23
102
{ACAD_REACTORS
330
9
102
}
330
9
100
AcDbDictionary
281
     1
  0
DICTIONARY
  5
D
102
{ACAD_REACTORS
330
9
102
}
330
9
100
AcDbDictionary
281
     1
  3
Layout1
350
13
  3
Model
350
C
  0
DICTIONARY
  5
24
102
{ACAD_REACTORS
330
9
102
}
330
9
100
AcDbDictionary
281
     1
  3
STANDARD
350
27
  0
DICTIONARY
  5
25
102
{ACAD_REACTORS
330
9
102
}
330
9
100
AcDbDictionary
281
     1
  0
ACDBDICTIONARYWDFLT
  5
8
102
{ACAD_REACTORS
330
9
102
}
330
9
100
AcDbDictionary
281
     1
  3
Normal
350
7
100
AcDbDictionaryWithDefault
340
7
  0
XRECORD
  5
7E4
102
{ACAD_REACTORS
330
3
102
}
330
3
100
AcDbXrecord
280
     1
340
2
  0
XRECORD
  5
7E7
102
{ACAD_REACTORS
330
F
102
}
330
F
100
AcDbXrecord
280
     1
340
E
  0
LAYOUT
  5
13
102
{ACAD_REACTORS
330
D
102
}
330
D
100
AcDbPlotSettings
  1

  2
None
  4

  6

 40
0.0
 41
0.0
 42
0.0
 43
0.0
 44
0.0
 45
0.0
 46
0.0
 47
0.0
 48
0.0
 49
0.0
140
0.0
141
0.0
142
1.0
143
1.0
 70
   688
 72
     0
 73
     0
 74
     5
  7

 75
    16
147
1.0
148
0.0
149
0.0
100
AcDbLayout
  1
Layout1
 70
     1
 71
     1
 10
0.0
 20
0.0
 11
12.0
 21
9.0
 12
0.0
 22
0.0
 32
0.0
 14
1.000000000000000E+20
 24
1.000000000000000E+20
 34
1.000000000000000E+20
 15
-1.000000000000000E+20
 25
-1.000000000000000E+20
 35
-1.000000000000000E+20
146
0.0
 13
0.0
 23
0.0
 33
0.0
 16
1.0
 26
0.0
 36
0.0
 17
0.0
 27
1.0
 37
0.0
 76
     0
330
E
  0
LAYOUT
  5
C
102
{ACAD_REACTORS
330
D
102
}
330
D
100
AcDbPlotSettings
  1

  2
HP LaserJet 5
  4
Letter
  6

 40
7.143749713897705
 41
6.381738662719726
 42
7.14373779296875
 43
6.381744384765625
 44
215.8999938964843
 45
279.3999938964843
 46
0.0
 47
0.0
 48
768.9230197229257
 49
905.839725940649
140
1017.076999867801
141
1090.442077024031
142
1.0
143
16.74881492457436
 70
 11952
 72
     0
 73
     1
 74
     1
  7

 75
     0
147
0.0597057167628481
148
-67.65700033070022
149
-53.72932291113666
100
AcDbLayout
  1
Model
 70
     1
 71
     0
 10
0.0
 20
0.0
 11
12.0
 21
9.0
 12
0.0
 22
0.0
 32
0.0
 14
0.0
 24
0.0
 34
0.0
 15
0.0
 25
0.0
 35
0.0
146
0.0
 13
0.0
 23
0.0
 33
0.0
 16
1.0
 26
0.0
 36
0.0
 17
0.0
 27
1.0
 37
0.0
 76
     0
330
2
  0
MLINESTYLE
  5
27
102
{ACAD_REACTORS
330
24
102
}
330
24
100
AcDbMlineStyle
  2
STANDARD
 70
     0
  3

 62
   256
 51
90.0
 52
90.0
 71
     2
 49
0.5
 62
   256
  6
BYLAYER
 49
-0.5
 62
   256
  6
BYLAYER
  0
ACDBPLACEHOLDER
  5
7
102
{ACAD_REACTORS
330
8
102
}
330
8
  0
ENDSEC
  0
EOF
