  0
SECTION
  2
HEADER
  9
$ACADVER
  1
AC1015
  9
$ACADMAINTVER
 70
     6
  9
$DWGCODEPAGE
  3
ANSI_1252
  9
$INSBASE
 10
0.0
 20
0.0
 30
0.0
  9
$EXTMIN
 10
0.0
 20
0.0
 30
0.0
  9
$EXTMAX
 10
179.4347697609192
 20
133.4819628709288
 30
0.0
  9
$LIMMIN
 10
0.0
 20
0.0
  9
$LIMMAX
 10
12.0
 20
9.0
  9
$ORTHOMODE
 70
     1
  9
$REGENMODE
 70
     1
  9
$FILLMODE
 70
     1
  9
$QTEXTMODE
 70
     0
  9
$MIRRTEXT
 70
     0
  9
$LTSCALE
 40
1.0
  9
$ATTMODE
 70
     2
  9
$TEXTSIZE
 40
5.0
  9
$TRACEWID
 40
0.05
  9
$TEXTSTYLE
  7
STANDARD
  9
$CLAYER
  8
LINEWORK
  9
$CELTYPE
  6
BYLAYER
  9
$CECOLOR
 62
     7
  9
$CELTSCALE
 40
1.0
  9
$DISPSILH
 70
     0
  9
$DIMSCALE
 40
2.399999999999999
  9
$DIMASZ
 40
0.5
  9
$DIMEXO
 40
1.0
  9
$DIMDLI
 40
0.0625
  9
$DIMRND
 40
0.0
  9
$DIMDLE
 40
0.0
  9
$DIMEXE
 40
0.25
  9
$DIMTP
 40
0.0
  9
$DIMTM
 40
0.0
  9
$DIMTXT
 40
1.0
  9
$DIMCEN
 40
0.0
  9
$DIMTSZ
 40
0.0
  9
$DIMTOL
 70
     0
  9
$DIMLIM
 70
     0
  9
$DIMTIH
 70
     1
  9
$DIMTOH
 70
     1
  9
$DIMSE1
 70
     0
  9
$DIMSE2
 70
     0
  9
$DIMTAD
 70
     0
  9
$DIMZIN
 70
     0
  9
$DIMBLK
  1

  9
$DIMASO
 70
     1
  9
$DIMSHO
 70
     1
  9
$DIMPOST
  1
"
  9
$DIMAPOST
  1

  9
$DIMALT
 70
     0
  9
$DIMALTD
 70
     0
  9
$DIMALTF
 40
25.4
  9
$DIMLFAC
 40
1.0
  9
$DIMTOFL
 70
     0
  9
$DIMTVP
 40
0.0
  9
$DIMTIX
 70
     0
  9
$DIMSOXD
 70
     0
  9
$DIMSAH
 70
     0
  9
$DIMBLK1
  1

  9
$DIMBLK2
  1

  9
$DIMSTYLE
  2
STANDARD
  9
$DIMCLRD
 70
     0
  9
$DIMCLRE
 70
     0
  9
$DIMCLRT
 70
     0
  9
$DIMTFAC
 40
0.125
  9
$DIMGAP
 40
0.5
  9
$DIMJUST
 70
     0
  9
$DIMSD1
 70
     0
  9
$DIMSD2
 70
     0
  9
$DIMTOLJ
 70
     1
  9
$DIMTZIN
 70
     0
  9
$DIMALTZ
 70
     2
  9
$DIMALTTZ
 70
     2
  9
$DIMUPT
 70
     1
  9
$DIMDEC
 70
     4
  9
$DIMTDEC
 70
     4
  9
$DIMALTU
 70
     2
  9
$DIMALTTD
 70
     0
  9
$DIMTXSTY
  7
STANDARD
  9
$DIMAUNIT
 70
     0
  9
$DIMADEC
 70
     0
  9
$DIMALTRND
 40
0.0
  9
$DIMAZIN
 70
     0
  9
$DIMDSEP
 70
    46
  9
$DIMATFIT
 70
     1
  9
$DIMFRAC
 70
     2
  9
$DIMLDRBLK
  1

  9
$DIMLUNIT
 70
     5
  9
$DIMLWD
 70
    -2
  9
$DIMLWE
 70
    -2
  9
$DIMTMOVE
 70
     1
  9
$LUNITS
 70
     5
  9
$LUPREC
 70
     4
  9
$SKETCHINC
 40
0.1
  9
$FILLETRAD
 40
0.03125
  9
$AUNITS
 70
     0
  9
$AUPREC
 70
     1
  9
$MENU
  1
acad
  9
$ELEVATION
 40
0.0
  9
$PELEVATION
 40
0.0
  9
$THICKNESS
 40
0.0
  9
$LIMCHECK
 70
     0
  9
$CHAMFERA
 40
0.75
  9
$CHAMFERB
 40
0.75
  9
$CHAMFERC
 40
0.0
  9
$CHAMFERD
 40
0.0
  9
$SKPOLY
 70
     0
  9
$TDCREATE
 40
2451085.664838310
  9
$TDUCREATE
 40
2451085.831504977
  9
$TDUPDATE
 40
2451661.333229166
  9
$TDUUPDATE
 40
2451661.499895833
  9
$TDINDWG
 40
3.3312951389
  9
$TDUSRTIMER
 40
3.3312951389
  9
$USRTIMER
 70
     1
  9
$ANGBASE
 50
0.0
  9
$ANGDIR
 70
     0
  9
$PDMODE
 70
     0
  9
$PDSIZE
 40
0.0
  9
$PLINEWID
 40
0.12
  9
$SPLFRAME
 70
     0
  9
$SPLINETYPE
 70
     6
  9
$SPLINESEGS
 70
     8
  9
$HANDSEED
  5
D44
  9
$SURFTAB1
 70
     6
  9
$SURFTAB2
 70
     6
  9
$SURFTYPE
 70
     6
  9
$SURFU
 70
     6
  9
$SURFV
 70
     6
  9
$UCSBASE
  2

  9
$UCSNAME
  2

  9
$UCSORG
 10
0.0
 20
0.0
 30
0.0
  9
$UCSXDIR
 10
1.0
 20
0.0
 30
0.0
  9
$UCSYDIR
 10
0.0
 20
1.0
 30
0.0
  9
$UCSORTHOREF
  2

  9
$UCSORTHOVIEW
 70
     0
  9
$UCSORGTOP
 10
0.0
 20
0.0
 30
0.0
  9
$UCSORGBOTTOM
 10
0.0
 20
0.0
 30
0.0
  9
$UCSORGLEFT
 10
0.0
 20
0.0
 30
0.0
  9
$UCSORGRIGHT
 10
0.0
 20
0.0
 30
0.0
  9
$UCSORGFRONT
 10
0.0
 20
0.0
 30
0.0
  9
$UCSORGBACK
 10
0.0
 20
0.0
 30
0.0
  9
$PUCSBASE
  2

  9
$PUCSNAME
  2

  9
$PUCSORG
 10
0.0
 20
0.0
 30
0.0
  9
$PUCSXDIR
 10
1.0
 20
0.0
 30
0.0
  9
$PUCSYDIR
 10
0.0
 20
1.0
 30
0.0
  9
$PUCSORTHOREF
  2

  9
$PUCSORTHOVIEW
 70
     0
  9
$PUCSORGTOP
 10
0.0
 20
0.0
 30
0.0
  9
$PUCSORGBOTTOM
 10
0.0
 20
0.0
 30
0.0
  9
$PUCSORGLEFT
 10
0.0
 20
0.0
 30
0.0
  9
$PUCSORGRIGHT
 10
0.0
 20
0.0
 30
0.0
  9
$PUCSORGFRONT
 10
0.0
 20
0.0
 30
0.0
  9
$PUCSORGBACK
 10
0.0
 20
0.0
 30
0.0
  9
$USERI1
 70
     0
  9
$USERI2
 70
     0
  9
$USERI3
 70
     0
  9
$USERI4
 70
     0
  9
$USERI5
 70
     0
  9
$USERR1
 40
0.0
  9
$USERR2
 40
0.0
  9
$USERR3
 40
0.0
  9
$USERR4
 40
0.0
  9
$USERR5
 40
0.0
  9
$WORLDVIEW
 70
     1
  9
$SHADEDGE
 70
     1
  9
$SHADEDIF
 70
    70
  9
$TILEMODE
 70
     1
  9
$MAXACTVP
 70
    16
  9
$PINSBASE
 10
0.0
 20
0.0
 30
0.0
  9
$PLIMCHECK
 70
     0
  9
$PEXTMIN
 10
1.000000000000000E+20
 20
1.000000000000000E+20
 30
1.000000000000000E+20
  9
$PEXTMAX
 10
-1.000000000000000E+20
 20
-1.000000000000000E+20
 30
-1.000000000000000E+20
  9
$PLIMMIN
 10
0.0
 20
0.0
  9
$PLIMMAX
 10
12.0
 20
9.0
  9
$UNITMODE
 70
     0
  9
$VISRETAIN
 70
     0
  9
$PLINEGEN
 70
     0
  9
$PSLTSCALE
 70
     1
  9
$TREEDEPTH
 70
  3020
  9
$CMLSTYLE
  2
STANDARD
  9
$CMLJUST
 70
     0
  9
$CMLSCALE
 40
1.0
  9
$PROXYGRAPHICS
 70
     1
  9
$MEASUREMENT
 70
     0
  9
$CELWEIGHT
370
    -1
  9
$ENDCAPS
280
     0
  9
$JOINSTYLE
280
     0
  9
$LWDISPLAY
290
     0
  9
$INSUNITS
 70
     0
  9
$HYPERLINKBASE
  1

  9
$STYLESHEET
  1

  9
$XEDIT
290
     1
  9
$CEPSNTYPE
380
     0
  9
$PSTYLEMODE
290
     1
  9
$FINGERPRINTGUID
  2
{A6232B84-9B2E-11D3-8DA4-00A0C981A35F}
  9
$VERSIONGUID
  2
{1C381AD7-176D-11D4-8DA4-00A0C981A35F}
  9
$EXTNAMES
290
     1
  9
$PSVPSCALE
 40
0.0
  9
$OLESTARTUP
290
     0
  0
ENDSEC
  0
SECTION
  2
CLASSES
  0
CLASS
  1
DICTIONARYVAR
  2
AcDbDictionaryVar
  3
AutoCAD 2000
 90
    32768
280
     0
281
     0
  0
CLASS
  1
LWPOLYLINE
  2
AcDbPolyline
  3
AutoCAD 2000
 90
    32768
280
     0
281
     1
  0
CLASS
  1
RASTERVARIABLES
  2
AcDbRasterVariables
  3
ISM
 90
    32768
280
     0
281
     0
  0
CLASS
  1
ACDBDICTIONARYWDFLT
  2
AcDbDictionaryWithDefault
  3
AutoCAD 2000
 90
        0
280
     0
281
     0
  0
CLASS
  1
ACDBPLACEHOLDER
  2
AcDbPlaceHolder
  3
AutoCAD 2000
 90
        0
280
     0
281
     0
  0
CLASS
  1
LAYOUT
  2
AcDbLayout
  3
AutoCAD 2000
 90
        0
280
     0
281
     0
  0
CLASS
  1
ACME_DOCUMENT
  2
AcMeDbDoc
  3
AcMeServices
 90
    32768
280
     1
281
     0
  0
CLASS
  1
ACMESCOPE
  2
AcMeScope
  3
AcMeServices
 90
    32768
280
     1
281
     0
  0
CLASS
  1
ACMECOMMANDHISTORY
  2
AcMeCommandHistory
  3
AcMeServices
 90
    32768
280
     1
281
     0
  0
CLASS
  1
ACIMSYSVARMAN
  2
AcImSysVarManager
  3
AcMeServices
 90
    32768
280
     1
281
     0
  0
CLASS
  1
ACIMREALSYSVAR
  2
AcImRealSysVar
  3
AcMeServices
 90
    32768
280
     1
281
     0
  0
CLASS
  1
ACIMINTSYSVAR
  2
AcImIntSysVar
  3
AcMeServices
 90
    32768
280
     1
281
     0
  0
CLASS
  1
ACMEDRAWINGMAN
  2
AcMeDrawingMan
  3
AcMeServices
 90
    32768
280
     1
281
     0
  0
CLASS
  1
ACMEVIEW
  2
AcMeView
  3
AcMeServices
 90
    32768
280
     1
281
     0
  0
CLASS
  1
ACDBENTITYCACHE
  2
AcMeEntityCache
  3
AcMeServices
 90
    32768
280
     1
281
     0
  0
CLASS
  1
GSMANAGER
  2
AcMeGSManager
  3
AcMeServices
 90
    32768
280
     1
281
     0
  0
CLASS
  1
AmdtInternalReactor
  2
AmdtInternalReactor
  3
AcMeServices
 90
    32768
280
     1
281
     0
  0
CLASS
  1
ACMESTATEMGR
  2
AcMeStateMgr
  3
AcMeServices
 90
    32768
280
     1
281
     0
  0
CLASS
  1
ACGREFMASTER
  2
AcGrefMaster
  3
AcAttribServices
 90
    32768
280
     1
281
     0
  0
CLASS
  1
AM_DRAWING_MGR
  2
AcDmDwgMgr
  3
AcMechDwgViewMgmt
 90
    32768
280
     1
281
     0
  0
CLASS
  1
AM_DWG_DOCUMENT
  2
AcDmDwgDocument
  3
AcMechDwgViewMgmt
 90
    32768
280
     1
281
     0
  0
CLASS
  1
AM_DWG_SHEET
  2
AcDmSheet
  3
AcMechDwgViewMgmt
 90
    32768
280
     1
281
     0
  0
CLASS
  1
AM_VIEWDIMPARMAP
  2
AcDmViewDimParMap
  3
AcMechDwgViewMgmt
 90
    32768
280
     1
281
     0
  0
CLASS
  1
AM_DWGMGR_NAME
  2
AcDmDwgMgrName
  3
AcMechDwgViewMgmt
 90
    32768
280
     1
281
     0
  0
CLASS
  1
ACME_DATABASE
  2
AcMeDbDatabase
  3
AcMeServices
 90
    32768
280
     1
281
     0
  0
CLASS
  1
ACRFINSADJUSTERMGR
  2
AcRfInsAdjusterMgr
  3
AcMeServices
 90
    32768
280
     1
281
     0
  0
CLASS
  1
ACGREFMASTER
  2
AcGrefacadMaster
  3
AcGrefServices
 90
    32768
280
     1
281
     0
  0
CLASS
  1
AMDTMENUSTATEMGR
  2
AmdtMenuStateMgr
  3
McadcomServices
 90
    32768
280
     1
281
     0
  0
CLASS
  1
AMDTMCOMMENUSTATE
  2
AmdtMcomMenuState
  3
McadcomServices
 90
    32768
280
     1
281
     0
  0
CLASS
  1
ASAPP
  2
AcAsAppObject
  3
AutoSurfServices
 90
    32768
280
     1
281
     0
  0
CLASS
  1
IM_STATIC_MAN
  2
AcImStaticVarManager
  3
AcMeServices
 90
    32768
280
     1
281
     0
  0
CLASS
  1
ACIMSTRSYSVAR
  2
AcImStrSysVar
  3
AcMeServices
 90
    32768
280
     1
281
     0
  0
CLASS
  1
ACIMDBLSTATICVAR
  2
AcImDblStaticVar
  3
AcMeServices
 90
    32768
280
     1
281
     0
  0
CLASS
  1
ACIMSTRSTATICVAR
  2
AcImStrStaticVar
  3
AcMeServices
 90
    32768
280
     1
281
     0
  0
CLASS
  1
ACIMINTSTATICVAR
  2
AcImIntStaticVar
  3
AcMeServices
 90
    32768
280
     1
281
     0
  0
CLASS
  1
ACADGREFMODULE
  2
AcAdGrefModule
  3
AdGrefServices
 90
    32768
280
     1
281
     0
  0
CLASS
  1
AMIMASTER
  2
AmiMaster
  3
AmiServices
 90
    32768
280
     1
281
     0
  0
CLASS
  1
ACASGREFMASTER
  2
AcAsGrefMaster
  3
AutoSurfResolverServices
 90
    32768
280
     1
281
     0
  0
CLASS
  1
MAPIAMMOUDLE
  2
MApiAmModule
  3
MApiAmServices
 90
    32768
280
     1
281
     0
  0
CLASS
  1
AMDTDMMENUSTATE
  2
AmdtDmMenuState
  3
AcMechDwgViewMgmt
 90
    32768
280
     1
281
     0
  0
CLASS
  1
AMDTADMENUSTATE
  2
AmdtAdMenuState
  3
DesignerServices
 90
    32768
280
     1
281
     0
  0
CLASS
  1
ADAPPL
  2
AcAdAppl
  3
DesignerServices
 90
    32768
280
     1
281
     0
  0
CLASS
  1
DEPMGR
  2
AcAdDepMgr
  3
DesignerServices
 90
    32768
280
     1
281
     0
  0
CLASS
  1
PARAMMGR
  2
AcAdParamMgr
  3
DesignerServices
 90
    32768
280
     1
281
     0
  0
CLASS
  1
PARAMSCOPE
  2
AcAdParamScope
  3
DesignerServices
 90
    32768
280
     1
281
     0
  0
CLASS
  1
NAMEDAPPL
  2
AcAdNamedAppl
  3
DesignerServices
 90
    32768
280
     1
281
     0
  0
CLASS
  1
ADHNTMPLT
  2
AdHoleNoteTemplateMgr
  3
DesignerServices
 90
    32768
280
     1
281
     0
  0
CLASS
  1
AM_HNTEMPLATE_MGR_NAME
  2
AdHoleNoteTemplateMgrName
  3
DesignerServices
 90
    32768
280
     1
281
     0
  0
CLASS
  1
AMDTAMMENUSTATE
  2
AmdtAmMenuState
  3
DesignerAssemblies
 90
    32768
280
     1
281
     0
  0
CLASS
  1
ACAMPROJECT
  2
AcAmProject
  3
DesignerAssemblies
 90
    32768
280
     1
281
     0
  0
CLASS
  1
ACAMGRCOMPDEF
  2
AcAmGrCompDef
  3
DesignerAssemblies
 90
    32768
280
     1
281
     0
  0
CLASS
  1
ACCMCONTEXT
  2
AcCmContext
  3
DesignerAssemblies
 90
    32768
280
     1
281
     0
  0
CLASS
  1
ACAMCOMPDEF
  2
AcAmCompDef
  3
DesignerAssemblies
 90
    32768
280
     1
281
     0
  0
CLASS
  1
ACAMCOMPDEFMGR
  2
AcAmCompDefMgr
  3
DesignerAssemblies
 90
    32768
280
     1
281
     0
  0
CLASS
  1
AMCONTEXTMGR
  2
AcAmContextMgr
  3
DesignerAssemblies
 90
    32768
280
     1
281
     0
  0
CLASS
  1
ACAMCONTEXTMODELER
  2
AcAmContextModeler
  3
DesignerAssemblies
 90
    32768
280
     1
281
     0
  0
CLASS
  1
MAPIADMODULE
  2
MApiAdModule
  3
MApiAdServices
 90
    32768
280
     1
281
     0
  0
CLASS
  1
ACMDATADICTIONARY
  2
AcmDataDictionary
  3
"AcmSymBB|Product Description: AutoCAD Mechanical 2000|Company: Autodesk"
 90
    32768
280
     1
281
     0
  0
CLASS
  1
ACMDATAENTRYBLOCK
  2
AcmDataEntryBlock
  3
"AcmSymBB|Product Description: AutoCAD Mechanical 2000|Company: Autodesk"
 90
    32768
280
     1
281
     0
  0
CLASS
  1
AMDTBROWSERDBTAB
  2
AmdtBrowserDbTab
  3
McadcomServices
 90
    32768
280
     1
281
     0
  0
CLASS
  1
CBROWSERAPPOBJECT
  2
CBrowserAppObject
  3
McadcomServices
 90
    32768
280
     1
281
     0
  0
CLASS
  1
DM_PLACEHOLDER
  2
AcDmSelsetPlaceholder
  3
AcMechDwgViewMgmt
 90
    32768
280
     1
281
     0
  0
CLASS
  1
CATALOGSTATE
  2
AcAmCatalogState
  3
DesignerAssemblies
 90
    32768
280
     1
281
     0
  0
CLASS
  1
ACAMGRCOMPDEFSET
  2
AcAmGrCompDefSet
  3
DesignerAssemblies
 90
    32768
280
     1
281
     0
  0
CLASS
  1
AMGOBJPROPCFG
  2
AmgObjPropCfg
  3
"AmgLay|Product Description: AutoCAD Mechanical 2000|Company: Autodesk"
 90
    32769
280
     1
281
     0
  0
CLASS
  1
LAYER_INDEX
  2
AcDbLayerIndex
  3
AutoCAD 2000
 90
    32768
280
     0
281
     0
  0
CLASS
  1
IDBUFFER
  2
AcDbIdBuffer
  3
AutoCAD 2000
 90
    32768
280
     0
281
     0
  0
CLASS
  1
ACRFATTGENMGR
  2
AcRfAttGeneralMgr
  3
AcAttribServices
 90
    32768
280
     1
281
     0
  0
CLASS
  1
PLOTSETTINGS
  2
AcDbPlotSettings
  3
AutoCAD 2000
 90
    32768
280
     0
281
     0
  0
CLASS
  1
VBA_PROJECT
  2
AcDbVbaProject
  3
acadvba
 90
    32768
280
     0
281
     0
  0
CLASS
  1
LONG_TRANSACTION
  2
AcDbLongTransaction
  3
AutoCAD 2000
 90
    32768
280
     0
281
     0
  0
CLASS
  1
LWPOLYLINE
  2
AcDbPolyline
  3
AutoCAD 2000
 90
    32768
280
     0
281
     1
  0
CLASS
  1
HATCH
  2
AcDbHatch
  3
AutoCAD 2000
 90
    32768
280
     0
281
     1
  0
CLASS
  1
XRECORD
  2
AcDbXrecord
  3
AutoCAD 2000
 90
    32768
280
     0
281
     0
  0
CLASS
  1
LONG_TRANSACTION
  2
AcDbLongTransaction
  3
AutoCAD 2000
 90
    32768
280
     0
281
     0
  0
CLASS
  1
LWPOLYLINE
  2
AcDbPolyline
  3
AutoCAD 2000
 90
    32768
280
     0
281
     1
  0
CLASS
  1
HATCH
  2
AcDbHatch
  3
AutoCAD 2000
 90
    32768
280
     0
281
     1
  0
CLASS
  1
XRECORD
  2
AcDbXrecord
  3
AutoCAD 2000
 90
    32768
280
     0
281
     0
  0
CLASS
  1
LONG_TRANSACTION
  2
AcDbLongTransaction
  3
AutoCAD 2000
 90
    32768
280
     0
281
     0
  0
CLASS
  1
LWPOLYLINE
  2
AcDbPolyline
  3
AutoCAD 2000
 90
    32768
280
     0
281
     1
  0
CLASS
  1
HATCH
  2
AcDbHatch
  3
AutoCAD 2000
 90
    32768
280
     0
281
     1
  0
CLASS
  1
XRECORD
  2
AcDbXrecord
  3
AutoCAD 2000
 90
    32768
280
     0
281
     0
  0
CLASS
  1
LONG_TRANSACTION
  2
AcDbLongTransaction
  3
AutoCAD 2000
 90
    32768
280
     0
281
     0
  0
CLASS
  1
LWPOLYLINE
  2
AcDbPolyline
  3
AutoCAD 2000
 90
    32768
280
     0
281
     1
  0
CLASS
  1
HATCH
  2
AcDbHatch
  3
AutoCAD 2000
 90
    32768
280
     0
281
     1
  0
CLASS
  1
XRECORD
  2
AcDbXrecord
  3
AutoCAD 2000
 90
    32768
280
     0
281
     0
  0
ENDSEC
  0
SECTION
  2
TABLES
  0
TABLE
  2
VPORT
  5
1B
330
0
100
AcDbSymbolTable
 70
     2
  0
VPORT
  5
D43
330
1B
100
AcDbSymbolTableRecord
100
AcDbViewportTableRecord
  2
*Active
 70
     0
 10
0.0
 20
0.0
 11
1.0
 21
1.0
 12
169.4746576812034
 22
44.54106360226371
 13
0.0
 23
0.0
 14
1.0
 24
1.0
 15
0.0
 25
0.0
 16
0.0
 26
0.0
 36
1.0
 17
-64.46234487877643
 27
33.0238264231553
 37
6.148717398612387
 40
156.1280056287196
 41
1.413068844807467
 42
50.0
 43
-6.148717398612387
 44
-6.148717398612387
 50
0.0
 51
0.0
 71
     0
 72
 20000
 73
     1
 74
     1
 75
     0
 76
     0
 77
     0
 78
     2
281
     0
 65
     1
110
0.0
120
0.0
130
0.0
111
1.0
121
0.0
131
0.0
112
0.0
122
1.0
132
0.0
 79
     0
146
0.0
  0
ENDTAB
  0
TABLE
  2
LTYPE
  5
16
330
0
100
AcDbSymbolTable
 70
     3
  0
LTYPE
  5
17
330
16
100
AcDbSymbolTableRecord
100
AcDbLinetypeTableRecord
  2
BYBLOCK
 70
     0
  3

 72
    65
 73
     0
 40
0.0
  0
LTYPE
  5
18
330
16
100
AcDbSymbolTableRecord
100
AcDbLinetypeTableRecord
  2
BYLAYER
 70
     0
  3

 72
    65
 73
     0
 40
0.0
  0
LTYPE
  5
9
330
16
100
AcDbSymbolTableRecord
100
AcDbLinetypeTableRecord
  2
CONTINUOUS
 70
     0
  3
Solid line
 72
    65
 73
     0
 40
0.0
  0
LTYPE
  5
D3
330
16
100
AcDbSymbolTableRecord
100
AcDbLinetypeTableRecord
  2
DASHED
 70
     0
  3
Dashed __ __ __ __ __ __ __ __ __ __ __ __ __ _
 72
    65
 73
     2
 40
0.75
 49
0.5
 74
     0
 49
-0.25
 74
     0
  0
LTYPE
  5
71
330
16
100
AcDbSymbolTableRecord
100
AcDbLinetypeTableRecord
  2
PHANTOM
 70
     0
  3
Phantom ______  __  __  ______  __  __  ______
 72
    65
 73
     6
 40
2.5
 49
1.25
 74
     0
 49
-0.25
 74
     0
 49
0.25
 74
     0
 49
-0.25
 74
     0
 49
0.25
 74
     0
 49
-0.25
 74
     0
  0
ENDTAB
  0
TABLE
  2
LAYER
  5
11
330
0
100
AcDbSymbolTable
 70
     7
  0
LAYER
  5
5
330
11
100
AcDbSymbolTableRecord
100
AcDbLayerTableRecord
  2
0
 70
     0
 62
     7
  6
CONTINUOUS
370
    -3
390
6
  0
LAYER
  5
28
330
11
100
AcDbSymbolTableRecord
100
AcDbLayerTableRecord
  2
A1
 70
     0
 62
     7
  6
CONTINUOUS
370
    -3
390
6
  0
LAYER
  5
2F
330
11
100
AcDbSymbolTableRecord
100
AcDbLayerTableRecord
  2
LINEWORK
 70
     0
 62
     7
  6
CONTINUOUS
370
    -3
390
6
  0
LAYER
  5
6B
330
11
100
AcDbSymbolTableRecord
100
AcDbLayerTableRecord
  2
Defpoints
 70
     0
 62
     7
  6
CONTINUOUS
290
     0
370
    -3
390
6
  0
LAYER
  5
24
330
11
100
AcDbSymbolTableRecord
100
AcDbLayerTableRecord
  2
leaders
 70
     0
 62
     1
  6
CONTINUOUS
370
    -3
390
6
  0
LAYER
  5
60B
330
11
100
AcDbSymbolTableRecord
100
AcDbLayerTableRecord
  2
ASHADE
 70
     4
 62
     7
  6
CONTINUOUS
370
    -3
390
6
  0
LAYER
  5
981
330
11
100
AcDbSymbolTableRecord
100
AcDbLayerTableRecord
  2
DIM
 70
     0
 62
     7
  6
CONTINUOUS
370
    -3
390
6
  0
ENDTAB
  0
TABLE
  2
STYLE
  5
12
330
0
100
AcDbSymbolTable
 70
     3
  0
STYLE
  5
13
330
12
100
AcDbSymbolTableRecord
100
AcDbTextStyleTableRecord
  2
STANDARD
 70
     0
 40
0.0
 41
1.0
 50
0.0
 71
     0
 42
5.0
  3
unvr55w.ttf
  4

1001
ACAD
1000
Univers
1071
       34
  0
STYLE
  5
4B
330
12
100
AcDbSymbolTableRecord
100
AcDbTextStyleTableRecord
  2
ROMANC
 70
     0
 40
0.0
 41
1.0
 50
0.0
 71
     0
 42
0.5
  3
TIMESBD.TTF
  4

1001
ACAD
1000
Times New Roman
1071
 33554450
  0
STYLE
  5
2B
330
12
100
AcDbSymbolTableRecord
100
AcDbTextStyleTableRecord
  2
barcoder
 70
     0
 40
0.0
 41
1.0
 50
0.0
 71
     0
 42
4.5625
  3
cw_barcd.ttf
  4

1001
ACAD
1000
Barcoder
1071
 33554434
  0
ENDTAB
  0
TABLE
  2
VIEW
  5
19
330
0
100
AcDbSymbolTable
 70
     0
  0
ENDTAB
  0
TABLE
  2
UCS
  5
1A
330
0
100
AcDbSymbolTable
 70
     0
  0
ENDTAB
  0
TABLE
  2
APPID
  5
1D
330
0
100
AcDbSymbolTable
 70
     8
  0
APPID
  5
14
330
1D
100
AcDbSymbolTableRecord
100
AcDbRegAppTableRecord
  2
ACAD
 70
     0
  0
APPID
  5
60C
330
1D
100
AcDbSymbolTableRecord
100
AcDbRegAppTableRecord
  2
DCO15
 70
     0
  0
APPID
  5
60D
330
1D
100
AcDbSymbolTableRecord
100
AcDbRegAppTableRecord
  2
AVE_RENDER
 70
     0
  0
APPID
  5
60E
330
1D
100
AcDbSymbolTableRecord
100
AcDbRegAppTableRecord
  2
AVE_ENTITY_MATERIAL
 70
     0
  0
APPID
  5
60F
330
1D
100
AcDbSymbolTableRecord
100
AcDbRegAppTableRecord
  2
AVE_FINISH
 70
     0
  0
APPID
  5
610
330
1D
100
AcDbSymbolTableRecord
100
AcDbRegAppTableRecord
  2
AVE_MATERIAL
 70
     0
  0
APPID
  5
611
330
1D
100
AcDbSymbolTableRecord
100
AcDbRegAppTableRecord
  2
AVE_GLOBAL
 70
     0
  0
APPID
  5
971
330
1D
100
AcDbSymbolTableRecord
100
AcDbRegAppTableRecord
  2
CONTENTBLOCKICON
 70
     0
  0
ENDTAB
  0
TABLE
  2
DIMSTYLE
  5
1E
330
0
100
AcDbSymbolTable
 70
     1
100
AcDbDimStyleTable
 71
     0
  0
DIMSTYLE
105
1F
102
{ACAD_REACTORS
330
4A6
330
913
330
982
330
983
330
AA2
330
ABB
330
ADA
102
}
330
1E
100
AcDbSymbolTableRecord
100
AcDbDimStyleTableRecord
  2
STANDARD
 70
     0
  3
"
 41
0.5
 42
1.0
 43
0.0625
 44
0.25
 73
     0
 74
     0
 77
     3
140
1.0
141
0.0
146
0.125
147
0.125
171
     0
274
     0
276
     2
277
     5
285
     2
286
     2
289
     0
340
13
  0
ENDTAB
  0
TABLE
  2
BLOCK_RECORD
  5
1
330
0
100
AcDbSymbolTable
 70
    12
  0
BLOCK_RECORD
  5
2
102
{ACAD_XDICTIONARY
360
3
102
}
330
1
100
AcDbSymbolTableRecord
100
AcDbBlockTableRecord
  2
*MODEL_SPACE
340
B
  0
BLOCK_RECORD
  5
D
102
{ACAD_XDICTIONARY
360
951
102
}
330
1
100
AcDbSymbolTableRecord
100
AcDbBlockTableRecord
  2
*PAPER_SPACE
340
10
  0
BLOCK_RECORD
  5
89
330
1
100
AcDbSymbolTableRecord
100
AcDbBlockTableRecord
  2
PROFILE LOGO
340
0
102
{BLKREFS
331
98A
331
A1C
331
A21
102
}
  0
BLOCK_RECORD
  5
30
330
1
100
AcDbSymbolTableRecord
100
AcDbBlockTableRecord
  2
TSFORMB
340
0
102
{BLKREFS
331
26
102
}
  0
BLOCK_RECORD
  5
5B3
330
1
100
AcDbSymbolTableRecord
100
AcDbBlockTableRecord
  2
SCF
340
0
  0
BLOCK_RECORD
  5
5EB
330
1
100
AcDbSymbolTableRecord
100
AcDbBlockTableRecord
  2
AVE_RENDER
340
0
102
{BLKREFS
331
6D1
331
6D2
331
6D3
331
6D4
331
6D5
331
6D6
331
6D7
331
6D8
331
6DA
331
6DB
331
6DC
331
6DD
331
6DE
331
6DF
331
6E0
331
6E1
102
}
  0
BLOCK_RECORD
  5
5EE
330
1
100
AcDbSymbolTableRecord
100
AcDbBlockTableRecord
  2
AVE_GLOBAL
340
0
102
{BLKREFS
331
6D9
331
6E2
102
}
  0
BLOCK_RECORD
  5
914
330
1
100
AcDbSymbolTableRecord
100
AcDbBlockTableRecord
  2
*D5
340
0
  0
BLOCK_RECORD
  5
964
330
1
100
AcDbSymbolTableRecord
100
AcDbBlockTableRecord
  2
*D6
340
0
  0
BLOCK_RECORD
  5
A2B
330
1
100
AcDbSymbolTableRecord
100
AcDbBlockTableRecord
  2
*D7
340
0
  0
BLOCK_RECORD
  5
A38
330
1
100
AcDbSymbolTableRecord
100
AcDbBlockTableRecord
  2
*D8
340
0
  0
BLOCK_RECORD
  5
AA3
330
1
100
AcDbSymbolTableRecord
100
AcDbBlockTableRecord
  2
*D9
340
0
  0
BLOCK_RECORD
  5
ABC
330
1
100
AcDbSymbolTableRecord
100
AcDbBlockTableRecord
  2
*D10
340
0
  0
BLOCK_RECORD
  5
ADB
330
1
100
AcDbSymbolTableRecord
100
AcDbBlockTableRecord
  2
*D11
340
0
  0
ENDTAB
  0
ENDSEC
  0
SECTION
  2
BLOCKS
  0
BLOCK
  5
4
330
2
100
AcDbEntity
  8
0
100
AcDbBlockBegin
  2
*MODEL_SPACE
 70
     2
 10
0.0
 20
0.0
 30
0.0
  3
*MODEL_SPACE
  1

  0
ENDBLK
  5
A
330
2
100
AcDbEntity
  8
0
100
AcDbBlockEnd
  0
BLOCK
  5
E
330
D
100
AcDbEntity
 67
     1
  8
0
100
AcDbBlockBegin
  2
*PAPER_SPACE
 70
     0
 10
0.0
 20
0.0
 30
0.0
  3
*PAPER_SPACE
  1

  0
ENDBLK
  5
F
330
D
100
AcDbEntity
 67
     1
  8
0
100
AcDbBlockEnd
  0
BLOCK
  5
A2
330
89
100
AcDbEntity
  8
0
 62
     7
100
AcDbBlockBegin
  2
PROFILE LOGO
 70
     2
 10
0.0
 20
0.0
 30
0.0
  3
PROFILE LOGO
  1

  0
LINE
  5
8A
330
89
100
AcDbEntity
  8
0
 62
    22
100
AcDbLine
 10
0.7459516636765642
 20
-0.415894330395318
 30
0.0
 11
0.74595166367655
 21
-1.12746688439163
 31
0.0
  0
LINE
  5
8B
330
89
100
AcDbEntity
  8
0
 62
    22
100
AcDbLine
 10
0.5841942848079072
 20
-0.415894330395318
 30
0.0
 11
0.5841942848079072
 21
-1.12746688439163
 31
0.0
  0
HATCH
  5
8C
330
89
100
AcDbEntity
  8
0
 62
    22
100
AcDbHatch
 10
0.0
 20
0.0
 30
0.0
210
0.0
220
0.0
230
1.0
  2
LINE
 70
     0
 71
     0
 91
        1
 92
       33
 93
       38
 72
     1
 10
1.115683196411978
 20
-0.1706330859717084
 11
0.2177636962628071
 21
-0.1706330859717084
 72
     1
 10
0.2177636962628213
 20
-0.1706330859717084
 11
0.2078601968792952
 21
-0.4246889457533243
 72
     1
 10
0.2078601968792952
 20
-0.4246889457533243
 11
0.2375709173007294
 21
-0.4246889457533243
 72
     1
 10
0.2375709173007294
 20
-0.4246889457533243
 11
0.2441732502230991
 21
-0.3817964654080939
 72
     1
 10
0.2441732502230991
 20
-0.3817964654080939
 11
0.254076749606611
 21
-0.3422032805409501
 72
     1
 10
0.2540767496066252
 20
-0.3422032805409501
 11
0.2738837483736916
 21
-0.3092090964125091
 72
     1
 10
0.2738837483736916
 20
-0.3092090964125091
 11
0.2969919136019428
 21
-0.2861130719066693
 72
     1
 10
0.296991913601957
 20
-0.2861130719066764
 11
0.3267026340234338
 21
-0.2663164794731259
 72
     1
 10
0.3267026340234196
 20
-0.2663164794731259
 11
0.356413132174012
 21
-0.2498193191118219
 72
     1
 10
0.356413132174012
 20
-0.2498193191118148
 11
0.3828224638634481
 21
-0.243220591561446
 72
     1
 10
0.3828224638634623
 20
-0.243220591561446
 11
0.4092320178237401
 21
-0.243220591561446
 72
     1
 10
0.4092320178237401
 20
-0.243220591561446
 11
0.4719541805861525
 21
-0.2465198870395469
 72
     1
 10
0.4719541805861525
 20
-0.2465198870395469
 11
0.514869566852326
 21
-0.2729153436176332
 72
     1
 10
0.514869566852326
 20
-0.2729153436176332
 11
0.5742905631535394
 21
-0.3389038484686964
 72
     1
 10
0.5742905631535394
 20
-0.3389038484687106
 11
0.5907966177302626
 21
-0.3916947616248691
 72
     1
 10
0.5907966177302768
 20
-0.3916947616248691
 11
0.5907966177302768
 21
-1.157161773041991
 72
     1
 10
0.5907966177302768
 20
-1.157161773041984
 11
0.5643870637699991
 21
-1.203353685459461
 72
     1
 10
0.5643870637699849
 20
-1.203353685459468
 11
0.4983637345463876
 21
-1.226449709965308
 72
     1
 10
0.4983637345464019
 20
-1.226449709965301
 11
0.4389425159743326
 21
-1.226449709965301
 72
     1
 10
0.4389425159743326
 20
-1.226449709965301
 11
0.4323401830519913
 21
-1.249545734471119
 72
     1
 10
0.4323401830520055
 20
-1.249545734471134
 11
0.8945045989712809
 21
-1.249545734471134
 72
     1
 10
0.8945045989712667
 20
-1.249545734471134
 11
0.8945045989712667
 21
-1.226449709965315
 72
     1
 10
0.8945045989712667
 20
-1.226449709965301
 11
0.8152763816321311
 21
-1.226449709965301
 72
     1
 10
0.8152763816321311
 20
-1.226449709965301
 11
0.7525539965988913
 21
-1.186856661692324
 72
     1
 10
0.7525539965988913
 20
-1.186856661692324
 11
0.7426504972153794
 21
-1.140664612680659
 72
     1
 10
0.7426504972153652
 20
-1.140664612680673
 11
0.7393493307541803
 21
-0.394994193697137
 72
     1
 10
0.7393493307541803
 20
-0.394994193697137
 11
0.7558551630600619
 21
-0.3389038484687106
 72
     1
 10
0.7558551630600761
 20
-0.3389038484687106
 11
0.7987705493262496
 21
-0.2828136398344298
 72
     1
 10
0.7987705493262496
 20
-0.2828136398344227
 11
0.8614929343594894
 21
-0.2498193191118148
 72
     1
 10
0.8614929343594894
 20
-0.2498193191118148
 11
0.9374197629665985
 21
-0.2399211594891923
 72
     1
 10
0.9374197629665985
 20
-0.2399211594891923
 11
1.010045647383407
 21
-0.2663164794731117
 72
     1
 10
1.010045647383407
 20
-0.2663164794731259
 11
1.056262200110722
 21
-0.3092090964125234
 72
     1
 10
1.056262200110722
 20
-0.3092090964125091
 11
1.085972698261343
 21
-0.361999872974522
 72
     1
 10
1.085972698261358
 20
-0.3619998729745291
 11
1.092575031183727
 21
-0.4246889457533243
 72
     1
 10
1.092575031183727
 20
-0.4246889457533243
 11
1.115683196411993
 21
-0.4246889457533243
 72
     1
 10
1.115683196411978
 20
-0.4246889457533243
 11
1.109080863489609
 21
-0.17723195011623
 72
     1
 10
1.109080863489609
 20
-0.17723195011623
 11
1.109080863489609
 21
-0.1739325180439621
 72
     1
 10
1.109080863489609
 20
-0.1739325180439621
 11
1.105779697028424
 21
-0.1739325180439621
 97
        0
 75
     0
 76
     1
 52
0.0
 41
0.078125
 77
     0
 78
     1
 53
0.0
 43
-28.182772630023
 44
-32.9923404580304
 45
0.0
 46
0.009765625
 79
     0
 98
        1
 10
-28.182772630023
 20
-32.9923404580304
  0
LWPOLYLINE
  5
8D
330
89
100
AcDbEntity
  8
0
 62
    22
100
AcDbPolyline
 90
        4
 70
     1
 43
0.0
 10
0.0262955969727301
 20
-0.0287577800528069
 10
1.307151517972869
 20
-0.0287577800528069
 10
1.307151517972869
 20
-1.731261997456265
 10
0.0262955969727301
 20
-1.731261997456265
  0
LINE
  5
8E
330
89
100
AcDbEntity
  8
0
 62
    22
100
AcDbLine
 10
0.0262955969727443
 20
-1.4112176328236
 30
0.0
 11
1.307151517972869
 21
-1.4112176328236
 31
0.0
  0
ATTDEF
  5
8F
330
89
100
AcDbEntity
  8
A1
 62
    22
100
AcDbText
 10
0.6781304052809105
 20
-1.678298248906529
 30
0.0
 40
0.2126953125
  1

 72
     1
 11
0.6781304052809105
 21
-1.678298248906529
 31
0.0
100
AcDbAttributeDefinition
  3
ADD STONE MARKER
  2
XXXX
 70
     0
  0
LINE
  5
90
330
89
100
AcDbEntity
  8
0
 62
    22
100
AcDbLine
 10
0.7464576960363587
 20
-1.129021462591367
 30
0.0
 11
0.74595166367655
 21
-1.12746688439163
 31
0.0
  0
ARC
  5
91
330
89
100
AcDbEntity
  8
0
 62
    22
100
AcDbCircle
 10
0.8421255873066684
 20
-1.127299146756172
 30
0.0
 40
0.0956833935014068
100
AcDbArc
 50
181.0313885659746
 51
269.7936990713142
  0
LINE
  5
92
330
89
100
AcDbEntity
  8
0
 62
    22
100
AcDbLine
 10
0.9011069318936506
 20
-1.22315027789304
 30
0.0
 11
0.841781067510368
 21
-1.22315027789304
 31
0.0
  0
LINE
  5
93
330
89
100
AcDbEntity
  8
0
 62
    22
100
AcDbLine
 10
0.9011069318936506
 20
-1.256144598615648
 30
0.0
 11
0.9011069318936506
 21
-1.22315027789304
 31
0.0
  0
ARC
  5
94
330
89
100
AcDbEntity
  8
0
 62
    22
100
AcDbCircle
 10
0.4880203611777887
 20
-1.127299146756172
 30
0.0
 40
0.0956833935014068
100
AcDbArc
 50
270.2063009286848
 51
358.9686114340253
  0
LINE
  5
95
330
89
100
AcDbEntity
  8
0
 62
    22
100
AcDbLine
 10
0.4290390165908207
 20
-1.256144598615648
 30
0.0
 11
0.4290390165908207
 21
-1.22315027789304
 31
0.0
  0
LINE
  5
96
330
89
100
AcDbEntity
  8
0
 62
    22
100
AcDbLine
 10
0.4290390165908207
 20
-1.22315027789304
 30
0.0
 11
0.4883648809740891
 21
-1.22315027789304
 31
0.0
  0
LINE
  5
97
330
89
100
AcDbEntity
  8
0
 62
    22
100
AcDbLine
 10
0.5836882524480984
 20
-1.129021462591367
 30
0.0
 11
0.5841942848079072
 21
-1.12746688439163
 31
0.0
  0
LINE
  5
98
330
89
100
AcDbEntity
  8
0
 62
    22
100
AcDbLine
 10
0.4290390165908207
 20
-1.256144598615648
 30
0.0
 11
0.9011069318936506
 21
-1.256144598615648
 31
0.0
  0
LINE
  5
99
330
89
100
AcDbEntity
  8
0
 62
    22
100
AcDbLine
 10
1.085512597630156
 20
-0.415894330395318
 30
0.0
 11
1.085512597630156
 21
-0.4280723832374847
 31
0.0
  0
ARC
  5
9A
330
89
100
AcDbEntity
  8
0
 62
    22
100
AcDbCircle
 10
0.9138550451562537
 20
-0.4147906495365632
 30
0.0
 40
0.1716611005230106
100
AcDbArc
 50
359.6316189828552
 51
90.00081606717127
  0
ARC
  5
9B
330
89
100
AcDbEntity
  8
0
 62
    22
100
AcDbCircle
 10
0.9180888683309831
 20
-0.4147906495365632
 30
0.0
 40
0.1716611005230106
100
AcDbArc
 50
89.99918393282873
 51
180.3683810171443
  0
LINE
  5
9C
330
89
100
AcDbEntity
  8
0
 62
    22
100
AcDbLine
 10
0.2078601968792952
 20
-0.427988377825578
 30
0.0
 11
0.2441732502230991
 21
-0.427988377825578
 31
0.0
  0
LINE
  5
9D
330
89
100
AcDbEntity
  8
0
 62
    22
100
AcDbLine
 10
0.2446333508543006
 20
-0.415894330395318
 30
0.0
 11
0.2446333508543006
 21
-0.4280723832374847
 31
0.0
  0
ARC
  5
9E
330
89
100
AcDbEntity
  8
0
 62
    22
100
AcDbCircle
 10
0.4162909033282176
 20
-0.4147906495365632
 30
0.0
 40
0.1716611005230106
100
AcDbArc
 50
89.99918393282873
 51
180.3683810171443
  0
LINE
  5
9F
330
89
100
AcDbEntity
  8
0
 62
    22
100
AcDbLine
 10
0.2144627520724782
 20
-0.1706330859717156
 30
0.0
 11
0.2078601968792952
 21
-0.427988377825578
 31
0.0
  0
ARC
  5
A0
330
89
100
AcDbEntity
  8
0
 62
    22
100
AcDbCircle
 10
0.4120570801534882
 20
-0.4147906495365632
 30
0.0
 40
0.1716611005230106
100
AcDbArc
 50
359.6316189828552
 51
90.00081606717127
  0
LWPOLYLINE
  5
A1
330
89
100
AcDbEntity
  8
0
 62
    22
100
AcDbPolyline
 90
        4
 70
     0
 43
0.0
 10
0.224366029185191
 20
-0.1706330859717084
 10
1.115683196411978
 20
-0.1706330859717084
 10
1.122285751605161
 20
-0.427988377825578
 10
1.085972698261358
 20
-0.427988377825578
  0
ENDBLK
  5
A3
330
89
100
AcDbEntity
  8
0
 62
     7
100
AcDbBlockEnd
  0
BLOCK
  5
5D
330
30
100
AcDbEntity
  8
0
 62
     7
100
AcDbBlockBegin
  2
TSFORMB
 70
     2
 10
0.0
 20
0.0
 30
0.0
  3
TSFORMB
  1

  0
LINE
  5
31
330
30
100
AcDbEntity
  8
0
100
AcDbLine
 10
105.9925392881563
 20
78.84810849484797
 30
0.0
 11
105.9925392881563
 21
70.31072004936999
 31
0.0
  0
LINE
  5
32
330
30
100
AcDbEntity
  8
0
100
AcDbLine
 10
105.9925392881563
 20
0.0
 30
0.0
 11
105.9925392881563
 21
78.84810849484797
 31
0.0
  0
LINE
  5
33
330
30
100
AcDbEntity
  8
0
100
AcDbLine
 10
0.0
 20
0.0
 30
0.0
 11
105.9925392881563
 21
0.0
 31
0.0
  0
LINE
  5
34
330
30
100
AcDbEntity
  8
0
100
AcDbLine
 10
0.0
 20
78.84810849484797
 30
0.0
 11
0.0
 21
0.0
 31
0.0
  0
LINE
  5
35
330
30
100
AcDbEntity
  8
0
100
AcDbLine
 10
56.87404547169354
 20
0.0
 30
0.0
 11
56.87404547169354
 21
12.46470592426129
 31
0.0
  0
TEXT
  5
36
330
30
100
AcDbEntity
  8
0
 62
     7
100
AcDbText
 10
39.28098221173831
 20
10.97304845086642
 30
0.0
 40
0.8085000000000002
  1
LEGEND
100
AcDbText
  0
TEXT
  5
37
330
30
100
AcDbEntity
  8
0
 62
     7
100
AcDbText
 10
38.18320344075362
 20
3.401999220949562
 30
0.0
 40
0.8400000000000002
  1
CATEGORY
 72
     1
 11
41.47652732452399
 21
3.401999220949562
 31
0.0
100
AcDbText
  0
LINE
  5
38
330
30
100
AcDbEntity
  8
0
 62
     7
100
AcDbLine
 10
26.78791925899645
 20
8.549200111339303
 30
0.0
 11
29.32320076794366
 21
8.549200111339303
 31
0.0
  0
TEXT
  5
39
330
30
100
AcDbEntity
  8
0
 62
     7
100
AcDbText
 10
30.56536100380196
 20
8.165961840384341
 30
0.0
 40
1.05
  1
- Unfinished Side
100
AcDbText
  0
LINE
  5
3A
330
30
100
AcDbEntity
  8
0
100
AcDbLine
 10
25.9704997615305
 20
0.0
 30
0.0
 11
25.9704997615305
 21
12.46470592426129
 31
0.0
  0
ATTDEF
  5
3B
330
30
100
AcDbEntity
  8
A1
 62
     1
100
AcDbText
 10
41.26016333205519
 20
0.916484150045278
 30
0.0
 40
1.025589599999999
  1

 72
     1
 11
41.26016333205519
 21
0.916484150045278
 31
0.0
100
AcDbAttributeDefinition
  3
ADD CATEGORY NAMES
  2
XXXXXX
 70
     0
  0
ATTDEF
  5
3C
330
30
100
AcDbEntity
  8
A1
 62
     1
100
AcDbText
 10
21.55372231158242
 20
1.875018704105684
 30
0.0
 40
0.8400000000000002
  1

 72
     2
 11
21.55372231158242
 21
1.875018704105684
 31
0.0
100
AcDbAttributeDefinition
  3
ADD BARCODE TEXT
  2
XXXXXX
 70
     0
  0
LINE
  5
3D
330
30
100
AcDbEntity
  8
0
 62
     7
100
AcDbLine
 10
25.9704997615305
 20
12.46470592426129
 30
0.0
 11
0.0
 21
12.46470592426129
 31
0.0
  0
ATTDEF
  5
3E
330
30
100
AcDbEntity
  8
A1
 62
     1
100
AcDbText
 10
12.85191920549937
 20
3.11796280247222
 30
0.0
 40
6.132000000000001
  1

  7
barcoder
 72
     1
 11
12.85191920549937
 21
3.11796280247222
 31
0.0
100
AcDbAttributeDefinition
  3
ADD BARCODE NUMBER
  2
BARCODE
 70
     0
  0
LINE
  5
3F
330
30
100
AcDbEntity
  8
0
 62
     7
100
AcDbLine
 10
56.87404547169354
 20
10.31505184057846
 30
0.0
 11
25.9704997615305
 21
10.31505184057846
 31
0.0
  0
LINE
  5
40
330
30
100
AcDbEntity
  8
0
 62
     7
100
AcDbLine
 10
56.87404547169354
 20
2.864660228904256
 30
0.0
 11
25.9704997615305
 21
2.864660228904256
 31
0.0
  0
LINE
  5
41
330
30
100
AcDbEntity
  8
0
 62
     7
100
AcDbLine
 10
56.87404547169354
 20
4.753491724833224
 30
0.0
 11
25.9704997615305
 21
4.753491724833224
 31
0.0
  0
LINE
  5
42
330
30
100
AcDbEntity
  8
0
100
AcDbLine
 10
92.45878286761296
 20
70.31072004936999
 30
0.0
 11
92.45878286761296
 21
78.84810849484797
 31
0.0
  0
ATTDEF
  5
43
330
30
100
AcDbEntity
  8
A1
 62
     1
100
AcDbText
 10
99.20289126219257
 20
73.40001633244828
 30
0.0
 40
2.079
  1

 72
     1
 11
99.20289126219257
 21
73.40001633244828
 31
0.0
100
AcDbAttributeDefinition
  3
ADD PAGE NUMBER
  2
TS00XX
 70
     0
  0
LINE
  5
44
330
30
100
AcDbEntity
  8
0
100
AcDbLine
 10
105.9925392881563
 20
70.31072004936999
 30
0.0
 11
92.45878286761296
 21
70.31072004936999
 31
0.0
  0
LINE
  5
45
330
30
100
AcDbEntity
  8
0
100
AcDbLine
 10
105.9925392881563
 20
78.84810849484797
 30
0.0
 11
0.0
 21
78.84810849484797
 31
0.0
  0
TEXT
  5
46
330
30
100
AcDbEntity
  8
0
 62
     7
100
AcDbText
 10
101.0916707105178
 20
4.784832420392319
 30
0.0
 40
0.8459472656250001
  1
1:1
100
AcDbText
  0
ARC
  5
47
330
30
100
AcDbEntity
  8
0
 62
     7
100
AcDbCircle
 10
92.02173719823599
 20
7.854684255185304
 30
0.0
 40
0.5838368232859321
100
AcDbArc
 50
297.5553548372056
 51
304.8408806463489
  0
LINE
  5
48
330
30
100
AcDbEntity
  8
0
 62
     7
100
AcDbLine
 10
96.44018670993672
 20
6.648784575743377
 30
0.0
 11
95.62662822118033
 21
6.648784575743377
 31
0.0
  0
ARC
  5
49
330
30
100
AcDbEntity
  8
0
 62
     7
100
AcDbCircle
 10
92.02173719823599
 20
7.854684255185304
 30
0.0
 40
0.5838368232859408
100
AcDbArc
 50
304.8408806463489
 51
297.5553548372056
  0
TEXT
  5
4A
330
30
100
AcDbEntity
  8
0
 62
     7
100
AcDbText
 10
91.5997577365548
 20
7.487990433787842
 30
0.0
 40
0.7875000000000002
  1
R
  7
ROMANC
 72
     1
 11
92.02565639984959
 21
7.487990433787842
 31
0.0
100
AcDbText
  0
LINE
  5
4C
330
30
100
AcDbEntity
  8
0
100
AcDbLine
 10
96.44018670993649
 20
0.0
 30
0.0
 11
96.44018670993695
 21
12.46470592426129
 31
0.0
  0
TEXT
  5
4D
330
30
100
AcDbEntity
  8
0
100
AcDbText
 10
57.83820509574335
 20
4.931128255646488
 30
0.0
 40
1.111564440985976
  1
ARCHITECTURAL CONCRETE CO., INC.
 41
1.25
 72
     4
 11
76.69038922088157
 21
5.404193065577089
 31
0.0
100
AcDbText
  0
TEXT
  5
4E
330
30
100
AcDbEntity
  8
0
100
AcDbText
 10
64.01730751652124
 20
0.6790765005606179
 30
0.0
 40
0.6552430415498756
  1
PHONE: 1-800-789-4841  FAX : 770-463-2635
 41
1.1875
 72
     4
 11
76.73327742292065
 21
1.005769257279496
 31
0.0
100
AcDbText
  0
TEXT
  5
4F
330
30
100
AcDbEntity
  8
0
 62
     7
100
AcDbText
 10
61.23651428794109
 20
7.899354841769707
 30
0.0
 40
3.572100000000002
  1
TannerStone
  7
ROMANC
 72
     1
 11
75.92109734429948
 21
7.899354841769707
 31
0.0
100
AcDbText
  0
TEXT
  5
50
330
30
100
AcDbEntity
  8
0
100
AcDbText
 10
61.57240842020546
 20
1.964543484004154
 30
0.0
 40
0.6552430415498756
  1
http://TannerStone.com ~ Email:Sales@TannerStone.com 
 41
1.1875
 72
     4
 11
77.08342119362362
 21
2.259193880788984
 31
0.0
100
AcDbText
  0
TEXT
  5
51
330
30
100
AcDbEntity
  8
0
100
AcDbText
 10
59.98363509556096
 20
3.260563711198551
 30
0.0
 40
0.74899296216962
  1
101 JOHNSTON CIRCLE, PALMETTO, GEORGIA 30268
 41
1.1875
 72
     4
 11
76.85158629384147
 21
3.579323650094977
 31
0.0
100
AcDbText
  0
LINE
  5
52
330
30
100
AcDbEntity
  8
0
100
AcDbLine
 10
56.87404547169354
 20
6.648784575743377
 30
0.0
 11
105.9925392881563
 21
6.648784575743377
 31
0.0
  0
LINE
  5
53
330
30
100
AcDbEntity
  8
0
 62
     7
100
AcDbLine
 10
96.44018670993682
 20
9.556745250002336
 30
0.0
 11
105.9925392881563
 21
9.556745250002336
 31
0.0
  0
TEXT
  5
54
330
30
100
AcDbEntity
  8
0
 62
     7
100
AcDbText
 10
96.66995560986686
 20
8.813345575893606
 30
0.0
 40
0.5414062500000001
  1
LBS/LINEAR FEET:
100
AcDbText
  0
LINE
  5
55
330
30
100
AcDbEntity
  8
LINEWORK
 62
     7
100
AcDbLine
 10
96.40991550469017
 20
3.757904136908962
 30
0.0
 11
105.9622680829099
 21
3.757904136909189
 31
0.0
  0
TEXT
  5
56
330
30
100
AcDbEntity
  8
0
 62
     7
100
AcDbText
 10
98.85330873086445
 20
1.524519923848686
 30
0.0
 40
0.8459472656250001
  1
1-1-2000
100
AcDbText
  0
TEXT
  5
57
330
30
100
AcDbEntity
  8
0
 62
     7
100
AcDbText
 10
96.68542089784603
 20
5.927566558083469
 30
0.0
 40
0.5414062500000001
  1
SCALE:
100
AcDbText
  0
TEXT
  5
58
330
30
100
AcDbEntity
  8
0
 62
     7
100
AcDbText
 10
96.74158717246577
 20
2.97910930546476
 30
0.0
 40
0.5414062500000001
  1
DATE:
100
AcDbText
  0
TEXT
  5
59
330
30
100
AcDbEntity
  8
0
 62
     7
100
AcDbText
 10
96.70022651293084
 20
11.66518473255649
 30
0.0
 40
0.5414062500000001
  1
PROFILE AREA:
100
AcDbText
  0
ATTDEF
  5
5A
330
30
100
AcDbEntity
  8
A1
 62
     1
100
AcDbText
 10
101.1759733039033
 20
10.07900441527107
 30
0.0
 40
0.9450000000000002
  1

 72
     1
 11
101.1759733039033
 21
10.07900441527107
 31
0.0
100
AcDbAttributeDefinition
  3
ADD PROFILE AREA
  2
XXXXX
 70
     0
  0
ATTDEF
  5
5B
330
30
100
AcDbEntity
  8
A1
 62
     1
100
AcDbText
 10
101.1418062311347
 20
7.21953861551384
 30
0.0
 40
0.9450000000000002
  1

 72
     1
 11
101.1418062311347
 21
7.21953861551384
 31
0.0
100
AcDbAttributeDefinition
  3
ADD #/LF
  2
XXXXX
 70
     0
  0
LINE
  5
5C
330
30
100
AcDbEntity
  8
0
100
AcDbLine
 10
25.9704997615305
 20
12.46470592426129
 30
0.0
 11
105.9925392881563
 21
12.46470592426129
 31
0.0
  0
ENDBLK
  5
5E
330
30
100
AcDbEntity
  8
0
 62
     7
100
AcDbBlockEnd
  0
BLOCK
  5
5B4
330
5B3
100
AcDbEntity
  8
0
 62
     7
100
AcDbBlockBegin
  2
SCF
 70
     0
 10
0.0
 20
0.0
 30
0.0
  3
SCF
  1

  0
ENDBLK
  5
5B5
330
5B3
100
AcDbEntity
  8
0
 62
     7
100
AcDbBlockEnd
  0
BLOCK
  5
5EC
330
5EB
100
AcDbEntity
  8
ASHADE
100
AcDbBlockBegin
  2
AVE_RENDER
 70
     0
 10
0.0
 20
0.0
 30
0.0
  3
AVE_RENDER
  1
AVE_RENDER
  0
ENDBLK
  5
5ED
330
5EB
100
AcDbEntity
  8
0
100
AcDbBlockEnd
  0
BLOCK
  5
5EF
330
5EE
100
AcDbEntity
  8
ASHADE
100
AcDbBlockBegin
  2
AVE_GLOBAL
 70
     0
 10
0.0
 20
0.0
 30
0.0
  3
AVE_GLOBAL
  1
AVE_GLOBAL
  0
ENDBLK
  5
5F0
330
5EE
100
AcDbEntity
  8
0
100
AcDbBlockEnd
  0
BLOCK
  5
91F
330
914
100
AcDbEntity
  8
0
 62
     7
100
AcDbBlockBegin
  2
*D5
 70
     1
 10
0.0
 20
0.0
 30
0.0
  3
*D5
  1

  0
LINE
  5
D02
330
914
100
AcDbEntity
  8
DIM
 62
     0
100
AcDbLine
 10
146.8987393791601
 20
63.32056741664619
 30
0.0
 11
154.6546612654514
 21
63.32056741664619
 31
0.0
  0
LINE
  5
D03
330
914
100
AcDbEntity
  8
DIM
 62
     0
100
AcDbLine
 10
146.8987393791601
 20
89.32056741664618
 30
0.0
 11
154.6546612654514
 21
89.32056741664618
 31
0.0
  0
LINE
  5
D04
330
914
100
AcDbEntity
  8
DIM
 62
     0
100
AcDbLine
 10
154.0546612654514
 20
64.52056741664619
 30
0.0
 11
154.0546612654514
 21
73.61810948146001
 31
0.0
  0
LINE
  5
D05
330
914
100
AcDbEntity
  8
DIM
 62
     0
100
AcDbLine
 10
154.0546612654514
 20
88.12056741664617
 30
0.0
 11
154.0546612654514
 21
78.50825831207661
 31
0.0
  0
MTEXT
  5
D06
330
914
100
AcDbEntity
  8
DIM
 62
     0
100
AcDbMText
 10
154.0546612654514
 20
76.06318389676832
 30
0.0
 40
2.399999999999999
 41
0.0
 71
     5
 72
     1
  1
\A1;26"
 73
     1
 44
1.0
  0
SOLID
  5
D07
330
914
100
AcDbEntity
  8
DIM
 62
     0
100
AcDbTrace
 10
153.8546612654514
 20
64.52056741664619
 30
0.0
 11
154.2546612654514
 21
64.52056741664619
 31
0.0
 12
154.0546612654514
 22
63.32056741664619
 32
0.0
 13
154.0546612654514
 23
63.32056741664619
 33
0.0
  0
SOLID
  5
D08
330
914
100
AcDbEntity
  8
DIM
 62
     0
100
AcDbTrace
 10
153.8546612654514
 20
88.12056741664617
 30
0.0
 11
154.2546612654514
 21
88.12056741664617
 31
0.0
 12
154.0546612654514
 22
89.32056741664618
 32
0.0
 13
154.0546612654514
 23
89.32056741664618
 33
0.0
  0
POINT
  5
D09
330
914
100
AcDbEntity
  8
Defpoints
 62
     0
100
AcDbPoint
 10
144.4987393791601
 20
63.32056741664619
 30
0.0
  0
POINT
  5
D0A
330
914
100
AcDbEntity
  8
Defpoints
 62
     0
100
AcDbPoint
 10
144.4987393791601
 20
89.32056741664618
 30
0.0
  0
POINT
  5
D0B
330
914
100
AcDbEntity
  8
Defpoints
 62
     0
100
AcDbPoint
 10
154.0546612654514
 20
89.32056741664618
 30
0.0
  0
ENDBLK
  5
920
330
914
100
AcDbEntity
  8
0
 62
     7
100
AcDbBlockEnd
  0
BLOCK
  5
96F
330
964
100
AcDbEntity
  8
0
 62
     7
100
AcDbBlockBegin
  2
*D6
 70
     1
 10
0.0
 20
0.0
 30
0.0
  3
*D6
  1

  0
LINE
  5
CF8
330
964
100
AcDbEntity
  8
DIM
 62
     0
100
AcDbLine
 10
118.4545006786659
 20
62.90207365386535
 30
0.0
 11
127.3417466862308
 21
62.90207365386535
 31
0.0
  0
LINE
  5
CF9
330
964
100
AcDbEntity
  8
DIM
 62
     0
100
AcDbLine
 10
118.4545006786659
 20
89.46507365386528
 30
0.0
 11
127.3417466862308
 21
89.46507365386528
 31
0.0
  0
LINE
  5
CFA
330
964
100
AcDbEntity
  8
DIM
 62
     0
100
AcDbLine
 10
126.7417466862308
 20
64.10207365386536
 30
0.0
 11
126.7417466862308
 21
73.35850959866646
 31
0.0
  0
LINE
  5
CFB
330
964
100
AcDbEntity
  8
DIM
 62
     0
100
AcDbLine
 10
126.7417466862308
 20
88.26507365386529
 30
0.0
 11
126.7417466862308
 21
78.37452660787978
 31
0.0
  0
MTEXT
  5
CFC
330
964
100
AcDbEntity
  8
DIM
 62
     0
100
AcDbMText
 10
126.7417466862308
 20
75.86651810327314
 30
0.0
 40
2.399999999999999
 41
0.0
 71
     5
 72
     1
  1
\A1;26-3/4"
 73
     1
 44
1.0
  0
SOLID
  5
CFD
330
964
100
AcDbEntity
  8
DIM
 62
     0
100
AcDbTrace
 10
126.5417466862308
 20
64.10207365386536
 30
0.0
 11
126.9417466862308
 21
64.10207365386536
 31
0.0
 12
126.7417466862308
 22
62.90207365386535
 32
0.0
 13
126.7417466862308
 23
62.90207365386535
 33
0.0
  0
SOLID
  5
CFE
330
964
100
AcDbEntity
  8
DIM
 62
     0
100
AcDbTrace
 10
126.5417466862308
 20
88.26507365386529
 30
0.0
 11
126.9417466862308
 21
88.26507365386529
 31
0.0
 12
126.7417466862308
 22
89.46507365386528
 32
0.0
 13
126.7417466862308
 23
89.46507365386528
 33
0.0
  0
POINT
  5
CFF
330
964
100
AcDbEntity
  8
Defpoints
 62
     0
100
AcDbPoint
 10
116.0545006786659
 20
62.90207365386535
 30
0.0
  0
POINT
  5
D00
330
964
100
AcDbEntity
  8
Defpoints
 62
     0
100
AcDbPoint
 10
116.0545006786659
 20
89.46507365386528
 30
0.0
  0
POINT
  5
D01
330
964
100
AcDbEntity
  8
Defpoints
 62
     0
100
AcDbPoint
 10
126.7417466862308
 20
89.46507365386528
 30
0.0
  0
ENDBLK
  5
970
330
964
100
AcDbEntity
  8
0
 62
     7
100
AcDbBlockEnd
  0
BLOCK
  5
A36
330
A2B
100
AcDbEntity
  8
0
 62
     7
100
AcDbBlockBegin
  2
*D7
 70
     1
 10
0.0
 20
0.0
 30
0.0
  3
*D7
  1

  0
LINE
  5
D0C
330
A2B
100
AcDbEntity
  8
DIM
 62
     0
100
AcDbLine
 10
150.0123831291607
 20
58.5705674166463
 30
0.0
 11
163.4254508242689
 21
58.5705674166463
 31
0.0
  0
LINE
  5
D0D
330
A2B
100
AcDbEntity
  8
DIM
 62
     0
100
AcDbLine
 10
149.9557577410421
 20
94.37056741664603
 30
0.0
 11
163.425450824269
 21
94.37056741664601
 31
0.0
  0
LINE
  5
D0E
330
A2B
100
AcDbEntity
  8
DIM
 62
     0
100
AcDbLine
 10
162.8254508242689
 20
59.7705674166463
 30
0.0
 11
162.825450824269
 21
73.61129891998188
 31
0.0
  0
LINE
  5
D0F
330
A2B
100
AcDbEntity
  8
DIM
 62
     0
100
AcDbLine
 10
162.825450824269
 20
93.170567416646
 30
0.0
 11
162.825450824269
 21
78.50144775059847
 31
0.0
  0
MTEXT
  5
D10
330
A2B
100
AcDbEntity
  8
DIM
 62
     0
100
AcDbMText
 10
162.825450824269
 20
76.05637333529021
 30
0.0
 40
2.399999999999999
 41
0.0
 71
     5
 72
     1
  1
\A1;36"
 73
     1
 44
1.0
  0
SOLID
  5
D11
330
A2B
100
AcDbEntity
  8
DIM
 62
     0
100
AcDbTrace
 10
162.625450824269
 20
59.7705674166463
 30
0.0
 11
163.0254508242689
 21
59.7705674166463
 31
0.0
 12
162.8254508242689
 22
58.5705674166463
 32
0.0
 13
162.8254508242689
 23
58.5705674166463
 33
0.0
  0
SOLID
  5
D12
330
A2B
100
AcDbEntity
  8
DIM
 62
     0
100
AcDbTrace
 10
162.625450824269
 20
93.170567416646
 30
0.0
 11
163.025450824269
 21
93.170567416646
 31
0.0
 12
162.825450824269
 22
94.37056741664601
 32
0.0
 13
162.825450824269
 23
94.37056741664601
 33
0.0
  0
POINT
  5
D13
330
A2B
100
AcDbEntity
  8
Defpoints
 62
     0
100
AcDbPoint
 10
147.6123831291607
 20
58.5705674166463
 30
0.0
  0
POINT
  5
D14
330
A2B
100
AcDbEntity
  8
Defpoints
 62
     0
100
AcDbPoint
 10
147.5557577410421
 20
94.37056741664603
 30
0.0
  0
POINT
  5
D15
330
A2B
100
AcDbEntity
  8
Defpoints
 62
     0
100
AcDbPoint
 10
162.825450824269
 20
94.37056741664601
 30
0.0
  0
ENDBLK
  5
A37
330
A2B
100
AcDbEntity
  8
0
 62
     7
100
AcDbBlockEnd
  0
BLOCK
  5
A43
330
A38
100
AcDbEntity
  8
0
 62
     7
100
AcDbBlockBegin
  2
*D8
 70
     1
 10
0.0
 20
0.0
 30
0.0
  3
*D8
  1

  0
LINE
  5
D16
330
A38
100
AcDbEntity
  8
DIM
 62
     0
100
AcDbLine
 10
145.4243831291601
 20
56.54556741664624
 30
0.0
 11
145.4243831291601
 21
49.64806936016715
 31
0.0
  0
LINE
  5
D17
330
A38
100
AcDbEntity
  8
DIM
 62
     0
100
AcDbLine
 10
137.8003831291601
 20
56.54556741664606
 30
0.0
 11
137.8003831291601
 21
49.64806936016715
 31
0.0
  0
LINE
  5
D18
330
A38
100
AcDbEntity
  8
DIM
 62
     0
100
AcDbLine
 10
144.2243831291601
 20
50.24806936016715
 30
0.0
 11
139.00038312916
 21
50.24806936016715
 31
0.0
  0
LINE
  5
D19
330
A38
100
AcDbEntity
  8
DIM
 62
     0
100
AcDbLine
 10
150.6430051542966
 20
50.24806936016715
 30
0.0
 11
145.4243831291601
 21
50.24806936016715
 31
0.0
  0
MTEXT
  5
D1A
330
A38
100
AcDbEntity
  8
DIM
 62
     0
100
AcDbMText
 10
157.2995607885985
 20
50.24806936016715
 30
0.0
 40
2.399999999999999
 41
0.0
 71
     5
 72
     1
  1
\A1;7 5/8"
 73
     1
 44
1.0
  0
SOLID
  5
D1B
330
A38
100
AcDbEntity
  8
DIM
 62
     0
100
AcDbTrace
 10
144.2243831291601
 20
50.44806936016716
 30
0.0
 11
144.2243831291601
 21
50.04806936016715
 31
0.0
 12
145.4243831291601
 22
50.24806936016715
 32
0.0
 13
145.4243831291601
 23
50.24806936016715
 33
0.0
  0
SOLID
  5
D1C
330
A38
100
AcDbEntity
  8
DIM
 62
     0
100
AcDbTrace
 10
139.00038312916
 20
50.44806936016716
 30
0.0
 11
139.00038312916
 21
50.04806936016715
 31
0.0
 12
137.8003831291601
 22
50.24806936016715
 32
0.0
 13
137.8003831291601
 23
50.24806936016715
 33
0.0
  0
POINT
  5
D1D
330
A38
100
AcDbEntity
  8
Defpoints
 62
     0
100
AcDbPoint
 10
145.4243831291601
 20
58.94556741664624
 30
0.0
  0
POINT
  5
D1E
330
A38
100
AcDbEntity
  8
Defpoints
 62
     0
100
AcDbPoint
 10
137.8003831291601
 20
58.94556741664605
 30
0.0
  0
POINT
  5
D1F
330
A38
100
AcDbEntity
  8
Defpoints
 62
     0
100
AcDbPoint
 10
137.8003831291601
 20
50.24806936016715
 30
0.0
  0
ENDBLK
  5
A44
330
A38
100
AcDbEntity
  8
0
 62
     7
100
AcDbBlockEnd
  0
BLOCK
  5
AAE
330
AA3
100
AcDbEntity
  8
0
 62
     7
100
AcDbBlockBegin
  2
*D9
 70
     1
 10
0.0
 20
0.0
 30
0.0
  3
*D9
  1

  0
LINE
  5
D20
330
AA3
100
AcDbEntity
  8
DIM
 62
     0
100
AcDbLine
 10
56.59270142549281
 20
38.55078453960856
 30
0.0
 11
56.59270142549281
 21
33.47410950805291
 31
0.0
  0
LINE
  5
D21
330
AA3
100
AcDbEntity
  8
DIM
 62
     0
100
AcDbLine
 10
105.304500678665
 20
56.54556741664602
 30
0.0
 11
105.304500678665
 21
33.47410950805291
 31
0.0
  0
LINE
  5
D22
330
AA3
100
AcDbEntity
  8
DIM
 62
     0
100
AcDbLine
 10
57.79270142549282
 20
34.07410950805291
 30
0.0
 11
74.12217704638312
 21
34.07410950805291
 31
0.0
  0
LINE
  5
D23
330
AA3
100
AcDbEntity
  8
DIM
 62
     0
100
AcDbLine
 10
104.104500678665
 20
34.07410950805291
 30
0.0
 11
88.54258810237178
 21
34.07410950805291
 31
0.0
  0
MTEXT
  5
D24
330
AA3
100
AcDbEntity
  8
DIM
 62
     0
100
AcDbMText
 10
81.33238257437744
 20
34.07410950805291
 30
0.0
 40
2.399999999999999
 41
0.0
 71
     5
 72
     1
  1
\A1;VARIES
 73
     1
 44
1.0
  0
SOLID
  5
D25
330
AA3
100
AcDbEntity
  8
DIM
 62
     0
100
AcDbTrace
 10
57.79270142549282
 20
34.27410950805291
 30
0.0
 11
57.79270142549282
 21
33.87410950805291
 31
0.0
 12
56.59270142549281
 22
34.07410950805291
 32
0.0
 13
56.59270142549281
 23
34.07410950805291
 33
0.0
  0
SOLID
  5
D26
330
AA3
100
AcDbEntity
  8
DIM
 62
     0
100
AcDbTrace
 10
104.104500678665
 20
34.27410950805291
 30
0.0
 11
104.104500678665
 21
33.87410950805291
 31
0.0
 12
105.304500678665
 22
34.07410950805291
 32
0.0
 13
105.304500678665
 23
34.07410950805291
 33
0.0
  0
POINT
  5
D27
330
AA3
100
AcDbEntity
  8
Defpoints
 62
     0
100
AcDbPoint
 10
56.59270142549281
 20
40.95078453960856
 30
0.0
  0
POINT
  5
D28
330
AA3
100
AcDbEntity
  8
Defpoints
 62
     0
100
AcDbPoint
 10
105.304500678665
 20
58.94556741664601
 30
0.0
  0
POINT
  5
D29
330
AA3
100
AcDbEntity
  8
Defpoints
 62
     0
100
AcDbPoint
 10
105.304500678665
 20
34.07410950805291
 30
0.0
  0
ENDBLK
  5
AAF
330
AA3
100
AcDbEntity
  8
0
 62
     7
100
AcDbBlockEnd
  0
BLOCK
  5
AC9
330
ABC
100
AcDbEntity
  8
0
 62
     7
100
AcDbBlockBegin
  2
*D10
 70
     1
 10
0.0
 20
0.0
 30
0.0
  3
*D10
  1

  0
LINE
  5
D2A
330
ABC
100
AcDbEntity
  8
DIM
 62
     0
100
AcDbLine
 10
77.50994089191656
 20
46.53742810388889
 30
0.0
 11
77.50994089191656
 21
41.75874539042322
 31
0.0
  0
LINE
  5
D2B
330
ABC
100
AcDbEntity
  8
DIM
 62
     0
100
AcDbLine
 10
84.97940999955735
 20
50.84992810388889
 30
0.0
 11
84.97940999955735
 21
41.75874539042322
 31
0.0
  0
LINE
  5
D2C
330
ABC
100
AcDbEntity
  8
DIM
 62
     0
100
AcDbLine
 10
78.70994089191656
 20
42.35874539042322
 30
0.0
 11
83.77940999955734
 21
42.35874539042322
 31
0.0
  0
LINE
  5
D2D
330
ABC
100
AcDbEntity
  8
DIM
 62
     0
100
AcDbLine
 10
89.27080850021333
 20
42.35874539042322
 30
0.0
 11
84.97940999955735
 21
42.35874539042322
 31
0.0
  0
MTEXT
  5
D2E
330
ABC
100
AcDbEntity
  8
DIM
 62
     0
100
AcDbMText
 10
95.92736413451524
 20
42.35874539042322
 30
0.0
 40
2.399999999999999
 41
0.0
 71
     5
 72
     1
  1
\A1;7 3/8"
 73
     1
 44
1.0
  0
SOLID
  5
D2F
330
ABC
100
AcDbEntity
  8
DIM
 62
     0
100
AcDbTrace
 10
78.70994089191656
 20
42.55874539042323
 30
0.0
 11
78.70994089191656
 21
42.15874539042322
 31
0.0
 12
77.50994089191656
 22
42.35874539042322
 32
0.0
 13
77.50994089191656
 23
42.35874539042322
 33
0.0
  0
SOLID
  5
D30
330
ABC
100
AcDbEntity
  8
DIM
 62
     0
100
AcDbTrace
 10
83.77940999955734
 20
42.55874539042323
 30
0.0
 11
83.77940999955734
 21
42.15874539042322
 31
0.0
 12
84.97940999955735
 22
42.35874539042322
 32
0.0
 13
84.97940999955735
 23
42.35874539042322
 33
0.0
  0
POINT
  5
D31
330
ABC
100
AcDbEntity
  8
Defpoints
 62
     0
100
AcDbPoint
 10
77.50994089191656
 20
48.93742810388889
 30
0.0
  0
POINT
  5
D32
330
ABC
100
AcDbEntity
  8
Defpoints
 62
     0
100
AcDbPoint
 10
84.97940999955735
 20
53.24992810388889
 30
0.0
  0
POINT
  5
D33
330
ABC
100
AcDbEntity
  8
Defpoints
 62
     0
100
AcDbPoint
 10
84.97940999955735
 20
42.35874539042322
 30
0.0
  0
ENDBLK
  5
ACA
330
ABC
100
AcDbEntity
  8
0
 62
     7
100
AcDbBlockEnd
  0
BLOCK
  5
AE8
330
ADB
100
AcDbEntity
  8
0
 62
     7
100
AcDbBlockBegin
  2
*D11
 70
     1
 10
0.0
 20
0.0
 30
0.0
  3
*D11
  1

  0
LINE
  5
D34
330
ADB
100
AcDbEntity
  8
DIM
 62
     0
100
AcDbLine
 10
135.4690115404561
 20
95.9455674166459
 30
0.0
 11
135.4690115404561
 21
101.417936881224
 31
0.0
  0
LINE
  5
D35
330
ADB
100
AcDbEntity
  8
DIM
 62
     0
100
AcDbLine
 10
147.7557547178642
 20
95.9455674166459
 30
0.0
 11
147.7557547178642
 21
101.417936881224
 31
0.0
  0
LINE
  5
D36
330
ADB
100
AcDbEntity
  8
DIM
 62
     0
100
AcDbLine
 10
136.6690115404561
 20
100.817936881224
 30
0.0
 11
146.5557547178642
 21
100.817936881224
 31
0.0
  0
LINE
  5
D37
330
ADB
100
AcDbEntity
  8
DIM
 62
     0
100
AcDbLine
 10
152.4633770660913
 20
100.817936881224
 30
0.0
 11
147.7557547178642
 21
100.817936881224
 31
0.0
  0
MTEXT
  5
D38
330
ADB
100
AcDbEntity
  8
DIM
 62
     0
100
AcDbMText
 10
160.0103650178986
 20
100.817936881224
 30
0.0
 40
2.399999999999999
 41
0.0
 71
     5
 72
     1
  1
\A1;12 1/4"
 73
     1
 44
1.0
  0
SOLID
  5
D39
330
ADB
100
AcDbEntity
  8
DIM
 62
     0
100
AcDbTrace
 10
136.6690115404561
 20
101.017936881224
 30
0.0
 11
136.6690115404561
 21
100.617936881224
 31
0.0
 12
135.4690115404561
 22
100.817936881224
 32
0.0
 13
135.4690115404561
 23
100.817936881224
 33
0.0
  0
SOLID
  5
D3A
330
ADB
100
AcDbEntity
  8
DIM
 62
     0
100
AcDbTrace
 10
146.5557547178642
 20
101.017936881224
 30
0.0
 11
146.5557547178642
 21
100.617936881224
 31
0.0
 12
147.7557547178642
 22
100.817936881224
 32
0.0
 13
147.7557547178642
 23
100.817936881224
 33
0.0
  0
POINT
  5
D3B
330
ADB
100
AcDbEntity
  8
Defpoints
 62
     0
100
AcDbPoint
 10
135.4690115404561
 20
93.54556741664589
 30
0.0
  0
POINT
  5
D3C
330
ADB
100
AcDbEntity
  8
Defpoints
 62
     0
100
AcDbPoint
 10
147.7557547178642
 20
93.54556741664589
 30
0.0
  0
POINT
  5
D3D
330
ADB
100
AcDbEntity
  8
Defpoints
 62
     0
100
AcDbPoint
 10
147.7557547178642
 20
100.817936881224
 30
0.0
  0
ENDBLK
  5
AE9
330
ADB
100
AcDbEntity
  8
0
 62
     7
100
AcDbBlockEnd
  0
ENDSEC
  0
SECTION
  2
ENTITIES
  0
INSERT
  5
26
330
2
100
AcDbEntity
  8
LINEWORK
 62
     7
100
AcDbBlockReference
 66
     1
  2
TSFORMB
 10
0.0
 20
0.0
 30
0.0
 41
1.692899999999994
 42
1.692900000000008
 43
1.6929
  0
ATTRIB
  5
27
330
26
100
AcDbEntity
  8
A1
 62
     1
100
AcDbText
 10
55.90788487662421
 20
1.551516017611618
 30
0.0
 40
1.73622063384
  1
BALUSTRADE 4" CODE
 72
     1
 11
69.84933050483626
 21
1.551516017611618
 31
0.0
100
AcDbAttribute
  2
XXXXXX
 70
     0
  0
ATTRIB
  5
29
330
26
100
AcDbEntity
  8
A1
 62
     1
100
AcDbText
 10
28.59907055655785
 20
3.17421916418047
 30
0.0
 40
1.422036
  1
TSB005
 72
     2
 11
36.48829650127791
 21
3.17421916418047
 31
0.0
100
AcDbAttribute
  2
XXXXXX
 70
     0
  0
ATTRIB
  5
2A
330
26
100
AcDbEntity
  8
A1
 62
     1
100
AcDbText
 10
11.50591200798991
 20
5.278399228305204
 30
0.0
 40
10.3808628
  1
TSB005
  7
barcoder
 72
     1
 11
21.75701402298992
 21
5.278399228305204
 31
0.0
100
AcDbAttribute
  2
BARCODE
 70
     0
  0
ATTRIB
  5
2C
330
26
100
AcDbEntity
  8
A1
 62
     1
100
AcDbText
 10
158.1776575111747
 20
124.2588876492016
 30
0.0
 40
3.519539100000001
  1
TSB005
 72
     1
 11
167.9405746177658
 21
124.2588876492016
 31
0.0
100
AcDbAttribute
  2
TS00XX
 70
     0
  0
ATTRIB
  5
2D
330
26
100
AcDbEntity
  8
A1
 62
     1
100
AcDbText
 10
171.2808052061779
 20
17.06274657461236
 30
0.0
 40
1.5997905
  1

 72
     1
 11
171.2808052061779
 21
17.06274657461236
 31
0.0
100
AcDbAttribute
  2
XXXXX
 70
     0
  0
ATTRIB
  5
2E
330
26
100
AcDbEntity
  8
A1
 62
     1
100
AcDbText
 10
171.2229637686881
 20
12.22195692220336
 30
0.0
 40
1.5997905
  1

 72
     1
 11
171.2229637686881
 21
12.22195692220336
 31
0.0
100
AcDbAttribute
  2
XXXXX
 70
     0
  0
SEQEND
  5
5F
330
26
100
AcDbEntity
  8
LINEWORK
 62
     7
  0
ATTDEF
  5
AA
330
2
100
AcDbEntity
  8
leaders
 62
     1
370
    30
100
AcDbText
 10
12.37763864914296
 20
33.61169855670903
 30
0.0
 40
2.879999999999999
  1

100
AcDbAttributeDefinition
  3
ADD LINK NUMBER (WMF)
  2
TS0995
 70
     0
  0
ATTDEF
  5
AB
330
2
100
AcDbEntity
  8
leaders
 62
     1
370
    30
100
AcDbText
 10
11.50155342443196
 20
50.33482217427772
 30
0.0
 40
2.879999999999999
  1

100
AcDbAttributeDefinition
  3
ADD LINK NUMBER (WMF)
  2
TS054M
 70
     0
  0
ATTDEF
  5
AC
330
2
100
AcDbEntity
  8
leaders
 62
     1
370
    30
100
AcDbText
 10
11.96376347392333
 20
93.09020122034125
 30
0.0
 40
2.879999999999999
  1

100
AcDbAttributeDefinition
  3
ADD LINK NUMBER (WMF)
  2
TS0175
 70
     0
  0
ATTDEF
  5
AD
330
2
100
AcDbEntity
  8
leaders
 62
     1
370
    30
100
AcDbText
 10
12.12841225144723
 20
64.72071596578738
 30
0.0
 40
2.879999999999999
  1

100
AcDbAttributeDefinition
  3
ADD LINK NUMBER (WMF)
  2
TS1618
 70
     0
  0
ATTDEF
  5
AE
330
2
100
AcDbEntity
  8
leaders
 62
     1
370
    30
100
AcDbText
 10
11.95849892913764
 20
79.17843662229429
 30
0.0
 40
2.879999999999999
  1

100
AcDbAttributeDefinition
  3
ADD LINK NUMBER (WMF)
  2
TS1157
 70
     0
  0
LWPOLYLINE
  5
B0
330
2
100
AcDbEntity
  8
LINEWORK
  6
PHANTOM
 62
     7
 48
3.0
370
    30
100
AcDbPolyline
 90
        4
 70
     0
 43
0.0
 10
43.93967762834221
 20
40.76378453960859
 10
67.16935737474708
 20
40.76378453960856
 10
98.01161003712373
 20
58.57056741664601
 10
118.1639606275996
 20
58.57056741664601
  0
LINE
  5
B1
330
2
100
AcDbEntity
  8
LINEWORK
 62
     7
370
    30
100
AcDbLine
 10
64.90686154820804
 20
72.97364404562782
 30
0.0
 11
95.41341065847189
 21
90.58660838648521
 31
0.0
  0
LINE
  5
B2
330
2
100
AcDbEntity
  8
LINEWORK
 62
     7
370
    30
100
AcDbLine
 10
65.06058397853263
 20
72.41287667931792
 30
0.0
 11
95.56713308879649
 21
90.02584102017525
 31
0.0
  0
LINE
  5
B3
330
2
100
AcDbEntity
  8
LINEWORK
 62
     7
370
    30
100
AcDbLine
 10
96.91680243716866
 20
62.70161967491557
 30
0.0
 11
66.42441403400764
 21
45.09683102211605
 31
0.0
  0
LINE
  5
B4
330
2
100
AcDbEntity
  8
LINEWORK
 62
     7
370
    30
100
AcDbLine
 10
97.00308646072508
 20
62.17408550995301
 30
0.0
 11
66.51069805756401
 21
44.56929685715349
 31
0.0
  0
LINE
  5
B5
330
2
100
AcDbEntity
  8
LINEWORK
 62
     7
370
    30
100
AcDbLine
 10
97.56393261384165
 20
58.74511343769629
 30
0.0
 11
67.07154421068063
 21
41.14032478489676
 31
0.0
  0
LINE
  5
B6
330
2
100
AcDbEntity
  8
LINEWORK
 62
     7
370
    30
100
AcDbLine
 10
80.39629714191653
 20
53.59651419744543
 30
0.0
 11
74.62358464191658
 21
50.26363708161611
 31
0.0
  0
LINE
  5
B7
330
2
100
AcDbEntity
  8
LINEWORK
 62
     7
370
    30
100
AcDbLine
 10
77.50994089191653
 20
75.61705935389025
 30
0.0
 11
80.32309245441656
 21
75.61705935389037
 31
0.0
  0
LINE
  5
B8
330
2
100
AcDbEntity
  8
LINEWORK
 62
     7
370
    30
100
AcDbLine
 10
80.32309245441656
 20
75.61705935389037
 30
0.0
 11
77.50994089191653
 21
75.61705935389025
 31
0.0
  0
LINE
  5
B9
330
2
100
AcDbEntity
  8
LINEWORK
 62
     7
370
    30
100
AcDbLine
 10
77.50994089191653
 20
75.74255310389023
 30
0.0
 11
80.39629714191653
 21
75.74255310389023
 31
0.0
  0
LINE
  5
BA
330
2
100
AcDbEntity
  8
LINEWORK
 62
     7
370
    30
100
AcDbLine
 10
77.50994089191653
 20
75.74255310389023
 30
0.0
 11
80.39629714191653
 21
75.74255310389023
 31
0.0
  0
LINE
  5
BB
330
2
100
AcDbEntity
  8
LINEWORK
 62
     7
370
    30
100
AcDbLine
 10
74.62358464191658
 20
76.66012852515601
 30
0.0
 11
80.39629714191653
 21
79.99300564098527
 31
0.0
  0
LINE
  5
BC
330
2
100
AcDbEntity
  8
LINEWORK
 62
     7
370
    30
100
AcDbLine
 10
64.20725368753076
 20
75.52575863718951
 30
0.0
 11
94.71380279779461
 21
93.13872297804691
 31
0.0
  0
ARC
  5
BD
330
2
100
AcDbEntity
  8
LINEWORK
 62
     7
370
    30
100
AcDbCircle
 10
78.6947251852801
 20
75.51732383034485
 30
0.0
 40
1.631418750000088
100
AcDbArc
 50
290.1380579866513
 51
3.504918694565078
  0
ARC
  5
BE
330
2
100
AcDbEntity
  8
LINEWORK
 62
     7
370
    30
100
AcDbCircle
 10
65.7329209660092
 20
59.85911576498446
 30
0.0
 40
15.21611718749983
100
AcDbArc
 50
19.54686554134434
 51
25.69286435959092
  0
ARC
  5
BF
330
2
100
AcDbEntity
  8
LINEWORK
 62
     7
370
    30
100
AcDbCircle
 10
76.5191776688585
 20
62.88035257923914
 30
0.0
 40
3.857967380510689
100
AcDbArc
 50
310.1237387019671
 51
0.9184135598969776
  0
ARC
  5
C0
330
2
100
AcDbEntity
  8
LINEWORK
 62
     7
370
    30
100
AcDbCircle
 10
76.51820504133212
 20
62.88079539912743
 30
0.0
 40
3.858932812500603
100
AcDbArc
 50
310.1305441294349
 51
0.9116081324223062
  0
LINE
  5
C1
330
2
100
AcDbEntity
  8
LINEWORK
 62
     7
370
    30
100
AcDbLine
 10
74.62358464191658
 20
54.40861560389024
 30
0.0
 11
80.39629714191653
 21
54.40861560389024
 31
0.0
  0
LINE
  5
C2
330
2
100
AcDbEntity
  8
LINEWORK
 62
     7
370
    30
100
AcDbLine
 10
80.39629714191653
 20
54.40861560389024
 30
0.0
 11
74.62358464191658
 21
54.40861560389024
 31
0.0
  0
ARC
  5
C3
330
2
100
AcDbEntity
  8
LINEWORK
 62
     7
370
    30
100
AcDbCircle
 10
79.44188414849548
 20
55.44559027494287
 30
0.0
 40
0.7668837767419853
100
AcDbArc
 50
300.540604849683
 51
69.8482529657862
  0
LINE
  5
C4
330
2
100
AcDbEntity
  8
LINEWORK
 62
     7
370
    30
100
AcDbLine
 10
63.98534681922221
 20
76.33525748420052
 30
0.0
 11
94.49189592948602
 21
93.94822182505786
 31
0.0
  0
LINE
  5
C5
330
2
100
AcDbEntity
  8
LINEWORK
 62
     7
370
    30
100
AcDbLine
 10
64.48053800810786
 20
74.52883887486078
 30
0.0
 11
94.98708711837167
 21
92.14180321571811
 31
0.0
  0
LINE
  5
C6
330
2
100
AcDbEntity
  8
LINEWORK
 62
     7
370
    30
100
AcDbLine
 10
65.21430640885722
 20
71.85210931300801
 30
0.0
 11
95.72085551912108
 21
89.46507365386528
 31
0.0
  0
ARC
  5
C7
330
2
100
AcDbEntity
  8
LINEWORK
 62
     7
370
    30
100
AcDbCircle
 10
66.05890623397235
 20
51.86722732486718
 30
0.0
 40
2.764293570461533
100
AcDbArc
 50
169.7795306324377
 51
200.1599508237859
  0
ARC
  5
C8
330
2
100
AcDbEntity
  8
LINEWORK
 62
     7
370
    30
100
AcDbCircle
 10
66.05536414984115
 20
51.86691931755118
 30
0.0
 40
2.760862499999871
100
AcDbArc
 50
169.7601969736181
 51
200.1792844825418
  0
ARC
  5
C9
330
2
100
AcDbEntity
  8
LINEWORK
 62
     7
370
    30
100
AcDbCircle
 10
57.62711078943013
 20
51.86722732486718
 30
0.0
 40
2.764293570461533
100
AcDbArc
 50
339.8400491762122
 51
10.22046936756227
  0
ARC
  5
CA
330
2
100
AcDbEntity
  8
LINEWORK
 62
     7
370
    30
100
AcDbCircle
 10
57.63065287356133
 20
51.86691931755118
 30
0.0
 40
2.760862499999871
100
AcDbArc
 50
339.8207155174581
 51
10.23980302638188
  0
LINE
  5
CB
330
2
100
AcDbEntity
  8
leaders
 62
     1
370
    30
100
AcDbLine
 10
43.89955581269531
 20
45.57485657832413
 30
0.0
 11
39.60420571446592
 21
51.64512231181581
 31
0.0
  0
LINE
  5
CC
330
2
100
AcDbEntity
  8
leaders
 62
     1
370
    30
100
AcDbLine
 10
29.49765808520288
 20
49.38910856790315
 30
0.0
 11
29.49765808520288
 21
53.90113605572847
 31
0.0
  0
LINE
  5
CD
330
2
100
AcDbEntity
  8
LINEWORK
370
    30
100
AcDbLine
 10
47.09270142549184
 20
48.53329077682881
 30
0.0
 11
47.09270142549184
 21
68.03329077682824
 31
0.0
  0
LINE
  5
CE
330
2
100
AcDbEntity
  8
LINEWORK
370
    30
100
AcDbLine
 10
54.09270142549185
 20
48.53329077682772
 30
0.0
 11
54.09270142549185
 21
68.0332907768275
 31
0.0
  0
LINE
  5
CF
330
2
100
AcDbEntity
  8
LINEWORK
370
    30
100
AcDbLine
 10
56.06543252738317
 20
45.37439956962296
 30
0.0
 11
56.06543252738317
 21
71.28570270071666
 31
0.0
  0
LINE
  5
D0
330
2
100
AcDbEntity
  8
LINEWORK
370
    30
100
AcDbLine
 10
45.182496587305
 20
71.28570270071666
 30
0.0
 11
45.182496587305
 21
45.37439956962296
 31
0.0
  0
LINE
  5
D1
330
2
100
AcDbEntity
  8
LINEWORK
 62
     7
370
    30
100
AcDbLine
 10
74.62358464191658
 20
50.26363708161611
 30
0.0
 11
74.62358464191658
 21
54.40861560389024
 31
0.0
  0
LINE
  5
D2
330
2
100
AcDbEntity
  8
LINEWORK
  6
DASHED
 62
     7
 48
2.0
370
    30
100
AcDbLine
 10
77.75994089191655
 20
52.93742810388895
 30
0.0
 11
77.75994089191655
 21
48.93742810388889
 31
0.0
  0
LINE
  5
D4
330
2
100
AcDbEntity
  8
LINEWORK
  6
DASHED
 62
     7
 48
2.0
370
    30
100
AcDbLine
 10
77.25994089191655
 20
48.93742810388889
 30
0.0
 11
77.25994089191655
 21
52.93742810388895
 31
0.0
  0
ARC
  5
D5
330
2
100
AcDbEntity
  8
LINEWORK
 62
     7
370
    30
100
AcDbCircle
 10
71.89800584343894
 20
51.07366700022087
 30
0.0
 40
0.752962499999997
100
AcDbArc
 50
298.2029473425571
 51
72.18591047291427
  0
ARC
  5
D6
330
2
100
AcDbEntity
  8
LINEWORK
 62
     7
370
    30
100
AcDbCircle
 10
71.86416186538164
 20
51.07059027494287
 30
0.0
 40
0.7668837767419853
100
AcDbArc
 50
300.540604849683
 51
69.8482529657862
  0
ARC
  5
D7
330
2
100
AcDbEntity
  8
LINEWORK
 62
     7
370
    30
100
AcDbCircle
 10
67.96643137416643
 20
51.07366700022087
 30
0.0
 40
0.7529625000000071
100
AcDbArc
 50
107.8140895270857
 51
241.7970526574428
  0
ARC
  5
D8
330
2
100
AcDbEntity
  8
LINEWORK
 62
     7
370
    30
100
AcDbCircle
 10
68.00027535222373
 20
51.07059027494287
 30
0.0
 40
0.7668837767419853
100
AcDbArc
 50
110.1517470342137
 51
239.4593951503169
  0
LINE
  5
D9
330
2
100
AcDbEntity
  8
leaders
 62
     1
370
    30
100
AcDbLine
 10
59.31510381112599
 20
45.60873989770979
 30
0.0
 11
48.18987508628151
 21
34.76533736593109
 31
0.0
  0
LINE
  5
DA
330
2
100
AcDbEntity
  8
LINEWORK
370
    30
100
AcDbLine
 10
48.34270142549184
 20
47.28329077682789
 30
0.0
 11
52.84270142549253
 21
47.28329077682789
 31
0.0
  0
LINE
  5
DB
330
2
100
AcDbEntity
  8
LINEWORK
 62
     7
370
    30
100
AcDbLine
 10
66.69181320235202
 20
40.95078453960856
 30
0.0
 11
44.59270142549184
 21
40.95078453960856
 31
0.0
  0
LINE
  5
DC
330
2
100
AcDbEntity
  8
LINEWORK
 62
     7
370
    30
100
AcDbLine
 10
45.09270142549187
 20
44.90729077682796
 30
0.0
 11
66.04468302567909
 21
44.9072907768279
 31
0.0
  0
LINE
  5
DD
330
2
100
AcDbEntity
  8
LINEWORK
 62
     7
370
    30
100
AcDbLine
 10
44.59270142549184
 20
44.40729077682796
 30
0.0
 11
66.12646353326247
 21
44.40729077682791
 31
0.0
  0
LINE
  5
DE
330
2
100
AcDbEntity
  8
LINEWORK
370
    30
100
AcDbLine
 10
45.182496587305
 20
45.37439956962295
 30
0.0
 11
56.06543252738317
 21
45.37439956962295
 31
0.0
  0
LINE
  5
DF
330
2
100
AcDbEntity
  8
leaders
 62
     1
370
    30
100
AcDbLine
 10
29.74688448289861
 20
34.76533736593111
 30
0.0
 11
48.18987508628154
 21
34.76533736593111
 31
0.0
  0
LINE
  5
E0
330
2
100
AcDbEntity
  8
leaders
 62
     1
370
    30
100
AcDbLine
 10
29.74688448289861
 20
32.50932362201851
 30
0.0
 11
29.74688448289861
 21
37.0213511098438
 31
0.0
  0
SOLID
  5
E1
330
2
100
AcDbEntity
  8
leaders
 62
     1
370
    30
100
AcDbTrace
 10
44.06281677961135
 20
45.69038084712352
 30
0.0
 11
43.73629484577927
 21
45.45933230952473
 31
0.0
 12
44.59270142549184
 22
44.5952907768279
 32
0.0
 13
44.59270142549184
 23
44.5952907768279
 33
0.0
  0
LINE
  5
E2
330
2
100
AcDbEntity
  8
LINEWORK
 62
     7
370
    30
100
AcDbLine
 10
45.09270142549184
 20
44.9072907768279
 30
0.0
 11
44.59270142549184
 21
44.40729077682791
 31
0.0
  0
LINE
  5
E3
330
2
100
AcDbEntity
  8
LINEWORK
  6
DASHED
 62
     7
 48
2.0
370
    30
100
AcDbLine
 10
50.84270142549184
 20
46.90529077682789
 30
0.0
 11
50.34270142549185
 21
46.90529077682789
 31
0.0
  0
ARC
  5
E4
330
2
100
AcDbEntity
  8
LINEWORK
370
    30
100
AcDbCircle
 10
47.09270142549184
 20
47.28329077682864
 30
0.0
 40
1.25
100
AcDbArc
 50
359.9999999999934
 51
89.99999999999349
  0
LINE
  5
E5
330
2
100
AcDbEntity
  8
LINEWORK
  6
DASHED
 62
     7
 48
2.0
370
    30
100
AcDbLine
 10
50.34270142549185
 20
43.09229077682791
 30
0.0
 11
50.84270142549184
 21
43.09229077682791
 31
0.0
  0
LINE
  5
E6
330
2
100
AcDbEntity
  8
LINEWORK
  6
DASHED
 62
     7
 48
2.0
370
    30
100
AcDbLine
 10
50.84270142549184
 20
43.09229077682791
 30
0.0
 11
50.84270142549184
 21
46.90529077682789
 31
0.0
  0
LINE
  5
E7
330
2
100
AcDbEntity
  8
LINEWORK
  6
DASHED
 62
     7
 48
2.0
370
    30
100
AcDbLine
 10
50.34270142549185
 20
46.90529077682789
 30
0.0
 11
50.34270142549185
 21
43.09229077682791
 31
0.0
  0
LINE
  5
E8
330
2
100
AcDbEntity
  8
LINEWORK
 62
     7
370
    30
100
AcDbLine
 10
44.59270142549184
 20
44.40729077682791
 30
0.0
 11
44.59270142549184
 21
40.95078453960856
 31
0.0
  0
LINE
  5
E9
330
2
100
AcDbEntity
  8
LINEWORK
  6
DASHED
 62
     7
 48
2.0
370
    30
100
AcDbLine
 10
54.59270142549275
 20
42.40729077682819
 30
0.0
 11
58.59270142549275
 21
42.40729077682819
 31
0.0
  0
LINE
  5
EA
330
2
100
AcDbEntity
  8
LINEWORK
  6
DASHED
 62
     7
 48
2.0
370
    30
100
AcDbLine
 10
58.59270142549275
 20
42.90729077682819
 30
0.0
 11
54.59270142549275
 21
42.90729077682819
 31
0.0
  0
ARC
  5
EB
330
2
100
AcDbEntity
  8
LINEWORK
370
    30
100
AcDbCircle
 10
54.09270142549184
 20
47.28329077682789
 30
0.0
 40
1.25
100
AcDbArc
 50
89.99999999999349
 51
179.9999999999934
  0
LINE
  5
EC
330
2
100
AcDbEntity
  8
LINEWORK
 62
     7
370
    30
100
AcDbLine
 10
56.09270142549264
 20
44.90729077682813
 30
0.0
 11
56.59270142549264
 21
44.40729077682819
 31
0.0
  0
LINE
  5
ED
330
2
100
AcDbEntity
  8
LINEWORK
  6
DASHED
 62
     7
 48
2.0
370
    30
100
AcDbLine
 10
54.59270142549275
 20
42.90729077682819
 30
0.0
 11
54.59270142549275
 21
42.40729077682819
 31
0.0
  0
LINE
  5
EE
330
2
100
AcDbEntity
  8
LINEWORK
 62
     7
370
    30
100
AcDbLine
 10
56.59270142549264
 20
44.40729077682819
 30
0.0
 11
56.59270142549281
 21
40.95078453960856
 31
0.0
  0
TEXT
  5
EF
330
2
100
AcDbEntity
  8
leaders
 62
     1
370
    30
100
AcDbText
 10
58.87846176745182
 20
46.55919302101724
 30
0.0
 40
1.714999999999999
  1
~
 50
330.0
100
AcDbText
  0
SOLID
  5
F0
330
2
100
AcDbEntity
  8
leaders
 62
     1
370
    30
100
AcDbTrace
 10
59.17550817541614
 20
45.75196370331051
 30
0.0
 11
59.45469944683584
 21
45.46551609210903
 31
0.0
 12
60.17444664473051
 22
46.44631371196888
 32
0.0
 13
60.17444664473051
 23
46.44631371196888
 33
0.0
  0
LINE
  5
F1
330
2
100
AcDbEntity
  8
LINEWORK
 62
     7
370
    30
100
AcDbLine
 10
58.95665226170129
 20
45.2822907768279
 30
0.0
 11
64.72936476170132
 21
45.2822907768279
 31
0.0
  0
LINE
  5
F2
330
2
100
AcDbEntity
  8
LINEWORK
 62
     7
370
    30
100
AcDbLine
 10
64.72936476170133
 20
45.2822907768279
 30
0.0
 11
64.72936476170125
 21
47.83993846043054
 31
0.0
  0
LINE
  5
F3
330
2
100
AcDbEntity
  8
LINEWORK
 62
     7
370
    30
100
AcDbLine
 10
64.72936476170125
 20
47.83993846043054
 30
0.0
 11
64.72936476170128
 21
47.02783705398579
 31
0.0
  0
LINE
  5
F4
330
2
100
AcDbEntity
  8
LINEWORK
 62
     7
370
    30
100
AcDbLine
 10
64.16464288670127
 20
47.96543221043058
 30
0.0
 11
64.16464288670127
 21
48.21641971043058
 31
0.0
  0
LINE
  5
F5
330
2
100
AcDbEntity
  8
LINEWORK
 62
     7
370
    30
100
AcDbLine
 10
64.16464288670127
 20
48.21641971043058
 30
0.0
 11
64.16464288670127
 21
47.96543221043058
 31
0.0
  0
LINE
  5
F6
330
2
100
AcDbEntity
  8
LINEWORK
 62
     7
370
    30
100
AcDbLine
 10
64.72936476170125
 20
47.02783705398579
 30
0.0
 11
64.72936476170125
 21
47.83993846043054
 31
0.0
  0
LINE
  5
F7
330
2
100
AcDbEntity
  8
LINEWORK
 62
     7
370
    30
100
AcDbLine
 10
64.72936476170125
 20
47.83993846043054
 30
0.0
 11
64.72936476170125
 21
47.02783705398579
 31
0.0
  0
LINE
  5
F8
330
2
100
AcDbEntity
  8
LINEWORK
 62
     7
370
    30
100
AcDbLine
 10
64.03914913670124
 20
50.22431971043054
 30
0.0
 11
64.03914913670124
 21
49.59685096043049
 31
0.0
  0
LINE
  5
F9
330
2
100
AcDbEntity
  8
LINEWORK
 62
     7
370
    30
100
AcDbLine
 10
64.0391491367013
 20
49.59685096043066
 30
0.0
 11
64.03914913670124
 21
50.22431971043065
 31
0.0
  0
ARC
  5
FA
330
2
100
AcDbEntity
  8
LINEWORK
 62
     7
370
    30
100
AcDbCircle
 10
65.02767386326374
 20
51.63285633152438
 30
0.0
 40
1.720801135514404
100
AcDbArc
 50
204.6726943310066
 51
234.9384478535191
  0
ARC
  5
FB
330
2
100
AcDbEntity
  8
LINEWORK
 62
     7
370
    30
100
AcDbCircle
 10
65.03144401167455
 20
51.63599812186672
 30
0.0
 40
1.725539062499889
100
AcDbArc
 50
204.7152353378861
 51
234.895906846644
  0
LINE
  5
FC
330
2
100
AcDbEntity
  8
LINEWORK
  6
DASHED
 62
     7
 48
2.0
370
    30
100
AcDbLine
 10
61.59300851170126
 20
46.55575096042925
 30
0.0
 11
62.09300851170127
 21
46.55575096042925
 31
0.0
  0
LINE
  5
FD
330
2
100
AcDbEntity
  8
LINEWORK
 62
     7
370
    30
100
AcDbLine
 10
61.84300851170124
 20
49.59685096043049
 30
0.0
 11
64.03914913670124
 21
49.59685096043049
 31
0.0
  0
LINE
  5
FE
330
2
100
AcDbEntity
  8
LINEWORK
 62
     7
370
    30
100
AcDbLine
 10
61.84300851170124
 20
49.59685096043066
 30
0.0
 11
64.0391491367013
 21
49.59685096043066
 31
0.0
  0
LINE
  5
FF
330
2
100
AcDbEntity
  8
LINEWORK
 62
     7
370
    30
100
AcDbLine
 10
61.84300851170124
 20
50.22431971043054
 30
0.0
 11
64.03914913670124
 21
50.22431971043054
 31
0.0
  0
LINE
  5
100
330
2
100
AcDbEntity
  8
LINEWORK
 62
     7
370
    30
100
AcDbLine
 10
64.03914913670124
 20
50.22431971043065
 30
0.0
 11
61.84300851170124
 21
50.22431971043065
 31
0.0
  0
LINE
  5
101
330
2
100
AcDbEntity
  8
LINEWORK
  6
DASHED
 62
     7
 48
2.0
370
    30
100
AcDbLine
 10
62.09300851170127
 20
42.55575096042925
 30
0.0
 11
61.59300851170126
 21
42.55575096042925
 31
0.0
  0
LINE
  5
102
330
2
100
AcDbEntity
  8
LINEWORK
  6
DASHED
 62
     7
 48
2.0
370
    30
100
AcDbLine
 10
62.09300851170127
 20
46.55575096042925
 30
0.0
 11
62.09300851170127
 21
42.55575096042925
 31
0.0
  0
LINE
  5
103
330
2
100
AcDbEntity
  8
LINEWORK
  6
DASHED
 62
     7
 48
2.0
370
    30
100
AcDbLine
 10
61.59300851170126
 20
42.55575096042925
 30
0.0
 11
61.59300851170126
 21
46.55575096042925
 31
0.0
  0
LINE
  5
104
330
2
100
AcDbEntity
  8
LINEWORK
 62
     7
370
    30
100
AcDbLine
 10
61.84300851170124
 20
48.21641971043058
 30
0.0
 11
64.16464288670127
 21
48.21641971043058
 31
0.0
  0
LINE
  5
105
330
2
100
AcDbEntity
  8
LINEWORK
 62
     7
370
    30
100
AcDbLine
 10
64.16464288670127
 20
48.21641971043058
 30
0.0
 11
61.84300851170124
 21
48.21641971043058
 31
0.0
  0
ARC
  5
106
330
2
100
AcDbEntity
  8
LINEWORK
 62
     7
370
    30
100
AcDbCircle
 10
63.7749517682802
 20
48.87691313148318
 30
0.0
 40
0.7668837767419853
100
AcDbArc
 50
300.540604849683
 51
69.8482529657862
  0
ARC
  5
107
330
2
100
AcDbEntity
  8
LINEWORK
 62
     7
370
    30
100
AcDbCircle
 10
63.80879574633749
 20
48.87998985676117
 30
0.0
 40
0.752962499999997
100
AcDbArc
 50
298.2029473425571
 51
72.18591047291427
  0
ARC
  5
108
330
2
100
AcDbEntity
  8
LINEWORK
 62
     7
370
    30
100
AcDbCircle
 10
58.65834316013874
 20
51.63285633152438
 30
0.0
 40
1.720801135514404
100
AcDbArc
 50
305.0615521464809
 51
335.3273056689862
  0
ARC
  5
109
330
2
100
AcDbEntity
  8
LINEWORK
 62
     7
370
    30
100
AcDbCircle
 10
58.65457301172793
 20
51.63599812186683
 30
0.0
 40
1.725539062499979
100
AcDbArc
 50
305.1040931533559
 51
335.284764662112
  0
LINE
  5
10A
330
2
100
AcDbEntity
  8
LINEWORK
 62
     7
370
    30
100
AcDbLine
 10
59.64686788670124
 20
50.22431971043054
 30
0.0
 11
59.64686788670124
 21
49.59685096043049
 31
0.0
  0
LINE
  5
10B
330
2
100
AcDbEntity
  8
LINEWORK
 62
     7
370
    30
100
AcDbLine
 10
59.64686788670124
 20
49.59685096043066
 30
0.0
 11
59.64686788670124
 21
50.22431971043065
 31
0.0
  0
LINE
  5
10C
330
2
100
AcDbEntity
  8
LINEWORK
 62
     7
370
    30
100
AcDbLine
 10
59.5213741367012
 20
47.96543221043058
 30
0.0
 11
59.5213741367012
 21
48.21641971043058
 31
0.0
  0
LINE
  5
10D
330
2
100
AcDbEntity
  8
LINEWORK
 62
     7
370
    30
100
AcDbLine
 10
59.5213741367012
 20
48.21641971043058
 30
0.0
 11
59.5213741367012
 21
47.96543221043058
 31
0.0
  0
ARC
  5
10E
330
2
100
AcDbEntity
  8
LINEWORK
 62
     7
370
    30
100
AcDbCircle
 10
59.91106525512228
 20
48.87691313148318
 30
0.0
 40
0.7668837767419853
100
AcDbArc
 50
110.1517470342137
 51
239.4593951503169
  0
ARC
  5
10F
330
2
100
AcDbEntity
  8
LINEWORK
 62
     7
370
    30
100
AcDbCircle
 10
59.87722127706499
 20
48.87998985676117
 30
0.0
 40
0.7529625000000071
100
AcDbArc
 50
107.8140895270857
 51
241.7970526574428
  0
POINT
  5
110
330
2
100
AcDbEntity
  8
LINEWORK
 62
     1
370
    30
100
AcDbPoint
 10
58.95665226170129
 20
45.39305096043041
 30
0.0
  0
LINE
  5
111
330
2
100
AcDbEntity
  8
LINEWORK
 62
     7
370
    30
100
AcDbLine
 10
58.95665226170129
 20
45.47029077682791
 30
0.0
 11
58.95665226170129
 21
47.83993846043054
 31
0.0
  0
LINE
  5
112
330
2
100
AcDbEntity
  8
LINEWORK
 62
     7
370
    30
100
AcDbLine
 10
58.95665226170129
 20
47.83993846043054
 30
0.0
 11
58.95665226170129
 21
45.47029077682791
 31
0.0
  0
LINE
  5
113
330
2
100
AcDbEntity
  8
LINEWORK
 62
     7
370
    30
100
AcDbLine
 10
58.95665226170129
 20
47.83993846043054
 30
0.0
 11
58.95665226170129
 21
45.2822907768279
 31
0.0
  0
LINE
  5
114
330
2
100
AcDbEntity
  8
LINEWORK
 62
     7
370
    30
100
AcDbLine
 10
61.84300851170124
 20
49.59685096043049
 30
0.0
 11
59.64686788670124
 21
49.59685096043049
 31
0.0
  0
LINE
  5
115
330
2
100
AcDbEntity
  8
LINEWORK
 62
     7
370
    30
100
AcDbLine
 10
61.84300851170124
 20
50.22431971043054
 30
0.0
 11
59.64686788670124
 21
50.22431971043054
 31
0.0
  0
LINE
  5
116
330
2
100
AcDbEntity
  8
LINEWORK
 62
     7
370
    30
100
AcDbLine
 10
61.84300851170124
 20
49.59685096043066
 30
0.0
 11
59.64686788670124
 21
49.59685096043066
 31
0.0
  0
LINE
  5
117
330
2
100
AcDbEntity
  8
LINEWORK
 62
     7
370
    30
100
AcDbLine
 10
59.64686788670124
 20
50.22431971043065
 30
0.0
 11
61.84300851170124
 21
50.22431971043065
 31
0.0
  0
LINE
  5
118
330
2
100
AcDbEntity
  8
LINEWORK
 62
     7
370
    30
100
AcDbLine
 10
61.84300851170124
 20
48.21641971043058
 30
0.0
 11
59.5213741367012
 21
48.21641971043058
 31
0.0
  0
LINE
  5
119
330
2
100
AcDbEntity
  8
LINEWORK
 62
     7
370
    30
100
AcDbLine
 10
59.5213741367012
 20
48.21641971043058
 30
0.0
 11
61.84300851170124
 21
48.21641971043058
 31
0.0
  0
LINE
  5
11A
330
2
100
AcDbEntity
  8
LINEWORK
 62
     7
370
    30
100
AcDbLine
 10
64.72936476170125
 20
47.83993846043054
 30
0.0
 11
58.95665226170129
 21
47.83993846043054
 31
0.0
  0
LINE
  5
11B
330
2
100
AcDbEntity
  8
LINEWORK
 62
     7
370
    30
100
AcDbLine
 10
58.95665226170129
 20
47.83993846043054
 30
0.0
 11
64.72936476170125
 21
47.83993846043054
 31
0.0
  0
LINE
  5
11C
330
2
100
AcDbEntity
  8
LINEWORK
 62
     7
370
    30
100
AcDbLine
 10
64.16464288670127
 20
47.96543221043058
 30
0.0
 11
59.5213741367012
 21
47.96543221043058
 31
0.0
  0
LINE
  5
11D
330
2
100
AcDbEntity
  8
LINEWORK
 62
     7
370
    30
100
AcDbLine
 10
58.59270142549275
 20
42.40729077682819
 30
0.0
 11
58.59270142549275
 21
42.90729077682819
 31
0.0
  0
LINE
  5
11E
330
2
100
AcDbEntity
  8
LINEWORK
 62
     7
370
    30
100
AcDbLine
 10
72.81857485880269
 20
49.22151419744548
 30
0.0
 11
67.04586235880274
 21
45.88863708161617
 31
0.0
  0
LINE
  5
11F
330
2
100
AcDbEntity
  8
LINEWORK
 62
     7
370
    30
100
AcDbLine
 10
67.04586235880274
 20
50.03361560389024
 30
0.0
 11
72.81857485880269
 21
50.03361560389024
 31
0.0
  0
LINE
  5
120
330
2
100
AcDbEntity
  8
LINEWORK
 62
     7
370
    30
100
AcDbLine
 10
72.81857485880269
 20
50.03361560389024
 30
0.0
 11
67.04586235880274
 21
50.03361560389024
 31
0.0
  0
LINE
  5
123
330
2
100
AcDbEntity
  8
LINEWORK
 62
     7
370
    30
100
AcDbLine
 10
66.69181320235205
 20
40.95078453960856
 30
0.0
 11
66.04468302567909
 21
44.9072907768279
 31
0.0
  0
LINE
  5
124
330
2
100
AcDbEntity
  8
LINEWORK
 62
     7
370
    30
100
AcDbLine
 10
72.25385298380271
 20
50.15910935389027
 30
0.0
 11
67.61058423380266
 21
50.15910935389027
 31
0.0
  0
LINE
  5
125
330
2
100
AcDbEntity
  8
LINEWORK
  6
DASHED
 62
     7
 48
2.0
370
    30
100
AcDbLine
 10
70.18221860880271
 20
44.93742810388894
 30
0.0
 11
69.68221860880271
 21
44.93742810388894
 31
0.0
  0
LINE
  5
126
330
2
100
AcDbEntity
  8
LINEWORK
  6
DASHED
 62
     7
 48
2.0
370
    30
100
AcDbLine
 10
69.68221860880271
 20
44.93742810388894
 30
0.0
 11
69.68221860880271
 21
48.93742810388895
 31
0.0
  0
LINE
  5
127
330
2
100
AcDbEntity
  8
LINEWORK
  6
DASHED
 62
     7
 48
2.0
370
    30
100
AcDbLine
 10
70.18221860880271
 20
48.93742810388895
 30
0.0
 11
70.18221860880271
 21
44.93742810388894
 31
0.0
  0
LINE
  5
128
330
2
100
AcDbEntity
  8
LINEWORK
  6
DASHED
 62
     7
 48
2.0
370
    30
100
AcDbLine
 10
69.68221860880271
 20
48.93742810388895
 30
0.0
 11
70.18221860880271
 21
48.93742810388895
 31
0.0
  0
POINT
  5
129
330
2
100
AcDbEntity
  8
LINEWORK
 62
     1
370
    30
100
AcDbPoint
 10
67.04586235880274
 20
47.77472810389011
 30
0.0
  0
LINE
  5
12A
330
2
100
AcDbEntity
  8
LINEWORK
 62
     7
370
    30
100
AcDbLine
 10
67.04586235880274
 20
50.03361560389024
 30
0.0
 11
67.04586235880274
 21
47.87742810389025
 31
0.0
  0
LINE
  5
12B
330
2
100
AcDbEntity
  8
LINEWORK
 62
     7
370
    30
100
AcDbLine
 10
67.04586235880274
 20
45.88863708161617
 30
0.0
 11
67.04586235880274
 21
50.03361560389024
 31
0.0
  0
LINE
  5
12C
330
2
100
AcDbEntity
  8
LINEWORK
 62
     7
370
    30
100
AcDbLine
 10
72.25385298380271
 20
50.41009685389028
 30
0.0
 11
72.25385298380271
 21
50.15910935389027
 31
0.0
  0
LINE
  5
12D
330
2
100
AcDbEntity
  8
LINEWORK
 62
     7
370
    30
100
AcDbLine
 10
72.25385298380271
 20
50.15910935389027
 30
0.0
 11
72.25385298380271
 21
50.41009685389028
 31
0.0
  0
LINE
  5
12E
330
2
100
AcDbEntity
  8
LINEWORK
 62
     7
370
    30
100
AcDbLine
 10
72.25385298380271
 20
50.41009685389028
 30
0.0
 11
69.93221860880268
 21
50.41009685389028
 31
0.0
  0
LINE
  5
12F
330
2
100
AcDbEntity
  8
LINEWORK
 62
     7
370
    30
100
AcDbLine
 10
69.93221860880268
 20
50.41009685389028
 30
0.0
 11
72.25385298380271
 21
50.41009685389028
 31
0.0
  0
LINE
  5
130
330
2
100
AcDbEntity
  8
LINEWORK
 62
     7
370
    30
100
AcDbLine
 10
67.61058423380266
 20
50.41009685389028
 30
0.0
 11
67.61058423380266
 21
50.15910935389027
 31
0.0
  0
LINE
  5
131
330
2
100
AcDbEntity
  8
LINEWORK
 62
     7
370
    30
100
AcDbLine
 10
67.61058423380266
 20
50.15910935389027
 30
0.0
 11
67.61058423380266
 21
50.41009685389028
 31
0.0
  0
LINE
  5
132
330
2
100
AcDbEntity
  8
LINEWORK
 62
     7
370
    30
100
AcDbLine
 10
67.04586235880274
 20
50.03361560389024
 30
0.0
 11
67.04586235880274
 21
47.52374060389027
 31
0.0
  0
LINE
  5
133
330
2
100
AcDbEntity
  8
LINEWORK
 62
     7
370
    30
100
AcDbLine
 10
67.04586235880274
 20
47.52374060389027
 30
0.0
 11
67.04586235880274
 21
50.03361560389024
 31
0.0
  0
LINE
  5
134
330
2
100
AcDbEntity
  8
LINEWORK
 62
     7
370
    30
100
AcDbLine
 10
67.61058423380266
 20
50.41009685389028
 30
0.0
 11
69.93221860880268
 21
50.41009685389028
 31
0.0
  0
LINE
  5
135
330
2
100
AcDbEntity
  8
LINEWORK
 62
     7
370
    30
100
AcDbLine
 10
69.93221860880268
 20
50.41009685389028
 30
0.0
 11
67.61058423380266
 21
50.41009685389028
 31
0.0
  0
LINE
  5
136
330
2
100
AcDbEntity
  8
LINEWORK
  6
DASHED
 62
     7
 48
2.0
370
    30
100
AcDbLine
 10
77.75994089191655
 20
48.93742810388889
 30
0.0
 11
77.25994089191655
 21
48.93742810388889
 31
0.0
  0
LINE
  5
137
330
2
100
AcDbEntity
  8
LINEWORK
 62
     7
370
    30
100
AcDbLine
 10
72.81857485880269
 20
50.03361560389024
 30
0.0
 11
72.81857485880269
 21
49.22151419744548
 31
0.0
  0
LINE
  5
138
330
2
100
AcDbEntity
  8
LINEWORK
 62
     7
370
    30
100
AcDbLine
 10
72.81857485880269
 20
49.22151419744548
 30
0.0
 11
72.81857485880269
 21
50.03361560389024
 31
0.0
  0
LINE
  5
139
330
2
100
AcDbEntity
  8
LINEWORK
 62
     7
370
    30
100
AcDbLine
 10
72.81857485880269
 20
50.03361560389024
 30
0.0
 11
72.81857485880272
 21
49.22151419744548
 31
0.0
  0
LINE
  5
13A
330
2
100
AcDbEntity
  8
LINEWORK
 62
     7
370
    30
100
AcDbLine
 10
72.81857485880272
 20
49.22151419744548
 30
0.0
 11
72.81857485880269
 21
50.03361560389024
 31
0.0
  0
LINE
  5
13B
330
2
100
AcDbEntity
  8
leaders
 62
     7
370
    30
100
AcDbLine
 10
58.86107301419588
 20
75.50829077682781
 30
0.0
 11
42.3243298367878
 21
75.50829077682781
 31
0.0
  0
LINE
  5
13C
330
2
100
AcDbEntity
  8
leaders
 62
     7
370
    30
100
AcDbLine
 10
58.86107301419588
 20
74.54579077682777
 30
0.0
 11
42.32432983679133
 21
74.54579077682777
 31
0.0
  0
LINE
  5
13D
330
2
100
AcDbEntity
  8
leaders
 62
     1
370
    30
100
AcDbLine
 10
29.33300930767898
 20
94.24384002956335
 30
0.0
 11
57.64188836300674
 21
94.24384002956335
 31
0.0
  0
LINE
  5
13E
330
2
100
AcDbEntity
  8
LINEWORK
370
    30
100
AcDbLine
 10
48.34270142549151
 20
69.28329077682784
 30
0.0
 11
52.84270142549185
 21
69.28329077682784
 31
0.0
  0
LINE
  5
13F
330
2
100
AcDbEntity
  8
LINEWORK
 62
     7
370
    30
100
AcDbLine
 10
43.99270142549133
 20
72.20829077682791
 30
0.0
 11
57.19270142549232
 21
72.20829077682791
 31
0.0
  0
LINE
  5
140
330
2
100
AcDbEntity
  8
LINEWORK
 62
     7
370
    30
100
AcDbLine
 10
57.19270142549232
 20
72.75829077682786
 30
0.0
 11
43.99270142549142
 21
72.75829077682786
 31
0.0
  0
LINE
  5
141
330
2
100
AcDbEntity
  8
LINEWORK
 62
     7
370
    30
100
AcDbLine
 10
44.64932681360955
 20
76.33329077682791
 30
0.0
 11
56.53607603737413
 21
76.33329077682791
 31
0.0
  0
LINE
  5
142
330
2
100
AcDbEntity
  8
LINEWORK
 62
     7
370
    30
100
AcDbLine
 10
45.09270142549184
 20
71.65829077682784
 30
0.0
 11
56.09270142549185
 21
71.65829077682784
 31
0.0
  0
LINE
  5
143
330
2
100
AcDbEntity
  8
LINEWORK
370
    30
100
AcDbLine
 10
56.06543252738317
 20
71.28570270071666
 30
0.0
 11
45.182496587305
 21
71.28570270071666
 31
0.0
  0
LWPOLYLINE
  5
144
330
2
100
AcDbEntity
  8
LINEWORK
 62
     7
370
    30
100
AcDbPolyline
 90
        6
 70
     0
 43
0.0
 10
43.99270142549135
 20
72.75829077682786
 42
-0.3714730528124905
 10
42.76286403786659
 20
73.92704077682779
 42
0.2498883663316121
 10
42.34270142549491
 20
74.54579077682777
 10
42.32432983679133
 20
74.54579077682777
 10
42.3243298367878
 20
75.50829077682781
 10
44.64932681360955
 20
76.33329077682791
  0
LINE
  5
145
330
2
100
AcDbEntity
  8
leaders
 62
     1
370
    30
100
AcDbLine
 10
29.49765808520288
 20
51.64512231181581
 30
0.0
 11
39.60420571446593
 21
51.64512231181581
 31
0.0
  0
LINE
  5
146
330
2
100
AcDbEntity
  8
leaders
 62
     1
370
    30
100
AcDbLine
 10
45.182496587305
 20
61.92808937227553
 30
0.0
 11
35.16670571446592
 21
65.8743547750095
 31
0.0
  0
LINE
  5
147
330
2
100
AcDbEntity
  8
leaders
 62
     1
370
    30
100
AcDbLine
 10
29.49765808520288
 20
63.61834103109683
 30
0.0
 11
29.49765808520288
 21
68.13036851892215
 31
0.0
  0
LINE
  5
148
330
2
100
AcDbEntity
  8
leaders
 62
     1
370
    30
100
AcDbLine
 10
29.49765808520288
 20
65.8743547750095
 30
0.0
 11
35.16670571446592
 21
65.8743547750095
 31
0.0
  0
SOLID
  5
149
330
2
100
AcDbEntity
  8
leaders
 62
     1
370
    30
100
AcDbTrace
 10
44.13934662780789
 20
62.5540591495022
 30
0.0
 11
43.99271588705855
 21
62.18190403954494
 31
0.0
 12
45.18249658730499
 22
61.92808937227553
 32
0.0
 13
45.18249658730499
 23
61.92808937227553
 33
0.0
  0
ARC
  5
14A
330
2
100
AcDbEntity
  8
LINEWORK
370
    30
100
AcDbCircle
 10
44.5427014254916
 20
71.65829077682762
 30
0.0
 40
0.5500000000002502
100
AcDbArc
 50
0.0000000000260551
 51
90.00000000002605
  0
LINE
  5
14B
330
2
100
AcDbEntity
  8
LINEWORK
370
    30
100
AcDbLine
 10
43.99270142549133
 20
72.20829077682791
 30
0.0
 11
43.99270142549133
 21
72.75829077682786
 31
0.0
  0
LINE
  5
14C
330
2
100
AcDbEntity
  8
LINEWORK
  6
DASHED
 62
     7
 48
2.0
370
    30
100
AcDbLine
 10
50.34270142549185
 20
73.47329077682914
 30
0.0
 11
50.84270142549184
 21
73.47329077682914
 31
0.0
  0
LINE
  5
14D
330
2
100
AcDbEntity
  8
LINEWORK
  6
DASHED
 62
     7
 48
2.0
370
    30
100
AcDbLine
 10
50.84270142549184
 20
69.47329077682915
 30
0.0
 11
50.34270142549185
 21
69.47329077682915
 31
0.0
  0
LINE
  5
14E
330
2
100
AcDbEntity
  8
LINEWORK
  6
DASHED
 62
     7
 48
2.0
370
    30
100
AcDbLine
 10
50.84270142549184
 20
73.47329077682914
 30
0.0
 11
50.84270142549184
 21
69.47329077682915
 31
0.0
  0
LINE
  5
14F
330
2
100
AcDbEntity
  8
LINEWORK
  6
DASHED
 62
     7
 48
2.0
370
    30
100
AcDbLine
 10
50.34270142549185
 20
69.47329077682915
 30
0.0
 11
50.34270142549185
 21
73.47329077682914
 31
0.0
  0
ARC
  5
150
330
2
100
AcDbEntity
  8
LINEWORK
370
    30
100
AcDbCircle
 10
47.09270142549184
 20
69.28329077682784
 30
0.0
 40
1.25
100
AcDbArc
 50
270.0
 51
0.0
  0
LINE
  5
151
330
2
100
AcDbEntity
  8
leaders
 62
     1
370
    30
100
AcDbLine
 10
29.32774476289329
 20
80.33207543151641
 30
0.0
 11
42.16298075244526
 21
80.33207543151641
 31
0.0
  0
LINE
  5
152
330
2
100
AcDbEntity
  8
leaders
 62
     1
370
    30
100
AcDbLine
 10
29.32774476289329
 20
78.07606168760376
 30
0.0
 11
29.32774476289329
 21
82.58808917542907
 31
0.0
  0
LINE
  5
153
330
2
100
AcDbEntity
  8
leaders
 62
     1
370
    30
100
AcDbLine
 10
29.33300930767898
 20
91.98782628565069
 30
0.0
 11
29.33300930767898
 21
96.49985377347602
 31
0.0
  0
LINE
  5
154
330
2
100
AcDbEntity
  8
leaders
 62
     1
370
    30
100
AcDbLine
 10
46.29503711404065
 20
76.33329077682791
 30
0.0
 11
42.16298075244529
 21
80.33207543151641
 31
0.0
  0
SOLID
  5
155
330
2
100
AcDbEntity
  8
leaders
 62
     1
370
    30
100
AcDbTrace
 10
45.5718013274577
 20
77.3115187650831
 30
0.0
 11
45.29363202243348
 21
77.02407861871805
 31
0.0
 12
46.29503711404064
 22
76.33329077682791
 32
0.0
 13
46.29503711404064
 23
76.33329077682791
 33
0.0
  0
LWPOLYLINE
  5
156
330
2
100
AcDbEntity
  8
LINEWORK
370
    30
100
AcDbPolyline
 90
        5
 70
     0
 43
0.0
 10
56.53607603737413
 20
76.33329077682791
 10
58.86107301419588
 20
75.50829077682781
 10
58.86107301419588
 20
74.54579077682777
 10
58.84270142548878
 20
74.54579077682777
 42
0.2498883663316121
 10
58.42253881311711
 20
73.92704077682779
  0
LINE
  5
157
330
2
100
AcDbEntity
  8
LINEWORK
 62
     7
370
    30
100
AcDbLine
 10
65.21430640885725
 20
71.85210931300796
 30
0.0
 11
63.98534681922221
 21
76.33525748420052
 31
0.0
  0
LINE
  5
158
330
2
100
AcDbEntity
  8
LINEWORK
 62
     7
370
    30
100
AcDbLine
 10
64.87860285674464
 20
71.65829077682784
 30
0.0
 11
63.59705117427695
 21
76.33329077682791
 31
0.0
  0
LINE
  5
159
330
2
100
AcDbEntity
  8
LINEWORK
 62
     7
370
    30
100
AcDbLine
 10
74.62358464191658
 20
75.74255310389023
 30
0.0
 11
74.69678932941656
 21
75.61705935389037
 31
0.0
  0
LINE
  5
15A
330
2
100
AcDbEntity
  8
LINEWORK
 62
     7
370
    30
100
AcDbLine
 10
74.62358464191658
 20
75.74255310389023
 30
0.0
 11
74.69678932941656
 21
75.61705935389025
 31
0.0
  0
LINE
  5
15B
330
2
100
AcDbEntity
  8
LINEWORK
  6
DASHED
 62
     7
 48
2.0
370
    30
100
AcDbLine
 10
70.18221860880271
 20
76.21374060389157
 30
0.0
 11
70.18221860880271
 21
72.21374060389158
 31
0.0
  0
LINE
  5
15C
330
2
100
AcDbEntity
  8
LINEWORK
  6
DASHED
 62
     7
 48
2.0
370
    30
100
AcDbLine
 10
69.68221860880271
 20
72.21374060389158
 30
0.0
 11
69.68221860880271
 21
76.21374060389157
 31
0.0
  0
ARC
  5
15D
330
2
100
AcDbEntity
  8
LINEWORK
 62
     7
370
    30
100
AcDbCircle
 10
91.090694509298
 20
62.86600501692098
 30
0.0
 40
27.63462319024747
100
AcDbArc
 50
178.630117417344
 51
184.0977376458606
  0
ARC
  5
15E
330
2
100
AcDbEntity
  8
LINEWORK
 62
     7
370
    30
100
AcDbCircle
 10
91.09607435519384
 20
62.86613310848983
 30
0.0
 40
27.63999843750035
100
AcDbArc
 50
178.6306494746762
 51
184.097205588529
  0
ARC
  5
15F
330
2
100
AcDbEntity
  8
LINEWORK
 62
     7
370
    30
100
AcDbCircle
 10
32.59532251410456
 20
62.86600501692098
 30
0.0
 40
27.63462319024747
100
AcDbArc
 50
355.9022623541394
 51
1.369882582655951
  0
ARC
  5
160
330
2
100
AcDbEntity
  8
LINEWORK
 62
     7
370
    30
100
AcDbCircle
 10
32.58994266820866
 20
62.86613310848983
 30
0.0
 40
27.63999843750035
100
AcDbArc
 50
355.902794411471
 51
1.369350525323726
  0
ARC
  5
161
330
2
100
AcDbEntity
  8
LINEWORK
 62
     7
370
    30
100
AcDbCircle
 10
59.38419349750924
 20
56.59282025375759
 30
0.0
 40
5.330037199451427
100
AcDbArc
 50
357.6418735319814
 51
19.60711889602341
  0
ARC
  5
162
330
2
100
AcDbEntity
  8
LINEWORK
 62
     7
370
    30
100
AcDbCircle
 10
59.38072175798757
 20
56.59229368416638
 30
0.0
 40
5.333484374999923
100
AcDbArc
 50
357.649060045261
 51
19.59993238281846
  0
ARC
  5
163
330
2
100
AcDbEntity
  8
LINEWORK
 62
     7
370
    30
100
AcDbCircle
 10
65.75423038670121
 20
60.91481853855558
 30
0.0
 40
2.22763833761492
100
AcDbArc
 50
180.6052145972454
 51
207.4672723386107
  0
ARC
  5
164
330
2
100
AcDbEntity
  8
LINEWORK
 62
     7
370
    30
100
AcDbCircle
 10
65.75410643180103
 20
60.91478754983055
 30
0.0
 40
2.22751406250017
100
AcDbArc
 50
180.6044512322847
 51
207.4680357035698
  0
LINE
  5
165
330
2
100
AcDbEntity
  8
LINEWORK
 62
     7
370
    30
100
AcDbLine
 10
61.84300851170124
 20
53.36166346043049
 30
0.0
 11
63.33847569920126
 21
53.36166346043049
 31
0.0
  0
LINE
  5
166
330
2
100
AcDbEntity
  8
LINEWORK
 62
     7
370
    30
100
AcDbLine
 10
61.84300851170124
 20
53.36166346043066
 30
0.0
 11
63.33847569920126
 21
53.36166346043066
 31
0.0
  0
ARC
  5
167
330
2
100
AcDbEntity
  8
LINEWORK
 62
     7
370
    30
100
AcDbCircle
 10
60.85224528864322
 20
56.31167543577944
 30
0.0
 40
3.857967380510689
100
AcDbArc
 50
310.1237387019671
 51
0.9184135598969776
  0
ARC
  5
168
330
2
100
AcDbEntity
  8
LINEWORK
 62
     7
370
    30
100
AcDbCircle
 10
60.85127266111683
 20
56.31211825566774
 30
0.0
 40
3.858932812500603
100
AcDbArc
 50
310.1305441294349
 51
0.9116081324223062
  0
ARC
  5
169
330
2
100
AcDbEntity
  8
LINEWORK
 62
     7
370
    30
100
AcDbCircle
 10
50.06598858579391
 20
53.29043862152477
 30
0.0
 40
15.21611718749983
100
AcDbArc
 50
19.54686554134434
 51
25.69286435959092
  0
LINE
  5
16A
330
2
100
AcDbEntity
  8
LINEWORK
 62
     7
370
    30
100
AcDbLine
 10
61.84300851170124
 20
52.35771346043057
 30
0.0
 11
63.33847569920126
 21
52.35771346043057
 31
0.0
  0
LINE
  5
16B
330
2
100
AcDbEntity
  8
LINEWORK
 62
     7
370
    30
100
AcDbLine
 10
63.33847569920126
 20
52.35771346043057
 30
0.0
 11
61.84300851170124
 21
52.35771346043057
 31
0.0
  0
ARC
  5
16C
330
2
100
AcDbEntity
  8
LINEWORK
 62
     7
370
    30
100
AcDbCircle
 10
63.03345616795124
 20
52.85968846043053
 30
0.0
 40
0.587380468750003
100
AcDbArc
 50
301.2844929144171
 51
58.71550708558289
  0
ARC
  5
16D
330
2
100
AcDbEntity
  8
LINEWORK
 62
     7
370
    30
100
AcDbCircle
 10
63.01699362977647
 20
52.85968846043274
 30
0.0
 40
0.5960953125000341
100
AcDbArc
 50
302.6368975040367
 51
57.36310249605958
  0
ARC
  5
16E
330
2
100
AcDbEntity
  8
LINEWORK
 62
     7
370
    30
100
AcDbCircle
 10
57.93178663670133
 20
60.91481853855558
 30
0.0
 40
2.22763833761492
100
AcDbArc
 50
332.532727661389
 51
359.3947854027546
  0
ARC
  5
16F
330
2
100
AcDbEntity
  8
LINEWORK
 62
     7
370
    30
100
AcDbCircle
 10
57.9319105916015
 20
60.91478754983055
 30
0.0
 40
2.227514062500199
100
AcDbArc
 50
332.5319642964285
 51
359.3955487677153
  0
ARC
  5
170
330
2
100
AcDbEntity
  8
LINEWORK
 62
     7
370
    30
100
AcDbCircle
 10
64.3018235258933
 20
56.59282025375759
 30
0.0
 40
5.330037199451427
100
AcDbArc
 50
160.3928811039782
 51
182.3581264680185
  0
ARC
  5
171
330
2
100
AcDbEntity
  8
LINEWORK
 62
     7
370
    30
100
AcDbCircle
 10
64.30529526541497
 20
56.59229368416638
 30
0.0
 40
5.333484374999923
100
AcDbArc
 50
160.4000676171815
 51
182.3509399547389
  0
ARC
  5
172
330
2
100
AcDbEntity
  8
LINEWORK
 62
     7
370
    30
100
AcDbCircle
 10
62.83377173475926
 20
56.31167543577944
 30
0.0
 40
3.857967380510689
100
AcDbArc
 50
179.081586440103
 51
229.8762612980329
  0
ARC
  5
173
330
2
100
AcDbEntity
  8
LINEWORK
 62
     7
370
    30
100
AcDbCircle
 10
62.83474436228582
 20
56.31211825566774
 30
0.0
 40
3.858932812500603
100
AcDbArc
 50
179.0883918675776
 51
229.8694558705634
  0
ARC
  5
174
330
2
100
AcDbEntity
  8
LINEWORK
 62
     7
370
    30
100
AcDbCircle
 10
73.62002843760857
 20
53.29043862152477
 30
0.0
 40
15.2161171874998
100
AcDbArc
 50
154.307135640409
 51
160.4531344586556
  0
ARC
  5
175
330
2
100
AcDbEntity
  8
LINEWORK
 62
     7
370
    30
100
AcDbCircle
 10
60.65256085545124
 20
52.85968846043053
 30
0.0
 40
0.587380468750003
100
AcDbArc
 50
121.284492914417
 51
238.7155070855829
  0
ARC
  5
176
330
2
100
AcDbEntity
  8
LINEWORK
 62
     7
370
    30
100
AcDbCircle
 10
60.66902339362608
 20
52.85968846043274
 30
0.0
 40
0.5960953125000341
100
AcDbArc
 50
122.63689750394
 51
237.363102495957
  0
LINE
  5
177
330
2
100
AcDbEntity
  8
LINEWORK
 62
     7
370
    30
100
AcDbLine
 10
61.84300851170124
 20
53.36166346043049
 30
0.0
 11
60.34754132420126
 21
53.36166346043049
 31
0.0
  0
LINE
  5
178
330
2
100
AcDbEntity
  8
LINEWORK
 62
     7
370
    30
100
AcDbLine
 10
61.84300851170124
 20
53.36166346043066
 30
0.0
 11
60.34754132420126
 21
53.36166346043066
 31
0.0
  0
LINE
  5
179
330
2
100
AcDbEntity
  8
LINEWORK
 62
     7
370
    30
100
AcDbLine
 10
61.84300851170124
 20
52.35771346043057
 30
0.0
 11
60.34754132420126
 21
52.35771346043057
 31
0.0
  0
LINE
  5
17A
330
2
100
AcDbEntity
  8
LINEWORK
 62
     7
370
    30
100
AcDbLine
 10
60.34754132420126
 20
52.35771346043057
 30
0.0
 11
61.84300851170124
 21
52.35771346043057
 31
0.0
  0
LINE
  5
17B
330
2
100
AcDbEntity
  8
leaders
 62
     7
370
    30
100
AcDbLine
 10
58.17357301419589
 20
74.54579077682777
 30
0.0
 11
64.08705622933815
 21
74.54579077682777
 31
0.0
  0
LINE
  5
17C
330
2
100
AcDbEntity
  8
leaders
 62
     7
370
    30
100
AcDbLine
 10
58.17357301419589
 20
75.50829077682781
 30
0.0
 11
63.82320735353598
 21
75.50829077682781
 31
0.0
  0
ARC
  5
17D
330
2
100
AcDbEntity
  8
LINEWORK
370
    30
100
AcDbCircle
 10
57.12959544512694
 20
74.05612895889081
 30
0.0
 40
1.299371506374636
100
AcDbArc
 50
272.783752937382
 51
354.2984521406158
  0
LINE
  5
17E
330
2
100
AcDbEntity
  8
LINEWORK
 62
     7
370
    30
100
AcDbLine
 10
56.50520142549233
 20
72.20829077682791
 30
0.0
 11
64.72783207057199
 21
72.20829077682791
 31
0.0
  0
LINE
  5
17F
330
2
100
AcDbEntity
  8
LINEWORK
 62
     7
370
    30
100
AcDbLine
 10
56.50520142549233
 20
72.75829077682792
 30
0.0
 11
64.57706128439929
 21
72.75829077682786
 31
0.0
  0
LINE
  5
180
330
2
100
AcDbEntity
  8
LINEWORK
 62
     7
370
    30
100
AcDbLine
 10
55.40520142549183
 20
71.65829077682784
 30
0.0
 11
64.87860285674464
 21
71.65829077682784
 31
0.0
  0
ARC
  5
181
330
2
100
AcDbEntity
  8
LINEWORK
370
    30
100
AcDbCircle
 10
56.64270142549208
 20
71.65829077682762
 30
0.0
 40
0.5500000000002502
100
AcDbArc
 50
89.99999999997395
 51
179.9999999999739
  0
ARC
  5
182
330
2
100
AcDbEntity
  8
LINEWORK
370
    30
100
AcDbCircle
 10
54.09270142549184
 20
69.28329077682789
 30
0.0
 40
1.25
100
AcDbArc
 50
180.0
 51
270.0
  0
LINE
  5
183
330
2
100
AcDbEntity
  8
LINEWORK
370
    30
100
AcDbLine
 10
57.19270142549232
 20
72.20829077682791
 30
0.0
 11
57.19270142549232
 21
72.75829077682786
 31
0.0
  0
LINE
  5
184
330
2
100
AcDbEntity
  8
LINEWORK
 62
     7
370
    30
100
AcDbLine
 10
58.95665226170129
 20
71.28329077682784
 30
0.0
 11
64.72936476170125
 21
71.28329077682784
 31
0.0
  0
LINE
  5
185
330
2
100
AcDbEntity
  8
LINEWORK
 62
     7
370
    30
100
AcDbLine
 10
64.72936476170125
 20
69.17387596043053
 30
0.0
 11
64.72936476170125
 21
71.28329077682784
 31
0.0
  0
LINE
  5
186
330
2
100
AcDbEntity
  8
LINEWORK
 62
     7
370
    30
100
AcDbLine
 10
64.72936476170125
 20
69.17387596043053
 30
0.0
 11
64.65616007420127
 21
69.04838221043056
 31
0.0
  0
LINE
  5
187
330
2
100
AcDbEntity
  8
LINEWORK
 62
     7
370
    30
100
AcDbLine
 10
64.72936476170125
 20
69.17387596043053
 30
0.0
 11
64.65616007420127
 21
69.04838221043068
 31
0.0
  0
POINT
  5
188
330
2
100
AcDbEntity
  8
LINEWORK
 62
     1
370
    30
100
AcDbPoint
 10
64.72936476170125
 20
71.43276346043061
 30
0.0
  0
LINE
  5
189
330
2
100
AcDbEntity
  8
LINEWORK
  6
DASHED
 62
     7
 48
2.0
370
    30
100
AcDbLine
 10
61.59300851170126
 20
73.52006346043189
 30
0.0
 11
62.09300851170127
 21
73.52006346043189
 31
0.0
  0
LINE
  5
18A
330
2
100
AcDbEntity
  8
LINEWORK
 62
     7
370
    30
100
AcDbLine
 10
63.58946319920127
 20
66.78949471043054
 30
0.0
 11
63.58946319920127
 21
67.4169634604306
 31
0.0
  0
LINE
  5
18B
330
2
100
AcDbEntity
  8
LINEWORK
 62
     7
370
    30
100
AcDbLine
 10
63.58946319920127
 20
66.78949471043054
 30
0.0
 11
63.58946319920127
 21
67.4169634604306
 31
0.0
  0
LINE
  5
18C
330
2
100
AcDbEntity
  8
LINEWORK
  6
DASHED
 62
     7
 48
2.0
370
    30
100
AcDbLine
 10
62.09300851170127
 20
69.52006346043188
 30
0.0
 11
61.59300851170126
 21
69.52006346043188
 31
0.0
  0
POINT
  5
18D
330
2
100
AcDbEntity
  8
LINEWORK
 62
     7
370
    30
100
AcDbPoint
 10
60.76865226170127
 20
72.47040261075941
 30
0.0
  0
POINT
  5
18E
330
2
100
AcDbEntity
  8
LINEWORK
 62
     7
370
    30
100
AcDbPoint
 10
60.76865226170127
 20
72.47040261075941
 30
0.0
  0
LINE
  5
18F
330
2
100
AcDbEntity
  8
LINEWORK
 62
     7
370
    30
100
AcDbLine
 10
61.84300851170124
 20
66.78949471043054
 30
0.0
 11
63.58946319920127
 21
66.78949471043054
 31
0.0
  0
LINE
  5
190
330
2
100
AcDbEntity
  8
LINEWORK
 62
     7
370
    30
100
AcDbLine
 10
61.84300851170124
 20
66.78949471043054
 30
0.0
 11
63.58946319920127
 21
66.78949471043054
 31
0.0
  0
LINE
  5
191
330
2
100
AcDbEntity
  8
LINEWORK
 62
     7
370
    30
100
AcDbLine
 10
63.58946319920127
 20
67.4169634604306
 30
0.0
 11
61.84300851170124
 21
67.4169634604306
 31
0.0
  0
LINE
  5
192
330
2
100
AcDbEntity
  8
LINEWORK
 62
     7
370
    30
100
AcDbLine
 10
61.84300851170124
 20
67.4169634604306
 30
0.0
 11
63.58946319920127
 21
67.4169634604306
 31
0.0
  0
LINE
  5
193
330
2
100
AcDbEntity
  8
LINEWORK
  6
DASHED
 62
     7
 48
2.0
370
    30
100
AcDbLine
 10
61.59300851170126
 20
69.52006346043188
 30
0.0
 11
61.59300851170126
 21
73.52006346043189
 31
0.0
  0
LINE
  5
194
330
2
100
AcDbEntity
  8
LINEWORK
  6
DASHED
 62
     7
 48
2.0
370
    30
100
AcDbLine
 10
62.09300851170127
 20
73.52006346043189
 30
0.0
 11
62.09300851170127
 21
69.52006346043188
 31
0.0
  0
LINE
  5
195
330
2
100
AcDbEntity
  8
LINEWORK
 62
     7
370
    30
100
AcDbLine
 10
61.84300851170124
 20
69.17387596043053
 30
0.0
 11
64.72936476170125
 21
69.17387596043053
 31
0.0
  0
LINE
  5
196
330
2
100
AcDbEntity
  8
LINEWORK
 62
     7
370
    30
100
AcDbLine
 10
61.84300851170124
 20
69.17387596043053
 30
0.0
 11
64.72936476170125
 21
69.17387596043053
 31
0.0
  0
LINE
  5
197
330
2
100
AcDbEntity
  8
LINEWORK
 62
     7
370
    30
100
AcDbLine
 10
64.65616007420127
 20
69.04838221043068
 30
0.0
 11
61.84300851170124
 21
69.04838221043056
 31
0.0
  0
LINE
  5
198
330
2
100
AcDbEntity
  8
LINEWORK
 62
     7
370
    30
100
AcDbLine
 10
61.84300851170124
 20
69.04838221043056
 30
0.0
 11
64.65616007420127
 21
69.04838221043068
 31
0.0
  0
ARC
  5
199
330
2
100
AcDbEntity
  8
LINEWORK
 62
     7
370
    30
100
AcDbCircle
 10
63.02779280506482
 20
68.94864668688516
 30
0.0
 40
1.631418750000088
100
AcDbArc
 50
290.1380579866513
 51
3.504918694565078
  0
LINE
  5
19A
330
2
100
AcDbEntity
  8
LINEWORK
 62
     7
370
    30
100
AcDbLine
 10
58.95665226170129
 20
71.28329077682784
 30
0.0
 11
58.95665226170129
 21
69.17387596043053
 31
0.0
  0
LINE
  5
19B
330
2
100
AcDbEntity
  8
LINEWORK
 62
     7
370
    30
100
AcDbLine
 10
58.95665226170129
 20
69.17387596043053
 30
0.0
 11
58.95665226170129
 21
70.09145138169632
 31
0.0
  0
LINE
  5
19C
330
2
100
AcDbEntity
  8
LINEWORK
 62
     7
370
    30
100
AcDbLine
 10
58.95665226170129
 20
69.17387596043053
 30
0.0
 11
59.02985694920126
 21
69.04838221043056
 31
0.0
  0
LINE
  5
19D
330
2
100
AcDbEntity
  8
LINEWORK
 62
     7
370
    30
100
AcDbLine
 10
58.95665226170129
 20
69.17387596043053
 30
0.0
 11
59.02985694920126
 21
69.04838221043068
 31
0.0
  0
LINE
  5
19E
330
2
100
AcDbEntity
  8
LINEWORK
 62
     7
370
    30
100
AcDbLine
 10
60.0965538242012
 20
66.78949471043054
 30
0.0
 11
60.0965538242012
 21
67.4169634604306
 31
0.0
  0
LINE
  5
19F
330
2
100
AcDbEntity
  8
LINEWORK
 62
     7
370
    30
100
AcDbLine
 10
60.09655382420126
 20
66.78949471043054
 30
0.0
 11
60.0965538242012
 21
67.4169634604306
 31
0.0
  0
ARC
  5
1A0
330
2
100
AcDbEntity
  8
LINEWORK
 62
     7
370
    30
100
AcDbCircle
 10
60.65822421833766
 20
68.94864668688516
 30
0.0
 40
1.631418750000056
100
AcDbArc
 50
176.4950813054349
 51
249.8619420133486
  0
LINE
  5
1A1
330
2
100
AcDbEntity
  8
LINEWORK
 62
     7
370
    30
100
AcDbLine
 10
61.84300851170124
 20
69.17387596043053
 30
0.0
 11
58.95665226170129
 21
69.17387596043053
 31
0.0
  0
LINE
  5
1A2
330
2
100
AcDbEntity
  8
LINEWORK
 62
     7
370
    30
100
AcDbLine
 10
61.84300851170124
 20
69.04838221043056
 30
0.0
 11
59.02985694920126
 21
69.04838221043056
 31
0.0
  0
LINE
  5
1A3
330
2
100
AcDbEntity
  8
LINEWORK
 62
     7
370
    30
100
AcDbLine
 10
61.84300851170124
 20
69.17387596043053
 30
0.0
 11
58.95665226170129
 21
69.17387596043053
 31
0.0
  0
LINE
  5
1A4
330
2
100
AcDbEntity
  8
LINEWORK
 62
     7
370
    30
100
AcDbLine
 10
61.84300851170124
 20
69.04838221043068
 30
0.0
 11
59.02985694920126
 21
69.04838221043068
 31
0.0
  0
LINE
  5
1A5
330
2
100
AcDbEntity
  8
LINEWORK
 62
     7
370
    30
100
AcDbLine
 10
61.84300851170124
 20
67.4169634604306
 30
0.0
 11
60.0965538242012
 21
67.4169634604306
 31
0.0
  0
LINE
  5
1A6
330
2
100
AcDbEntity
  8
LINEWORK
 62
     7
370
    30
100
AcDbLine
 10
61.84300851170124
 20
66.78949471043054
 30
0.0
 11
60.0965538242012
 21
66.78949471043054
 31
0.0
  0
LINE
  5
1A7
330
2
100
AcDbEntity
  8
LINEWORK
 62
     7
370
    30
100
AcDbLine
 10
61.84300851170124
 20
66.78949471043054
 30
0.0
 11
60.09655382420126
 21
66.78949471043054
 31
0.0
  0
LINE
  5
1A8
330
2
100
AcDbEntity
  8
LINEWORK
 62
     7
370
    30
100
AcDbLine
 10
60.0965538242012
 20
67.4169634604306
 30
0.0
 11
61.84300851170124
 21
67.4169634604306
 31
0.0
  0
ARC
  5
1A9
330
2
100
AcDbEntity
  8
LINEWORK
 62
     7
370
    30
100
AcDbCircle
 10
63.07964483982627
 20
64.96983533543053
 30
0.0
 40
0.760805859375
100
AcDbArc
 50
312.0750220508414
 51
47.92497794915621
  0
ARC
  5
1AA
330
2
100
AcDbEntity
  8
LINEWORK
 62
     7
370
    30
100
AcDbCircle
 10
63.09142531881187
 20
64.96983533543053
 30
0.0
 40
0.7529625000000308
100
AcDbArc
 50
311.4096221092709
 51
48.59037789073134
  0
LINE
  5
1AB
330
2
100
AcDbEntity
  8
LINEWORK
 62
     7
370
    30
100
AcDbLine
 10
63.58946319920127
 20
63.65215096043053
 30
0.0
 11
63.58946319920127
 21
64.40511346043061
 31
0.0
  0
LINE
  5
1AC
330
2
100
AcDbEntity
  8
LINEWORK
 62
     7
370
    30
100
AcDbLine
 10
63.58946319920127
 20
63.65215096043053
 30
0.0
 11
63.46396944920123
 21
63.52665721043056
 31
0.0
  0
LINE
  5
1AD
330
2
100
AcDbEntity
  8
LINEWORK
 62
     7
370
    30
100
AcDbLine
 10
63.58946319920127
 20
63.65215096043053
 30
0.0
 11
63.46396944920123
 21
63.52665721043056
 31
0.0
  0
LINE
  5
1AE
330
2
100
AcDbEntity
  8
LINEWORK
 62
     7
370
    30
100
AcDbLine
 10
63.58946319920127
 20
63.65215096043053
 30
0.0
 11
63.58946319920127
 21
64.40511346043061
 31
0.0
  0
LINE
  5
1AF
330
2
100
AcDbEntity
  8
LINEWORK
 62
     7
370
    30
100
AcDbLine
 10
63.58946319920127
 20
63.65215096043053
 30
0.0
 11
61.84300851170124
 21
63.65215096043053
 31
0.0
  0
LINE
  5
1B0
330
2
100
AcDbEntity
  8
LINEWORK
 62
     7
370
    30
100
AcDbLine
 10
61.84300851170124
 20
63.52665721043056
 30
0.0
 11
63.46396944920123
 21
63.52665721043056
 31
0.0
  0
LINE
  5
1B1
330
2
100
AcDbEntity
  8
LINEWORK
 62
     7
370
    30
100
AcDbLine
 10
61.84300851170124
 20
64.40511346043061
 30
0.0
 11
63.58946319920127
 21
64.40511346043061
 31
0.0
  0
LINE
  5
1B2
330
2
100
AcDbEntity
  8
LINEWORK
 62
     7
370
    30
100
AcDbLine
 10
61.84300851170124
 20
63.65215096043053
 30
0.0
 11
63.58946319920127
 21
63.65215096043053
 31
0.0
  0
LINE
  5
1B3
330
2
100
AcDbEntity
  8
LINEWORK
 62
     7
370
    30
100
AcDbLine
 10
63.58946319920127
 20
64.40511346043061
 30
0.0
 11
61.84300851170124
 21
64.40511346043061
 31
0.0
  0
LINE
  5
1B4
330
2
100
AcDbEntity
  8
LINEWORK
 62
     7
370
    30
100
AcDbLine
 10
63.46396944920123
 20
63.52665721043067
 30
0.0
 11
61.84300851170124
 21
63.52665721043056
 31
0.0
  0
LINE
  5
1B5
330
2
100
AcDbEntity
  8
LINEWORK
 62
     7
370
    30
100
AcDbLine
 10
61.84300851170124
 20
65.53455721043056
 30
0.0
 11
63.58946319920127
 21
65.53455721043056
 31
0.0
  0
ARC
  5
1B6
330
2
100
AcDbEntity
  8
LINEWORK
 62
     7
370
    30
100
AcDbCircle
 10
60.60637218357621
 20
64.96983533543053
 30
0.0
 40
0.760805859375
100
AcDbArc
 50
132.0750220508437
 51
227.9249779491585
  0
ARC
  5
1B7
330
2
100
AcDbEntity
  8
LINEWORK
 62
     7
370
    30
100
AcDbCircle
 10
60.59459170459061
 20
64.96983533543053
 30
0.0
 40
0.7529625000000308
100
AcDbArc
 50
131.4096221092686
 51
228.590377890729
  0
LINE
  5
1B8
330
2
100
AcDbEntity
  8
LINEWORK
 62
     7
370
    30
100
AcDbLine
 10
60.0965538242012
 20
63.65215096043053
 30
0.0
 11
60.22204757420123
 21
63.52665721043056
 31
0.0
  0
LINE
  5
1B9
330
2
100
AcDbEntity
  8
LINEWORK
 62
     7
370
    30
100
AcDbLine
 10
60.0965538242012
 20
63.65215096043053
 30
0.0
 11
60.0965538242012
 21
64.40511346043061
 31
0.0
  0
LINE
  5
1BA
330
2
100
AcDbEntity
  8
LINEWORK
 62
     7
370
    30
100
AcDbLine
 10
60.0965538242012
 20
63.65215096043053
 30
0.0
 11
60.09655382420126
 21
64.40511346043061
 31
0.0
  0
LINE
  5
1BB
330
2
100
AcDbEntity
  8
LINEWORK
 62
     7
370
    30
100
AcDbLine
 10
60.0965538242012
 20
63.65215096043053
 30
0.0
 11
60.22204757420123
 21
63.52665721043056
 31
0.0
  0
LINE
  5
1BC
330
2
100
AcDbEntity
  8
LINEWORK
 62
     7
370
    30
100
AcDbLine
 10
61.84300851170124
 20
64.40511346043061
 30
0.0
 11
60.0965538242012
 21
64.40511346043061
 31
0.0
  0
LINE
  5
1BD
330
2
100
AcDbEntity
  8
LINEWORK
 62
     7
370
    30
100
AcDbLine
 10
61.84300851170124
 20
63.52665721043056
 30
0.0
 11
60.22204757420123
 21
63.52665721043056
 31
0.0
  0
LINE
  5
1BE
330
2
100
AcDbEntity
  8
LINEWORK
 62
     7
370
    30
100
AcDbLine
 10
60.0965538242012
 20
63.65215096043053
 30
0.0
 11
61.84300851170124
 21
63.65215096043053
 31
0.0
  0
LINE
  5
1BF
330
2
100
AcDbEntity
  8
LINEWORK
 62
     7
370
    30
100
AcDbLine
 10
60.09655382420126
 20
64.40511346043061
 30
0.0
 11
61.84300851170124
 21
64.40511346043061
 31
0.0
  0
LINE
  5
1C0
330
2
100
AcDbEntity
  8
LINEWORK
 62
     7
370
    30
100
AcDbLine
 10
61.84300851170124
 20
63.65215096043053
 30
0.0
 11
60.0965538242012
 21
63.65215096043053
 31
0.0
  0
LINE
  5
1C1
330
2
100
AcDbEntity
  8
LINEWORK
 62
     7
370
    30
100
AcDbLine
 10
60.22204757420123
 20
63.52665721043067
 30
0.0
 11
61.84300851170124
 21
63.52665721043056
 31
0.0
  0
LINE
  5
1C2
330
2
100
AcDbEntity
  8
LINEWORK
 62
     7
370
    30
100
AcDbLine
 10
61.84300851170124
 20
65.53455721043056
 30
0.0
 11
60.0965538242012
 21
65.53455721043056
 31
0.0
  0
ARC
  5
1C3
330
2
100
AcDbEntity
  8
LINEWORK
 62
     7
370
    30
100
AcDbCircle
 10
64.49929288670128
 20
66.16202596043061
 30
0.0
 40
1.105218119867257
100
AcDbArc
 50
145.4077113124909
 51
214.5922886875093
  0
ARC
  5
1C4
330
2
100
AcDbEntity
  8
LINEWORK
 62
     7
370
    30
100
AcDbCircle
 10
64.49059658498126
 20
66.16202596043061
 30
0.0
 40
1.09807031250002
100
AcDbArc
 50
145.1500954209546
 51
214.8499045790453
  0
ARC
  5
1C5
330
2
100
AcDbEntity
  8
LINEWORK
 62
     7
370
    30
100
AcDbCircle
 10
59.18672413670126
 20
66.16202596043061
 30
0.0
 40
1.105218119867257
100
AcDbArc
 50
325.4077113124906
 51
34.59228868750911
  0
ARC
  5
1C6
330
2
100
AcDbEntity
  8
LINEWORK
 62
     7
370
    30
100
AcDbCircle
 10
59.19542043842128
 20
66.16202596043061
 30
0.0
 40
1.098070312499993
100
AcDbArc
 50
325.1500954209546
 51
34.84990457904538
  0
ARC
  5
1C7
330
2
100
AcDbEntity
  8
LINEWORK
 62
     7
370
    30
100
AcDbCircle
 10
79.96875590610859
 20
63.16149739721729
 30
0.0
 40
5.330037199451427
100
AcDbArc
 50
160.3928811039782
 51
182.3581264680185
  0
ARC
  5
1C8
330
2
100
AcDbEntity
  8
LINEWORK
 62
     7
370
    30
100
AcDbCircle
 10
79.97222764563026
 20
63.16097082762607
 30
0.0
 40
5.333484374999923
100
AcDbArc
 50
160.4000676171815
 51
182.3509399547389
  0
ARC
  5
1C9
330
2
100
AcDbEntity
  8
LINEWORK
 62
     7
370
    30
100
AcDbCircle
 10
99.18528445229529
 20
65.05981025194953
 30
0.0
 40
27.63999843750035
100
AcDbArc
 50
178.6306494746762
 51
184.097205588529
  0
ARC
  5
1CA
330
2
100
AcDbEntity
  8
LINEWORK
 62
     7
370
    30
100
AcDbCircle
 10
99.17990460639945
 20
65.05968216038067
 30
0.0
 40
27.63462319024747
100
AcDbArc
 50
178.630117417344
 51
184.0977376458606
  0
ARC
  5
1CB
330
2
100
AcDbEntity
  8
LINEWORK
 62
     7
370
    30
100
AcDbCircle
 10
40.6791527653101
 20
65.05981025194953
 30
0.0
 40
27.63999843750035
100
AcDbArc
 50
355.902794411471
 51
1.369350525323726
  0
ARC
  5
1CC
330
2
100
AcDbEntity
  8
LINEWORK
 62
     7
370
    30
100
AcDbCircle
 10
40.68453261120601
 20
65.05968216038067
 30
0.0
 40
27.63462319024747
100
AcDbArc
 50
355.9022623541394
 51
1.369882582655951
  0
ARC
  5
1CD
330
2
100
AcDbEntity
  8
LINEWORK
 62
     7
370
    30
100
AcDbCircle
 10
68.94048275821828
 20
58.50579539912743
 30
0.0
 40
3.858932812500603
100
AcDbArc
 50
310.1305441294349
 51
0.9116081324223062
  0
ARC
  5
1CE
330
2
100
AcDbEntity
  8
LINEWORK
 62
     7
370
    30
100
AcDbCircle
 10
68.94145538574466
 20
58.50535257923914
 30
0.0
 40
3.857967380510689
100
AcDbArc
 50
310.1237387019671
 51
0.9184135598969776
  0
ARC
  5
1CF
330
2
100
AcDbEntity
  8
LINEWORK
 62
     7
370
    30
100
AcDbCircle
 10
67.46993185508902
 20
58.78597082762607
 30
0.0
 40
5.333484374999923
100
AcDbArc
 50
357.649060045261
 51
19.59993238281846
  0
ARC
  5
1D0
330
2
100
AcDbEntity
  8
LINEWORK
 62
     7
370
    30
100
AcDbCircle
 10
67.47340359461069
 20
58.78649739721729
 30
0.0
 40
5.330037199451427
100
AcDbArc
 50
357.6418735319814
 51
19.60711889602341
  0
ARC
  5
1D1
330
2
100
AcDbEntity
  8
LINEWORK
 62
     7
370
    30
100
AcDbCircle
 10
58.15519868289536
 20
55.48411576498446
 30
0.0
 40
15.21611718749983
100
AcDbArc
 50
19.54686554134434
 51
25.69286435959092
  0
ARC
  5
1D2
330
2
100
AcDbEntity
  8
LINEWORK
 62
     7
370
    30
100
AcDbCircle
 10
73.84331652890248
 20
63.10846469329025
 30
0.0
 40
2.22751406250017
100
AcDbArc
 50
180.6044512322847
 51
207.4680357035698
  0
ARC
  5
1D3
330
2
100
AcDbEntity
  8
LINEWORK
 62
     7
370
    30
100
AcDbCircle
 10
73.84344048380265
 20
63.10849568201527
 30
0.0
 40
2.22763833761492
100
AcDbArc
 50
180.6052145972454
 51
207.4672723386107
  0
ARC
  5
1D4
330
2
100
AcDbEntity
  8
LINEWORK
 62
     7
370
    30
100
AcDbCircle
 10
66.02112068870295
 20
63.10846469329025
 30
0.0
 40
2.227514062500199
100
AcDbArc
 50
332.5319642964285
 51
359.3955487677153
  0
ARC
  5
1D5
330
2
100
AcDbEntity
  8
LINEWORK
 62
     7
370
    30
100
AcDbCircle
 10
66.02099673380277
 20
63.10849568201527
 30
0.0
 40
2.22763833761492
100
AcDbArc
 50
332.532727661389
 51
359.3947854027546
  0
ARC
  5
1D6
330
2
100
AcDbEntity
  8
LINEWORK
 62
     7
370
    30
100
AcDbCircle
 10
81.70923853471
 20
55.48411576498446
 30
0.0
 40
15.2161171874998
100
AcDbArc
 50
154.307135640409
 51
160.4531344586556
  0
ARC
  5
1D7
330
2
100
AcDbEntity
  8
LINEWORK
 62
     7
370
    30
100
AcDbCircle
 10
68.75823349072752
 20
55.05336560389245
 30
0.0
 40
0.5960953125000341
100
AcDbArc
 50
122.63689750394
 51
237.363102495957
  0
ARC
  5
1D8
330
2
100
AcDbEntity
  8
LINEWORK
 62
     7
370
    30
100
AcDbCircle
 10
68.74177095255268
 20
55.05336560389022
 30
0.0
 40
0.587380468750003
100
AcDbArc
 50
121.284492914417
 51
238.7155070855829
  0
LINE
  5
1D9
330
2
100
AcDbEntity
  8
LINEWORK
 62
     7
370
    30
100
AcDbLine
 10
71.42768579630271
 20
54.55139060389027
 30
0.0
 11
69.93221860880268
 21
54.55139060389027
 31
0.0
  0
LINE
  5
1DA
330
2
100
AcDbEntity
  8
LINEWORK
 62
     7
370
    30
100
AcDbLine
 10
69.93221860880268
 20
54.55139060389027
 30
0.0
 11
71.42768579630271
 21
54.55139060389027
 31
0.0
  0
ARC
  5
1DB
330
2
100
AcDbEntity
  8
LINEWORK
 62
     7
370
    30
100
AcDbCircle
 10
65.71986297066278
 20
54.06059646101088
 30
0.0
 40
2.760862499999871
100
AcDbArc
 50
339.8207155174581
 51
10.23980302638188
  0
ARC
  5
1DC
330
2
100
AcDbEntity
  8
LINEWORK
 62
     7
370
    30
100
AcDbCircle
 10
65.71632088653157
 20
54.06090446832687
 30
0.0
 40
2.764293570461533
100
AcDbArc
 50
339.8400491762122
 51
10.22046936756227
  0
LINE
  5
1DD
330
2
100
AcDbEntity
  8
LINEWORK
 62
     7
370
    30
100
AcDbLine
 10
68.43675142130272
 20
54.55139060389027
 30
0.0
 11
69.93221860880268
 21
54.55139060389027
 31
0.0
  0
LINE
  5
1DE
330
2
100
AcDbEntity
  8
LINEWORK
 62
     7
370
    30
100
AcDbLine
 10
69.93221860880268
 20
54.55139060389027
 30
0.0
 11
68.43675142130272
 21
54.55139060389027
 31
0.0
  0
LINE
  5
1DF
330
2
100
AcDbEntity
  8
LINEWORK
 62
     7
370
    30
100
AcDbLine
 10
69.93221860880268
 20
55.55534060389035
 30
0.0
 11
71.42768579630271
 21
55.55534060389035
 31
0.0
  0
LINE
  5
1E0
330
2
100
AcDbEntity
  8
LINEWORK
 62
     7
370
    30
100
AcDbLine
 10
69.93221860880268
 20
55.55534060389018
 30
0.0
 11
71.42768579630271
 21
55.55534060389018
 31
0.0
  0
LINE
  5
1E1
330
2
100
AcDbEntity
  8
LINEWORK
 62
     7
370
    30
100
AcDbLine
 10
69.93221860880268
 20
55.55534060389035
 30
0.0
 11
68.43675142130272
 21
55.55534060389035
 31
0.0
  0
LINE
  5
1E2
330
2
100
AcDbEntity
  8
LINEWORK
 62
     7
370
    30
100
AcDbLine
 10
69.93221860880268
 20
55.55534060389018
 30
0.0
 11
68.43675142130272
 21
55.55534060389018
 31
0.0
  0
ARC
  5
1E3
330
2
100
AcDbEntity
  8
LINEWORK
 62
     7
370
    30
100
AcDbCircle
 10
71.1062037268779
 20
55.05336560389245
 30
0.0
 40
0.5960953125000341
100
AcDbArc
 50
302.6368975040367
 51
57.36310249605958
  0
ARC
  5
1E4
330
2
100
AcDbEntity
  8
LINEWORK
 62
     7
370
    30
100
AcDbCircle
 10
71.12266626505268
 20
55.05336560389022
 30
0.0
 40
0.587380468750003
100
AcDbArc
 50
301.2844929144171
 51
58.71550708558289
  0
LINE
  5
1E5
330
2
100
AcDbEntity
  8
LINEWORK
 62
     7
370
    30
100
AcDbLine
 10
72.12835923380268
 20
52.41799685389034
 30
0.0
 11
69.93221860880268
 21
52.41799685389034
 31
0.0
  0
LINE
  5
1E6
330
2
100
AcDbEntity
  8
LINEWORK
 62
     7
370
    30
100
AcDbLine
 10
69.93221860880268
 20
52.41799685389023
 30
0.0
 11
72.12835923380268
 21
52.41799685389023
 31
0.0
  0
ARC
  5
1E7
330
2
100
AcDbEntity
  8
LINEWORK
 62
     7
370
    30
100
AcDbCircle
 10
74.14457424694259
 20
54.06059646101088
 30
0.0
 40
2.760862499999871
100
AcDbArc
 50
169.7601969736181
 51
200.1792844825418
  0
ARC
  5
1E8
330
2
100
AcDbEntity
  8
LINEWORK
 62
     7
370
    30
100
AcDbCircle
 10
73.12065410877599
 20
53.82967526532642
 30
0.0
 40
1.725539062499889
100
AcDbArc
 50
204.7152353378861
 51
234.895906846644
  0
ARC
  5
1E9
330
2
100
AcDbEntity
  8
LINEWORK
 62
     7
370
    30
100
AcDbCircle
 10
74.1481163310738
 20
54.06090446832687
 30
0.0
 40
2.764293570461533
100
AcDbArc
 50
169.7795306324377
 51
200.1599508237859
  0
ARC
  5
1EA
330
2
100
AcDbEntity
  8
LINEWORK
 62
     7
370
    30
100
AcDbCircle
 10
73.11688396036519
 20
53.82653347498408
 30
0.0
 40
1.720801135514404
100
AcDbArc
 50
204.6726943310066
 51
234.9384478535191
  0
LINE
  5
1EB
330
2
100
AcDbEntity
  8
LINEWORK
 62
     7
370
    30
100
AcDbLine
 10
69.93221860880268
 20
51.79052810389035
 30
0.0
 11
72.12835923380274
 21
51.79052810389035
 31
0.0
  0
LINE
  5
1EC
330
2
100
AcDbEntity
  8
LINEWORK
 62
     7
370
    30
100
AcDbLine
 10
69.93221860880268
 20
51.79052810389018
 30
0.0
 11
72.12835923380268
 21
51.79052810389018
 31
0.0
  0
LINE
  5
1ED
330
2
100
AcDbEntity
  8
LINEWORK
 62
     7
370
    30
100
AcDbLine
 10
72.12835923380274
 20
51.79052810389035
 30
0.0
 11
72.12835923380268
 21
52.41799685389034
 31
0.0
  0
LINE
  5
1EE
330
2
100
AcDbEntity
  8
LINEWORK
 62
     7
370
    30
100
AcDbLine
 10
72.12835923380268
 20
52.41799685389023
 30
0.0
 11
72.12835923380268
 21
51.79052810389018
 31
0.0
  0
LINE
  5
1EF
330
2
100
AcDbEntity
  8
LINEWORK
 62
     7
370
    30
100
AcDbLine
 10
67.73607798380268
 20
51.79052810389035
 30
0.0
 11
67.73607798380268
 21
52.41799685389034
 31
0.0
  0
LINE
  5
1F0
330
2
100
AcDbEntity
  8
LINEWORK
 62
     7
370
    30
100
AcDbLine
 10
67.73607798380268
 20
52.41799685389023
 30
0.0
 11
67.73607798380268
 21
51.79052810389018
 31
0.0
  0
ARC
  5
1F1
330
2
100
AcDbEntity
  8
LINEWORK
 62
     7
370
    30
100
AcDbCircle
 10
70.92395445938726
 20
58.50579539912743
 30
0.0
 40
3.858932812500603
100
AcDbArc
 50
179.0883918675776
 51
229.8694558705634
  0
ARC
  5
1F2
330
2
100
AcDbEntity
  8
LINEWORK
 62
     7
370
    30
100
AcDbCircle
 10
70.92298183186071
 20
58.50535257923914
 30
0.0
 40
3.857967380510689
100
AcDbArc
 50
179.081586440103
 51
229.8762612980329
  0
ARC
  5
1F3
330
2
100
AcDbEntity
  8
LINEWORK
 62
     7
370
    30
100
AcDbCircle
 10
66.74378310882937
 20
53.82967526532652
 30
0.0
 40
1.725539062499979
100
AcDbArc
 50
305.1040931533559
 51
335.284764662112
  0
ARC
  5
1F4
330
2
100
AcDbEntity
  8
LINEWORK
 62
     7
370
    30
100
AcDbCircle
 10
66.74755325724018
 20
53.82653347498408
 30
0.0
 40
1.720801135514404
100
AcDbArc
 50
305.0615521464809
 51
335.3273056689862
  0
LINE
  5
1F5
330
2
100
AcDbEntity
  8
LINEWORK
 62
     7
370
    30
100
AcDbLine
 10
67.73607798380268
 20
52.41799685389034
 30
0.0
 11
69.93221860880268
 21
52.41799685389034
 31
0.0
  0
LINE
  5
1F6
330
2
100
AcDbEntity
  8
LINEWORK
 62
     7
370
    30
100
AcDbLine
 10
69.93221860880268
 20
51.79052810389035
 30
0.0
 11
67.73607798380268
 21
51.79052810389035
 31
0.0
  0
LINE
  5
1F7
330
2
100
AcDbEntity
  8
LINEWORK
 62
     7
370
    30
100
AcDbLine
 10
69.93221860880268
 20
52.41799685389023
 30
0.0
 11
67.73607798380268
 21
52.41799685389023
 31
0.0
  0
LINE
  5
1F8
330
2
100
AcDbEntity
  8
LINEWORK
 62
     7
370
    30
100
AcDbLine
 10
69.93221860880268
 20
51.79052810389018
 30
0.0
 11
67.73607798380268
 21
51.79052810389018
 31
0.0
  0
ARC
  5
1F9
330
2
100
AcDbEntity
  8
LINEWORK
 62
     7
370
    30
100
AcDbCircle
 10
72.39450536251641
 20
58.78597082762607
 30
0.0
 40
5.333484374999923
100
AcDbArc
 50
160.4000676171815
 51
182.3509399547389
  0
ARC
  5
1FA
330
2
100
AcDbEntity
  8
LINEWORK
 62
     7
370
    30
100
AcDbCircle
 10
72.39103362299474
 20
58.78649739721729
 30
0.0
 40
5.330037199451427
100
AcDbArc
 50
160.3928811039782
 51
182.3581264680185
  0
LINE
  5
1FB
330
2
100
AcDbEntity
  8
LINEWORK
 62
     7
370
    30
100
AcDbLine
 10
77.75994089191655
 20
52.93742810388895
 30
0.0
 11
77.25994089191655
 21
52.93742810388895
 31
0.0
  0
LINE
  5
1FC
330
2
100
AcDbEntity
  8
LINEWORK
 62
     7
370
    30
100
AcDbLine
 10
79.70608151691653
 20
56.79299685389023
 30
0.0
 11
79.70608151691653
 21
56.16552810389023
 31
0.0
  0
LINE
  5
1FD
330
2
100
AcDbEntity
  8
LINEWORK
 62
     7
370
    30
100
AcDbLine
 10
79.70608151691658
 20
56.16552810389035
 30
0.0
 11
79.70608151691653
 21
56.79299685389034
 31
0.0
  0
LINE
  5
1FE
330
2
100
AcDbEntity
  8
LINEWORK
 62
     7
370
    30
100
AcDbLine
 10
77.50994089191653
 20
59.93034060389018
 30
0.0
 11
76.01447370441656
 21
59.93034060389018
 31
0.0
  0
LINE
  5
1FF
330
2
100
AcDbEntity
  8
LINEWORK
 62
     7
370
    30
100
AcDbLine
 10
77.50994089191653
 20
59.93034060389035
 30
0.0
 11
76.01447370441656
 21
59.93034060389035
 31
0.0
  0
LINE
  5
200
330
2
100
AcDbEntity
  8
LINEWORK
 62
     7
370
    30
100
AcDbLine
 10
77.50994089191653
 20
59.93034060389018
 30
0.0
 11
79.00540807941656
 21
59.93034060389018
 31
0.0
  0
LINE
  5
201
330
2
100
AcDbEntity
  8
LINEWORK
 62
     7
370
    30
100
AcDbLine
 10
77.50994089191653
 20
59.93034060389035
 30
0.0
 11
79.00540807941656
 21
59.93034060389035
 31
0.0
  0
LINE
  5
202
330
2
100
AcDbEntity
  8
LINEWORK
 62
     7
370
    30
100
AcDbLine
 10
77.50994089191653
 20
58.92639060389027
 30
0.0
 11
76.01447370441656
 21
58.92639060389027
 31
0.0
  0
LINE
  5
203
330
2
100
AcDbEntity
  8
LINEWORK
 62
     7
370
    30
100
AcDbLine
 10
76.01447370441656
 20
58.92639060389027
 30
0.0
 11
77.50994089191653
 21
58.92639060389027
 31
0.0
  0
ARC
  5
204
330
2
100
AcDbEntity
  8
LINEWORK
 62
     7
370
    30
100
AcDbCircle
 10
81.72583861418766
 20
58.43590446832687
 30
0.0
 40
2.764293570461533
100
AcDbArc
 50
169.7795306324377
 51
200.1599508237859
  0
ARC
  5
205
330
2
100
AcDbEntity
  8
LINEWORK
 62
     7
370
    30
100
AcDbCircle
 10
81.72229653005647
 20
58.43559646101088
 30
0.0
 40
2.760862499999871
100
AcDbArc
 50
169.7601969736181
 51
200.1792844825418
  0
LINE
  5
206
330
2
100
AcDbEntity
  8
LINEWORK
 62
     7
370
    30
100
AcDbLine
 10
77.50994089191653
 20
58.92639060389027
 30
0.0
 11
79.00540807941656
 21
58.92639060389027
 31
0.0
  0
LINE
  5
207
330
2
100
AcDbEntity
  8
LINEWORK
 62
     7
370
    30
100
AcDbLine
 10
79.00540807941656
 20
58.92639060389027
 30
0.0
 11
77.50994089191653
 21
58.92639060389027
 31
0.0
  0
LINE
  5
208
330
2
100
AcDbEntity
  8
LINEWORK
 62
     7
370
    30
100
AcDbLine
 10
75.31380026691653
 20
56.79299685389023
 30
0.0
 11
75.31380026691653
 21
56.16552810389023
 31
0.0
  0
LINE
  5
209
330
2
100
AcDbEntity
  8
LINEWORK
 62
     7
370
    30
100
AcDbLine
 10
75.31380026691653
 20
56.16552810389035
 30
0.0
 11
75.31380026691653
 21
56.79299685389034
 31
0.0
  0
LINE
  5
20A
330
2
100
AcDbEntity
  8
LINEWORK
 62
     7
370
    30
100
AcDbLine
 10
77.50994089191653
 20
56.16552810389023
 30
0.0
 11
75.31380026691653
 21
56.16552810389023
 31
0.0
  0
LINE
  5
20B
330
2
100
AcDbEntity
  8
LINEWORK
 62
     7
370
    30
100
AcDbLine
 10
77.50994089191653
 20
56.79299685389023
 30
0.0
 11
75.31380026691653
 21
56.79299685389023
 31
0.0
  0
LINE
  5
20C
330
2
100
AcDbEntity
  8
LINEWORK
 62
     7
370
    30
100
AcDbLine
 10
77.50994089191653
 20
56.16552810389035
 30
0.0
 11
75.31380026691653
 21
56.16552810389035
 31
0.0
  0
LINE
  5
20D
330
2
100
AcDbEntity
  8
LINEWORK
 62
     7
370
    30
100
AcDbLine
 10
75.31380026691653
 20
56.79299685389034
 30
0.0
 11
77.50994089191653
 21
56.79299685389034
 31
0.0
  0
ARC
  5
20E
330
2
100
AcDbEntity
  8
LINEWORK
 62
     7
370
    30
100
AcDbCircle
 10
74.32527554035402
 20
58.20153347498413
 30
0.0
 40
1.720801135514404
100
AcDbArc
 50
305.0615521464809
 51
335.3273056689862
  0
ARC
  5
20F
330
2
100
AcDbEntity
  8
LINEWORK
 62
     7
370
    30
100
AcDbCircle
 10
74.32150539194322
 20
58.20467526532652
 30
0.0
 40
1.725539062499979
100
AcDbArc
 50
305.1040931533559
 51
335.284764662112
  0
ARC
  5
210
330
2
100
AcDbEntity
  8
LINEWORK
 62
     7
370
    30
100
AcDbCircle
 10
73.29404316964541
 20
58.43590446832687
 30
0.0
 40
2.764293570461533
100
AcDbArc
 50
339.8400491762122
 51
10.22046936756227
  0
ARC
  5
211
330
2
100
AcDbEntity
  8
LINEWORK
 62
     7
370
    30
100
AcDbCircle
 10
73.29758525377662
 20
58.43559646101088
 30
0.0
 40
2.760862499999871
100
AcDbArc
 50
339.8207155174581
 51
10.23980302638188
  0
ARC
  5
212
330
2
100
AcDbEntity
  8
LINEWORK
 62
     7
370
    30
100
AcDbCircle
 10
78.70038854816653
 20
59.42836560389022
 30
0.0
 40
0.587380468750003
100
AcDbArc
 50
301.2844929144171
 51
58.71550708558289
  0
ARC
  5
213
330
2
100
AcDbEntity
  8
LINEWORK
 62
     7
370
    30
100
AcDbCircle
 10
78.50070411497455
 20
62.88035257923914
 30
0.0
 40
3.857967380510689
100
AcDbArc
 50
179.081586440103
 51
229.8762612980329
  0
ARC
  5
214
330
2
100
AcDbEntity
  8
LINEWORK
 62
     7
370
    30
100
AcDbCircle
 10
78.5016767425011
 20
62.88079539912743
 30
0.0
 40
3.858932812500603
100
AcDbArc
 50
179.0883918675776
 51
229.8694558705634
  0
ARC
  5
215
330
2
100
AcDbEntity
  8
LINEWORK
 62
     7
370
    30
100
AcDbCircle
 10
76.31949323566653
 20
59.42836560389022
 30
0.0
 40
0.587380468750003
100
AcDbArc
 50
121.284492914417
 51
238.7155070855829
  0
LINE
  5
216
330
2
100
AcDbEntity
  8
LINEWORK
 62
     7
370
    30
100
AcDbLine
 10
77.50994089191653
 20
56.16552810389023
 30
0.0
 11
79.70608151691653
 21
56.16552810389023
 31
0.0
  0
LINE
  5
217
330
2
100
AcDbEntity
  8
LINEWORK
 62
     7
370
    30
100
AcDbLine
 10
77.50994089191653
 20
56.16552810389035
 30
0.0
 11
79.70608151691658
 21
56.16552810389035
 31
0.0
  0
ARC
  5
218
330
2
100
AcDbEntity
  8
LINEWORK
 62
     7
370
    30
100
AcDbCircle
 10
80.69460624347902
 20
58.20153347498413
 30
0.0
 40
1.720801135514404
100
AcDbArc
 50
204.6726943310066
 51
234.9384478535191
  0
ARC
  5
219
330
2
100
AcDbEntity
  8
LINEWORK
 62
     7
370
    30
100
AcDbCircle
 10
80.69837639188984
 20
58.20467526532642
 30
0.0
 40
1.725539062499889
100
AcDbArc
 50
204.7152353378861
 51
234.895906846644
  0
LINE
  5
21A
330
2
100
AcDbEntity
  8
LINEWORK
 62
     7
370
    30
100
AcDbLine
 10
77.50994089191653
 20
56.79299685389023
 30
0.0
 11
79.70608151691653
 21
56.79299685389023
 31
0.0
  0
LINE
  5
21B
330
2
100
AcDbEntity
  8
LINEWORK
 62
     7
370
    30
100
AcDbLine
 10
79.70608151691653
 20
56.79299685389034
 30
0.0
 11
77.50994089191653
 21
56.79299685389034
 31
0.0
  0
LINE
  5
21C
330
2
100
AcDbEntity
  8
LINEWORK
 62
     7
370
    30
100
AcDbLine
 10
79.83157526691655
 20
54.53410935389027
 30
0.0
 11
79.83157526691655
 21
54.78509685389034
 31
0.0
  0
LINE
  5
21D
330
2
100
AcDbEntity
  8
LINEWORK
 62
     7
370
    30
100
AcDbLine
 10
79.83157526691655
 20
54.78509685389034
 30
0.0
 11
79.83157526691655
 21
54.53410935389027
 31
0.0
  0
LINE
  5
21E
330
2
100
AcDbEntity
  8
LINEWORK
 62
     7
370
    30
100
AcDbLine
 10
75.1883065169165
 20
54.53410935389027
 30
0.0
 11
75.1883065169165
 21
54.78509685389034
 31
0.0
  0
LINE
  5
21F
330
2
100
AcDbEntity
  8
LINEWORK
 62
     7
370
    30
100
AcDbLine
 10
75.1883065169165
 20
54.78509685389034
 30
0.0
 11
75.1883065169165
 21
54.53410935389027
 31
0.0
  0
LINE
  5
220
330
2
100
AcDbEntity
  8
LINEWORK
 62
     7
370
    30
100
AcDbLine
 10
74.62358464191658
 20
54.40861560389024
 30
0.0
 11
74.62358464191658
 21
52.25242810389019
 31
0.0
  0
POINT
  5
221
330
2
100
AcDbEntity
  8
LINEWORK
 62
     1
370
    30
100
AcDbPoint
 10
74.62358464191658
 20
52.14972810389017
 30
0.0
  0
LINE
  5
222
330
2
100
AcDbEntity
  8
LINEWORK
 62
     7
370
    30
100
AcDbLine
 10
77.50994089191653
 20
54.78509685389034
 30
0.0
 11
75.1883065169165
 21
54.78509685389034
 31
0.0
  0
LINE
  5
223
330
2
100
AcDbEntity
  8
LINEWORK
 62
     7
370
    30
100
AcDbLine
 10
75.1883065169165
 20
54.78509685389034
 30
0.0
 11
77.50994089191653
 21
54.78509685389034
 31
0.0
  0
LINE
  5
224
330
2
100
AcDbEntity
  8
LINEWORK
 62
     7
370
    30
100
AcDbLine
 10
74.62358464191658
 20
51.89874060389022
 30
0.0
 11
74.62358464191658
 21
54.40861560389024
 31
0.0
  0
LINE
  5
225
330
2
100
AcDbEntity
  8
LINEWORK
 62
     7
370
    30
100
AcDbLine
 10
74.62358464191658
 20
54.40861560389024
 30
0.0
 11
74.62358464191658
 21
51.89874060389022
 31
0.0
  0
LINE
  5
226
330
2
100
AcDbEntity
  8
LINEWORK
 62
     7
370
    30
100
AcDbLine
 10
77.50994089191653
 20
54.78509685389034
 30
0.0
 11
79.83157526691655
 21
54.78509685389034
 31
0.0
  0
LINE
  5
227
330
2
100
AcDbEntity
  8
LINEWORK
 62
     7
370
    30
100
AcDbLine
 10
79.83157526691655
 20
54.78509685389034
 30
0.0
 11
77.50994089191653
 21
54.78509685389034
 31
0.0
  0
LINE
  5
228
330
2
100
AcDbEntity
  8
LINEWORK
 62
     7
370
    30
100
AcDbLine
 10
79.83157526691655
 20
54.53410935389027
 30
0.0
 11
75.1883065169165
 21
54.53410935389027
 31
0.0
  0
ARC
  5
229
330
2
100
AcDbEntity
  8
LINEWORK
 62
     7
370
    30
100
AcDbCircle
 10
75.57799763533757
 20
55.44559027494287
 30
0.0
 40
0.7668837767419853
100
AcDbArc
 50
110.1517470342137
 51
239.4593951503169
  0
LINE
  5
22A
330
2
100
AcDbEntity
  8
LINEWORK
 62
     7
370
    30
100
AcDbLine
 10
67.04586235880274
 20
72.28512852515601
 30
0.0
 11
72.81857485880269
 21
75.61800564098527
 31
0.0
  0
ARC
  5
22B
330
2
100
AcDbEntity
  8
LINEWORK
 62
     7
370
    30
100
AcDbCircle
 10
71.11700290216626
 20
71.14232383034485
 30
0.0
 40
1.631418750000088
100
AcDbArc
 50
290.1380579866513
 51
3.504918694565078
  0
LINE
  5
22C
330
2
100
AcDbEntity
  8
LINEWORK
 62
     7
370
    30
100
AcDbLine
 10
69.93221860880268
 20
71.24205935389025
 30
0.0
 11
72.74537017130271
 21
71.24205935389037
 31
0.0
  0
LINE
  5
22D
330
2
100
AcDbEntity
  8
LINEWORK
 62
     7
370
    30
100
AcDbLine
 10
72.74537017130271
 20
71.24205935389037
 30
0.0
 11
69.93221860880268
 21
71.24205935389025
 31
0.0
  0
LINE
  5
22E
330
2
100
AcDbEntity
  8
LINEWORK
 62
     7
370
    30
100
AcDbLine
 10
69.93221860880268
 20
71.36755310389023
 30
0.0
 11
72.81857485880269
 21
71.36755310389023
 31
0.0
  0
LINE
  5
22F
330
2
100
AcDbEntity
  8
LINEWORK
 62
     7
370
    30
100
AcDbLine
 10
69.93221860880268
 20
71.36755310389023
 30
0.0
 11
72.81857485880269
 21
71.36755310389023
 31
0.0
  0
LINE
  5
230
330
2
100
AcDbEntity
  8
LINEWORK
 62
     7
370
    30
100
AcDbLine
 10
71.67867329630272
 20
68.98317185389024
 30
0.0
 11
71.67867329630272
 21
69.61064060389029
 31
0.0
  0
LINE
  5
231
330
2
100
AcDbEntity
  8
LINEWORK
 62
     7
370
    30
100
AcDbLine
 10
71.67867329630272
 20
68.98317185389024
 30
0.0
 11
71.67867329630272
 21
69.61064060389029
 31
0.0
  0
ARC
  5
232
330
2
100
AcDbEntity
  8
LINEWORK
 62
     7
370
    30
100
AcDbCircle
 10
67.28463053552272
 20
68.3557031038903
 30
0.0
 40
1.098070312499993
100
AcDbArc
 50
325.1500954209546
 51
34.84990457904538
  0
LINE
  5
233
330
2
100
AcDbEntity
  8
LINEWORK
 62
     7
370
    30
100
AcDbLine
 10
68.18576392130271
 20
68.98317185389024
 30
0.0
 11
68.18576392130265
 21
69.61064060389029
 31
0.0
  0
LINE
  5
234
330
2
100
AcDbEntity
  8
LINEWORK
 62
     7
370
    30
100
AcDbLine
 10
68.18576392130265
 20
68.98317185389024
 30
0.0
 11
68.18576392130265
 21
69.61064060389029
 31
0.0
  0
ARC
  5
235
330
2
100
AcDbEntity
  8
LINEWORK
 62
     7
370
    30
100
AcDbCircle
 10
67.2759342338027
 20
68.3557031038903
 30
0.0
 40
1.105218119867257
100
AcDbArc
 50
325.4077113124906
 51
34.59228868750911
  0
LINE
  5
236
330
2
100
AcDbEntity
  8
LINEWORK
 62
     7
370
    30
100
AcDbLine
 10
68.18576392130265
 20
69.61064060389029
 30
0.0
 11
69.93221860880268
 21
69.61064060389029
 31
0.0
  0
LINE
  5
237
330
2
100
AcDbEntity
  8
LINEWORK
 62
     7
370
    30
100
AcDbLine
 10
69.93221860880268
 20
68.98317185389024
 30
0.0
 11
68.18576392130271
 21
68.98317185389024
 31
0.0
  0
LINE
  5
238
330
2
100
AcDbEntity
  8
LINEWORK
 62
     7
370
    30
100
AcDbLine
 10
69.93221860880268
 20
67.72823435389025
 30
0.0
 11
68.18576392130265
 21
67.72823435389025
 31
0.0
  0
LINE
  5
239
330
2
100
AcDbEntity
  8
LINEWORK
 62
     7
370
    30
100
AcDbLine
 10
69.93221860880268
 20
68.98317185389024
 30
0.0
 11
68.18576392130265
 21
68.98317185389024
 31
0.0
  0
LINE
  5
23A
330
2
100
AcDbEntity
  8
LINEWORK
 62
     7
370
    30
100
AcDbLine
 10
69.93221860880268
 20
69.61064060389029
 30
0.0
 11
68.18576392130265
 21
69.61064060389029
 31
0.0
  0
LINE
  5
23B
330
2
100
AcDbEntity
  8
LINEWORK
 62
     7
370
    30
100
AcDbLine
 10
69.93221860880268
 20
69.61064060389029
 30
0.0
 11
71.67867329630272
 21
69.61064060389029
 31
0.0
  0
LINE
  5
23C
330
2
100
AcDbEntity
  8
LINEWORK
 62
     7
370
    30
100
AcDbLine
 10
71.67867329630272
 20
69.61064060389029
 30
0.0
 11
69.93221860880268
 21
69.61064060389029
 31
0.0
  0
LINE
  5
23D
330
2
100
AcDbEntity
  8
LINEWORK
 62
     7
370
    30
100
AcDbLine
 10
69.93221860880268
 20
68.98317185389024
 30
0.0
 11
71.67867329630272
 21
68.98317185389024
 31
0.0
  0
LINE
  5
23E
330
2
100
AcDbEntity
  8
LINEWORK
 62
     7
370
    30
100
AcDbLine
 10
69.93221860880268
 20
68.98317185389024
 30
0.0
 11
71.67867329630272
 21
68.98317185389024
 31
0.0
  0
LINE
  5
23F
330
2
100
AcDbEntity
  8
LINEWORK
 62
     7
370
    30
100
AcDbLine
 10
69.93221860880268
 20
67.72823435389025
 30
0.0
 11
71.67867329630272
 21
67.72823435389025
 31
0.0
  0
ARC
  5
240
330
2
100
AcDbEntity
  8
LINEWORK
 62
     7
370
    30
100
AcDbCircle
 10
72.5798066820827
 20
68.3557031038903
 30
0.0
 40
1.09807031250002
100
AcDbArc
 50
145.1500954209546
 51
214.8499045790453
  0
ARC
  5
241
330
2
100
AcDbEntity
  8
LINEWORK
 62
     7
370
    30
100
AcDbCircle
 10
72.58850298380273
 20
68.3557031038903
 30
0.0
 40
1.105218119867257
100
AcDbArc
 50
145.4077113124909
 51
214.5922886875093
  0
LINE
  5
242
330
2
100
AcDbEntity
  8
LINEWORK
 62
     7
370
    30
100
AcDbLine
 10
71.67867329630272
 20
65.84582810389022
 30
0.0
 11
71.67867329630272
 21
66.5987906038903
 31
0.0
  0
LINE
  5
243
330
2
100
AcDbEntity
  8
LINEWORK
 62
     7
370
    30
100
AcDbLine
 10
71.67867329630272
 20
65.84582810389022
 30
0.0
 11
71.55317954630269
 21
65.72033435389025
 31
0.0
  0
LINE
  5
244
330
2
100
AcDbEntity
  8
LINEWORK
 62
     7
370
    30
100
AcDbLine
 10
71.67867329630272
 20
65.84582810389022
 30
0.0
 11
71.55317954630269
 21
65.72033435389025
 31
0.0
  0
LINE
  5
245
330
2
100
AcDbEntity
  8
LINEWORK
 62
     7
370
    30
100
AcDbLine
 10
71.67867329630272
 20
65.84582810389022
 30
0.0
 11
71.67867329630272
 21
66.5987906038903
 31
0.0
  0
LINE
  5
246
330
2
100
AcDbEntity
  8
LINEWORK
 62
     7
370
    30
100
AcDbLine
 10
68.18576392130265
 20
65.84582810389022
 30
0.0
 11
68.31125767130268
 21
65.72033435389025
 31
0.0
  0
LINE
  5
247
330
2
100
AcDbEntity
  8
LINEWORK
 62
     7
370
    30
100
AcDbLine
 10
68.18576392130265
 20
65.84582810389022
 30
0.0
 11
68.18576392130271
 21
66.5987906038903
 31
0.0
  0
LINE
  5
248
330
2
100
AcDbEntity
  8
LINEWORK
 62
     7
370
    30
100
AcDbLine
 10
68.18576392130265
 20
65.84582810389022
 30
0.0
 11
68.18576392130265
 21
66.5987906038903
 31
0.0
  0
LINE
  5
249
330
2
100
AcDbEntity
  8
LINEWORK
 62
     7
370
    30
100
AcDbLine
 10
68.18576392130265
 20
65.84582810389022
 30
0.0
 11
68.31125767130268
 21
65.72033435389025
 31
0.0
  0
LINE
  5
24A
330
2
100
AcDbEntity
  8
LINEWORK
 62
     7
370
    30
100
AcDbLine
 10
68.31125767130268
 20
65.72033435389037
 30
0.0
 11
69.93221860880268
 21
65.72033435389025
 31
0.0
  0
LINE
  5
24B
330
2
100
AcDbEntity
  8
LINEWORK
 62
     7
370
    30
100
AcDbLine
 10
69.93221860880268
 20
65.84582810389022
 30
0.0
 11
68.18576392130265
 21
65.84582810389022
 31
0.0
  0
LINE
  5
24C
330
2
100
AcDbEntity
  8
LINEWORK
 62
     7
370
    30
100
AcDbLine
 10
68.18576392130271
 20
66.5987906038903
 30
0.0
 11
69.93221860880268
 21
66.5987906038903
 31
0.0
  0
LINE
  5
24D
330
2
100
AcDbEntity
  8
LINEWORK
 62
     7
370
    30
100
AcDbLine
 10
68.18576392130265
 20
65.84582810389022
 30
0.0
 11
69.93221860880268
 21
65.84582810389022
 31
0.0
  0
LINE
  5
24E
330
2
100
AcDbEntity
  8
LINEWORK
 62
     7
370
    30
100
AcDbLine
 10
69.93221860880268
 20
65.72033435389025
 30
0.0
 11
68.31125767130268
 21
65.72033435389025
 31
0.0
  0
LINE
  5
24F
330
2
100
AcDbEntity
  8
LINEWORK
 62
     7
370
    30
100
AcDbLine
 10
69.93221860880268
 20
66.5987906038903
 30
0.0
 11
68.18576392130265
 21
66.5987906038903
 31
0.0
  0
LINE
  5
250
330
2
100
AcDbEntity
  8
LINEWORK
 62
     7
370
    30
100
AcDbLine
 10
71.55317954630269
 20
65.72033435389037
 30
0.0
 11
69.93221860880268
 21
65.72033435389025
 31
0.0
  0
LINE
  5
251
330
2
100
AcDbEntity
  8
LINEWORK
 62
     7
370
    30
100
AcDbLine
 10
71.67867329630272
 20
66.5987906038903
 30
0.0
 11
69.93221860880268
 21
66.5987906038903
 31
0.0
  0
LINE
  5
252
330
2
100
AcDbEntity
  8
LINEWORK
 62
     7
370
    30
100
AcDbLine
 10
69.93221860880268
 20
65.84582810389022
 30
0.0
 11
71.67867329630272
 21
65.84582810389022
 31
0.0
  0
LINE
  5
253
330
2
100
AcDbEntity
  8
LINEWORK
 62
     7
370
    30
100
AcDbLine
 10
69.93221860880268
 20
66.5987906038903
 30
0.0
 11
71.67867329630272
 21
66.5987906038903
 31
0.0
  0
LINE
  5
254
330
2
100
AcDbEntity
  8
LINEWORK
 62
     7
370
    30
100
AcDbLine
 10
69.93221860880268
 20
65.72033435389025
 30
0.0
 11
71.55317954630269
 21
65.72033435389025
 31
0.0
  0
LINE
  5
255
330
2
100
AcDbEntity
  8
LINEWORK
 62
     7
370
    30
100
AcDbLine
 10
71.67867329630272
 20
65.84582810389022
 30
0.0
 11
69.93221860880268
 21
65.84582810389022
 31
0.0
  0
ARC
  5
256
330
2
100
AcDbEntity
  8
LINEWORK
 62
     7
370
    30
100
AcDbCircle
 10
71.18063541591332
 20
67.16351247889022
 30
0.0
 40
0.7529625000000308
100
AcDbArc
 50
311.4096221092709
 51
48.59037789073134
  0
ARC
  5
257
330
2
100
AcDbEntity
  8
LINEWORK
 62
     7
370
    30
100
AcDbCircle
 10
71.16885493692771
 20
67.16351247889022
 30
0.0
 40
0.760805859375
100
AcDbArc
 50
312.0750220508414
 51
47.92497794915621
  0
POINT
  5
258
330
2
100
AcDbEntity
  8
LINEWORK
 62
     7
370
    30
100
AcDbPoint
 10
68.85786235880272
 20
74.6640797542191
 30
0.0
  0
POINT
  5
259
330
2
100
AcDbEntity
  8
LINEWORK
 62
     7
370
    30
100
AcDbPoint
 10
68.85786235880272
 20
74.6640797542191
 30
0.0
  0
LINE
  5
25A
330
2
100
AcDbEntity
  8
LINEWORK
 62
     7
370
    30
100
AcDbLine
 10
67.04586235880274
 20
71.36755310389023
 30
0.0
 11
67.11906704630272
 21
71.24205935389037
 31
0.0
  0
LINE
  5
25B
330
2
100
AcDbEntity
  8
LINEWORK
 62
     7
370
    30
100
AcDbLine
 10
67.04586235880274
 20
71.36755310389023
 30
0.0
 11
67.11906704630272
 21
71.24205935389025
 31
0.0
  0
LINE
  5
25C
330
2
100
AcDbEntity
  8
LINEWORK
 62
     7
370
    30
100
AcDbLine
 10
67.04586235880274
 20
71.36755310389023
 30
0.0
 11
67.04586235880274
 21
72.28512852515601
 31
0.0
  0
LINE
  5
25D
330
2
100
AcDbEntity
  8
LINEWORK
 62
     7
370
    30
100
AcDbLine
 10
67.04586235880274
 20
72.28512852515601
 30
0.0
 11
67.04586235880274
 21
71.36755310389023
 31
0.0
  0
ARC
  5
25E
330
2
100
AcDbEntity
  8
LINEWORK
 62
     7
370
    30
100
AcDbCircle
 10
68.74743431543911
 20
71.14232383034485
 30
0.0
 40
1.631418750000056
100
AcDbArc
 50
176.4950813054349
 51
249.8619420133486
  0
ARC
  5
25F
330
2
100
AcDbEntity
  8
LINEWORK
 62
     7
370
    30
100
AcDbCircle
 10
68.68380180169205
 20
67.16351247889022
 30
0.0
 40
0.7529625000000308
100
AcDbArc
 50
131.4096221092686
 51
228.590377890729
  0
ARC
  5
260
330
2
100
AcDbEntity
  8
LINEWORK
 62
     7
370
    30
100
AcDbCircle
 10
68.69558228067766
 20
67.16351247889022
 30
0.0
 40
0.760805859375
100
AcDbArc
 50
132.0750220508437
 51
227.9249779491585
  0
LINE
  5
261
330
2
100
AcDbEntity
  8
LINEWORK
 62
     7
370
    30
100
AcDbLine
 10
69.93221860880268
 20
71.24205935389037
 30
0.0
 11
67.11906704630272
 21
71.24205935389037
 31
0.0
  0
LINE
  5
262
330
2
100
AcDbEntity
  8
LINEWORK
 62
     7
370
    30
100
AcDbLine
 10
69.93221860880268
 20
71.36755310389023
 30
0.0
 11
67.04586235880274
 21
71.36755310389023
 31
0.0
  0
LINE
  5
263
330
2
100
AcDbEntity
  8
LINEWORK
 62
     7
370
    30
100
AcDbLine
 10
69.93221860880268
 20
71.24205935389025
 30
0.0
 11
67.11906704630272
 21
71.24205935389025
 31
0.0
  0
LINE
  5
264
330
2
100
AcDbEntity
  8
LINEWORK
 62
     7
370
    30
100
AcDbLine
 10
69.93221860880268
 20
71.36755310389023
 30
0.0
 11
67.04586235880274
 21
71.36755310389023
 31
0.0
  0
LINE
  5
265
330
2
100
AcDbEntity
  8
LINEWORK
  6
DASHED
 62
     7
 48
2.0
370
    30
100
AcDbLine
 10
70.18221860880271
 20
72.21374060389158
 30
0.0
 11
69.68221860880271
 21
72.21374060389158
 31
0.0
  0
LINE
  5
266
330
2
100
AcDbEntity
  8
LINEWORK
 62
     7
370
    30
100
AcDbLine
 10
77.50994089191653
 20
75.61705935389037
 30
0.0
 11
74.69678932941656
 21
75.61705935389037
 31
0.0
  0
LINE
  5
267
330
2
100
AcDbEntity
  8
LINEWORK
 62
     7
370
    30
100
AcDbLine
 10
77.50994089191653
 20
75.61705935389025
 30
0.0
 11
74.69678932941656
 21
75.61705935389025
 31
0.0
  0
ARC
  5
268
330
2
100
AcDbEntity
  8
LINEWORK
 62
     7
370
    30
100
AcDbCircle
 10
80.16622526691657
 20
72.7307031038903
 30
0.0
 40
1.105218119867257
100
AcDbArc
 50
145.4077113124909
 51
214.5922886875093
  0
ARC
  5
269
330
2
100
AcDbEntity
  8
LINEWORK
 62
     7
370
    30
100
AcDbCircle
 10
80.15752896519655
 20
72.7307031038903
 30
0.0
 40
1.09807031250002
100
AcDbArc
 50
145.1500954209546
 51
214.8499045790453
  0
LINE
  5
26A
330
2
100
AcDbEntity
  8
LINEWORK
 62
     7
370
    30
100
AcDbLine
 10
77.50994089191653
 20
72.10323435389025
 30
0.0
 11
79.25639557941656
 21
72.10323435389025
 31
0.0
  0
LINE
  5
26B
330
2
100
AcDbEntity
  8
LINEWORK
 62
     7
370
    30
100
AcDbLine
 10
77.50994089191653
 20
73.35817185389024
 30
0.0
 11
79.25639557941656
 21
73.35817185389024
 31
0.0
  0
LINE
  5
26C
330
2
100
AcDbEntity
  8
LINEWORK
 62
     7
370
    30
100
AcDbLine
 10
77.50994089191653
 20
73.35817185389024
 30
0.0
 11
79.25639557941656
 21
73.35817185389024
 31
0.0
  0
LINE
  5
26D
330
2
100
AcDbEntity
  8
LINEWORK
 62
     7
370
    30
100
AcDbLine
 10
79.25639557941656
 20
73.98564060389029
 30
0.0
 11
77.50994089191653
 21
73.98564060389029
 31
0.0
  0
LINE
  5
26E
330
2
100
AcDbEntity
  8
LINEWORK
 62
     7
370
    30
100
AcDbLine
 10
77.50994089191653
 20
73.98564060389029
 30
0.0
 11
79.25639557941656
 21
73.98564060389029
 31
0.0
  0
LINE
  5
26F
330
2
100
AcDbEntity
  8
LINEWORK
 62
     7
370
    30
100
AcDbLine
 10
79.25639557941656
 20
73.35817185389024
 30
0.0
 11
79.25639557941656
 21
73.98564060389029
 31
0.0
  0
LINE
  5
270
330
2
100
AcDbEntity
  8
LINEWORK
 62
     7
370
    30
100
AcDbLine
 10
79.25639557941656
 20
73.35817185389024
 30
0.0
 11
79.25639557941656
 21
73.98564060389029
 31
0.0
  0
LINE
  5
271
330
2
100
AcDbEntity
  8
LINEWORK
 62
     7
370
    30
100
AcDbLine
 10
75.76348620441649
 20
73.35817185389024
 30
0.0
 11
75.76348620441649
 21
73.98564060389029
 31
0.0
  0
LINE
  5
272
330
2
100
AcDbEntity
  8
LINEWORK
 62
     7
370
    30
100
AcDbLine
 10
75.76348620441655
 20
73.35817185389024
 30
0.0
 11
75.76348620441649
 21
73.98564060389029
 31
0.0
  0
LINE
  5
273
330
2
100
AcDbEntity
  8
LINEWORK
 62
     7
370
    30
100
AcDbLine
 10
77.50994089191653
 20
73.98564060389029
 30
0.0
 11
75.76348620441649
 21
73.98564060389029
 31
0.0
  0
LINE
  5
274
330
2
100
AcDbEntity
  8
LINEWORK
 62
     7
370
    30
100
AcDbLine
 10
77.50994089191653
 20
73.35817185389024
 30
0.0
 11
75.76348620441649
 21
73.35817185389024
 31
0.0
  0
LINE
  5
275
330
2
100
AcDbEntity
  8
LINEWORK
 62
     7
370
    30
100
AcDbLine
 10
77.50994089191653
 20
72.10323435389025
 30
0.0
 11
75.76348620441649
 21
72.10323435389025
 31
0.0
  0
LINE
  5
276
330
2
100
AcDbEntity
  8
LINEWORK
 62
     7
370
    30
100
AcDbLine
 10
77.50994089191653
 20
73.35817185389024
 30
0.0
 11
75.76348620441655
 21
73.35817185389024
 31
0.0
  0
LINE
  5
277
330
2
100
AcDbEntity
  8
LINEWORK
 62
     7
370
    30
100
AcDbLine
 10
75.76348620441649
 20
73.98564060389029
 30
0.0
 11
77.50994089191653
 21
73.98564060389029
 31
0.0
  0
ARC
  5
278
330
2
100
AcDbEntity
  8
LINEWORK
 62
     7
370
    30
100
AcDbCircle
 10
74.85365651691655
 20
72.7307031038903
 30
0.0
 40
1.105218119867257
100
AcDbArc
 50
325.4077113124906
 51
34.59228868750911
  0
ARC
  5
279
330
2
100
AcDbEntity
  8
LINEWORK
 62
     7
370
    30
100
AcDbCircle
 10
74.86235281863656
 20
72.7307031038903
 30
0.0
 40
1.098070312499993
100
AcDbArc
 50
325.1500954209546
 51
34.84990457904538
  0
ARC
  5
27A
330
2
100
AcDbEntity
  8
LINEWORK
 62
     7
370
    30
100
AcDbCircle
 10
76.32515659855295
 20
75.51732383034485
 30
0.0
 40
1.631418750000056
100
AcDbArc
 50
176.4950813054349
 51
249.8619420133486
  0
LINE
  5
27B
330
2
100
AcDbEntity
  8
LINEWORK
 62
     7
370
    30
100
AcDbLine
 10
77.50994089191653
 20
70.9737906038903
 30
0.0
 11
79.25639557941656
 21
70.9737906038903
 31
0.0
  0
LINE
  5
27C
330
2
100
AcDbEntity
  8
LINEWORK
 62
     7
370
    30
100
AcDbLine
 10
79.25639557941656
 20
70.9737906038903
 30
0.0
 11
77.50994089191653
 21
70.9737906038903
 31
0.0
  0
LINE
  5
27D
330
2
100
AcDbEntity
  8
LINEWORK
 62
     7
370
    30
100
AcDbLine
 10
79.25639557941656
 20
70.22082810389022
 30
0.0
 11
77.50994089191653
 21
70.22082810389022
 31
0.0
  0
LINE
  5
27E
330
2
100
AcDbEntity
  8
LINEWORK
 62
     7
370
    30
100
AcDbLine
 10
77.50994089191653
 20
70.09533435389025
 30
0.0
 11
79.13090182941653
 21
70.09533435389025
 31
0.0
  0
LINE
  5
27F
330
2
100
AcDbEntity
  8
LINEWORK
 62
     7
370
    30
100
AcDbLine
 10
77.50994089191653
 20
70.22082810389022
 30
0.0
 11
79.25639557941656
 21
70.22082810389022
 31
0.0
  0
LINE
  5
280
330
2
100
AcDbEntity
  8
LINEWORK
 62
     7
370
    30
100
AcDbLine
 10
79.13090182941653
 20
70.09533435389037
 30
0.0
 11
77.50994089191653
 21
70.09533435389025
 31
0.0
  0
LINE
  5
281
330
2
100
AcDbEntity
  8
LINEWORK
 62
     7
370
    30
100
AcDbLine
 10
79.25639557941656
 20
70.22082810389022
 30
0.0
 11
79.13090182941653
 21
70.09533435389025
 31
0.0
  0
LINE
  5
282
330
2
100
AcDbEntity
  8
LINEWORK
 62
     7
370
    30
100
AcDbLine
 10
79.25639557941656
 20
70.22082810389022
 30
0.0
 11
79.13090182941653
 21
70.09533435389025
 31
0.0
  0
LINE
  5
283
330
2
100
AcDbEntity
  8
LINEWORK
 62
     7
370
    30
100
AcDbLine
 10
79.25639557941656
 20
70.22082810389022
 30
0.0
 11
79.25639557941656
 21
70.9737906038903
 31
0.0
  0
LINE
  5
284
330
2
100
AcDbEntity
  8
LINEWORK
 62
     7
370
    30
100
AcDbLine
 10
79.25639557941656
 20
70.22082810389022
 30
0.0
 11
79.25639557941656
 21
70.9737906038903
 31
0.0
  0
LINE
  5
285
330
2
100
AcDbEntity
  8
LINEWORK
 62
     7
370
    30
100
AcDbLine
 10
75.76348620441649
 20
70.22082810389022
 30
0.0
 11
75.88897995441652
 21
70.09533435389025
 31
0.0
  0
LINE
  5
286
330
2
100
AcDbEntity
  8
LINEWORK
 62
     7
370
    30
100
AcDbLine
 10
75.76348620441649
 20
70.22082810389022
 30
0.0
 11
75.88897995441652
 21
70.09533435389025
 31
0.0
  0
LINE
  5
287
330
2
100
AcDbEntity
  8
LINEWORK
 62
     7
370
    30
100
AcDbLine
 10
75.76348620441649
 20
70.22082810389022
 30
0.0
 11
75.76348620441649
 21
70.9737906038903
 31
0.0
  0
LINE
  5
288
330
2
100
AcDbEntity
  8
LINEWORK
 62
     7
370
    30
100
AcDbLine
 10
75.76348620441649
 20
70.22082810389022
 30
0.0
 11
75.76348620441655
 21
70.9737906038903
 31
0.0
  0
LINE
  5
289
330
2
100
AcDbEntity
  8
LINEWORK
 62
     7
370
    30
100
AcDbLine
 10
77.50994089191653
 20
70.9737906038903
 30
0.0
 11
75.76348620441649
 21
70.9737906038903
 31
0.0
  0
LINE
  5
28A
330
2
100
AcDbEntity
  8
LINEWORK
 62
     7
370
    30
100
AcDbLine
 10
75.76348620441655
 20
70.9737906038903
 30
0.0
 11
77.50994089191653
 21
70.9737906038903
 31
0.0
  0
LINE
  5
28B
330
2
100
AcDbEntity
  8
LINEWORK
 62
     7
370
    30
100
AcDbLine
 10
77.50994089191653
 20
70.09533435389025
 30
0.0
 11
75.88897995441652
 21
70.09533435389025
 31
0.0
  0
LINE
  5
28C
330
2
100
AcDbEntity
  8
LINEWORK
 62
     7
370
    30
100
AcDbLine
 10
75.76348620441649
 20
70.22082810389022
 30
0.0
 11
77.50994089191653
 21
70.22082810389022
 31
0.0
  0
LINE
  5
28D
330
2
100
AcDbEntity
  8
LINEWORK
 62
     7
370
    30
100
AcDbLine
 10
77.50994089191653
 20
70.22082810389022
 30
0.0
 11
75.76348620441649
 21
70.22082810389022
 31
0.0
  0
LINE
  5
28E
330
2
100
AcDbEntity
  8
LINEWORK
 62
     7
370
    30
100
AcDbLine
 10
75.88897995441652
 20
70.09533435389037
 30
0.0
 11
77.50994089191653
 21
70.09533435389025
 31
0.0
  0
ARC
  5
28F
330
2
100
AcDbEntity
  8
LINEWORK
 62
     7
370
    30
100
AcDbCircle
 10
81.42116276691652
 20
67.48349568201527
 30
0.0
 40
2.22763833761492
100
AcDbArc
 50
180.6052145972454
 51
207.4672723386107
  0
ARC
  5
290
330
2
100
AcDbEntity
  8
LINEWORK
 62
     7
370
    30
100
AcDbCircle
 10
81.42103881201634
 20
67.48346469329025
 30
0.0
 40
2.22751406250017
100
AcDbArc
 50
180.6044512322847
 51
207.4680357035698
  0
ARC
  5
291
330
2
100
AcDbEntity
  8
LINEWORK
 62
     7
370
    30
100
AcDbCircle
 10
89.28696081782387
 20
59.85911576498446
 30
0.0
 40
15.2161171874998
100
AcDbArc
 50
154.307135640409
 51
160.4531344586556
  0
ARC
  5
292
330
2
100
AcDbEntity
  8
LINEWORK
 62
     7
370
    30
100
AcDbCircle
 10
73.59871901691661
 20
67.48349568201527
 30
0.0
 40
2.22763833761492
100
AcDbArc
 50
332.532727661389
 51
359.3947854027546
  0
ARC
  5
293
330
2
100
AcDbEntity
  8
LINEWORK
 62
     7
370
    30
100
AcDbCircle
 10
73.59884297181679
 20
67.48346469329025
 30
0.0
 40
2.227514062500199
100
AcDbArc
 50
332.5319642964285
 51
359.3955487677153
  0
ARC
  5
294
330
2
100
AcDbEntity
  8
LINEWORK
 62
     7
370
    30
100
AcDbCircle
 10
106.7576268895133
 20
69.43468216038067
 30
0.0
 40
27.63462319024747
100
AcDbArc
 50
178.630117417344
 51
184.0977376458606
  0
ARC
  5
295
330
2
100
AcDbEntity
  8
LINEWORK
 62
     7
370
    30
100
AcDbCircle
 10
106.7630067354091
 20
69.43481025194953
 30
0.0
 40
27.63999843750035
100
AcDbArc
 50
178.6306494746762
 51
184.097205588529
  0
ARC
  5
296
330
2
100
AcDbEntity
  8
LINEWORK
 62
     7
370
    30
100
AcDbCircle
 10
48.26225489431985
 20
69.43468216038067
 30
0.0
 40
27.63462319024747
100
AcDbArc
 50
355.9022623541394
 51
1.369882582655951
  0
ARC
  5
297
330
2
100
AcDbEntity
  8
LINEWORK
 62
     7
370
    30
100
AcDbCircle
 10
48.25687504842395
 20
69.43481025194953
 30
0.0
 40
27.63999843750035
100
AcDbArc
 50
355.902794411471
 51
1.369350525323726
  0
ARC
  5
298
330
2
100
AcDbEntity
  8
LINEWORK
 62
     7
370
    30
100
AcDbCircle
 10
78.74657722004156
 20
71.53851247889022
 30
0.0
 40
0.760805859375
100
AcDbArc
 50
312.0750220508414
 51
47.92497794915621
  0
ARC
  5
299
330
2
100
AcDbEntity
  8
LINEWORK
 62
     7
370
    30
100
AcDbCircle
 10
78.75835769902716
 20
71.53851247889022
 30
0.0
 40
0.7529625000000308
100
AcDbArc
 50
311.4096221092709
 51
48.59037789073134
  0
ARC
  5
29A
330
2
100
AcDbEntity
  8
LINEWORK
 62
     7
370
    30
100
AcDbCircle
 10
76.2733045637915
 20
71.53851247889022
 30
0.0
 40
0.760805859375
100
AcDbArc
 50
132.0750220508437
 51
227.9249779491585
  0
ARC
  5
29B
330
2
100
AcDbEntity
  8
LINEWORK
 62
     7
370
    30
100
AcDbCircle
 10
76.2615240848059
 20
71.53851247889022
 30
0.0
 40
0.7529625000000308
100
AcDbArc
 50
131.4096221092686
 51
228.590377890729
  0
POINT
  5
29C
330
2
100
AcDbEntity
  8
LINEWORK
 62
     1
370
    30
100
AcDbPoint
 10
72.81857485880269
 20
73.6264406038903
 30
0.0
  0
LINE
  5
29D
330
2
100
AcDbEntity
  8
LINEWORK
 62
     7
370
    30
100
AcDbLine
 10
72.81857485880269
 20
71.36755310389023
 30
0.0
 11
72.74537017130271
 21
71.24205935389037
 31
0.0
  0
LINE
  5
29E
330
2
100
AcDbEntity
  8
LINEWORK
 62
     7
370
    30
100
AcDbLine
 10
72.81857485880269
 20
71.36755310389023
 30
0.0
 11
72.74537017130271
 21
71.24205935389025
 31
0.0
  0
LINE
  5
29F
330
2
100
AcDbEntity
  8
LINEWORK
 62
     7
370
    30
100
AcDbLine
 10
72.81857485880269
 20
71.36755310389023
 30
0.0
 11
72.81857485880269
 21
73.52374060389028
 31
0.0
  0
LINE
  5
2A0
330
2
100
AcDbEntity
  8
LINEWORK
 62
     7
370
    30
100
AcDbLine
 10
72.81857485880269
 20
75.61800564098527
 30
0.0
 11
72.81857485880269
 21
71.36755310389023
 31
0.0
  0
LINE
  5
2A1
330
2
100
AcDbEntity
  8
leaders
 62
     1
370
    30
100
AcDbLine
 10
69.45533393898324
 20
80.85158381433954
 30
0.0
 11
57.64188836300675
 21
94.24384002956335
 31
0.0
  0
LINE
  5
2A2
330
2
100
AcDbEntity
  8
LINEWORK
 62
     7
370
    30
100
AcDbLine
 10
55.84857603737414
 20
76.33329077682791
 30
0.0
 11
63.59705117427695
 21
76.33329077682791
 31
0.0
  0
SOLID
  5
2A3
330
2
100
AcDbEntity
  8
leaders
 62
     1
370
    30
100
AcDbTrace
 10
69.60531957213103
 20
80.98388766858894
 30
0.0
 11
69.30534830583545
 21
80.71927996009012
 31
0.0
 12
70.24915706447979
 22
79.95167001545272
 32
0.0
 13
70.24915706447979
 23
79.95167001545272
 33
0.0
  0
LINE
  5
2A4
330
2
100
AcDbEntity
  8
LINEWORK
  6
DASHED
 62
     7
 48
2.0
370
    30
100
AcDbLine
 10
69.68221860880271
 20
76.21374060389157
 30
0.0
 11
70.18221860880271
 21
76.21374060389157
 31
0.0
  0
LINE
  5
2A5
330
2
100
AcDbEntity
  8
LINEWORK
  6
DASHED
 62
     7
 48
2.0
370
    30
100
AcDbLine
 10
77.25994089191655
 20
80.58874060389157
 30
0.0
 11
77.75994089191655
 21
80.58874060389157
 31
0.0
  0
POINT
  5
2A6
330
2
100
AcDbEntity
  8
LINEWORK
 62
     7
370
    30
100
AcDbPoint
 10
76.43558464191656
 20
79.0390797542191
 30
0.0
  0
POINT
  5
2A7
330
2
100
AcDbEntity
  8
LINEWORK
 62
     7
370
    30
100
AcDbPoint
 10
76.43558464191656
 20
79.0390797542191
 30
0.0
  0
LINE
  5
2A8
330
2
100
AcDbEntity
  8
LINEWORK
  6
DASHED
 62
     7
 48
2.0
370
    30
100
AcDbLine
 10
77.75994089191655
 20
76.58874060389158
 30
0.0
 11
77.25994089191655
 21
76.58874060389158
 31
0.0
  0
LINE
  5
2A9
330
2
100
AcDbEntity
  8
LINEWORK
 62
     7
370
    30
100
AcDbLine
 10
74.62358464191658
 20
75.74255310389023
 30
0.0
 11
74.62358464191658
 21
76.66012852515601
 31
0.0
  0
LINE
  5
2AA
330
2
100
AcDbEntity
  8
LINEWORK
 62
     7
370
    30
100
AcDbLine
 10
74.62358464191658
 20
76.66012852515601
 30
0.0
 11
74.62358464191658
 21
75.74255310389023
 31
0.0
  0
LINE
  5
2AB
330
2
100
AcDbEntity
  8
LINEWORK
 62
     7
370
    30
100
AcDbLine
 10
77.50994089191653
 20
75.74255310389023
 30
0.0
 11
74.62358464191658
 21
75.74255310389023
 31
0.0
  0
LINE
  5
2AC
330
2
100
AcDbEntity
  8
LINEWORK
 62
     7
370
    30
100
AcDbLine
 10
77.50994089191653
 20
75.74255310389023
 30
0.0
 11
74.62358464191658
 21
75.74255310389023
 31
0.0
  0
LINE
  5
2AD
330
2
100
AcDbEntity
  8
LINEWORK
  6
DASHED
 62
     7
 48
2.0
370
    30
100
AcDbLine
 10
77.25994089191655
 20
76.58874060389158
 30
0.0
 11
77.25994089191655
 21
80.58874060389157
 31
0.0
  0
LINE
  5
2AE
330
2
100
AcDbEntity
  8
LINEWORK
  6
DASHED
 62
     7
 48
2.0
370
    30
100
AcDbLine
 10
77.75994089191655
 20
80.58874060389157
 30
0.0
 11
77.75994089191655
 21
76.58874060389158
 31
0.0
  0
LINE
  5
2C2
330
2
100
AcDbEntity
  8
LINEWORK
370
    30
100
AcDbLine
 10
116.7147055168528
 20
63.27618244666038
 30
0.0
 11
105.8317695767746
 21
63.27618244666038
 31
0.0
  0
LINE
  5
2C3
330
2
100
AcDbEntity
  8
LINEWORK
370
    30
100
AcDbLine
 10
105.8317695767746
 20
89.09248557775411
 30
0.0
 11
116.7147055168528
 21
89.09248557775411
 31
0.0
  0
LINE
  5
2C4
330
2
100
AcDbEntity
  8
LINEWORK
 62
     7
370
    30
100
AcDbLine
 10
97.91112908996192
 20
58.94556741664601
 30
0.0
 11
117.304500678666
 21
58.94556741664601
 31
0.0
  0
ARC
  5
2C5
330
2
100
AcDbEntity
  8
LINEWORK
370
    30
100
AcDbCircle
 10
107.8045006786659
 20
87.09007365386534
 30
0.0
 40
1.25
100
AcDbArc
 50
270.0
 51
0.0
  0
LINE
  5
2C6
330
2
100
AcDbEntity
  8
LINEWORK
 62
     7
370
    30
100
AcDbLine
 10
117.9045006786665
 20
90.01507365386535
 30
0.0
 11
104.7045006786655
 21
90.01507365386535
 31
0.0
  0
LINE
  5
2C7
330
2
100
AcDbEntity
  8
LINEWORK
 62
     7
370
    30
100
AcDbLine
 10
104.7045006786655
 20
90.56507365386531
 30
0.0
 11
117.9045006786664
 21
90.56507365386531
 31
0.0
  0
LINE
  5
2C8
330
2
100
AcDbEntity
  8
LINEWORK
 62
     7
370
    30
100
AcDbLine
 10
117.2478752905482
 20
94.14007365386536
 30
0.0
 11
105.3611260667836
 21
94.14007365386536
 31
0.0
  0
LINE
  5
2C9
330
2
100
AcDbEntity
  8
LINEWORK
 62
     7
370
    30
100
AcDbLine
 10
116.8045006786659
 20
89.46507365386528
 30
0.0
 11
105.8045006786659
 21
89.46507365386528
 31
0.0
  0
LINE
  5
2CA
330
2
100
AcDbEntity
  8
LINEWORK
 62
     7
370
    30
100
AcDbLine
 10
119.5545006786631
 20
92.35257365386534
 30
0.0
 11
95.36232159360679
 21
92.35257365386534
 31
0.0
  0
LINE
  5
2CB
330
2
100
AcDbEntity
  8
LINEWORK
 62
     7
370
    30
100
AcDbLine
 10
95.09847271780465
 20
93.31507365386526
 30
0.0
 11
119.57287226737
 21
93.31507365386526
 31
0.0
  0
ARC
  5
2CC
330
2
100
AcDbEntity
  8
LINEWORK
370
    30
100
AcDbCircle
 10
107.8045006786659
 20
64.99707365386533
 30
0.0
 40
1.25
100
AcDbArc
 50
0.0000000000065138
 51
90.00000000000651
  0
LINE
  5
2CD
330
2
100
AcDbEntity
  8
LINEWORK
 62
     7
370
    30
100
AcDbLine
 10
116.8045006786659
 20
62.90207365386535
 30
0.0
 11
97.26399891328894
 21
62.90207365386535
 31
0.0
  0
LINE
  5
2CE
330
2
100
AcDbEntity
  8
LINEWORK
 62
     7
370
    30
100
AcDbLine
 10
117.304500678666
 20
62.40207365386535
 30
0.0
 11
97.34577942087227
 21
62.40207365386535
 31
0.0
  0
ARC
  5
2CF
330
2
100
AcDbEntity
  8
LINEWORK
 62
     7
370
    30
100
AcDbCircle
 10
97.62592713860536
 20
74.39084748122965
 30
0.0
 40
5.330037199451427
100
AcDbArc
 50
357.6418735319814
 51
19.60711889602341
  0
ARC
  5
2D0
330
2
100
AcDbEntity
  8
LINEWORK
 62
     7
370
    30
100
AcDbCircle
 10
97.6224553990837
 20
74.39032091163844
 30
0.0
 40
5.333484374999923
100
AcDbArc
 50
357.649060045261
 51
19.59993238281846
  0
ARC
  5
2D1
330
2
100
AcDbEntity
  8
LINEWORK
 62
     7
370
    30
100
AcDbCircle
 10
102.5435571669894
 20
74.39084748122965
 30
0.0
 40
5.330037199451427
100
AcDbArc
 50
160.3928811039782
 51
182.3581264680185
  0
ARC
  5
2D2
330
2
100
AcDbEntity
  8
LINEWORK
 62
     7
370
    30
100
AcDbCircle
 10
102.547028906511
 20
74.39032091163844
 30
0.0
 40
5.333484374999923
100
AcDbArc
 50
160.4000676171815
 51
182.3509399547389
  0
ARC
  5
2D3
330
2
100
AcDbEntity
  8
LINEWORK
 62
     7
370
    30
100
AcDbCircle
 10
86.21604632768235
 20
75.85101247889022
 30
0.0
 40
0.760805859375
100
AcDbArc
 50
312.0750220508414
 51
47.92497794915621
  0
ARC
  5
2D4
330
2
100
AcDbEntity
  8
LINEWORK
 62
     7
370
    30
100
AcDbCircle
 10
86.22782680666794
 20
75.85101247889022
 30
0.0
 40
0.7529625000000308
100
AcDbArc
 50
311.4096221092709
 51
48.59037789073134
  0
ARC
  5
2D5
330
2
100
AcDbEntity
  8
LINEWORK
 62
     7
370
    30
100
AcDbCircle
 10
83.74277367143228
 20
75.85101247889022
 30
0.0
 40
0.760805859375
100
AcDbArc
 50
132.0750220508437
 51
227.9249779491585
  0
ARC
  5
2D6
330
2
100
AcDbEntity
  8
LINEWORK
 62
     7
370
    30
100
AcDbCircle
 10
83.73099319244669
 20
75.85101247889022
 30
0.0
 40
0.7529625000000308
100
AcDbArc
 50
131.4096221092686
 51
228.590377890729
  0
LINE
  5
2D7
330
2
100
AcDbEntity
  8
LINEWORK
370
    30
100
AcDbLine
 10
105.8317695767746
 20
63.27618244666038
 30
0.0
 11
105.8317695767746
 21
89.09248557775411
 31
0.0
  0
LINE
  5
2D8
330
2
100
AcDbEntity
  8
LINEWORK
 62
     7
370
    30
100
AcDbLine
 10
80.39629714191653
 20
75.74255310389023
 30
0.0
 11
80.32309245441656
 21
75.61705935389037
 31
0.0
  0
LINE
  5
2D9
330
2
100
AcDbEntity
  8
LINEWORK
 62
     7
370
    30
100
AcDbLine
 10
80.39629714191653
 20
75.74255310389023
 30
0.0
 11
80.32309245441656
 21
75.61705935389025
 31
0.0
  0
LINE
  5
2DA
330
2
100
AcDbEntity
  8
LINEWORK
370
    30
100
AcDbLine
 10
107.804500678666
 20
66.24707365386533
 30
0.0
 11
107.8045006786659
 21
85.84007365386495
 31
0.0
  0
ARC
  5
2DB
330
2
100
AcDbEntity
  8
LINEWORK
 62
     7
370
    30
100
AcDbCircle
 10
96.25184780672501
 20
76.04599568201527
 30
0.0
 40
2.22763833761492
100
AcDbArc
 50
180.6052145972454
 51
207.4672723386107
  0
ARC
  5
2DC
330
2
100
AcDbEntity
  8
LINEWORK
 62
     7
370
    30
100
AcDbCircle
 10
96.25172385182484
 20
76.04596469329024
 30
0.0
 40
2.22751406250017
100
AcDbArc
 50
180.6044512322847
 51
207.4680357035698
  0
ARC
  5
2DD
330
2
100
AcDbEntity
  8
LINEWORK
 62
     7
370
    30
100
AcDbCircle
 10
88.42940405672512
 20
76.04599568201527
 30
0.0
 40
2.22763833761492
100
AcDbArc
 50
332.532727661389
 51
359.3947854027546
  0
ARC
  5
2DE
330
2
100
AcDbEntity
  8
LINEWORK
 62
     7
370
    30
100
AcDbCircle
 10
88.4295280116253
 20
76.04596469329024
 30
0.0
 40
2.227514062500199
100
AcDbArc
 50
332.5319642964285
 51
359.3955487677153
  0
LINE
  5
2DF
330
2
100
AcDbEntity
  8
LINEWORK
 62
     7
370
    30
100
AcDbLine
 10
95.22698218172505
 20
62.15901419744537
 30
0.0
 11
89.4542696817251
 21
58.82613708161611
 31
0.0
  0
ARC
  5
2E0
330
2
100
AcDbEntity
  8
LINEWORK
 62
     7
370
    30
100
AcDbCircle
 10
91.34986270866702
 20
71.44285257923915
 30
0.0
 40
3.857967380510689
100
AcDbArc
 50
310.1237387019671
 51
0.9184135598969776
  0
ARC
  5
2E1
330
2
100
AcDbEntity
  8
LINEWORK
 62
     7
370
    30
100
AcDbCircle
 10
91.34889008114063
 20
71.44329539912743
 30
0.0
 40
3.858932812500603
100
AcDbArc
 50
310.1305441294349
 51
0.9116081324223062
  0
LINE
  5
2E2
330
2
100
AcDbEntity
  8
LINEWORK
 62
     7
370
    30
100
AcDbLine
 10
92.34062593172504
 20
64.72802810389024
 30
0.0
 11
94.53676655672504
 21
64.72802810389024
 31
0.0
  0
LINE
  5
2E3
330
2
100
AcDbEntity
  8
LINEWORK
 62
     7
370
    30
100
AcDbLine
 10
92.34062593172504
 20
64.72802810389035
 30
0.0
 11
94.53676655672509
 21
64.72802810389035
 31
0.0
  0
ARC
  5
2E4
330
2
100
AcDbEntity
  8
LINEWORK
 62
     7
370
    30
100
AcDbCircle
 10
95.52529128328755
 20
66.76403347498413
 30
0.0
 40
1.720801135514404
100
AcDbArc
 50
204.6726943310066
 51
234.9384478535191
  0
ARC
  5
2E5
330
2
100
AcDbEntity
  8
LINEWORK
 62
     7
370
    30
100
AcDbCircle
 10
95.52906143169835
 20
66.76717526532641
 30
0.0
 40
1.725539062499889
100
AcDbArc
 50
204.7152353378861
 51
234.895906846644
  0
LINE
  5
2E6
330
2
100
AcDbEntity
  8
LINEWORK
 62
     7
370
    30
100
AcDbLine
 10
92.34062593172504
 20
65.35549685389018
 30
0.0
 11
94.53676655672504
 21
65.35549685389018
 31
0.0
  0
LINE
  5
2E7
330
2
100
AcDbEntity
  8
LINEWORK
 62
     7
370
    30
100
AcDbLine
 10
94.53676655672504
 20
65.35549685389034
 30
0.0
 11
92.34062593172504
 21
65.35549685389034
 31
0.0
  0
LINE
  5
2E8
330
2
100
AcDbEntity
  8
LINEWORK
 62
     7
370
    30
100
AcDbLine
 10
92.34062593172504
 20
63.34759685389034
 30
0.0
 11
94.66226030672507
 21
63.34759685389034
 31
0.0
  0
LINE
  5
2E9
330
2
100
AcDbEntity
  8
LINEWORK
 62
     7
370
    30
100
AcDbLine
 10
94.66226030672507
 20
63.34759685389034
 30
0.0
 11
92.34062593172504
 21
63.34759685389034
 31
0.0
  0
LINE
  5
2EA
330
2
100
AcDbEntity
  8
LINEWORK
 62
     7
370
    30
100
AcDbLine
 10
89.4542696817251
 20
62.97111560389024
 30
0.0
 11
95.22698218172505
 21
62.97111560389024
 31
0.0
  0
LINE
  5
2EB
330
2
100
AcDbEntity
  8
LINEWORK
 62
     7
370
    30
100
AcDbLine
 10
94.66226030672507
 20
63.09660935389027
 30
0.0
 11
90.01899155672502
 21
63.09660935389027
 31
0.0
  0
LINE
  5
2EC
330
2
100
AcDbEntity
  8
LINEWORK
 62
     7
370
    30
100
AcDbLine
 10
95.22698218172505
 20
62.97111560389024
 30
0.0
 11
89.4542696817251
 21
62.97111560389024
 31
0.0
  0
ARC
  5
2ED
330
2
100
AcDbEntity
  8
LINEWORK
 62
     7
370
    30
100
AcDbCircle
 10
83.78896234330731
 20
63.74086560389023
 30
0.0
 40
0.587380468750003
100
AcDbArc
 50
121.284492914417
 51
238.7155070855829
  0
ARC
  5
2EE
330
2
100
AcDbEntity
  8
LINEWORK
 62
     7
370
    30
100
AcDbCircle
 10
86.16985765580732
 20
63.74086560389023
 30
0.0
 40
0.587380468750003
100
AcDbArc
 50
301.2844929144171
 51
58.71550708558289
  0
ARC
  5
2EF
330
2
100
AcDbEntity
  8
LINEWORK
 62
     7
370
    30
100
AcDbCircle
 10
90.40868267514609
 20
64.00809027494287
 30
0.0
 40
0.7668837767419853
100
AcDbArc
 50
110.1517470342137
 51
239.4593951503169
  0
ARC
  5
2F0
330
2
100
AcDbEntity
  8
LINEWORK
 62
     7
370
    30
100
AcDbCircle
 10
75.05112587772453
 20
63.16149739721729
 30
0.0
 40
5.330037199451427
100
AcDbArc
 50
357.6418735319814
 51
19.60711889602341
  0
ARC
  5
2F1
330
2
100
AcDbEntity
  8
LINEWORK
 62
     7
370
    30
100
AcDbCircle
 10
75.04765413820286
 20
63.16097082762607
 30
0.0
 40
5.333484374999923
100
AcDbArc
 50
357.649060045261
 51
19.59993238281846
  0
LINE
  5
2F2
330
2
100
AcDbEntity
  8
LINEWORK
 62
     7
370
    30
100
AcDbLine
 10
84.97940999955732
 20
60.47802810389024
 30
0.0
 11
87.17555062455732
 21
60.47802810389024
 31
0.0
  0
LINE
  5
2F3
330
2
100
AcDbEntity
  8
LINEWORK
 62
     7
370
    30
100
AcDbLine
 10
84.97940999955732
 20
60.47802810389035
 30
0.0
 11
87.17555062455737
 21
60.47802810389035
 31
0.0
  0
LINE
  5
2F4
330
2
100
AcDbEntity
  8
LINEWORK
 62
     7
370
    30
100
AcDbLine
 10
84.97940999955732
 20
61.10549685389023
 30
0.0
 11
87.17555062455732
 21
61.10549685389023
 31
0.0
  0
LINE
  5
2F5
330
2
100
AcDbEntity
  8
LINEWORK
 62
     7
370
    30
100
AcDbLine
 10
87.17555062455732
 20
61.10549685389035
 30
0.0
 11
84.97940999955732
 21
61.10549685389035
 31
0.0
  0
ARC
  5
2F6
330
2
100
AcDbEntity
  8
LINEWORK
 62
     7
370
    30
100
AcDbCircle
 10
88.16407535111983
 20
62.51403347498413
 30
0.0
 40
1.720801135514404
100
AcDbArc
 50
204.6726943310066
 51
234.9384478535191
  0
ARC
  5
2F7
330
2
100
AcDbEntity
  8
LINEWORK
 62
     7
370
    30
100
AcDbCircle
 10
88.16784549953062
 20
62.51717526532641
 30
0.0
 40
1.725539062499889
100
AcDbArc
 50
204.7152353378861
 51
234.895906846644
  0
LINE
  5
2F8
330
2
100
AcDbEntity
  8
LINEWORK
 62
     7
370
    30
100
AcDbLine
 10
84.97940999955732
 20
59.09759685389033
 30
0.0
 11
87.30104437455734
 21
59.09759685389033
 31
0.0
  0
LINE
  5
2F9
330
2
100
AcDbEntity
  8
LINEWORK
 62
     7
370
    30
100
AcDbLine
 10
87.30104437455734
 20
59.09759685389033
 30
0.0
 11
84.97940999955732
 21
59.09759685389033
 31
0.0
  0
LINE
  5
2FA
330
2
100
AcDbEntity
  8
LINEWORK
 62
     7
370
    30
100
AcDbLine
 10
87.86576624955733
 20
57.90901419744542
 30
0.0
 11
82.09305374955738
 21
54.57613708161611
 31
0.0
  0
LINE
  5
2FB
330
2
100
AcDbEntity
  8
LINEWORK
 62
     7
370
    30
100
AcDbLine
 10
82.09305374955738
 20
58.72111560389024
 30
0.0
 11
87.86576624955733
 21
58.72111560389024
 31
0.0
  0
LINE
  5
2FC
330
2
100
AcDbEntity
  8
LINEWORK
 62
     7
370
    30
100
AcDbLine
 10
87.30104437455734
 20
58.84660935389027
 30
0.0
 11
82.65777562455729
 21
58.84660935389027
 31
0.0
  0
LINE
  5
2FD
330
2
100
AcDbEntity
  8
LINEWORK
 62
     7
370
    30
100
AcDbLine
 10
87.86576624955733
 20
58.72111560389024
 30
0.0
 11
82.09305374955738
 21
58.72111560389024
 31
0.0
  0
LINE
  5
2FE
330
2
100
AcDbEntity
  8
LINEWORK
 62
     7
370
    30
100
AcDbLine
 10
84.97940999955732
 20
63.23889060389027
 30
0.0
 11
86.47487718705734
 21
63.23889060389027
 31
0.0
  0
LINE
  5
2FF
330
2
100
AcDbEntity
  8
LINEWORK
 62
     7
370
    30
100
AcDbLine
 10
86.47487718705734
 20
63.23889060389027
 30
0.0
 11
84.97940999955732
 21
63.23889060389027
 31
0.0
  0
ARC
  5
300
330
2
100
AcDbEntity
  8
LINEWORK
 62
     7
370
    30
100
AcDbCircle
 10
89.19530772182845
 20
62.74840446832687
 30
0.0
 40
2.764293570461533
100
AcDbArc
 50
169.7795306324377
 51
200.1599508237859
  0
ARC
  5
301
330
2
100
AcDbEntity
  8
LINEWORK
 62
     7
370
    30
100
AcDbCircle
 10
89.19176563769726
 20
62.74809646101087
 30
0.0
 40
2.760862499999871
100
AcDbArc
 50
169.7601969736181
 51
200.1792844825418
  0
ARC
  5
302
330
2
100
AcDbEntity
  8
LINEWORK
 62
     7
370
    30
100
AcDbCircle
 10
80.7635122772862
 20
62.74840446832687
 30
0.0
 40
2.764293570461533
100
AcDbArc
 50
339.8400491762122
 51
10.22046936756227
  0
ARC
  5
303
330
2
100
AcDbEntity
  8
LINEWORK
 62
     7
370
    30
100
AcDbCircle
 10
80.76705436141741
 20
62.74809646101087
 30
0.0
 40
2.760862499999871
100
AcDbArc
 50
339.8207155174581
 51
10.23980302638188
  0
LINE
  5
304
330
2
100
AcDbEntity
  8
LINEWORK
 62
     7
370
    30
100
AcDbLine
 10
84.97940999955732
 20
63.23889060389027
 30
0.0
 11
83.48394281205735
 21
63.23889060389027
 31
0.0
  0
LINE
  5
305
330
2
100
AcDbEntity
  8
LINEWORK
 62
     7
370
    30
100
AcDbLine
 10
83.48394281205735
 20
63.23889060389027
 30
0.0
 11
84.97940999955732
 21
63.23889060389027
 31
0.0
  0
LINE
  5
306
330
2
100
AcDbEntity
  8
LINEWORK
  6
DASHED
 62
     7
 48
2.0
370
    30
100
AcDbLine
 10
85.22940999955734
 20
57.24992810388894
 30
0.0
 11
85.22940999955734
 21
53.24992810388889
 31
0.0
  0
LINE
  5
307
330
2
100
AcDbEntity
  8
LINEWORK
  6
DASHED
 62
     7
 48
2.0
370
    30
100
AcDbLine
 10
84.72940999955735
 20
53.24992810388889
 30
0.0
 11
84.72940999955735
 21
57.24992810388894
 31
0.0
  0
LINE
  5
308
330
2
100
AcDbEntity
  8
LINEWORK
 62
     7
370
    30
100
AcDbLine
 10
85.22940999955734
 20
57.24992810388894
 30
0.0
 11
84.72940999955735
 21
57.24992810388894
 31
0.0
  0
LINE
  5
309
330
2
100
AcDbEntity
  8
LINEWORK
  6
DASHED
 62
     7
 48
2.0
370
    30
100
AcDbLine
 10
85.22940999955734
 20
53.24992810388889
 30
0.0
 11
84.72940999955735
 21
53.24992810388889
 31
0.0
  0
LINE
  5
30A
330
2
100
AcDbEntity
  8
LINEWORK
 62
     7
370
    30
100
AcDbLine
 10
82.78326937455732
 20
61.10549685389023
 30
0.0
 11
82.78326937455732
 21
60.47802810389024
 31
0.0
  0
LINE
  5
30B
330
2
100
AcDbEntity
  8
LINEWORK
 62
     7
370
    30
100
AcDbLine
 10
82.78326937455732
 20
60.47802810389035
 30
0.0
 11
82.78326937455732
 21
61.10549685389035
 31
0.0
  0
LINE
  5
30C
330
2
100
AcDbEntity
  8
LINEWORK
 62
     7
370
    30
100
AcDbLine
 10
82.65777562455729
 20
58.84660935389027
 30
0.0
 11
82.65777562455729
 21
59.09759685389033
 31
0.0
  0
LINE
  5
30D
330
2
100
AcDbEntity
  8
LINEWORK
 62
     7
370
    30
100
AcDbLine
 10
82.65777562455729
 20
59.09759685389033
 30
0.0
 11
82.65777562455729
 21
58.84660935389027
 31
0.0
  0
LINE
  5
30E
330
2
100
AcDbEntity
  8
LINEWORK
 62
     7
370
    30
100
AcDbLine
 10
82.09305374955738
 20
58.72111560389024
 30
0.0
 11
82.09305374955738
 21
56.56492810389019
 31
0.0
  0
LINE
  5
30F
330
2
100
AcDbEntity
  8
LINEWORK
 62
     7
370
    30
100
AcDbLine
 10
82.09305374955738
 20
56.21124060389021
 30
0.0
 11
82.09305374955738
 21
58.72111560389024
 31
0.0
  0
LINE
  5
310
330
2
100
AcDbEntity
  8
LINEWORK
 62
     7
370
    30
100
AcDbLine
 10
82.09305374955738
 20
58.72111560389024
 30
0.0
 11
82.09305374955738
 21
56.21124060389021
 31
0.0
  0
LINE
  5
311
330
2
100
AcDbEntity
  8
LINEWORK
 62
     7
370
    30
100
AcDbLine
 10
82.09305374955738
 20
54.57613708161611
 30
0.0
 11
82.09305374955738
 21
58.72111560389024
 31
0.0
  0
POINT
  5
312
330
2
100
AcDbEntity
  8
LINEWORK
 62
     1
370
    30
100
AcDbPoint
 10
82.09305374955738
 20
56.46222810389017
 30
0.0
  0
ARC
  5
313
330
2
100
AcDbEntity
  8
LINEWORK
 62
     7
370
    30
100
AcDbCircle
 10
83.04746674297836
 20
59.75809027494287
 30
0.0
 40
0.7668837767419853
100
AcDbArc
 50
110.1517470342137
 51
239.4593951503169
  0
LINE
  5
314
330
2
100
AcDbEntity
  8
LINEWORK
 62
     7
370
    30
100
AcDbLine
 10
84.97940999955732
 20
60.47802810389024
 30
0.0
 11
82.78326937455732
 21
60.47802810389024
 31
0.0
  0
LINE
  5
315
330
2
100
AcDbEntity
  8
LINEWORK
 62
     7
370
    30
100
AcDbLine
 10
84.97940999955732
 20
61.10549685389023
 30
0.0
 11
82.78326937455732
 21
61.10549685389023
 31
0.0
  0
LINE
  5
316
330
2
100
AcDbEntity
  8
LINEWORK
 62
     7
370
    30
100
AcDbLine
 10
84.97940999955732
 20
60.47802810389035
 30
0.0
 11
82.78326937455732
 21
60.47802810389035
 31
0.0
  0
LINE
  5
317
330
2
100
AcDbEntity
  8
LINEWORK
 62
     7
370
    30
100
AcDbLine
 10
82.78326937455732
 20
61.10549685389035
 30
0.0
 11
84.97940999955732
 21
61.10549685389035
 31
0.0
  0
LINE
  5
318
330
2
100
AcDbEntity
  8
LINEWORK
 62
     7
370
    30
100
AcDbLine
 10
84.97940999955732
 20
59.09759685389033
 30
0.0
 11
82.65777562455729
 21
59.09759685389033
 31
0.0
  0
LINE
  5
319
330
2
100
AcDbEntity
  8
LINEWORK
 62
     7
370
    30
100
AcDbLine
 10
82.65777562455729
 20
59.09759685389033
 30
0.0
 11
84.97940999955732
 21
59.09759685389033
 31
0.0
  0
ARC
  5
31A
330
2
100
AcDbEntity
  8
LINEWORK
 62
     7
370
    30
100
AcDbCircle
 10
81.79474464799481
 20
62.51403347498413
 30
0.0
 40
1.720801135514404
100
AcDbArc
 50
305.0615521464809
 51
335.3273056689862
  0
ARC
  5
31B
330
2
100
AcDbEntity
  8
LINEWORK
 62
     7
370
    30
100
AcDbCircle
 10
81.79097449958401
 20
62.51717526532653
 30
0.0
 40
1.725539062499979
100
AcDbArc
 50
305.1040931533559
 51
335.284764662112
  0
LINE
  5
31C
330
2
100
AcDbEntity
  8
LINEWORK
 62
     7
370
    30
100
AcDbLine
 10
80.39629714191653
 20
54.40861560389024
 30
0.0
 11
80.39629714191653
 21
53.59651419744543
 31
0.0
  0
LINE
  5
31D
330
2
100
AcDbEntity
  8
LINEWORK
 62
     7
370
    30
100
AcDbLine
 10
80.39629714191653
 20
53.59651419744543
 30
0.0
 11
80.39629714191653
 21
54.40861560389024
 31
0.0
  0
LINE
  5
31E
330
2
100
AcDbEntity
  8
LINEWORK
 62
     7
370
    30
100
AcDbLine
 10
80.39629714191653
 20
54.40861560389024
 30
0.0
 11
80.39629714191656
 21
53.59651419744543
 31
0.0
  0
LINE
  5
31F
330
2
100
AcDbEntity
  8
LINEWORK
 62
     7
370
    30
100
AcDbLine
 10
80.39629714191656
 20
53.59651419744543
 30
0.0
 11
80.39629714191653
 21
54.40861560389024
 31
0.0
  0
LINE
  5
320
330
2
100
AcDbEntity
  8
LINEWORK
 62
     7
370
    30
100
AcDbLine
 10
87.17555062455732
 20
61.10549685389023
 30
0.0
 11
87.17555062455732
 21
60.47802810389024
 31
0.0
  0
LINE
  5
321
330
2
100
AcDbEntity
  8
LINEWORK
 62
     7
370
    30
100
AcDbLine
 10
87.17555062455737
 20
60.47802810389035
 30
0.0
 11
87.17555062455732
 21
61.10549685389035
 31
0.0
  0
LINE
  5
322
330
2
100
AcDbEntity
  8
LINEWORK
 62
     7
370
    30
100
AcDbLine
 10
87.86576624955733
 20
58.72111560389024
 30
0.0
 11
87.86576624955733
 21
57.90901419744542
 31
0.0
  0
LINE
  5
323
330
2
100
AcDbEntity
  8
LINEWORK
 62
     7
370
    30
100
AcDbLine
 10
87.86576624955733
 20
57.90901419744542
 30
0.0
 11
87.86576624955733
 21
58.72111560389024
 31
0.0
  0
LINE
  5
324
330
2
100
AcDbEntity
  8
LINEWORK
 62
     7
370
    30
100
AcDbLine
 10
87.86576624955733
 20
58.72111560389024
 30
0.0
 11
87.86576624955735
 21
57.90901419744542
 31
0.0
  0
LINE
  5
325
330
2
100
AcDbEntity
  8
LINEWORK
 62
     7
370
    30
100
AcDbLine
 10
87.86576624955735
 20
57.90901419744542
 30
0.0
 11
87.86576624955733
 21
58.72111560389024
 31
0.0
  0
LINE
  5
326
330
2
100
AcDbEntity
  8
LINEWORK
 62
     7
370
    30
100
AcDbLine
 10
87.30104437455734
 20
58.84660935389027
 30
0.0
 11
87.30104437455734
 21
59.09759685389033
 31
0.0
  0
LINE
  5
327
330
2
100
AcDbEntity
  8
LINEWORK
 62
     7
370
    30
100
AcDbLine
 10
87.30104437455734
 20
59.09759685389033
 30
0.0
 11
87.30104437455734
 21
58.84660935389027
 31
0.0
  0
ARC
  5
328
330
2
100
AcDbEntity
  8
LINEWORK
 62
     7
370
    30
100
AcDbCircle
 10
86.91135325613627
 20
59.75809027494287
 30
0.0
 40
0.7668837767419853
100
AcDbArc
 50
300.540604849683
 51
69.8482529657862
  0
LINE
  5
329
330
2
100
AcDbEntity
  8
LINEWORK
 62
     7
370
    30
100
AcDbLine
 10
92.59062593172506
 20
61.49992810388894
 30
0.0
 11
92.09062593172507
 21
61.49992810388894
 31
0.0
  0
LINE
  5
32A
330
2
100
AcDbEntity
  8
LINEWORK
 62
     7
370
    30
100
AcDbLine
 10
90.01899155672502
 20
63.09660935389027
 30
0.0
 11
90.01899155672502
 21
63.34759685389034
 31
0.0
  0
LINE
  5
32B
330
2
100
AcDbEntity
  8
LINEWORK
 62
     7
370
    30
100
AcDbLine
 10
90.01899155672502
 20
63.34759685389034
 30
0.0
 11
90.01899155672502
 21
63.09660935389027
 31
0.0
  0
LINE
  5
32C
330
2
100
AcDbEntity
  8
LINEWORK
 62
     7
370
    30
100
AcDbLine
 10
89.4542696817251
 20
62.97111560389024
 30
0.0
 11
89.4542696817251
 21
60.81492810389026
 31
0.0
  0
POINT
  5
32D
330
2
100
AcDbEntity
  8
LINEWORK
 62
     1
370
    30
100
AcDbPoint
 10
89.4542696817251
 20
60.71222810389011
 30
0.0
  0
LINE
  5
32E
330
2
100
AcDbEntity
  8
LINEWORK
 62
     7
370
    30
100
AcDbLine
 10
92.34062593172504
 20
63.34759685389034
 30
0.0
 11
90.01899155672502
 21
63.34759685389034
 31
0.0
  0
LINE
  5
32F
330
2
100
AcDbEntity
  8
LINEWORK
 62
     7
370
    30
100
AcDbLine
 10
90.01899155672502
 20
63.34759685389034
 30
0.0
 11
92.34062593172504
 21
63.34759685389034
 31
0.0
  0
LINE
  5
330
330
2
100
AcDbEntity
  8
LINEWORK
  6
DASHED
 62
     7
 48
2.0
370
    30
100
AcDbLine
 10
92.59062593172506
 20
57.49992810388895
 30
0.0
 11
92.09062593172507
 21
57.49992810388895
 31
0.0
  0
LINE
  5
331
330
2
100
AcDbEntity
  8
LINEWORK
 62
     7
370
    30
100
AcDbLine
 10
89.4542696817251
 20
60.46124060389027
 30
0.0
 11
89.4542696817251
 21
62.97111560389024
 31
0.0
  0
LINE
  5
332
330
2
100
AcDbEntity
  8
LINEWORK
 62
     7
370
    30
100
AcDbLine
 10
89.4542696817251
 20
62.97111560389024
 30
0.0
 11
89.4542696817251
 21
60.46124060389027
 31
0.0
  0
LINE
  5
333
330
2
100
AcDbEntity
  8
LINEWORK
 62
     7
370
    30
100
AcDbLine
 10
89.45426968172506
 20
58.82613708161605
 30
0.0
 11
89.4542696817251
 21
62.97111560389024
 31
0.0
  0
LINE
  5
334
330
2
100
AcDbEntity
  8
LINEWORK
  6
DASHED
 62
     7
 48
2.0
370
    30
100
AcDbLine
 10
92.59062593172506
 20
61.49992810388894
 30
0.0
 11
92.59062593172506
 21
57.49992810388895
 31
0.0
  0
LINE
  5
335
330
2
100
AcDbEntity
  8
LINEWORK
  6
DASHED
 62
     7
 48
2.0
370
    30
100
AcDbLine
 10
92.09062593172507
 20
57.49992810388895
 30
0.0
 11
92.09062593172507
 21
61.49992810388894
 31
0.0
  0
ARC
  5
336
330
2
100
AcDbEntity
  8
LINEWORK
 62
     7
370
    30
100
AcDbCircle
 10
73.20239007365
 20
64.17161576498447
 30
0.0
 40
15.21611718749983
100
AcDbArc
 50
19.54686554134434
 51
25.69286435959092
  0
ARC
  5
337
330
2
100
AcDbEntity
  8
LINEWORK
 62
     7
370
    30
100
AcDbCircle
 10
83.9886467764993
 20
67.19285257923914
 30
0.0
 40
3.857967380510689
100
AcDbArc
 50
310.1237387019671
 51
0.9184135598969776
  0
ARC
  5
338
330
2
100
AcDbEntity
  8
LINEWORK
 62
     7
370
    30
100
AcDbCircle
 10
83.98767414897291
 20
67.19329539912743
 30
0.0
 40
3.858932812500603
100
AcDbArc
 50
310.1305441294349
 51
0.9116081324223062
  0
LINE
  5
339
330
2
100
AcDbEntity
  8
LINEWORK
 62
     7
370
    30
100
AcDbLine
 10
86.72586468705736
 20
74.53332810389023
 30
0.0
 11
86.72586468705736
 21
75.28629060389031
 31
0.0
  0
LINE
  5
33A
330
2
100
AcDbEntity
  8
LINEWORK
 62
     7
370
    30
100
AcDbLine
 10
86.72586468705736
 20
74.53332810389023
 30
0.0
 11
86.72586468705736
 21
75.28629060389031
 31
0.0
  0
LINE
  5
33B
330
2
100
AcDbEntity
  8
LINEWORK
 62
     7
370
    30
100
AcDbLine
 10
84.97940999955732
 20
74.40783435389025
 30
0.0
 11
86.60037093705732
 21
74.40783435389025
 31
0.0
  0
LINE
  5
33C
330
2
100
AcDbEntity
  8
LINEWORK
 62
     7
370
    30
100
AcDbLine
 10
86.60037093705732
 20
74.40783435389036
 30
0.0
 11
84.97940999955732
 21
74.40783435389025
 31
0.0
  0
LINE
  5
33D
330
2
100
AcDbEntity
  8
LINEWORK
 62
     7
370
    30
100
AcDbLine
 10
83.23295531205728
 20
74.53332810389023
 30
0.0
 11
83.35844906205732
 21
74.40783435389025
 31
0.0
  0
LINE
  5
33E
330
2
100
AcDbEntity
  8
LINEWORK
 62
     7
370
    30
100
AcDbLine
 10
83.23295531205728
 20
74.53332810389023
 30
0.0
 11
83.35844906205732
 21
74.40783435389025
 31
0.0
  0
LINE
  5
33F
330
2
100
AcDbEntity
  8
LINEWORK
 62
     7
370
    30
100
AcDbLine
 10
83.23295531205728
 20
74.53332810389023
 30
0.0
 11
83.23295531205728
 21
75.28629060389031
 31
0.0
  0
LINE
  5
340
330
2
100
AcDbEntity
  8
LINEWORK
 62
     7
370
    30
100
AcDbLine
 10
83.23295531205728
 20
74.53332810389023
 30
0.0
 11
83.23295531205735
 21
75.28629060389031
 31
0.0
  0
LINE
  5
341
330
2
100
AcDbEntity
  8
LINEWORK
 62
     7
370
    30
100
AcDbLine
 10
84.97940999955732
 20
75.28629060389031
 30
0.0
 11
83.23295531205728
 21
75.28629060389031
 31
0.0
  0
LINE
  5
342
330
2
100
AcDbEntity
  8
LINEWORK
 62
     7
370
    30
100
AcDbLine
 10
83.23295531205735
 20
75.28629060389031
 30
0.0
 11
84.97940999955732
 21
75.28629060389031
 31
0.0
  0
LINE
  5
343
330
2
100
AcDbEntity
  8
LINEWORK
 62
     7
370
    30
100
AcDbLine
 10
84.97940999955732
 20
74.40783435389025
 30
0.0
 11
83.35844906205732
 21
74.40783435389025
 31
0.0
  0
LINE
  5
344
330
2
100
AcDbEntity
  8
LINEWORK
 62
     7
370
    30
100
AcDbLine
 10
83.23295531205728
 20
74.53332810389023
 30
0.0
 11
84.97940999955732
 21
74.53332810389023
 31
0.0
  0
LINE
  5
345
330
2
100
AcDbEntity
  8
LINEWORK
 62
     7
370
    30
100
AcDbLine
 10
84.97940999955732
 20
74.53332810389023
 30
0.0
 11
83.23295531205728
 21
74.53332810389023
 31
0.0
  0
LINE
  5
346
330
2
100
AcDbEntity
  8
LINEWORK
 62
     7
370
    30
100
AcDbLine
 10
83.35844906205732
 20
74.40783435389036
 30
0.0
 11
84.97940999955732
 21
74.40783435389025
 31
0.0
  0
LINE
  5
347
330
2
100
AcDbEntity
  8
LINEWORK
 62
     7
370
    30
100
AcDbLine
 10
84.97940999955732
 20
75.28629060389031
 30
0.0
 11
86.72586468705736
 21
75.28629060389031
 31
0.0
  0
LINE
  5
348
330
2
100
AcDbEntity
  8
LINEWORK
 62
     7
370
    30
100
AcDbLine
 10
86.72586468705736
 20
75.28629060389031
 30
0.0
 11
84.97940999955732
 21
75.28629060389031
 31
0.0
  0
LINE
  5
349
330
2
100
AcDbEntity
  8
LINEWORK
 62
     7
370
    30
100
AcDbLine
 10
86.72586468705736
 20
74.53332810389023
 30
0.0
 11
84.97940999955732
 21
74.53332810389023
 31
0.0
  0
LINE
  5
34A
330
2
100
AcDbEntity
  8
LINEWORK
 62
     7
370
    30
100
AcDbLine
 10
84.97940999955732
 20
74.53332810389023
 30
0.0
 11
86.72586468705736
 21
74.53332810389023
 31
0.0
  0
LINE
  5
34B
330
2
100
AcDbEntity
  8
LINEWORK
 62
     7
370
    30
100
AcDbLine
 10
86.72586468705736
 20
74.53332810389023
 30
0.0
 11
86.60037093705732
 21
74.40783435389025
 31
0.0
  0
LINE
  5
34C
330
2
100
AcDbEntity
  8
LINEWORK
 62
     7
370
    30
100
AcDbLine
 10
86.72586468705736
 20
74.53332810389023
 30
0.0
 11
86.60037093705732
 21
74.40783435389025
 31
0.0
  0
LINE
  5
34D
330
2
100
AcDbEntity
  8
LINEWORK
 62
     7
370
    30
100
AcDbLine
 10
84.97940999955732
 20
64.24284060389019
 30
0.0
 11
86.47487718705734
 21
64.24284060389019
 31
0.0
  0
LINE
  5
34E
330
2
100
AcDbEntity
  8
LINEWORK
 62
     7
370
    30
100
AcDbLine
 10
84.97940999955732
 20
64.24284060389036
 30
0.0
 11
86.47487718705734
 21
64.24284060389036
 31
0.0
  0
LINE
  5
34F
330
2
100
AcDbEntity
  8
LINEWORK
 62
     7
370
    30
100
AcDbLine
 10
84.97940999955732
 20
64.24284060389019
 30
0.0
 11
83.48394281205735
 21
64.24284060389019
 31
0.0
  0
LINE
  5
350
330
2
100
AcDbEntity
  8
LINEWORK
 62
     7
370
    30
100
AcDbLine
 10
84.97940999955732
 20
64.24284060389036
 30
0.0
 11
83.48394281205735
 21
64.24284060389036
 31
0.0
  0
ARC
  5
351
330
2
100
AcDbEntity
  8
LINEWORK
 62
     7
370
    30
100
AcDbCircle
 10
88.89063187455731
 20
71.79599568201528
 30
0.0
 40
2.22763833761492
100
AcDbArc
 50
180.6052145972454
 51
207.4672723386107
  0
ARC
  5
352
330
2
100
AcDbEntity
  8
LINEWORK
 62
     7
370
    30
100
AcDbCircle
 10
88.89050791965713
 20
71.79596469329024
 30
0.0
 40
2.22751406250017
100
AcDbArc
 50
180.6044512322847
 51
207.4680357035698
  0
ARC
  5
353
330
2
100
AcDbEntity
  8
LINEWORK
 62
     7
370
    30
100
AcDbCircle
 10
96.75642992546466
 20
64.17161576498447
 30
0.0
 40
15.2161171874998
100
AcDbArc
 50
154.307135640409
 51
160.4531344586556
  0
ARC
  5
354
330
2
100
AcDbEntity
  8
LINEWORK
 62
     7
370
    30
100
AcDbCircle
 10
87.43822501374937
 20
67.47399739721728
 30
0.0
 40
5.330037199451427
100
AcDbArc
 50
160.3928811039782
 51
182.3581264680185
  0
ARC
  5
355
330
2
100
AcDbEntity
  8
LINEWORK
 62
     7
370
    30
100
AcDbCircle
 10
87.44169675327105
 20
67.47347082762607
 30
0.0
 40
5.333484374999923
100
AcDbArc
 50
160.4000676171815
 51
182.3509399547389
  0
ARC
  5
356
330
2
100
AcDbEntity
  8
LINEWORK
 62
     7
370
    30
100
AcDbCircle
 10
85.97017322261534
 20
67.19285257923914
 30
0.0
 40
3.857967380510689
100
AcDbArc
 50
179.081586440103
 51
229.8762612980329
  0
ARC
  5
357
330
2
100
AcDbEntity
  8
LINEWORK
 62
     7
370
    30
100
AcDbCircle
 10
85.97114585014189
 20
67.19329539912743
 30
0.0
 40
3.858932812500603
100
AcDbArc
 50
179.0883918675776
 51
229.8694558705634
  0
ARC
  5
358
330
2
100
AcDbEntity
  8
LINEWORK
 62
     7
370
    30
100
AcDbCircle
 10
81.0681881245574
 20
71.79599568201528
 30
0.0
 40
2.22763833761492
100
AcDbArc
 50
332.532727661389
 51
359.3947854027546
  0
ARC
  5
359
330
2
100
AcDbEntity
  8
LINEWORK
 62
     7
370
    30
100
AcDbCircle
 10
81.06831207945758
 20
71.79596469329024
 30
0.0
 40
2.227514062500199
100
AcDbArc
 50
332.5319642964285
 51
359.3955487677153
  0
ARC
  5
35A
330
2
100
AcDbEntity
  8
LINEWORK
 62
     7
370
    30
100
AcDbCircle
 10
55.73172400196064
 20
73.74718216038067
 30
0.0
 40
27.63462319024747
100
AcDbArc
 50
355.9022623541394
 51
1.369882582655951
  0
ARC
  5
35B
330
2
100
AcDbEntity
  8
LINEWORK
 62
     7
370
    30
100
AcDbCircle
 10
55.72634415606474
 20
73.74731025194953
 30
0.0
 40
27.63999843750035
100
AcDbArc
 50
355.902794411471
 51
1.369350525323726
  0
ARC
  5
35C
330
2
100
AcDbEntity
  8
LINEWORK
 62
     7
370
    30
100
AcDbCircle
 10
114.2270959971541
 20
73.74718216038067
 30
0.0
 40
27.63462319024747
100
AcDbArc
 50
178.630117417344
 51
184.0977376458606
  0
ARC
  5
35D
330
2
100
AcDbEntity
  8
LINEWORK
 62
     7
370
    30
100
AcDbCircle
 10
114.2324758430499
 20
73.74731025194953
 30
0.0
 40
27.63999843750035
100
AcDbArc
 50
178.6306494746762
 51
184.097205588529
  0
ARC
  5
35E
330
2
100
AcDbEntity
  8
LINEWORK
 62
     7
370
    30
100
AcDbCircle
 10
82.52059498536532
 20
67.47399739721728
 30
0.0
 40
5.330037199451427
100
AcDbArc
 50
357.6418735319814
 51
19.60711889602341
  0
ARC
  5
35F
330
2
100
AcDbEntity
  8
LINEWORK
 62
     7
370
    30
100
AcDbCircle
 10
82.51712324584365
 20
67.47347082762607
 30
0.0
 40
5.333484374999923
100
AcDbArc
 50
357.649060045261
 51
19.59993238281846
  0
ARC
  5
360
330
2
100
AcDbEntity
  8
LINEWORK
 62
     7
370
    30
100
AcDbCircle
 10
104.1176458576323
 20
68.42161576498447
 30
0.0
 40
15.2161171874998
100
AcDbArc
 50
154.307135640409
 51
160.4531344586556
  0
LINE
  5
361
330
2
100
AcDbEntity
  8
LINEWORK
 62
     7
370
    30
100
AcDbLine
 10
92.34062593172504
 20
68.49284060389019
 30
0.0
 11
90.84515874422507
 21
68.49284060389019
 31
0.0
  0
LINE
  5
362
330
2
100
AcDbEntity
  8
LINEWORK
 62
     7
370
    30
100
AcDbLine
 10
92.34062593172504
 20
68.49284060389035
 30
0.0
 11
90.84515874422507
 21
68.49284060389035
 31
0.0
  0
LINE
  5
363
330
2
100
AcDbEntity
  8
LINEWORK
 62
     7
370
    30
100
AcDbLine
 10
92.34062593172504
 20
68.49284060389019
 30
0.0
 11
93.83609311922507
 21
68.49284060389019
 31
0.0
  0
LINE
  5
364
330
2
100
AcDbEntity
  8
LINEWORK
 62
     7
370
    30
100
AcDbLine
 10
92.34062593172504
 20
68.49284060389035
 30
0.0
 11
93.83609311922507
 21
68.49284060389035
 31
0.0
  0
LINE
  5
365
330
2
100
AcDbEntity
  8
LINEWORK
 62
     7
370
    30
100
AcDbLine
 10
92.34062593172504
 20
67.48889060389027
 30
0.0
 11
90.84515874422507
 21
67.48889060389027
 31
0.0
  0
LINE
  5
366
330
2
100
AcDbEntity
  8
LINEWORK
 62
     7
370
    30
100
AcDbLine
 10
90.84515874422507
 20
67.48889060389027
 30
0.0
 11
92.34062593172504
 21
67.48889060389027
 31
0.0
  0
ARC
  5
367
330
2
100
AcDbEntity
  8
LINEWORK
 62
     7
370
    30
100
AcDbCircle
 10
96.55652365399616
 20
66.99840446832687
 30
0.0
 40
2.764293570461533
100
AcDbArc
 50
169.7795306324377
 51
200.1599508237859
  0
ARC
  5
368
330
2
100
AcDbEntity
  8
LINEWORK
 62
     7
370
    30
100
AcDbCircle
 10
96.55298156986496
 20
66.99809646101087
 30
0.0
 40
2.760862499999871
100
AcDbArc
 50
169.7601969736181
 51
200.1792844825418
  0
LINE
  5
369
330
2
100
AcDbEntity
  8
LINEWORK
 62
     7
370
    30
100
AcDbLine
 10
92.34062593172504
 20
67.48889060389027
 30
0.0
 11
93.83609311922507
 21
67.48889060389027
 31
0.0
  0
LINE
  5
36A
330
2
100
AcDbEntity
  8
LINEWORK
 62
     7
370
    30
100
AcDbLine
 10
93.83609311922507
 20
67.48889060389027
 30
0.0
 11
92.34062593172504
 21
67.48889060389027
 31
0.0
  0
LINE
  5
36B
330
2
100
AcDbEntity
  8
LINEWORK
 62
     7
370
    30
100
AcDbLine
 10
90.14448530672504
 20
65.35549685389018
 30
0.0
 11
90.14448530672504
 21
64.72802810389024
 31
0.0
  0
LINE
  5
36C
330
2
100
AcDbEntity
  8
LINEWORK
 62
     7
370
    30
100
AcDbLine
 10
90.14448530672504
 20
64.72802810389035
 30
0.0
 11
90.14448530672504
 21
65.35549685389034
 31
0.0
  0
LINE
  5
36D
330
2
100
AcDbEntity
  8
LINEWORK
 62
     7
370
    30
100
AcDbLine
 10
92.34062593172504
 20
64.72802810389024
 30
0.0
 11
90.14448530672504
 21
64.72802810389024
 31
0.0
  0
LINE
  5
36E
330
2
100
AcDbEntity
  8
LINEWORK
 62
     7
370
    30
100
AcDbLine
 10
92.34062593172504
 20
65.35549685389018
 30
0.0
 11
90.14448530672504
 21
65.35549685389018
 31
0.0
  0
LINE
  5
36F
330
2
100
AcDbEntity
  8
LINEWORK
 62
     7
370
    30
100
AcDbLine
 10
92.34062593172504
 20
64.72802810389035
 30
0.0
 11
90.14448530672504
 21
64.72802810389035
 31
0.0
  0
LINE
  5
370
330
2
100
AcDbEntity
  8
LINEWORK
 62
     7
370
    30
100
AcDbLine
 10
90.14448530672504
 20
65.35549685389034
 30
0.0
 11
92.34062593172504
 21
65.35549685389034
 31
0.0
  0
ARC
  5
371
330
2
100
AcDbEntity
  8
LINEWORK
 62
     7
370
    30
100
AcDbCircle
 10
89.15596058016253
 20
66.76403347498413
 30
0.0
 40
1.720801135514404
100
AcDbArc
 50
305.0615521464809
 51
335.3273056689862
  0
ARC
  5
372
330
2
100
AcDbEntity
  8
LINEWORK
 62
     7
370
    30
100
AcDbCircle
 10
89.15219043175174
 20
66.76717526532653
 30
0.0
 40
1.725539062499979
100
AcDbArc
 50
305.1040931533559
 51
335.284764662112
  0
ARC
  5
373
330
2
100
AcDbEntity
  8
LINEWORK
 62
     7
370
    30
100
AcDbCircle
 10
88.12472820945393
 20
66.99840446832687
 30
0.0
 40
2.764293570461533
100
AcDbArc
 50
339.8400491762122
 51
10.22046936756227
  0
ARC
  5
374
330
2
100
AcDbEntity
  8
LINEWORK
 62
     7
370
    30
100
AcDbCircle
 10
88.12827029358514
 20
66.99809646101087
 30
0.0
 40
2.760862499999871
100
AcDbArc
 50
339.8207155174581
 51
10.23980302638188
  0
ARC
  5
375
330
2
100
AcDbEntity
  8
LINEWORK
 62
     7
370
    30
100
AcDbCircle
 10
93.53107358797505
 20
67.99086560389023
 30
0.0
 40
0.587380468750003
100
AcDbArc
 50
301.2844929144171
 51
58.71550708558289
  0
ARC
  5
376
330
2
100
AcDbEntity
  8
LINEWORK
 62
     7
370
    30
100
AcDbCircle
 10
93.51461104980026
 20
67.99086560389245
 30
0.0
 40
0.5960953125000341
100
AcDbArc
 50
302.6368975040367
 51
57.36310249605958
  0
ARC
  5
377
330
2
100
AcDbEntity
  8
LINEWORK
 62
     7
370
    30
100
AcDbCircle
 10
93.33138915478306
 20
71.44285257923915
 30
0.0
 40
3.857967380510689
100
AcDbArc
 50
179.081586440103
 51
229.8762612980329
  0
ARC
  5
378
330
2
100
AcDbEntity
  8
LINEWORK
 62
     7
370
    30
100
AcDbCircle
 10
93.33236178230961
 20
71.44329539912743
 30
0.0
 40
3.858932812500603
100
AcDbArc
 50
179.0883918675776
 51
229.8694558705634
  0
ARC
  5
379
330
2
100
AcDbEntity
  8
LINEWORK
 62
     7
370
    30
100
AcDbCircle
 10
91.15017827547504
 20
67.99086560389023
 30
0.0
 40
0.587380468750003
100
AcDbArc
 50
121.284492914417
 51
238.7155070855829
  0
ARC
  5
37A
330
2
100
AcDbEntity
  8
LINEWORK
 62
     7
370
    30
100
AcDbCircle
 10
91.16664081364987
 20
67.99086560389245
 30
0.0
 40
0.5960953125000341
100
AcDbArc
 50
122.63689750394
 51
237.363102495957
  0
ARC
  5
37B
330
2
100
AcDbEntity
  8
LINEWORK
 62
     7
370
    30
100
AcDbCircle
 10
94.7994409459171
 20
71.72399739721729
 30
0.0
 40
5.330037199451427
100
AcDbArc
 50
160.3928811039782
 51
182.3581264680185
  0
ARC
  5
37C
330
2
100
AcDbEntity
  8
LINEWORK
 62
     7
370
    30
100
AcDbCircle
 10
94.80291268543878
 20
71.72347082762607
 30
0.0
 40
5.333484374999923
100
AcDbArc
 50
160.4000676171815
 51
182.3509399547389
  0
LINE
  5
37D
330
2
100
AcDbEntity
  8
LINEWORK
 62
     7
370
    30
100
AcDbLine
 10
102.9710984027974
 20
63.26831800429997
 30
0.0
 11
102.9710984027973
 21
65.63796568790261
 31
0.0
  0
LINE
  5
37E
330
2
100
AcDbEntity
  8
LINEWORK
  6
DASHED
 62
     7
 48
2.0
370
    30
100
AcDbLine
 10
100.3347421527973
 20
64.54177818790132
 30
0.0
 11
100.3347421527973
 21
60.54177818790131
 31
0.0
  0
LINE
  5
37F
330
2
100
AcDbEntity
  8
LINEWORK
  6
DASHED
 62
     7
 48
2.0
370
    30
100
AcDbLine
 10
99.83474215279739
 20
60.54177818790131
 30
0.0
 11
99.83474215279739
 21
64.54177818790132
 31
0.0
  0
LINE
  5
380
330
2
100
AcDbEntity
  8
LINEWORK
 62
     7
370
    30
100
AcDbLine
 10
97.19838590279742
 20
65.63796568790261
 30
0.0
 11
97.19838590279742
 21
63.26831800429997
 31
0.0
  0
LINE
  5
381
330
2
100
AcDbEntity
  8
LINEWORK
 62
     7
370
    30
100
AcDbLine
 10
97.19838590279742
 20
63.26831800429997
 30
0.0
 11
97.19838590279742
 21
65.63796568790261
 31
0.0
  0
ARC
  5
382
330
2
100
AcDbEntity
  8
LINEWORK
 62
     7
370
    30
100
AcDbCircle
 10
94.272569188304
 20
64.00809027494287
 30
0.0
 40
0.7668837767419853
100
AcDbArc
 50
300.540604849683
 51
69.8482529657862
  0
LINE
  5
383
330
2
100
AcDbEntity
  8
LINEWORK
 62
     7
370
    30
100
AcDbLine
 10
97.19838590279742
 20
63.26831800429997
 30
0.0
 11
102.9710984027974
 21
63.26831800429997
 31
0.0
  0
POINT
  5
384
330
2
100
AcDbEntity
  8
LINEWORK
 62
     1
370
    30
100
AcDbPoint
 10
97.19838590279742
 20
63.37907818790248
 30
0.0
  0
LINE
  5
385
330
2
100
AcDbEntity
  8
LINEWORK
  6
DASHED
 62
     7
 48
2.0
370
    30
100
AcDbLine
 10
100.3347421527973
 20
60.54177818790131
 30
0.0
 11
99.83474215279739
 21
60.54177818790131
 31
0.0
  0
LINE
  5
386
330
2
100
AcDbEntity
  8
LINEWORK
 62
     7
370
    30
100
AcDbLine
 10
97.56393261384159
 20
58.74511343769623
 30
0.0
 11
96.91680243716866
 21
62.70161967491557
 31
0.0
  0
LINE
  5
387
330
2
100
AcDbEntity
  8
LINEWORK
 62
     7
370
    30
100
AcDbLine
 10
97.91112908996192
 20
58.94556741664596
 30
0.0
 11
97.26399891328894
 21
62.9020736538653
 31
0.0
  0
LINE
  5
388
330
2
100
AcDbEntity
  8
LINEWORK
 62
     7
370
    30
100
AcDbLine
 10
94.66226030672507
 20
63.09660935389027
 30
0.0
 11
94.66226030672507
 21
63.34759685389034
 31
0.0
  0
LINE
  5
389
330
2
100
AcDbEntity
  8
LINEWORK
 62
     7
370
    30
100
AcDbLine
 10
94.66226030672507
 20
63.34759685389034
 30
0.0
 11
94.66226030672507
 21
63.09660935389027
 31
0.0
  0
LINE
  5
38A
330
2
100
AcDbEntity
  8
LINEWORK
 62
     7
370
    30
100
AcDbLine
 10
95.22698218172505
 20
62.97111560389024
 30
0.0
 11
95.22698218172505
 21
62.15901419744537
 31
0.0
  0
LINE
  5
38B
330
2
100
AcDbEntity
  8
LINEWORK
 62
     7
370
    30
100
AcDbLine
 10
95.22698218172505
 20
62.15901419744537
 30
0.0
 11
95.22698218172505
 21
62.97111560389024
 31
0.0
  0
LINE
  5
38C
330
2
100
AcDbEntity
  8
LINEWORK
 62
     7
370
    30
100
AcDbLine
 10
95.22698218172505
 20
62.97111560389024
 30
0.0
 11
95.22698218172505
 21
62.15901419744537
 31
0.0
  0
LINE
  5
38D
330
2
100
AcDbEntity
  8
LINEWORK
 62
     7
370
    30
100
AcDbLine
 10
95.22698218172505
 20
62.15901419744537
 30
0.0
 11
95.22698218172505
 21
62.97111560389024
 31
0.0
  0
LINE
  5
38E
330
2
100
AcDbEntity
  8
LINEWORK
  6
DASHED
 62
     7
 48
2.0
370
    30
100
AcDbLine
 10
103.304500678665
 20
60.40207365386564
 30
0.0
 11
103.304500678665
 21
60.90207365386564
 31
0.0
  0
LINE
  5
38F
330
2
100
AcDbEntity
  8
LINEWORK
 62
     7
370
    30
100
AcDbLine
 10
105.8045006786652
 20
62.90207365386558
 30
0.0
 11
105.3045006786651
 21
62.40207365386564
 31
0.0
  0
LINE
  5
390
330
2
100
AcDbEntity
  8
LINEWORK
  6
DASHED
 62
     7
 48
2.0
370
    30
100
AcDbLine
 10
107.304500678665
 20
60.90207365386564
 30
0.0
 11
107.304500678665
 21
60.40207365386564
 31
0.0
  0
LINE
  5
391
330
2
100
AcDbEntity
  8
LINEWORK
  6
DASHED
 62
     7
 48
2.0
370
    30
100
AcDbLine
 10
103.304500678665
 20
60.90207365386564
 30
0.0
 11
107.304500678665
 21
60.90207365386564
 31
0.0
  0
LINE
  5
392
330
2
100
AcDbEntity
  8
LINEWORK
  6
DASHED
 62
     7
 48
2.0
370
    30
100
AcDbLine
 10
107.304500678665
 20
60.40207365386564
 30
0.0
 11
103.304500678665
 21
60.40207365386564
 31
0.0
  0
LINE
  5
393
330
2
100
AcDbEntity
  8
LINEWORK
 62
     7
370
    30
100
AcDbLine
 10
105.3045006786651
 20
62.40207365386564
 30
0.0
 11
105.304500678665
 21
58.94556741664601
 31
0.0
  0
LINE
  5
394
330
2
100
AcDbEntity
  8
LINEWORK
 62
     7
370
    30
100
AcDbLine
 10
100.0847421527973
 20
71.15969068790255
 30
0.0
 11
101.5802093402973
 21
71.15969068790255
 31
0.0
  0
LINE
  5
395
330
2
100
AcDbEntity
  8
LINEWORK
 62
     7
370
    30
100
AcDbLine
 10
100.0847421527973
 20
71.15969068790272
 30
0.0
 11
101.5802093402973
 21
71.15969068790272
 31
0.0
  0
LINE
  5
396
330
2
100
AcDbEntity
  8
LINEWORK
 62
     7
370
    30
100
AcDbLine
 10
100.0847421527973
 20
70.15574068790264
 30
0.0
 11
101.5802093402973
 21
70.15574068790264
 31
0.0
  0
LINE
  5
397
330
2
100
AcDbEntity
  8
LINEWORK
 62
     7
370
    30
100
AcDbLine
 10
101.5802093402973
 20
70.15574068790264
 30
0.0
 11
100.0847421527973
 21
70.15574068790264
 31
0.0
  0
LINE
  5
398
330
2
100
AcDbEntity
  8
LINEWORK
 62
     7
370
    30
100
AcDbLine
 10
100.0847421527973
 20
67.39487818790255
 30
0.0
 11
102.2808827777973
 21
67.39487818790255
 31
0.0
  0
LINE
  5
399
330
2
100
AcDbEntity
  8
LINEWORK
 62
     7
370
    30
100
AcDbLine
 10
100.0847421527973
 20
67.39487818790272
 30
0.0
 11
102.2808827777974
 21
67.39487818790272
 31
0.0
  0
LINE
  5
39A
330
2
100
AcDbEntity
  8
LINEWORK
 62
     7
370
    30
100
AcDbLine
 10
100.0847421527973
 20
68.0223469379026
 30
0.0
 11
102.2808827777973
 21
68.0223469379026
 31
0.0
  0
LINE
  5
39B
330
2
100
AcDbEntity
  8
LINEWORK
 62
     7
370
    30
100
AcDbLine
 10
102.2808827777973
 20
68.02234693790271
 30
0.0
 11
100.0847421527973
 21
68.02234693790271
 31
0.0
  0
LINE
  5
39C
330
2
100
AcDbEntity
  8
LINEWORK
 62
     7
370
    30
100
AcDbLine
 10
100.0847421527973
 20
66.01444693790265
 30
0.0
 11
102.4063765277973
 21
66.01444693790265
 31
0.0
  0
LINE
  5
39D
330
2
100
AcDbEntity
  8
LINEWORK
 62
     7
370
    30
100
AcDbLine
 10
102.4063765277973
 20
66.01444693790265
 30
0.0
 11
100.0847421527973
 21
66.01444693790265
 31
0.0
  0
LINE
  5
39E
330
2
100
AcDbEntity
  8
LINEWORK
 62
     7
370
    30
100
AcDbLine
 10
102.9710984027973
 20
65.63796568790261
 30
0.0
 11
97.19838590279742
 21
65.63796568790261
 31
0.0
  0
LINE
  5
39F
330
2
100
AcDbEntity
  8
LINEWORK
 62
     7
370
    30
100
AcDbLine
 10
97.19838590279742
 20
65.63796568790261
 30
0.0
 11
102.9710984027973
 21
65.63796568790261
 31
0.0
  0
LINE
  5
3A0
330
2
100
AcDbEntity
  8
LINEWORK
 62
     7
370
    30
100
AcDbLine
 10
102.4063765277973
 20
65.76345943790264
 30
0.0
 11
97.76310777779734
 21
65.76345943790264
 31
0.0
  0
ARC
  5
3A1
330
2
100
AcDbEntity
  8
LINEWORK
 62
     7
370
    30
100
AcDbCircle
 10
95.86884443052625
 20
69.66525455233924
 30
0.0
 40
2.764293570461533
100
AcDbArc
 50
339.8400491762122
 51
10.22046936756227
  0
ARC
  5
3A2
330
2
100
AcDbEntity
  8
LINEWORK
 62
     7
370
    30
100
AcDbCircle
 10
95.87238651465744
 20
69.66494654502324
 30
0.0
 40
2.760862499999871
100
AcDbArc
 50
339.8207155174581
 51
10.23980302638188
  0
ARC
  5
3A3
330
2
100
AcDbEntity
  8
LINEWORK
 62
     7
370
    30
100
AcDbCircle
 10
98.89429449654736
 20
70.6577156879026
 30
0.0
 40
0.587380468750003
100
AcDbArc
 50
121.284492914417
 51
238.7155070855829
  0
ARC
  5
3A4
330
2
100
AcDbEntity
  8
LINEWORK
 62
     7
370
    30
100
AcDbCircle
 10
98.91075703472219
 20
70.65771568790481
 30
0.0
 40
0.5960953125000341
100
AcDbArc
 50
122.63689750394
 51
237.363102495957
  0
LINE
  5
3A5
330
2
100
AcDbEntity
  8
LINEWORK
 62
     7
370
    30
100
AcDbLine
 10
97.88860152779736
 20
68.0223469379026
 30
0.0
 11
97.88860152779736
 21
67.39487818790255
 31
0.0
  0
LINE
  5
3A6
330
2
100
AcDbEntity
  8
LINEWORK
 62
     7
370
    30
100
AcDbLine
 10
97.88860152779736
 20
67.39487818790272
 30
0.0
 11
97.88860152779736
 21
68.02234693790271
 31
0.0
  0
ARC
  5
3A7
330
2
100
AcDbEntity
  8
LINEWORK
 62
     7
370
    30
100
AcDbCircle
 10
96.90007680123486
 20
69.43088355899644
 30
0.0
 40
1.720801135514404
100
AcDbArc
 50
305.0615521464809
 51
335.3273056689862
  0
ARC
  5
3A8
330
2
100
AcDbEntity
  8
LINEWORK
 62
     7
370
    30
100
AcDbCircle
 10
96.89630665282406
 20
69.43402534933889
 30
0.0
 40
1.725539062499979
100
AcDbArc
 50
305.1040931533559
 51
335.284764662112
  0
LINE
  5
3A9
330
2
100
AcDbEntity
  8
LINEWORK
 62
     7
370
    30
100
AcDbLine
 10
97.76310777779734
 20
65.76345943790264
 30
0.0
 11
97.76310777779734
 21
66.01444693790265
 31
0.0
  0
LINE
  5
3AA
330
2
100
AcDbEntity
  8
LINEWORK
 62
     7
370
    30
100
AcDbLine
 10
97.76310777779734
 20
66.01444693790265
 30
0.0
 11
97.76310777779734
 21
65.76345943790264
 31
0.0
  0
LINE
  5
3AB
330
2
100
AcDbEntity
  8
LINEWORK
 62
     7
370
    30
100
AcDbLine
 10
97.19838590279742
 20
65.63796568790261
 30
0.0
 11
97.19838590279742
 21
63.48177818790261
 31
0.0
  0
ARC
  5
3AC
330
2
100
AcDbEntity
  8
LINEWORK
 62
     7
370
    30
100
AcDbCircle
 10
98.15279889621841
 20
66.67494035895524
 30
0.0
 40
0.7668837767419853
100
AcDbArc
 50
110.1517470342137
 51
239.4593951503169
  0
ARC
  5
3AD
330
2
100
AcDbEntity
  8
LINEWORK
 62
     7
370
    30
100
AcDbCircle
 10
98.11895491816111
 20
66.67801708423323
 30
0.0
 40
0.7529625000000071
100
AcDbArc
 50
107.8140895270857
 51
241.7970526574428
  0
ARC
  5
3AE
330
2
100
AcDbEntity
  8
LINEWORK
 62
     7
370
    30
100
AcDbCircle
 10
101.0755053758553
 20
74.10970266325151
 30
0.0
 40
3.857967380510689
100
AcDbArc
 50
179.081586440103
 51
229.8762612980329
  0
ARC
  5
3AF
330
2
100
AcDbEntity
  8
LINEWORK
 62
     7
370
    30
100
AcDbCircle
 10
101.0764780033819
 20
74.1101454831398
 30
0.0
 40
3.858932812500603
100
AcDbArc
 50
179.0883918675776
 51
229.8694558705634
  0
LINE
  5
3B0
330
2
100
AcDbEntity
  8
LINEWORK
  6
DASHED
 62
     7
 48
2.0
370
    30
100
AcDbLine
 10
99.83474215279739
 20
64.54177818790132
 30
0.0
 11
100.3347421527973
 21
64.54177818790132
 31
0.0
  0
LINE
  5
3B1
330
2
100
AcDbEntity
  8
LINEWORK
 62
     7
370
    30
100
AcDbLine
 10
100.0847421527973
 20
66.01444693790265
 30
0.0
 11
97.76310777779734
 21
66.01444693790265
 31
0.0
  0
LINE
  5
3B2
330
2
100
AcDbEntity
  8
LINEWORK
 62
     7
370
    30
100
AcDbLine
 10
97.76310777779734
 20
66.01444693790265
 30
0.0
 11
100.0847421527973
 21
66.01444693790265
 31
0.0
  0
LINE
  5
3B3
330
2
100
AcDbEntity
  8
LINEWORK
 62
     7
370
    30
100
AcDbLine
 10
100.0847421527973
 20
67.39487818790255
 30
0.0
 11
97.88860152779736
 21
67.39487818790255
 31
0.0
  0
LINE
  5
3B4
330
2
100
AcDbEntity
  8
LINEWORK
 62
     7
370
    30
100
AcDbLine
 10
100.0847421527973
 20
68.0223469379026
 30
0.0
 11
97.88860152779736
 21
68.0223469379026
 31
0.0
  0
LINE
  5
3B5
330
2
100
AcDbEntity
  8
LINEWORK
 62
     7
370
    30
100
AcDbLine
 10
100.0847421527973
 20
67.39487818790272
 30
0.0
 11
97.88860152779736
 21
67.39487818790272
 31
0.0
  0
LINE
  5
3B6
330
2
100
AcDbEntity
  8
LINEWORK
 62
     7
370
    30
100
AcDbLine
 10
97.88860152779736
 20
68.02234693790271
 30
0.0
 11
100.0847421527973
 21
68.02234693790271
 31
0.0
  0
LINE
  5
3B7
330
2
100
AcDbEntity
  8
LINEWORK
 62
     7
370
    30
100
AcDbLine
 10
100.0847421527973
 20
71.15969068790255
 30
0.0
 11
98.58927496529739
 21
71.15969068790255
 31
0.0
  0
LINE
  5
3B8
330
2
100
AcDbEntity
  8
LINEWORK
 62
     7
370
    30
100
AcDbLine
 10
100.0847421527973
 20
71.15969068790272
 30
0.0
 11
98.58927496529739
 21
71.15969068790272
 31
0.0
  0
LINE
  5
3B9
330
2
100
AcDbEntity
  8
LINEWORK
 62
     7
370
    30
100
AcDbLine
 10
100.0847421527973
 20
70.15574068790264
 30
0.0
 11
98.58927496529739
 21
70.15574068790264
 31
0.0
  0
LINE
  5
3BA
330
2
100
AcDbEntity
  8
LINEWORK
 62
     7
370
    30
100
AcDbLine
 10
98.58927496529739
 20
70.15574068790264
 30
0.0
 11
100.0847421527973
 21
70.15574068790264
 31
0.0
  0
ARC
  5
3BB
330
2
100
AcDbEntity
  8
LINEWORK
 62
     7
370
    30
100
AcDbCircle
 10
80.56360600581772
 20
68.42161576498447
 30
0.0
 40
15.21611718749983
100
AcDbArc
 50
19.54686554134434
 51
25.69286435959092
  0
LINE
  5
3BC
330
2
100
AcDbEntity
  8
LINEWORK
 62
     7
370
    30
100
AcDbLine
 10
94.53676655672504
 20
65.35549685389018
 30
0.0
 11
94.53676655672504
 21
64.72802810389024
 31
0.0
  0
LINE
  5
3BD
330
2
100
AcDbEntity
  8
LINEWORK
 62
     7
370
    30
100
AcDbLine
 10
94.53676655672509
 20
64.72802810389035
 30
0.0
 11
94.53676655672504
 21
65.35549685389034
 31
0.0
  0
ARC
  5
3BE
330
2
100
AcDbEntity
  8
LINEWORK
 62
     7
370
    30
100
AcDbCircle
 10
89.88181091753304
 20
71.72399739721729
 30
0.0
 40
5.330037199451427
100
AcDbArc
 50
357.6418735319814
 51
19.60711889602341
  0
ARC
  5
3BF
330
2
100
AcDbEntity
  8
LINEWORK
 62
     7
370
    30
100
AcDbCircle
 10
89.87833917801138
 20
71.72347082762607
 30
0.0
 40
5.333484374999923
100
AcDbArc
 50
357.649060045261
 51
19.59993238281846
  0
LINE
  5
3C0
330
2
100
AcDbEntity
  8
LINEWORK
 62
     7
370
    30
100
AcDbLine
 10
102.2808827777973
 20
68.0223469379026
 30
0.0
 11
102.2808827777973
 21
67.39487818790255
 31
0.0
  0
LINE
  5
3C1
330
2
100
AcDbEntity
  8
LINEWORK
 62
     7
370
    30
100
AcDbLine
 10
102.2808827777974
 20
67.39487818790272
 30
0.0
 11
102.2808827777973
 21
68.02234693790271
 31
0.0
  0
ARC
  5
3C2
330
2
100
AcDbEntity
  8
LINEWORK
 62
     7
370
    30
100
AcDbCircle
 10
103.2694075043598
 20
69.43088355899644
 30
0.0
 40
1.720801135514404
100
AcDbArc
 50
204.6726943310066
 51
234.9384478535191
  0
ARC
  5
3C3
330
2
100
AcDbEntity
  8
LINEWORK
 62
     7
370
    30
100
AcDbCircle
 10
103.2731776527706
 20
69.43402534933878
 30
0.0
 40
1.725539062499889
100
AcDbArc
 50
204.7152353378861
 51
234.895906846644
  0
ARC
  5
3C4
330
2
100
AcDbEntity
  8
LINEWORK
 62
     7
370
    30
100
AcDbCircle
 10
104.3006398750684
 20
69.66525455233924
 30
0.0
 40
2.764293570461533
100
AcDbArc
 50
169.7795306324377
 51
200.1599508237859
  0
ARC
  5
3C5
330
2
100
AcDbEntity
  8
LINEWORK
 62
     7
370
    30
100
AcDbCircle
 10
104.2970977909372
 20
69.66494654502324
 30
0.0
 40
2.760862499999871
100
AcDbArc
 50
169.7601969736181
 51
200.1792844825418
  0
ARC
  5
3C6
330
2
100
AcDbEntity
  8
LINEWORK
 62
     7
370
    30
100
AcDbCircle
 10
101.2751898090473
 20
70.6577156879026
 30
0.0
 40
0.587380468750003
100
AcDbArc
 50
301.2844929144171
 51
58.71550708558289
  0
ARC
  5
3C7
330
2
100
AcDbEntity
  8
LINEWORK
 62
     7
370
    30
100
AcDbCircle
 10
101.2587272708725
 20
70.65771568790481
 30
0.0
 40
0.5960953125000341
100
AcDbArc
 50
302.6368975040367
 51
57.36310249605958
  0
LINE
  5
3C8
330
2
100
AcDbEntity
  8
LINEWORK
 62
     7
370
    30
100
AcDbLine
 10
102.9710984027973
 20
65.63796568790261
 30
0.0
 11
102.9710984027973
 21
64.82586428145785
 31
0.0
  0
LINE
  5
3C9
330
2
100
AcDbEntity
  8
LINEWORK
 62
     7
370
    30
100
AcDbLine
 10
102.4063765277973
 20
65.76345943790264
 30
0.0
 11
102.4063765277973
 21
66.01444693790265
 31
0.0
  0
LINE
  5
3CA
330
2
100
AcDbEntity
  8
LINEWORK
 62
     7
370
    30
100
AcDbLine
 10
102.4063765277973
 20
66.01444693790265
 30
0.0
 11
102.4063765277973
 21
65.76345943790264
 31
0.0
  0
LINE
  5
3CB
330
2
100
AcDbEntity
  8
LINEWORK
 62
     7
370
    30
100
AcDbLine
 10
102.9710984027973
 20
64.82586428145785
 30
0.0
 11
102.9710984027973
 21
65.63796568790261
 31
0.0
  0
LINE
  5
3CC
330
2
100
AcDbEntity
  8
LINEWORK
 62
     7
370
    30
100
AcDbLine
 10
102.9710984027973
 20
65.63796568790261
 30
0.0
 11
102.9710984027973
 21
64.82586428145785
 31
0.0
  0
ARC
  5
3CD
330
2
100
AcDbEntity
  8
LINEWORK
 62
     7
370
    30
100
AcDbCircle
 10
102.0166854093763
 20
66.67494035895524
 30
0.0
 40
0.7668837767419853
100
AcDbArc
 50
300.540604849683
 51
69.8482529657862
  0
ARC
  5
3CE
330
2
100
AcDbEntity
  8
LINEWORK
 62
     7
370
    30
100
AcDbCircle
 10
102.0505293874336
 20
66.67801708423323
 30
0.0
 40
0.752962499999997
100
AcDbArc
 50
298.2029473425571
 51
72.18591047291427
  0
ARC
  5
3CF
330
2
100
AcDbEntity
  8
LINEWORK
 62
     7
370
    30
100
AcDbCircle
 10
99.09397892973935
 20
74.10970266325151
 30
0.0
 40
3.857967380510689
100
AcDbArc
 50
310.1237387019671
 51
0.9184135598969776
  0
ARC
  5
3D0
330
2
100
AcDbEntity
  8
LINEWORK
 62
     7
370
    30
100
AcDbCircle
 10
99.09300630221295
 20
74.1101454831398
 30
0.0
 40
3.858932812500603
100
AcDbArc
 50
310.1305441294349
 51
0.9116081324223062
  0
LINE
  5
3D3
330
2
100
AcDbEntity
  8
LINEWORK
 62
     7
370
    30
100
AcDbLine
 10
92.34062593172504
 20
84.30505310389035
 30
0.0
 11
95.22698218172511
 21
84.30505310389035
 31
0.0
  0
LINE
  5
3D4
330
2
100
AcDbEntity
  8
LINEWORK
 62
     7
370
    30
100
AcDbLine
 10
92.34062593172504
 20
84.30505310389035
 30
0.0
 11
95.22698218172511
 21
84.30505310389035
 31
0.0
  0
LINE
  5
3D5
330
2
100
AcDbEntity
  8
LINEWORK
 62
     7
370
    30
100
AcDbLine
 10
95.15377749422512
 20
84.17955935389048
 30
0.0
 11
92.34062593172504
 21
84.17955935389036
 31
0.0
  0
LINE
  5
3D6
330
2
100
AcDbEntity
  8
LINEWORK
 62
     7
370
    30
100
AcDbLine
 10
92.34062593172504
 20
84.17955935389036
 30
0.0
 11
95.15377749422512
 21
84.17955935389048
 31
0.0
  0
LINE
  5
3D7
330
2
100
AcDbEntity
  8
LINEWORK
 62
     7
370
    30
100
AcDbLine
 10
89.4542696817251
 20
85.22262852515613
 30
0.0
 11
95.22698218172507
 21
88.55550564098539
 31
0.0
  0
ARC
  5
3D8
330
2
100
AcDbEntity
  8
LINEWORK
 62
     7
370
    30
100
AcDbCircle
 10
93.52541022508862
 20
84.07982383034484
 30
0.0
 40
1.631418750000088
100
AcDbArc
 50
290.1380579866513
 51
3.504918694565078
  0
ARC
  5
3D9
330
2
100
AcDbEntity
  8
LINEWORK
 62
     7
370
    30
100
AcDbCircle
 10
93.57726225985008
 20
80.10101247889023
 30
0.0
 40
0.760805859375
100
AcDbArc
 50
312.0750220508414
 51
47.92497794915621
  0
ARC
  5
3DA
330
2
100
AcDbEntity
  8
LINEWORK
 62
     7
370
    30
100
AcDbCircle
 10
93.58904273883567
 20
80.10101247889023
 30
0.0
 40
0.7529625000000308
100
AcDbArc
 50
311.4096221092709
 51
48.59037789073134
  0
LINE
  5
3DB
330
2
100
AcDbEntity
  8
LINEWORK
  6
DASHED
 62
     7
 48
2.0
370
    30
100
AcDbLine
 10
92.5906259317251
 20
89.15124060389169
 30
0.0
 11
92.5906259317251
 21
85.15124060389169
 31
0.0
  0
LINE
  5
3DC
330
2
100
AcDbEntity
  8
LINEWORK
  6
DASHED
 62
     7
 48
2.0
370
    30
100
AcDbLine
 10
92.09062593172509
 20
85.15124060389169
 30
0.0
 11
92.09062593172509
 21
89.15124060389169
 31
0.0
  0
ARC
  5
3DD
330
2
100
AcDbEntity
  8
LINEWORK
 62
     7
370
    30
100
AcDbCircle
 10
86.1641942929209
 20
79.82982383034485
 30
0.0
 40
1.631418750000088
100
AcDbArc
 50
290.1380579866513
 51
3.504918694565078
  0
LINE
  5
3DE
330
2
100
AcDbEntity
  8
LINEWORK
 62
     7
370
    30
100
AcDbLine
 10
84.97940999955732
 20
79.92955935389026
 30
0.0
 11
87.79256156205734
 21
79.92955935389037
 31
0.0
  0
LINE
  5
3DF
330
2
100
AcDbEntity
  8
LINEWORK
 62
     7
370
    30
100
AcDbLine
 10
87.79256156205734
 20
79.92955935389037
 30
0.0
 11
84.97940999955732
 21
79.92955935389026
 31
0.0
  0
LINE
  5
3E0
330
2
100
AcDbEntity
  8
LINEWORK
 62
     7
370
    30
100
AcDbLine
 10
84.97940999955732
 20
80.05505310389024
 30
0.0
 11
87.86576624955733
 21
80.05505310389024
 31
0.0
  0
LINE
  5
3E1
330
2
100
AcDbEntity
  8
LINEWORK
 62
     7
370
    30
100
AcDbLine
 10
84.97940999955732
 20
80.05505310389024
 30
0.0
 11
87.86576624955733
 21
80.05505310389024
 31
0.0
  0
LINE
  5
3E2
330
2
100
AcDbEntity
  8
LINEWORK
 62
     7
370
    30
100
AcDbLine
 10
82.09305374955738
 20
80.97262852515601
 30
0.0
 11
87.86576624955733
 21
84.30550564098528
 31
0.0
  0
LINE
  5
3E3
330
2
100
AcDbEntity
  8
LINEWORK
 62
     7
370
    30
100
AcDbLine
 10
86.72586468705736
 20
77.67067185389024
 30
0.0
 11
86.72586468705736
 21
78.29814060389029
 31
0.0
  0
LINE
  5
3E4
330
2
100
AcDbEntity
  8
LINEWORK
 62
     7
370
    30
100
AcDbLine
 10
86.72586468705736
 20
77.67067185389024
 30
0.0
 11
86.72586468705736
 21
78.29814060389029
 31
0.0
  0
LINE
  5
3E5
330
2
100
AcDbEntity
  8
LINEWORK
  6
DASHED
 62
     7
 48
2.0
370
    30
100
AcDbLine
 10
85.22940999955734
 20
84.90124060389158
 30
0.0
 11
85.22940999955734
 21
80.90124060389157
 31
0.0
  0
LINE
  5
3E6
330
2
100
AcDbEntity
  8
LINEWORK
  6
DASHED
 62
     7
 48
2.0
370
    30
100
AcDbLine
 10
84.72940999955735
 20
80.90124060389157
 30
0.0
 11
84.72940999955735
 21
84.90124060389158
 31
0.0
  0
POINT
  5
3E7
330
2
100
AcDbEntity
  8
LINEWORK
 62
     7
370
    30
100
AcDbPoint
 10
83.90505374955735
 20
83.3515797542191
 30
0.0
  0
POINT
  5
3E8
330
2
100
AcDbEntity
  8
LINEWORK
 62
     7
370
    30
100
AcDbPoint
 10
83.90505374955735
 20
83.3515797542191
 30
0.0
  0
LINE
  5
3E9
330
2
100
AcDbEntity
  8
LINEWORK
  6
DASHED
 62
     7
 48
2.0
370
    30
100
AcDbLine
 10
85.22940999955734
 20
80.90124060389157
 30
0.0
 11
84.72940999955735
 21
80.90124060389157
 31
0.0
  0
LINE
  5
3EA
330
2
100
AcDbEntity
  8
LINEWORK
  6
DASHED
 62
     7
 48
2.0
370
    30
100
AcDbLine
 10
84.72940999955735
 20
84.90124060389158
 30
0.0
 11
85.22940999955734
 21
84.90124060389158
 31
0.0
  0
LINE
  5
3EB
330
2
100
AcDbEntity
  8
LINEWORK
 62
     7
370
    30
100
AcDbLine
 10
83.23295531205728
 20
77.67067185389024
 30
0.0
 11
83.23295531205728
 21
78.29814060389029
 31
0.0
  0
LINE
  5
3EC
330
2
100
AcDbEntity
  8
LINEWORK
 62
     7
370
    30
100
AcDbLine
 10
83.23295531205735
 20
77.67067185389024
 30
0.0
 11
83.23295531205728
 21
78.29814060389029
 31
0.0
  0
ARC
  5
3ED
330
2
100
AcDbEntity
  8
LINEWORK
 62
     7
370
    30
100
AcDbCircle
 10
82.32312562455733
 20
77.0432031038903
 30
0.0
 40
1.105218119867257
100
AcDbArc
 50
325.4077113124906
 51
34.59228868750911
  0
ARC
  5
3EE
330
2
100
AcDbEntity
  8
LINEWORK
 62
     7
370
    30
100
AcDbCircle
 10
82.33182192627735
 20
77.0432031038903
 30
0.0
 40
1.098070312499993
100
AcDbArc
 50
325.1500954209546
 51
34.84990457904538
  0
LINE
  5
3EF
330
2
100
AcDbEntity
  8
LINEWORK
 62
     7
370
    30
100
AcDbLine
 10
84.97940999955732
 20
77.67067185389024
 30
0.0
 11
83.23295531205728
 21
77.67067185389024
 31
0.0
  0
LINE
  5
3F0
330
2
100
AcDbEntity
  8
LINEWORK
 62
     7
370
    30
100
AcDbLine
 10
84.97940999955732
 20
76.41573435389026
 30
0.0
 11
83.23295531205728
 21
76.41573435389026
 31
0.0
  0
LINE
  5
3F1
330
2
100
AcDbEntity
  8
LINEWORK
 62
     7
370
    30
100
AcDbLine
 10
84.97940999955732
 20
77.67067185389024
 30
0.0
 11
83.23295531205735
 21
77.67067185389024
 31
0.0
  0
LINE
  5
3F2
330
2
100
AcDbEntity
  8
LINEWORK
 62
     7
370
    30
100
AcDbLine
 10
84.97940999955732
 20
78.29814060389029
 30
0.0
 11
83.23295531205728
 21
78.29814060389029
 31
0.0
  0
LINE
  5
3F3
330
2
100
AcDbEntity
  8
LINEWORK
 62
     7
370
    30
100
AcDbLine
 10
83.23295531205728
 20
78.29814060389029
 30
0.0
 11
84.97940999955732
 21
78.29814060389029
 31
0.0
  0
LINE
  5
3F4
330
2
100
AcDbEntity
  8
LINEWORK
 62
     7
370
    30
100
AcDbLine
 10
84.97940999955732
 20
76.41573435389026
 30
0.0
 11
86.72586468705736
 21
76.41573435389026
 31
0.0
  0
LINE
  5
3F5
330
2
100
AcDbEntity
  8
LINEWORK
 62
     7
370
    30
100
AcDbLine
 10
84.97940999955732
 20
77.67067185389024
 30
0.0
 11
86.72586468705736
 21
77.67067185389024
 31
0.0
  0
LINE
  5
3F6
330
2
100
AcDbEntity
  8
LINEWORK
 62
     7
370
    30
100
AcDbLine
 10
84.97940999955732
 20
77.67067185389024
 30
0.0
 11
86.72586468705736
 21
77.67067185389024
 31
0.0
  0
LINE
  5
3F7
330
2
100
AcDbEntity
  8
LINEWORK
 62
     7
370
    30
100
AcDbLine
 10
86.72586468705736
 20
78.29814060389029
 30
0.0
 11
84.97940999955732
 21
78.29814060389029
 31
0.0
  0
LINE
  5
3F8
330
2
100
AcDbEntity
  8
LINEWORK
 62
     7
370
    30
100
AcDbLine
 10
84.97940999955732
 20
78.29814060389029
 30
0.0
 11
86.72586468705736
 21
78.29814060389029
 31
0.0
  0
ARC
  5
3F9
330
2
100
AcDbEntity
  8
LINEWORK
 62
     7
370
    30
100
AcDbCircle
 10
87.63569437455736
 20
77.0432031038903
 30
0.0
 40
1.105218119867257
100
AcDbArc
 50
145.4077113124909
 51
214.5922886875093
  0
ARC
  5
3FA
330
2
100
AcDbEntity
  8
LINEWORK
 62
     7
370
    30
100
AcDbCircle
 10
87.62699807283734
 20
77.0432031038903
 30
0.0
 40
1.09807031250002
100
AcDbArc
 50
145.1500954209546
 51
214.8499045790453
  0
LINE
  5
3FB
330
2
100
AcDbEntity
  8
LINEWORK
 62
     7
370
    30
100
AcDbLine
 10
82.09305374955738
 20
80.05505310389024
 30
0.0
 11
82.09305374955738
 21
80.97262852515601
 31
0.0
  0
LINE
  5
3FC
330
2
100
AcDbEntity
  8
LINEWORK
 62
     7
370
    30
100
AcDbLine
 10
82.09305374955738
 20
80.97262852515601
 30
0.0
 11
82.09305374955738
 21
80.05505310389024
 31
0.0
  0
LINE
  5
3FD
330
2
100
AcDbEntity
  8
LINEWORK
 62
     7
370
    30
100
AcDbLine
 10
82.09305374955738
 20
80.05505310389024
 30
0.0
 11
82.16625843705735
 21
79.92955935389037
 31
0.0
  0
LINE
  5
3FE
330
2
100
AcDbEntity
  8
LINEWORK
 62
     7
370
    30
100
AcDbLine
 10
82.09305374955738
 20
80.05505310389024
 30
0.0
 11
82.16625843705735
 21
79.92955935389026
 31
0.0
  0
LINE
  5
3FF
330
2
100
AcDbEntity
  8
LINEWORK
 62
     7
370
    30
100
AcDbLine
 10
84.97940999955732
 20
79.92955935389037
 30
0.0
 11
82.16625843705735
 21
79.92955935389037
 31
0.0
  0
LINE
  5
400
330
2
100
AcDbEntity
  8
LINEWORK
 62
     7
370
    30
100
AcDbLine
 10
84.97940999955732
 20
80.05505310389024
 30
0.0
 11
82.09305374955738
 21
80.05505310389024
 31
0.0
  0
LINE
  5
401
330
2
100
AcDbEntity
  8
LINEWORK
 62
     7
370
    30
100
AcDbLine
 10
84.97940999955732
 20
79.92955935389026
 30
0.0
 11
82.16625843705735
 21
79.92955935389026
 31
0.0
  0
LINE
  5
402
330
2
100
AcDbEntity
  8
LINEWORK
 62
     7
370
    30
100
AcDbLine
 10
84.97940999955732
 20
80.05505310389024
 30
0.0
 11
82.09305374955738
 21
80.05505310389024
 31
0.0
  0
ARC
  5
403
330
2
100
AcDbEntity
  8
LINEWORK
 62
     7
370
    30
100
AcDbCircle
 10
83.79462570619374
 20
79.82982383034485
 30
0.0
 40
1.631418750000056
100
AcDbArc
 50
176.4950813054349
 51
249.8619420133486
  0
POINT
  5
404
330
2
100
AcDbEntity
  8
LINEWORK
 62
     1
370
    30
100
AcDbPoint
 10
80.39629714191653
 20
78.0014406038903
 30
0.0
  0
LINE
  5
405
330
2
100
AcDbEntity
  8
LINEWORK
 62
     7
370
    30
100
AcDbLine
 10
80.39629714191653
 20
75.74255310389023
 30
0.0
 11
80.39629714191653
 21
77.89874060389028
 31
0.0
  0
LINE
  5
406
330
2
100
AcDbEntity
  8
LINEWORK
 62
     7
370
    30
100
AcDbLine
 10
80.39629714191653
 20
79.99300564098527
 30
0.0
 11
80.39629714191653
 21
75.74255310389023
 31
0.0
  0
LINE
  5
407
330
2
100
AcDbEntity
  8
LINEWORK
 62
     7
370
    30
100
AcDbLine
 10
87.86576624955733
 20
80.05505310389024
 30
0.0
 11
87.86576624955733
 21
82.21124060389028
 31
0.0
  0
LINE
  5
408
330
2
100
AcDbEntity
  8
LINEWORK
 62
     7
370
    30
100
AcDbLine
 10
87.86576624955733
 20
84.30550564098528
 30
0.0
 11
87.86576624955733
 21
80.05505310389024
 31
0.0
  0
LINE
  5
409
330
2
100
AcDbEntity
  8
LINEWORK
 62
     7
370
    30
100
AcDbLine
 10
87.86576624955733
 20
80.05505310389024
 30
0.0
 11
87.79256156205734
 21
79.92955935389037
 31
0.0
  0
LINE
  5
40A
330
2
100
AcDbEntity
  8
LINEWORK
 62
     7
370
    30
100
AcDbLine
 10
87.86576624955733
 20
80.05505310389024
 30
0.0
 11
87.79256156205734
 21
79.92955935389026
 31
0.0
  0
POINT
  5
40B
330
2
100
AcDbEntity
  8
LINEWORK
 62
     1
370
    30
100
AcDbPoint
 10
87.86576624955733
 20
82.3139406038903
 30
0.0
  0
POINT
  5
40C
330
2
100
AcDbEntity
  8
LINEWORK
 62
     7
370
    30
100
AcDbPoint
 10
91.2662696817251
 20
87.60157975421922
 30
0.0
  0
POINT
  5
40D
330
2
100
AcDbEntity
  8
LINEWORK
 62
     7
370
    30
100
AcDbPoint
 10
91.2662696817251
 20
87.60157975421922
 30
0.0
  0
LINE
  5
40E
330
2
100
AcDbEntity
  8
LINEWORK
  6
DASHED
 62
     7
 48
2.0
370
    30
100
AcDbLine
 10
92.5906259317251
 20
85.15124060389169
 30
0.0
 11
92.09062593172509
 21
85.15124060389169
 31
0.0
  0
LINE
  5
40F
330
2
100
AcDbEntity
  8
LINEWORK
 62
     7
370
    30
100
AcDbLine
 10
89.4542696817251
 20
85.22262852515613
 30
0.0
 11
89.4542696817251
 21
84.30505310389035
 31
0.0
  0
LINE
  5
410
330
2
100
AcDbEntity
  8
LINEWORK
 62
     7
370
    30
100
AcDbLine
 10
89.4542696817251
 20
84.30505310389035
 30
0.0
 11
89.4542696817251
 21
85.22262852515613
 31
0.0
  0
LINE
  5
411
330
2
100
AcDbEntity
  8
LINEWORK
 62
     7
370
    30
100
AcDbLine
 10
89.4542696817251
 20
84.30505310389035
 30
0.0
 11
89.52747436922507
 21
84.17955935389036
 31
0.0
  0
LINE
  5
412
330
2
100
AcDbEntity
  8
LINEWORK
 62
     7
370
    30
100
AcDbLine
 10
89.4542696817251
 20
84.30505310389035
 30
0.0
 11
89.52747436922507
 21
84.17955935389048
 31
0.0
  0
LINE
  5
413
330
2
100
AcDbEntity
  8
LINEWORK
 62
     7
370
    30
100
AcDbLine
 10
92.34062593172504
 20
84.30505310389035
 30
0.0
 11
89.4542696817251
 21
84.30505310389035
 31
0.0
  0
LINE
  5
414
330
2
100
AcDbEntity
  8
LINEWORK
 62
     7
370
    30
100
AcDbLine
 10
92.34062593172504
 20
84.17955935389036
 30
0.0
 11
89.52747436922507
 21
84.17955935389036
 31
0.0
  0
LINE
  5
415
330
2
100
AcDbEntity
  8
LINEWORK
 62
     7
370
    30
100
AcDbLine
 10
92.34062593172504
 20
84.30505310389035
 30
0.0
 11
89.4542696817251
 21
84.30505310389035
 31
0.0
  0
LINE
  5
416
330
2
100
AcDbEntity
  8
LINEWORK
 62
     7
370
    30
100
AcDbLine
 10
92.34062593172504
 20
84.17955935389048
 30
0.0
 11
89.52747436922507
 21
84.17955935389048
 31
0.0
  0
ARC
  5
417
330
2
100
AcDbEntity
  8
LINEWORK
 62
     7
370
    30
100
AcDbCircle
 10
94.99691030672508
 20
81.29320310389031
 30
0.0
 40
1.105218119867257
100
AcDbArc
 50
145.4077113124909
 51
214.5922886875093
  0
ARC
  5
418
330
2
100
AcDbEntity
  8
LINEWORK
 62
     7
370
    30
100
AcDbCircle
 10
94.98821400500506
 20
81.29320310389031
 30
0.0
 40
1.09807031250002
100
AcDbArc
 50
145.1500954209546
 51
214.8499045790453
  0
LINE
  5
419
330
2
100
AcDbEntity
  8
LINEWORK
 62
     7
370
    30
100
AcDbLine
 10
92.34062593172504
 20
80.66573435389026
 30
0.0
 11
94.08708061922508
 21
80.66573435389026
 31
0.0
  0
LINE
  5
41A
330
2
100
AcDbEntity
  8
LINEWORK
 62
     7
370
    30
100
AcDbLine
 10
92.34062593172504
 20
81.92067185389024
 30
0.0
 11
94.08708061922508
 21
81.92067185389024
 31
0.0
  0
LINE
  5
41B
330
2
100
AcDbEntity
  8
LINEWORK
 62
     7
370
    30
100
AcDbLine
 10
92.34062593172504
 20
81.92067185389024
 30
0.0
 11
94.08708061922508
 21
81.92067185389024
 31
0.0
  0
LINE
  5
41C
330
2
100
AcDbEntity
  8
LINEWORK
 62
     7
370
    30
100
AcDbLine
 10
94.08708061922508
 20
82.54814060389028
 30
0.0
 11
92.34062593172504
 21
82.54814060389028
 31
0.0
  0
LINE
  5
41D
330
2
100
AcDbEntity
  8
LINEWORK
 62
     7
370
    30
100
AcDbLine
 10
92.34062593172504
 20
82.54814060389028
 30
0.0
 11
94.08708061922508
 21
82.54814060389028
 31
0.0
  0
LINE
  5
41E
330
2
100
AcDbEntity
  8
LINEWORK
 62
     7
370
    30
100
AcDbLine
 10
94.08708061922508
 20
81.92067185389024
 30
0.0
 11
94.08708061922508
 21
82.54814060389028
 31
0.0
  0
LINE
  5
41F
330
2
100
AcDbEntity
  8
LINEWORK
 62
     7
370
    30
100
AcDbLine
 10
94.08708061922508
 20
81.92067185389024
 30
0.0
 11
94.08708061922508
 21
82.54814060389028
 31
0.0
  0
LINE
  5
420
330
2
100
AcDbEntity
  8
LINEWORK
 62
     7
370
    30
100
AcDbLine
 10
90.594171244225
 20
81.92067185389024
 30
0.0
 11
90.594171244225
 21
82.54814060389028
 31
0.0
  0
LINE
  5
421
330
2
100
AcDbEntity
  8
LINEWORK
 62
     7
370
    30
100
AcDbLine
 10
90.59417124422507
 20
81.92067185389024
 30
0.0
 11
90.594171244225
 21
82.54814060389028
 31
0.0
  0
LINE
  5
422
330
2
100
AcDbEntity
  8
LINEWORK
 62
     7
370
    30
100
AcDbLine
 10
92.34062593172504
 20
82.54814060389028
 30
0.0
 11
90.594171244225
 21
82.54814060389028
 31
0.0
  0
LINE
  5
423
330
2
100
AcDbEntity
  8
LINEWORK
 62
     7
370
    30
100
AcDbLine
 10
92.34062593172504
 20
81.92067185389024
 30
0.0
 11
90.594171244225
 21
81.92067185389024
 31
0.0
  0
LINE
  5
424
330
2
100
AcDbEntity
  8
LINEWORK
 62
     7
370
    30
100
AcDbLine
 10
92.34062593172504
 20
80.66573435389026
 30
0.0
 11
90.594171244225
 21
80.66573435389026
 31
0.0
  0
LINE
  5
425
330
2
100
AcDbEntity
  8
LINEWORK
 62
     7
370
    30
100
AcDbLine
 10
92.34062593172504
 20
81.92067185389024
 30
0.0
 11
90.59417124422507
 21
81.92067185389024
 31
0.0
  0
LINE
  5
426
330
2
100
AcDbEntity
  8
LINEWORK
 62
     7
370
    30
100
AcDbLine
 10
90.594171244225
 20
82.54814060389028
 30
0.0
 11
92.34062593172504
 21
82.54814060389028
 31
0.0
  0
ARC
  5
427
330
2
100
AcDbEntity
  8
LINEWORK
 62
     7
370
    30
100
AcDbCircle
 10
89.68434155672506
 20
81.29320310389031
 30
0.0
 40
1.105218119867257
100
AcDbArc
 50
325.4077113124906
 51
34.59228868750911
  0
ARC
  5
428
330
2
100
AcDbEntity
  8
LINEWORK
 62
     7
370
    30
100
AcDbCircle
 10
89.69303785844507
 20
81.29320310389031
 30
0.0
 40
1.098070312499993
100
AcDbArc
 50
325.1500954209546
 51
34.84990457904538
  0
ARC
  5
429
330
2
100
AcDbEntity
  8
LINEWORK
 62
     7
370
    30
100
AcDbCircle
 10
91.15584163836146
 20
84.07982383034484
 30
0.0
 40
1.631418750000056
100
AcDbArc
 50
176.4950813054349
 51
249.8619420133486
  0
LINE
  5
42A
330
2
100
AcDbEntity
  8
LINEWORK
 62
     7
370
    30
100
AcDbLine
 10
92.34062593172504
 20
79.5362906038903
 30
0.0
 11
94.08708061922508
 21
79.5362906038903
 31
0.0
  0
LINE
  5
42B
330
2
100
AcDbEntity
  8
LINEWORK
 62
     7
370
    30
100
AcDbLine
 10
94.08708061922508
 20
79.5362906038903
 30
0.0
 11
92.34062593172504
 21
79.5362906038903
 31
0.0
  0
LINE
  5
42C
330
2
100
AcDbEntity
  8
LINEWORK
 62
     7
370
    30
100
AcDbLine
 10
94.08708061922508
 20
78.78332810389029
 30
0.0
 11
92.34062593172504
 21
78.78332810389029
 31
0.0
  0
LINE
  5
42D
330
2
100
AcDbEntity
  8
LINEWORK
 62
     7
370
    30
100
AcDbLine
 10
92.34062593172504
 20
78.65783435389025
 30
0.0
 11
93.96158686922504
 21
78.65783435389025
 31
0.0
  0
LINE
  5
42E
330
2
100
AcDbEntity
  8
LINEWORK
 62
     7
370
    30
100
AcDbLine
 10
92.34062593172504
 20
78.78332810389029
 30
0.0
 11
94.08708061922508
 21
78.78332810389029
 31
0.0
  0
LINE
  5
42F
330
2
100
AcDbEntity
  8
LINEWORK
 62
     7
370
    30
100
AcDbLine
 10
93.96158686922504
 20
78.65783435389037
 30
0.0
 11
92.34062593172504
 21
78.65783435389025
 31
0.0
  0
LINE
  5
430
330
2
100
AcDbEntity
  8
LINEWORK
 62
     7
370
    30
100
AcDbLine
 10
94.08708061922508
 20
78.78332810389029
 30
0.0
 11
93.96158686922504
 21
78.65783435389025
 31
0.0
  0
LINE
  5
431
330
2
100
AcDbEntity
  8
LINEWORK
 62
     7
370
    30
100
AcDbLine
 10
94.08708061922508
 20
78.78332810389029
 30
0.0
 11
93.96158686922504
 21
78.65783435389025
 31
0.0
  0
LINE
  5
432
330
2
100
AcDbEntity
  8
LINEWORK
 62
     7
370
    30
100
AcDbLine
 10
94.08708061922508
 20
78.78332810389029
 30
0.0
 11
94.08708061922508
 21
79.5362906038903
 31
0.0
  0
LINE
  5
433
330
2
100
AcDbEntity
  8
LINEWORK
 62
     7
370
    30
100
AcDbLine
 10
94.08708061922508
 20
78.78332810389029
 30
0.0
 11
94.08708061922508
 21
79.5362906038903
 31
0.0
  0
LINE
  5
434
330
2
100
AcDbEntity
  8
LINEWORK
 62
     7
370
    30
100
AcDbLine
 10
90.594171244225
 20
78.78332810389029
 30
0.0
 11
90.71966499422504
 21
78.65783435389025
 31
0.0
  0
LINE
  5
435
330
2
100
AcDbEntity
  8
LINEWORK
 62
     7
370
    30
100
AcDbLine
 10
90.594171244225
 20
78.78332810389029
 30
0.0
 11
90.71966499422504
 21
78.65783435389025
 31
0.0
  0
LINE
  5
436
330
2
100
AcDbEntity
  8
LINEWORK
 62
     7
370
    30
100
AcDbLine
 10
90.594171244225
 20
78.78332810389029
 30
0.0
 11
90.594171244225
 21
79.5362906038903
 31
0.0
  0
LINE
  5
437
330
2
100
AcDbEntity
  8
LINEWORK
 62
     7
370
    30
100
AcDbLine
 10
90.594171244225
 20
78.78332810389029
 30
0.0
 11
90.59417124422507
 21
79.5362906038903
 31
0.0
  0
LINE
  5
438
330
2
100
AcDbEntity
  8
LINEWORK
 62
     7
370
    30
100
AcDbLine
 10
92.34062593172504
 20
79.5362906038903
 30
0.0
 11
90.594171244225
 21
79.5362906038903
 31
0.0
  0
LINE
  5
439
330
2
100
AcDbEntity
  8
LINEWORK
 62
     7
370
    30
100
AcDbLine
 10
90.59417124422507
 20
79.5362906038903
 30
0.0
 11
92.34062593172504
 21
79.5362906038903
 31
0.0
  0
LINE
  5
43A
330
2
100
AcDbEntity
  8
LINEWORK
 62
     7
370
    30
100
AcDbLine
 10
92.34062593172504
 20
78.65783435389025
 30
0.0
 11
90.71966499422504
 21
78.65783435389025
 31
0.0
  0
LINE
  5
43B
330
2
100
AcDbEntity
  8
LINEWORK
 62
     7
370
    30
100
AcDbLine
 10
90.594171244225
 20
78.78332810389029
 30
0.0
 11
92.34062593172504
 21
78.78332810389029
 31
0.0
  0
LINE
  5
43C
330
2
100
AcDbEntity
  8
LINEWORK
 62
     7
370
    30
100
AcDbLine
 10
92.34062593172504
 20
78.78332810389029
 30
0.0
 11
90.594171244225
 21
78.78332810389029
 31
0.0
  0
LINE
  5
43D
330
2
100
AcDbEntity
  8
LINEWORK
 62
     7
370
    30
100
AcDbLine
 10
90.71966499422504
 20
78.65783435389037
 30
0.0
 11
92.34062593172504
 21
78.65783435389025
 31
0.0
  0
ARC
  5
43E
330
2
100
AcDbEntity
  8
LINEWORK
 62
     7
370
    30
100
AcDbCircle
 10
121.5883119293218
 20
77.99718216038067
 30
0.0
 40
27.63462319024747
100
AcDbArc
 50
178.630117417344
 51
184.0977376458606
  0
ARC
  5
43F
330
2
100
AcDbEntity
  8
LINEWORK
 62
     7
370
    30
100
AcDbCircle
 10
121.5936917752176
 20
77.99731025194953
 30
0.0
 40
27.63999843750035
100
AcDbArc
 50
178.6306494746762
 51
184.097205588529
  0
ARC
  5
440
330
2
100
AcDbEntity
  8
LINEWORK
 62
     7
370
    30
100
AcDbCircle
 10
63.09293993412836
 20
77.99718216038067
 30
0.0
 40
27.63462319024747
100
AcDbArc
 50
355.9022623541394
 51
1.369882582655951
  0
ARC
  5
441
330
2
100
AcDbEntity
  8
LINEWORK
 62
     7
370
    30
100
AcDbCircle
 10
63.08756008823246
 20
77.99731025194953
 30
0.0
 40
27.63999843750035
100
AcDbArc
 50
355.902794411471
 51
1.369350525323726
  0
ARC
  5
442
330
2
100
AcDbEntity
  8
LINEWORK
 62
     7
370
    30
100
AcDbCircle
 10
91.10398960360001
 20
80.10101247889023
 30
0.0
 40
0.760805859375
100
AcDbArc
 50
132.0750220508437
 51
227.9249779491585
  0
ARC
  5
443
330
2
100
AcDbEntity
  8
LINEWORK
 62
     7
370
    30
100
AcDbCircle
 10
91.09220912461442
 20
80.10101247889023
 30
0.0
 40
0.7529625000000308
100
AcDbArc
 50
131.4096221092686
 51
228.590377890729
  0
LINE
  5
444
330
2
100
AcDbEntity
  8
LINEWORK
  6
DASHED
 62
     7
 48
2.0
370
    30
100
AcDbLine
 10
92.09062593172509
 20
89.15124060389169
 30
0.0
 11
92.5906259317251
 21
89.15124060389169
 31
0.0
  0
LINE
  5
445
330
2
100
AcDbEntity
  8
LINEWORK
 62
     7
370
    30
100
AcDbLine
 10
102.9710984027973
 20
86.9719031879026
 30
0.0
 11
102.9710984027973
 21
89.08131800429989
 31
0.0
  0
LINE
  5
446
330
2
100
AcDbEntity
  8
LINEWORK
  6
DASHED
 62
     7
 48
2.0
370
    30
100
AcDbLine
 10
100.3347421527973
 20
91.31809068790394
 30
0.0
 11
100.3347421527973
 21
87.31809068790395
 31
0.0
  0
LINE
  5
447
330
2
100
AcDbEntity
  8
LINEWORK
  6
DASHED
 62
     7
 48
2.0
370
    30
100
AcDbLine
 10
99.83474215279739
 20
87.31809068790395
 30
0.0
 11
99.83474215279739
 21
91.31809068790394
 31
0.0
  0
LINE
  5
448
330
2
100
AcDbEntity
  8
LINEWORK
 62
     7
370
    30
100
AcDbLine
 10
97.19838590279742
 20
89.08131800429989
 30
0.0
 11
97.19838590279742
 21
86.9719031879026
 31
0.0
  0
LINE
  5
449
330
2
100
AcDbEntity
  8
LINEWORK
 62
     7
370
    30
100
AcDbLine
 10
97.19838590279742
 20
86.9719031879026
 30
0.0
 11
97.19838590279742
 21
87.88947860916838
 31
0.0
  0
LINE
  5
44A
330
2
100
AcDbEntity
  8
LINEWORK
 62
     7
370
    30
100
AcDbLine
 10
95.22698218172507
 20
88.55550564098544
 30
0.0
 11
95.22698218172511
 21
84.30505310389035
 31
0.0
  0
LINE
  5
44B
330
2
100
AcDbEntity
  8
LINEWORK
 62
     7
370
    30
100
AcDbLine
 10
100.0847421527973
 20
86.9719031879026
 30
0.0
 11
102.9710984027973
 21
86.9719031879026
 31
0.0
  0
LINE
  5
44C
330
2
100
AcDbEntity
  8
LINEWORK
 62
     7
370
    30
100
AcDbLine
 10
100.0847421527973
 20
86.9719031879026
 30
0.0
 11
102.9710984027973
 21
86.9719031879026
 31
0.0
  0
LINE
  5
44D
330
2
100
AcDbEntity
  8
LINEWORK
 62
     7
370
    30
100
AcDbLine
 10
102.8978937152973
 20
86.84640943790274
 30
0.0
 11
100.0847421527973
 21
86.84640943790261
 31
0.0
  0
LINE
  5
44E
330
2
100
AcDbEntity
  8
LINEWORK
 62
     7
370
    30
100
AcDbLine
 10
100.0847421527973
 20
86.84640943790261
 30
0.0
 11
102.8978937152973
 21
86.84640943790274
 31
0.0
  0
LINE
  5
44F
330
2
100
AcDbEntity
  8
LINEWORK
 62
     7
370
    30
100
AcDbLine
 10
100.0847421527973
 20
84.5875219379026
 30
0.0
 11
101.8311968402973
 21
84.5875219379026
 31
0.0
  0
LINE
  5
450
330
2
100
AcDbEntity
  8
LINEWORK
 62
     7
370
    30
100
AcDbLine
 10
100.0847421527973
 20
84.5875219379026
 30
0.0
 11
101.8311968402973
 21
84.5875219379026
 31
0.0
  0
LINE
  5
451
330
2
100
AcDbEntity
  8
LINEWORK
 62
     7
370
    30
100
AcDbLine
 10
101.8311968402973
 20
85.21499068790266
 30
0.0
 11
100.0847421527973
 21
85.21499068790266
 31
0.0
  0
LINE
  5
452
330
2
100
AcDbEntity
  8
LINEWORK
 62
     7
370
    30
100
AcDbLine
 10
100.0847421527973
 20
85.21499068790266
 30
0.0
 11
101.8311968402973
 21
85.21499068790266
 31
0.0
  0
LINE
  5
453
330
2
100
AcDbEntity
  8
LINEWORK
 62
     7
370
    30
100
AcDbLine
 10
101.8311968402973
 20
81.45017818790259
 30
0.0
 11
100.0847421527973
 21
81.45017818790259
 31
0.0
  0
LINE
  5
454
330
2
100
AcDbEntity
  8
LINEWORK
 62
     7
370
    30
100
AcDbLine
 10
100.0847421527973
 20
81.32468443790262
 30
0.0
 11
101.7057030902973
 21
81.32468443790262
 31
0.0
  0
LINE
  5
455
330
2
100
AcDbEntity
  8
LINEWORK
 62
     7
370
    30
100
AcDbLine
 10
100.0847421527973
 20
82.20314068790267
 30
0.0
 11
101.8311968402973
 21
82.20314068790267
 31
0.0
  0
LINE
  5
456
330
2
100
AcDbEntity
  8
LINEWORK
 62
     7
370
    30
100
AcDbLine
 10
100.0847421527973
 20
81.45017818790259
 30
0.0
 11
101.8311968402973
 21
81.45017818790259
 31
0.0
  0
LINE
  5
457
330
2
100
AcDbEntity
  8
LINEWORK
 62
     7
370
    30
100
AcDbLine
 10
101.8311968402973
 20
82.20314068790267
 30
0.0
 11
100.0847421527973
 21
82.20314068790267
 31
0.0
  0
LINE
  5
458
330
2
100
AcDbEntity
  8
LINEWORK
 62
     7
370
    30
100
AcDbLine
 10
101.7057030902973
 20
81.32468443790273
 30
0.0
 11
100.0847421527973
 21
81.32468443790262
 31
0.0
  0
LINE
  5
459
330
2
100
AcDbEntity
  8
LINEWORK
 62
     7
370
    30
100
AcDbLine
 10
100.0847421527973
 20
83.33258443790262
 30
0.0
 11
101.8311968402973
 21
83.33258443790262
 31
0.0
  0
LINE
  5
45A
330
2
100
AcDbEntity
  8
LINEWORK
 62
     7
370
    30
100
AcDbLine
 10
97.19838590279742
 20
86.9719031879026
 30
0.0
 11
97.27159059029739
 21
86.84640943790261
 31
0.0
  0
LINE
  5
45B
330
2
100
AcDbEntity
  8
LINEWORK
 62
     7
370
    30
100
AcDbLine
 10
97.19838590279742
 20
86.9719031879026
 30
0.0
 11
97.27159059029739
 21
86.84640943790274
 31
0.0
  0
LINE
  5
45C
330
2
100
AcDbEntity
  8
LINEWORK
  6
DASHED
 62
     7
 48
2.0
370
    30
100
AcDbLine
 10
100.3347421527973
 20
87.31809068790395
 30
0.0
 11
99.83474215279739
 21
87.31809068790395
 31
0.0
  0
LINE
  5
45D
330
2
100
AcDbEntity
  8
LINEWORK
 62
     7
370
    30
100
AcDbLine
 10
100.0847421527973
 20
86.9719031879026
 30
0.0
 11
97.19838590279742
 21
86.9719031879026
 31
0.0
  0
LINE
  5
45E
330
2
100
AcDbEntity
  8
LINEWORK
 62
     7
370
    30
100
AcDbLine
 10
100.0847421527973
 20
86.84640943790261
 30
0.0
 11
97.27159059029739
 21
86.84640943790261
 31
0.0
  0
LINE
  5
45F
330
2
100
AcDbEntity
  8
LINEWORK
 62
     7
370
    30
100
AcDbLine
 10
100.0847421527973
 20
86.9719031879026
 30
0.0
 11
97.19838590279742
 21
86.9719031879026
 31
0.0
  0
LINE
  5
460
330
2
100
AcDbEntity
  8
LINEWORK
 62
     7
370
    30
100
AcDbLine
 10
100.0847421527973
 20
86.84640943790274
 30
0.0
 11
97.27159059029739
 21
86.84640943790274
 31
0.0
  0
ARC
  5
461
330
2
100
AcDbEntity
  8
LINEWORK
 62
     7
370
    30
100
AcDbCircle
 10
97.42845777779738
 20
83.96005318790267
 30
0.0
 40
1.105218119867257
100
AcDbArc
 50
325.4077113124906
 51
34.59228868750911
  0
ARC
  5
462
330
2
100
AcDbEntity
  8
LINEWORK
 62
     7
370
    30
100
AcDbCircle
 10
97.43715407951739
 20
83.96005318790267
 30
0.0
 40
1.098070312499993
100
AcDbArc
 50
325.1500954209546
 51
34.84990457904538
  0
LINE
  5
463
330
2
100
AcDbEntity
  8
LINEWORK
 62
     7
370
    30
100
AcDbLine
 10
98.33828746529732
 20
84.5875219379026
 30
0.0
 11
98.33828746529732
 21
85.21499068790266
 31
0.0
  0
LINE
  5
464
330
2
100
AcDbEntity
  8
LINEWORK
 62
     7
370
    30
100
AcDbLine
 10
98.33828746529739
 20
84.5875219379026
 30
0.0
 11
98.33828746529732
 21
85.21499068790266
 31
0.0
  0
LINE
  5
465
330
2
100
AcDbEntity
  8
LINEWORK
 62
     7
370
    30
100
AcDbLine
 10
98.33828746529732
 20
81.45017818790259
 30
0.0
 11
98.46378121529737
 21
81.32468443790262
 31
0.0
  0
LINE
  5
466
330
2
100
AcDbEntity
  8
LINEWORK
 62
     7
370
    30
100
AcDbLine
 10
98.33828746529732
 20
81.45017818790259
 30
0.0
 11
98.33828746529732
 21
82.20314068790267
 31
0.0
  0
LINE
  5
467
330
2
100
AcDbEntity
  8
LINEWORK
 62
     7
370
    30
100
AcDbLine
 10
98.33828746529732
 20
81.45017818790259
 30
0.0
 11
98.33828746529739
 21
82.20314068790267
 31
0.0
  0
LINE
  5
468
330
2
100
AcDbEntity
  8
LINEWORK
 62
     7
370
    30
100
AcDbLine
 10
98.33828746529732
 20
81.45017818790259
 30
0.0
 11
98.46378121529737
 21
81.32468443790262
 31
0.0
  0
ARC
  5
469
330
2
100
AcDbEntity
  8
LINEWORK
 62
     7
370
    30
100
AcDbCircle
 10
98.84810582467233
 20
82.76786256290259
 30
0.0
 40
0.760805859375
100
AcDbArc
 50
132.0750220508437
 51
227.9249779491585
  0
ARC
  5
46A
330
2
100
AcDbEntity
  8
LINEWORK
 62
     7
370
    30
100
AcDbCircle
 10
98.83632534568674
 20
82.76786256290259
 30
0.0
 40
0.7529625000000308
100
AcDbArc
 50
131.4096221092686
 51
228.590377890729
  0
ARC
  5
46B
330
2
100
AcDbEntity
  8
LINEWORK
 62
     7
370
    30
100
AcDbCircle
 10
111.8617620787046
 20
71.08846584899684
 30
0.0
 40
15.2161171874998
100
AcDbArc
 50
154.307135640409
 51
160.4531344586556
  0
ARC
  5
46C
330
2
100
AcDbEntity
  8
LINEWORK
 62
     7
370
    30
100
AcDbCircle
 10
96.17352027779745
 20
78.71284576602764
 30
0.0
 40
2.22763833761492
100
AcDbArc
 50
332.532727661389
 51
359.3947854027546
  0
ARC
  5
46D
330
2
100
AcDbEntity
  8
LINEWORK
 62
     7
370
    30
100
AcDbCircle
 10
96.17364423269762
 20
78.71281477730261
 30
0.0
 40
2.227514062500199
100
AcDbArc
 50
332.5319642964285
 51
359.3955487677153
  0
ARC
  5
46E
330
2
100
AcDbEntity
  8
LINEWORK
 62
     7
370
    30
100
AcDbCircle
 10
70.83705615520068
 20
80.66403224439303
 30
0.0
 40
27.63462319024747
100
AcDbArc
 50
355.9022623541394
 51
1.369882582655951
  0
ARC
  5
46F
330
2
100
AcDbEntity
  8
LINEWORK
 62
     7
370
    30
100
AcDbCircle
 10
70.83167630930478
 20
80.66416033596189
 30
0.0
 40
27.63999843750035
100
AcDbArc
 50
355.902794411471
 51
1.369350525323726
  0
LINE
  5
470
330
2
100
AcDbEntity
  8
LINEWORK
 62
     7
370
    30
100
AcDbLine
 10
100.0847421527973
 20
85.21499068790266
 30
0.0
 11
98.33828746529732
 21
85.21499068790266
 31
0.0
  0
LINE
  5
471
330
2
100
AcDbEntity
  8
LINEWORK
 62
     7
370
    30
100
AcDbLine
 10
100.0847421527973
 20
84.5875219379026
 30
0.0
 11
98.33828746529732
 21
84.5875219379026
 31
0.0
  0
LINE
  5
472
330
2
100
AcDbEntity
  8
LINEWORK
 62
     7
370
    30
100
AcDbLine
 10
100.0847421527973
 20
84.5875219379026
 30
0.0
 11
98.33828746529739
 21
84.5875219379026
 31
0.0
  0
LINE
  5
473
330
2
100
AcDbEntity
  8
LINEWORK
 62
     7
370
    30
100
AcDbLine
 10
98.33828746529732
 20
85.21499068790266
 30
0.0
 11
100.0847421527973
 21
85.21499068790266
 31
0.0
  0
LINE
  5
474
330
2
100
AcDbEntity
  8
LINEWORK
 62
     7
370
    30
100
AcDbLine
 10
100.0847421527973
 20
82.20314068790267
 30
0.0
 11
98.33828746529732
 21
82.20314068790267
 31
0.0
  0
LINE
  5
475
330
2
100
AcDbEntity
  8
LINEWORK
 62
     7
370
    30
100
AcDbLine
 10
100.0847421527973
 20
81.32468443790262
 30
0.0
 11
98.46378121529737
 21
81.32468443790262
 31
0.0
  0
LINE
  5
476
330
2
100
AcDbEntity
  8
LINEWORK
 62
     7
370
    30
100
AcDbLine
 10
98.33828746529732
 20
81.45017818790259
 30
0.0
 11
100.0847421527973
 21
81.45017818790259
 31
0.0
  0
LINE
  5
477
330
2
100
AcDbEntity
  8
LINEWORK
 62
     7
370
    30
100
AcDbLine
 10
98.33828746529739
 20
82.20314068790267
 30
0.0
 11
100.0847421527973
 21
82.20314068790267
 31
0.0
  0
LINE
  5
478
330
2
100
AcDbEntity
  8
LINEWORK
 62
     7
370
    30
100
AcDbLine
 10
100.0847421527973
 20
81.45017818790259
 30
0.0
 11
98.33828746529732
 21
81.45017818790259
 31
0.0
  0
LINE
  5
479
330
2
100
AcDbEntity
  8
LINEWORK
 62
     7
370
    30
100
AcDbLine
 10
98.46378121529737
 20
81.32468443790273
 30
0.0
 11
100.0847421527973
 21
81.32468443790262
 31
0.0
  0
LINE
  5
47A
330
2
100
AcDbEntity
  8
LINEWORK
 62
     7
370
    30
100
AcDbLine
 10
100.0847421527973
 20
83.33258443790262
 30
0.0
 11
98.33828746529732
 21
83.33258443790262
 31
0.0
  0
ARC
  5
47B
330
2
100
AcDbEntity
  8
LINEWORK
 62
     7
370
    30
100
AcDbCircle
 10
98.89995785943378
 20
86.74667391435722
 30
0.0
 40
1.631418750000056
100
AcDbArc
 50
176.4950813054349
 51
249.8619420133486
  0
LINE
  5
47D
330
2
100
AcDbEntity
  8
LINEWORK
 62
     7
370
    30
100
AcDbLine
 10
95.22698218172511
 20
84.30505310389035
 30
0.0
 11
95.15377749422512
 21
84.17955935389036
 31
0.0
  0
LINE
  5
47E
330
2
100
AcDbEntity
  8
LINEWORK
 62
     7
370
    30
100
AcDbLine
 10
95.22698218172511
 20
84.30505310389035
 30
0.0
 11
95.15377749422512
 21
84.17955935389048
 31
0.0
  0
LINE
  5
47F
330
2
100
AcDbEntity
  8
LINEWORK
 62
     7
370
    30
100
AcDbLine
 10
95.22698218172511
 20
84.30505310389035
 30
0.0
 11
95.22698218172511
 21
86.46124060389039
 31
0.0
  0
LINE
  5
480
330
2
100
AcDbEntity
  8
LINEWORK
 62
     7
370
    30
100
AcDbLine
 10
102.9710984027973
 20
86.9719031879026
 30
0.0
 11
102.8978937152973
 21
86.84640943790261
 31
0.0
  0
LINE
  5
481
330
2
100
AcDbEntity
  8
LINEWORK
 62
     7
370
    30
100
AcDbLine
 10
102.9710984027973
 20
86.9719031879026
 30
0.0
 11
102.8978937152973
 21
86.84640943790274
 31
0.0
  0
ARC
  5
482
330
2
100
AcDbEntity
  8
LINEWORK
 62
     7
370
    30
100
AcDbCircle
 10
101.3213784809223
 20
82.76786256290259
 30
0.0
 40
0.760805859375
100
AcDbArc
 50
312.0750220508414
 51
47.92497794915621
  0
ARC
  5
483
330
2
100
AcDbEntity
  8
LINEWORK
 62
     7
370
    30
100
AcDbCircle
 10
101.3331589599079
 20
82.76786256290259
 30
0.0
 40
0.7529625000000308
100
AcDbArc
 50
311.4096221092709
 51
48.59037789073134
  0
LINE
  5
484
330
2
100
AcDbEntity
  8
LINEWORK
 62
     7
370
    30
100
AcDbLine
 10
101.8311968402973
 20
84.5875219379026
 30
0.0
 11
101.8311968402973
 21
85.21499068790266
 31
0.0
  0
LINE
  5
485
330
2
100
AcDbEntity
  8
LINEWORK
 62
     7
370
    30
100
AcDbLine
 10
101.8311968402973
 20
84.5875219379026
 30
0.0
 11
101.8311968402973
 21
85.21499068790266
 31
0.0
  0
LINE
  5
486
330
2
100
AcDbEntity
  8
LINEWORK
 62
     7
370
    30
100
AcDbLine
 10
101.8311968402973
 20
81.45017818790259
 30
0.0
 11
101.8311968402973
 21
82.20314068790267
 31
0.0
  0
LINE
  5
487
330
2
100
AcDbEntity
  8
LINEWORK
 62
     7
370
    30
100
AcDbLine
 10
101.8311968402973
 20
81.45017818790259
 30
0.0
 11
101.7057030902973
 21
81.32468443790262
 31
0.0
  0
LINE
  5
488
330
2
100
AcDbEntity
  8
LINEWORK
 62
     7
370
    30
100
AcDbLine
 10
101.8311968402973
 20
81.45017818790259
 30
0.0
 11
101.7057030902973
 21
81.32468443790262
 31
0.0
  0
LINE
  5
489
330
2
100
AcDbEntity
  8
LINEWORK
 62
     7
370
    30
100
AcDbLine
 10
101.8311968402973
 20
81.45017818790259
 30
0.0
 11
101.8311968402973
 21
82.20314068790267
 31
0.0
  0
ARC
  5
48A
330
2
100
AcDbEntity
  8
LINEWORK
 62
     7
370
    30
100
AcDbCircle
 10
102.7410265277973
 20
83.96005318790267
 30
0.0
 40
1.105218119867257
100
AcDbArc
 50
145.4077113124909
 51
214.5922886875093
  0
ARC
  5
48B
330
2
100
AcDbEntity
  8
LINEWORK
 62
     7
370
    30
100
AcDbCircle
 10
102.7323302260773
 20
83.96005318790267
 30
0.0
 40
1.09807031250002
100
AcDbArc
 50
145.1500954209546
 51
214.8499045790453
  0
ARC
  5
48C
330
2
100
AcDbEntity
  8
LINEWORK
 62
     7
370
    30
100
AcDbCircle
 10
88.30772222689004
 20
71.08846584899684
 30
0.0
 40
15.21611718749983
100
AcDbArc
 50
19.54686554134434
 51
25.69286435959092
  0
ARC
  5
48D
330
2
100
AcDbEntity
  8
LINEWORK
 62
     7
370
    30
100
AcDbCircle
 10
103.9959640277973
 20
78.71284576602764
 30
0.0
 40
2.22763833761492
100
AcDbArc
 50
180.6052145972454
 51
207.4672723386107
  0
ARC
  5
48E
330
2
100
AcDbEntity
  8
LINEWORK
 62
     7
370
    30
100
AcDbCircle
 10
103.9958400728971
 20
78.71281477730261
 30
0.0
 40
2.22751406250017
100
AcDbArc
 50
180.6044512322847
 51
207.4680357035698
  0
ARC
  5
48F
330
2
100
AcDbEntity
  8
LINEWORK
 62
     7
370
    30
100
AcDbCircle
 10
129.3324281503941
 20
80.66403224439303
 30
0.0
 40
27.63462319024747
100
AcDbArc
 50
178.630117417344
 51
184.0977376458606
  0
ARC
  5
490
330
2
100
AcDbEntity
  8
LINEWORK
 62
     7
370
    30
100
AcDbCircle
 10
129.3378079962899
 20
80.66416033596189
 30
0.0
 40
27.63999843750035
100
AcDbArc
 50
178.6306494746762
 51
184.097205588529
  0
ARC
  5
491
330
2
100
AcDbEntity
  8
LINEWORK
 62
     7
370
    30
100
AcDbCircle
 10
101.2695264461609
 20
86.74667391435722
 30
0.0
 40
1.631418750000088
100
AcDbArc
 50
290.1380579866513
 51
3.504918694565078
  0
LINE
  5
492
330
2
100
AcDbEntity
  8
LINEWORK
 62
     7
370
    30
100
AcDbLine
 10
97.19838590279742
 20
89.08131800429989
 30
0.0
 11
102.9710984027973
 21
89.08131800429989
 31
0.0
  0
LINE
  5
493
330
2
100
AcDbEntity
  8
LINEWORK
 62
     7
370
    30
100
AcDbLine
 10
104.7045006786655
 20
90.56507365386531
 30
0.0
 11
95.85232664866797
 21
90.56507365386526
 31
0.0
  0
LINE
  5
494
330
2
100
AcDbEntity
  8
LINEWORK
 62
     7
370
    30
100
AcDbLine
 10
105.3611260667837
 20
94.14007365386542
 30
0.0
 11
94.87231653854562
 21
94.14007365386536
 31
0.0
  0
LINE
  5
495
330
2
100
AcDbEntity
  8
LINEWORK
 62
     7
370
    30
100
AcDbLine
 10
104.7045006786655
 20
90.01507365386535
 30
0.0
 11
96.00309743484062
 21
90.01507365386535
 31
0.0
  0
LINE
  5
496
330
2
100
AcDbEntity
  8
LINEWORK
 62
     7
370
    30
100
AcDbLine
 10
105.804500678666
 20
89.46507365386528
 30
0.0
 11
96.15386822101331
 21
89.46507365386528
 31
0.0
  0
POINT
  5
497
330
2
100
AcDbEntity
  8
LINEWORK
 62
     7
370
    30
100
AcDbPoint
 10
99.01038590279739
 20
90.26842983823147
 30
0.0
  0
POINT
  5
498
330
2
100
AcDbEntity
  8
LINEWORK
 62
     7
370
    30
100
AcDbPoint
 10
99.01038590279739
 20
90.26842983823147
 30
0.0
  0
LINE
  5
499
330
2
100
AcDbEntity
  8
LINEWORK
  6
DASHED
 62
     7
 48
2.0
370
    30
100
AcDbLine
 10
99.83474215279739
 20
91.31809068790394
 30
0.0
 11
100.3347421527973
 21
91.31809068790394
 31
0.0
  0
LINE
  5
49A
330
2
100
AcDbEntity
  8
LINEWORK
 62
     7
370
    30
100
AcDbLine
 10
96.15386822101331
 20
89.46507365386528
 30
0.0
 11
94.87231653854562
 21
94.14007365386536
 31
0.0
  0
LINE
  5
49B
330
2
100
AcDbEntity
  8
LINEWORK
 62
     7
370
    30
100
AcDbLine
 10
95.72085551912108
 20
89.46507365386528
 30
0.0
 11
94.49189592948604
 21
93.94822182505786
 31
0.0
  0
POINT
  5
49C
330
2
100
AcDbEntity
  8
LINEWORK
 62
     1
370
    30
100
AcDbPoint
 10
102.9710984027973
 20
89.23079068790267
 30
0.0
  0
LINE
  5
49D
330
2
100
AcDbEntity
  8
LINEWORK
 62
     7
370
    30
100
AcDbLine
 10
103.0545006786654
 20
93.31507365386526
 30
0.0
 11
103.0361290899619
 21
93.31507365386526
 31
0.0
  0
LINE
  5
49E
330
2
100
AcDbEntity
  8
LINEWORK
 62
     7
370
    30
100
AcDbLine
 10
103.0545006786654
 20
93.31507365386526
 30
0.0
 11
103.0361290899619
 21
93.31507365386526
 31
0.0
  0
LINE
  5
49F
330
2
100
AcDbEntity
  8
LINEWORK
 62
     7
370
    30
100
AcDbLine
 10
103.054500678669
 20
92.35257365386521
 30
0.0
 11
103.0361290899619
 21
92.35257365386521
 31
0.0
  0
LINE
  5
4A0
330
2
100
AcDbEntity
  8
LINEWORK
370
    30
100
AcDbLine
 10
103.0545006786689
 20
92.35257365386521
 30
0.0
 11
103.0545006786654
 21
93.31507365386526
 31
0.0
  0
ARC
  5
4A1
330
2
100
AcDbEntity
  8
LINEWORK
370
    30
100
AcDbCircle
 10
102.6842101747628
 20
91.64909677770342
 30
0.0
 40
0.7949809888151388
100
AcDbArc
 50
6.11804546872602
 51
62.23893912946991
  0
LINE
  5
4A2
330
2
100
AcDbEntity
  8
LINEWORK
 62
     7
370
    30
100
AcDbLine
 10
103.0361290899619
 20
93.31507365386526
 30
0.0
 11
105.3611260667836
 21
94.14007365386536
 31
0.0
  0
ARC
  5
4A3
330
2
100
AcDbEntity
  8
LINEWORK
370
    30
100
AcDbCircle
 10
105.2545006786657
 20
89.46507365386507
 30
0.0
 40
0.5500000000002502
100
AcDbArc
 50
0.0000000000260551
 51
90.00000000002605
  0
ARC
  5
4A4
330
2
100
AcDbEntity
  8
LINEWORK
370
    30
100
AcDbCircle
 10
104.7676066590308
 20
91.86291183592826
 30
0.0
 40
1.299371506374636
100
AcDbArc
 50
185.7015478593842
 51
267.2162470626179
  0
LINE
  5
4A5
330
2
100
AcDbEntity
  8
LINEWORK
370
    30
100
AcDbLine
 10
104.7045006786655
 20
90.01507365386535
 30
0.0
 11
104.7045006786655
 21
90.56507365386531
 31
0.0
  0
DIMENSION
  5
4A6
330
2
100
AcDbEntity
  8
DIM
 62
     7
370
    30
100
AcDbDimension
  2
*D6
 10
126.7417466862308
 20
89.46507365386528
 30
0.0
 11
126.7417466862308
 21
75.86651810327314
 31
0.0
 70
   160
  1
26-3/4"
 71
     5
 42
-1.0
  3
STANDARD
100
AcDbAlignedDimension
 13
116.0545006786659
 23
62.90207365386535
 33
0.0
 14
116.0545006786659
 24
89.46507365386528
 34
0.0
 50
90.0
100
AcDbRotatedDimension
1001
ACAD
1000
DSTYLE
1002
{
1070
   287
1070
     4
1070
   287
1070
     4
1070
   287
1070
     4
1070
    40
1040
2.399999999999999
1070
    73
1070
     1
1070
    74
1070
     1
1070
    77
1070
     0
1070
   147
1040
0.5
1070
   279
1070
     1
1070
   288
1070
     1
1070
   289
1070
     3
1002
}
  0
LINE
  5
4B4
330
2
100
AcDbEntity
  8
LINEWORK
370
    30
100
AcDbLine
 10
116.7147055168528
 20
89.09248557775411
 30
0.0
 11
116.7147055168528
 21
63.27618244666038
 31
0.0
  0
LINE
  5
4B5
330
2
100
AcDbEntity
  8
LINEWORK
370
    30
100
AcDbLine
 10
114.804500678666
 20
66.24707365386607
 30
0.0
 11
114.8045006786659
 21
85.84007365386568
 31
0.0
  0
LINE
  5
4B7
330
2
100
AcDbEntity
  8
LINEWORK
  6
DASHED
 62
     7
 48
2.0
370
    30
100
AcDbLine
 10
111.5545006786659
 20
64.90007365386535
 30
0.0
 11
111.5545006786659
 21
60.90007365386535
 31
0.0
  0
LINE
  5
4B8
330
2
100
AcDbEntity
  8
LINEWORK
  6
DASHED
 62
     7
 48
2.0
370
    30
100
AcDbLine
 10
111.054500678666
 20
60.90007365386535
 30
0.0
 11
111.054500678666
 21
64.90007365386535
 31
0.0
  0
LINE
  5
4B9
330
2
100
AcDbEntity
  8
LINEWORK
  6
DASHED
 62
     7
 48
2.0
370
    30
100
AcDbLine
 10
111.5545006786659
 20
60.90007365386535
 30
0.0
 11
111.054500678666
 21
60.90007365386535
 31
0.0
  0
LINE
  5
4BA
330
2
100
AcDbEntity
  8
LINEWORK
 62
     7
370
    30
100
AcDbLine
 10
116.8045006786659
 20
62.90207365386535
 30
0.0
 11
117.304500678666
 21
62.40207365386535
 31
0.0
  0
LINE
  5
4BB
330
2
100
AcDbEntity
  8
LINEWORK
 62
     7
370
    30
100
AcDbLine
 10
117.304500678666
 20
62.40207365386535
 30
0.0
 11
117.304500678666
 21
58.94556741664601
 31
0.0
  0
LINE
  5
4BC
330
2
100
AcDbEntity
  8
LINEWORK
  6
DASHED
 62
     7
 48
2.0
370
    30
100
AcDbLine
 10
111.054500678666
 20
64.90007365386535
 30
0.0
 11
111.5545006786659
 21
64.90007365386535
 31
0.0
  0
ARC
  5
4BD
330
2
100
AcDbEntity
  8
LINEWORK
370
    30
100
AcDbCircle
 10
114.8045006786659
 20
64.99707365386607
 30
0.0
 40
1.25
100
AcDbArc
 50
90.00000000000651
 51
180.0000000000065
  0
LINE
  5
4BE
330
2
100
AcDbEntity
  8
LINEWORK
370
    30
100
AcDbLine
 10
113.5545006786659
 20
64.99707365386533
 30
0.0
 11
109.0545006786653
 21
64.99707365386533
 31
0.0
  0
LINE
  5
4C3
330
2
100
AcDbEntity
  8
LINEWORK
  6
DASHED
 62
     7
 48
2.0
370
    30
100
AcDbLine
 10
111.5545006786659
 20
87.28007365386659
 30
0.0
 11
111.5545006786659
 21
91.28007365386659
 31
0.0
  0
LINE
  5
4C4
330
2
100
AcDbEntity
  8
LINEWORK
  6
DASHED
 62
     7
 48
2.0
370
    30
100
AcDbLine
 10
111.054500678666
 20
91.28007365386659
 30
0.0
 11
111.054500678666
 21
87.28007365386659
 31
0.0
  0
LINE
  5
4C5
330
2
100
AcDbEntity
  8
LINEWORK
  6
DASHED
 62
     7
 48
2.0
370
    30
100
AcDbLine
 10
111.054500678666
 20
87.28007365386659
 30
0.0
 11
111.5545006786659
 21
87.28007365386659
 31
0.0
  0
LINE
  5
4C6
330
2
100
AcDbEntity
  8
LINEWORK
370
    30
100
AcDbLine
 10
113.5545006786663
 20
87.09007365386529
 30
0.0
 11
109.0545006786659
 21
87.09007365386529
 31
0.0
  0
ARC
  5
4C7
330
2
100
AcDbEntity
  8
LINEWORK
370
    30
100
AcDbCircle
 10
114.8045006786659
 20
87.09007365386529
 30
0.0
 40
1.25
100
AcDbArc
 50
180.0
 51
270.0
  0
LINE
  5
4C8
330
2
100
AcDbEntity
  8
LINEWORK
  6
DASHED
 62
     7
 48
2.0
370
    30
100
AcDbLine
 10
111.5545006786659
 20
91.28007365386659
 30
0.0
 11
111.054500678666
 21
91.28007365386659
 31
0.0
  0
LINE
  5
4C9
330
2
100
AcDbEntity
  8
leaders
 62
     7
370
    30
100
AcDbLine
 10
119.5545006786629
 20
92.35257365386521
 30
0.0
 11
119.57287226737
 21
92.35257365386521
 31
0.0
  0
LINE
  5
4CA
330
2
100
AcDbEntity
  8
leaders
 62
     7
370
    30
100
AcDbLine
 10
119.57287226737
 20
93.31507365386526
 30
0.0
 11
119.57287226737
 21
92.35257365386521
 31
0.0
  0
ARC
  5
4CB
330
2
100
AcDbEntity
  8
LINEWORK
 62
     7
370
    30
100
AcDbCircle
 10
119.9247911825691
 20
91.64909677770342
 30
0.0
 40
0.7949809888151388
100
AcDbArc
 50
117.76106087053
 51
173.881954531274
  0
LINE
  5
4CC
330
2
100
AcDbEntity
  8
LINEWORK
 62
     7
370
    30
100
AcDbLine
 10
119.57287226737
 20
93.31507365386526
 30
0.0
 11
117.2478752905482
 21
94.14007365386536
 31
0.0
  0
ARC
  5
4CD
330
2
100
AcDbEntity
  8
LINEWORK
370
    30
100
AcDbCircle
 10
117.3545006786662
 20
89.46507365386507
 30
0.0
 40
0.5500000000002502
100
AcDbArc
 50
89.99999999997395
 51
179.9999999999739
  0
ARC
  5
4CE
330
2
100
AcDbEntity
  8
LINEWORK
370
    30
100
AcDbCircle
 10
117.8413946983011
 20
91.86291183592826
 30
0.0
 40
1.299371506374636
100
AcDbArc
 50
272.783752937382
 51
354.2984521406158
  0
LINE
  5
4CF
330
2
100
AcDbEntity
  8
LINEWORK
370
    30
100
AcDbLine
 10
117.9045006786665
 20
90.01507365386535
 30
0.0
 11
117.9045006786665
 21
90.56507365386531
 31
0.0
  0
LINE
  5
584
330
2
100
AcDbEntity
  8
leaders
 62
     1
370
    30
100
AcDbLine
 10
110.1082805227721
 20
116.1258486511332
 30
0.0
 11
152.8425429286022
 21
116.1258486511332
 31
0.0
  0
MTEXT
  5
585
330
2
100
AcDbEntity
  8
leaders
 62
     1
370
    30
100
AcDbMText
 10
127.3305625068429
 20
110.4808500082414
 30
0.0
 40
2.216024999999999
 41
0.0
 71
     1
 72
     1
  1
1-800-789-4841
 73
     1
 44
1.0
1001
ACAD
1000
MTEXTBEGIN
1070
    73
1070
     1
1070
    44
1040
1.0
1070
    74
1070
     0
1000
MTEXTEND
1000
MTEXTBEGIN
1070
    73
1070
     1
1070
    44
1040
1.0
1070
    74
1070
     0
1000
MTEXTEND
1000
MTEXTBEGIN
1070
    73
1070
     1
1070
    44
1040
1.0
1070
    74
1070
     0
1000
MTEXTEND
1000
MTEXTBEGIN
1070
    73
1070
     1
1070
    44
1040
1.0
1070
    74
1070
     0
1000
MTEXTEND
  0
MTEXT
  5
586
330
2
100
AcDbEntity
  8
leaders
 62
     1
370
    30
100
AcDbMText
 10
127.0973352847977
 20
115.0323302072248
 30
0.0
 40
3.0
 41
0.0
 71
     1
 72
     1
  1
TannerStone
 73
     1
 44
1.0
1001
ACAD
1000
MTEXTBEGIN
1070
    73
1070
     1
1070
    44
1040
1.0
1070
    74
1070
     0
1000
MTEXTEND
1000
MTEXTBEGIN
1070
    73
1070
     1
1070
    44
1040
1.0
1070
    74
1070
     0
1000
MTEXTEND
1000
MTEXTBEGIN
1070
    73
1070
     1
1070
    44
1040
1.0
1070
    74
1070
     0
1000
MTEXTEND
1000
MTEXTBEGIN
1070
    73
1070
     1
1070
    44
1040
1.0
1070
    74
1070
     0
1000
MTEXTEND
  0
ATTDEF
  5
587
330
2
100
AcDbEntity
  8
leaders
 62
     1
370
    30
100
AcDbText
 10
126.9808376918727
 20
117.2741558747692
 30
0.0
 40
3.0
  1

100
AcDbAttributeDefinition
  3
ADD LINK NUMBER (WMF)
  2
TSB005
 70
     0
  0
LINE
  5
588
330
2
100
AcDbEntity
  8
leaders
 62
     1
370
    30
100
AcDbLine
 10
125.5203466446394
 20
107.1625159958063
 30
0.0
 11
125.5203466446394
 21
120.8258772842847
 31
0.0
  0
SOLID
  5
59D
330
2
100
AcDbEntity
  8
leaders
 62
     1
370
    30
100
AcDbTrace
 10
98.5725098224934
 20
95.08978071257482
 30
0.0
 11
98.22339941040576
 21
95.28502906768183
 31
0.0
 12
97.81220955112855
 22
94.14007365386538
 32
0.0
 13
97.81220955112855
 23
94.14007365386538
 33
0.0
  0
LINE
  5
59E
330
2
100
AcDbEntity
  8
leaders
 62
     1
370
    30
100
AcDbLine
 10
98.39795461644959
 20
95.18740489012833
 30
0.0
 11
110.1082805227721
 21
116.1258486511332
 31
0.0
  0
LINE
  5
59F
330
2
100
AcDbEntity
  8
leaders
 62
     1
370
    30
100
AcDbLine
 10
29.33300930767898
 20
107.6622698648455
 30
0.0
 11
57.64188836300674
 21
107.6622698648455
 31
0.0
  0
ATTDEF
  5
5A0
330
2
100
AcDbEntity
  8
leaders
 62
     1
370
    30
100
AcDbText
 10
11.96376347392333
 20
106.5086310556234
 30
0.0
 40
2.879999999999999
  1

100
AcDbAttributeDefinition
  3
ADD LINK NUMBER (WMF)
  2
TS0993
 70
     0
  0
LINE
  5
5A1
330
2
100
AcDbEntity
  8
leaders
 62
     1
370
    30
100
AcDbLine
 10
29.33300930767898
 20
105.4062561209329
 30
0.0
 11
29.33300930767898
 21
109.9182836087582
 31
0.0
  0
SOLID
  5
5A2
330
2
100
AcDbEntity
  8
leaders
 62
     1
370
    30
100
AcDbTrace
 10
82.70106845610554
 20
81.90824935664851
 30
0.0
 11
82.41283670493553
 21
81.63090037500721
 31
0.0
 12
83.3889995254445
 22
80.90487961231787
 32
0.0
 13
83.3889995254445
 23
80.90487961231787
 33
0.0
  0
LINE
  5
5A3
330
2
100
AcDbEntity
  8
leaders
 62
     1
370
    30
100
AcDbLine
 10
82.55695258052053
 20
81.76957486582786
 30
0.0
 11
57.64188836300674
 21
107.6622698648455
 31
0.0
  0
TEXT
  5
5A4
330
2
100
AcDbEntity
  8
leaders
 62
     1
370
    30
100
AcDbText
 10
83.56913660907938
 20
79.61809913868918
 30
0.0
 40
1.714999999999999
  1
~
 50
60.0000000000001
100
AcDbText
  0
INSERT
  5
6D1
330
2
100
AcDbEntity
  8
ASHADE
 62
     1
100
AcDbBlockReference
  2
AVE_RENDER
 10
79.50588907839712
 20
6.803647329491255
 30
0.0
1001
AVE_RENDER
1002
{
1070
     7
1000
Pref
1070
    30
1070
    20
1070
     1
1070
     0
1000

1070
    10
1070
     1
1070
    10
1040
1.0
1070
     1
1040
0.3
1040
0.7
1040
0.0
1040
10.0
1010
-1.0
1020
-1.0
1030
-1.0
1040
0.3
1070
    49
1070
     0
1070
     0
1010
1.0
1020
1.0
1030
1.0
1040
45.0
1070
     1
1070
     0
1000
WCS
1040
0.0
1070
     0
1040
10.0
1002
}
  0
INSERT
  5
6D2
330
2
100
AcDbEntity
  8
ASHADE
 62
     3
100
AcDbBlockReference
  2
AVE_RENDER
 10
79.50588907839712
 20
6.803647329491255
 30
0.0
1001
AVE_RENDER
1002
{
1070
     0
1000
Full Opt
1070
     0
1070
     1
1070
     1
1070
     1
1070
     0
1070
     0
1070
     0
1070
     1
1070
     1
1040
0.0001
1040
0.0001
1002
}
  0
INSERT
  5
6D3
330
2
100
AcDbEntity
  8
ASHADE
 62
     4
100
AcDbBlockReference
  2
AVE_RENDER
 10
79.50588907839712
 20
6.803647329491255
 30
0.0
1001
AVE_RENDER
1002
{
1070
     0
1000
Quick Opt
1070
     0
1070
     1
1070
     1
1070
     1
1070
     0
1070
     0
1070
     1
1002
}
  0
INSERT
  5
6D4
330
2
100
AcDbEntity
  8
ASHADE
 62
     5
100
AcDbBlockReference
  2
AVE_RENDER
 10
79.50588907839712
 20
6.803647329491255
 30
0.0
1001
AVE_RENDER
1002
{
1070
     1
1000
Scanl Opt
1070
     2
1070
     0
1070
     2
1040
2.0
1040
4.0
1070
     0
1070
     1
1070
     0
1040
0.03
1002
}
  0
INSERT
  5
6D5
330
2
100
AcDbEntity
  8
ASHADE
 62
     6
100
AcDbBlockReference
  2
AVE_RENDER
 10
79.50588907839712
 20
6.803647329491255
 30
0.0
1001
AVE_RENDER
1002
{
1070
     2
1000
Raytr Opt
1070
     2
1070
     0
1070
     2
1040
2.0
1040
4.0
1070
     0
1070
     1
1070
     1
1040
0.03
1070
     3
1040
0.03
1002
}
  0
INSERT
  5
6D6
330
2
100
AcDbEntity
  8
ASHADE
 62
     7
100
AcDbBlockReference
  2
AVE_RENDER
 10
79.50588907839712
 20
6.803647329491255
 30
0.0
1001
AVE_RENDER
1002
{
1070
     0
1000
RFile Opt
1070
     1
1070
   640
1070
   480
1070
 10000
1070
     1
1070
     8
1070
     8
1070
     0
1070
     0
1070
     0
1070
     0
1070
     0
1070
     0
1070
     0
1002
}
  0
INSERT
  5
6D7
330
2
100
AcDbEntity
  8
ASHADE
 62
     8
100
AcDbBlockReference
  2
AVE_RENDER
 10
79.50588907839712
 20
6.803647329491255
 30
0.0
1001
AVE_RENDER
1002
{
1070
     0
1000
Fog Opt
1070
     0
1070
     0
1040
0.0
1040
1.0
1040
0.0
1040
1.0
1010
0.5
1020
0.5
1030
0.5
1002
}
  0
INSERT
  5
6D8
330
2
100
AcDbEntity
  8
ASHADE
 62
     9
100
AcDbBlockReference
  2
AVE_RENDER
 10
79.50588907839712
 20
6.803647329491255
 30
0.0
1001
AVE_RENDER
1002
{
1070
     0
1000
BG Opt
1070
     0
1070
     1
1010
0.0
1020
0.0
1030
0.0
1010
1.0
1020
0.0
1030
0.0
1010
0.0
1020
1.0
1030
0.0
1010
0.0
1020
0.0
1030
1.0
1040
0.5
1040
0.33
1040
0.0
1000

1070
     1
1000

1070
     1
1070
     1
1040
1.0
1040
1.0
1040
0.0
1040
0.0
1070
     0
1002
}
  0
INSERT
  5
6D9
330
2
100
AcDbEntity
  8
ASHADE
 62
     1
100
AcDbBlockReference
  2
AVE_GLOBAL
 10
79.50588907839712
 20
6.803647329491255
 30
0.0
1001
AVE_MATERIAL
1002
{
1000
*GLOBAL*
1000
1
1000
Global finish.
1002
{
1002
}
1002
{
1070
    63
1002
{
1002
{
1010
-1.0
1020
-1.0
1030
-1.0
1002
}
1040
0.1000000014901161
1000

1040
0.0
1002
{
1002
}
1040
0.0
1002
{
1002
}
1040
0.0
1002
}
1002
{
1002
{
1010
-1.0
1020
-1.0
1030
-1.0
1002
}
1040
0.6999999880790711
1000

1040
0.0
1002
{
1002
}
1040
0.0
1002
{
1002
}
1040
0.0
1002
}
1002
{
1002
{
1010
-1.0
1020
-1.0
1030
-1.0
1002
}
1040
0.2000000029802322
1000

1040
0.0
1002
{
1002
}
1040
0.0
1002
{
1002
}
1040
0.0
1002
}
1002
{
1070
     0
1002
{
1070
     1
1002
{
1040
1.0
1040
1.0
1000

1040
0.0
1002
{
1002
}
1040
0.0
1002
{
1002
}
1040
0.0
1002
}
1002
}
1040
1.0
1040
0.0
1040
0.0
1002
}
1002
{
1040
1.0
1040
1.0
1000

1040
0.0
1002
{
1002
}
1040
0.0
1002
{
1002
}
1040
0.0
1002
}
1002
{
1040
0.5
1040
1.0
1000

1040
0.0
1002
{
1002
}
1040
0.0
1002
{
1002
}
1040
0.0
1002
}
1002
{
1070
     0
1040
0.0
1002
{
1002
}
1040
1.0
1002
{
1002
}
1040
0.0
1002
}
1002
{
1040
0.0
1002
{
1002
{
1010
0.0
1020
0.0
1030
0.0
1002
}
1040
1.0
1000

1040
0.0
1002
{
1002
}
1040
0.0
1002
{
1002
}
1040
0.0
1002
}
1002
}
1002
{
1002
{
1070
     1
1002
{
1040
0.0
1040
1.0
1000

1040
0.0
1002
{
1002
}
1040
0.0
1002
{
1002
}
1040
0.0
1002
}
1002
}
1040
0.0
1002
{
1002
}
1010
1.0
1020
0.0
1030
0.0
1010
0.0
1020
1.0
1030
0.0
1010
0.0
1020
0.0
1030
1.0
1070
     0
1002
}
1002
{
1002
{
1040
1.0
1040
1.0
1002
{
1070
     1
1002
{
1040
1.0
1040
1.0
1000

1040
0.0
1002
{
1002
}
1040
0.0
1002
{
1002
}
1040
0.0
1002
}
1002
}
1002
}
1070
     0
1040
0.0
1002
{
1002
}
1002
}
1002
{
1002
}
1002
}
1002
{
1071
        3
1070
     3
1070
     0
1002
{
1070
     2
1070
     0
1070
     0
1040
0.0
1002
}
1070
     0
1070
     2
1002
{
1002
}
1002
}
1002
{
1040
8030.0
1040
190.3000030517578
1040
0.3050000071525574
1040
228.0
1040
545.0
1040
14.0
1040
17.39999961853027
1040
0.4560000002384186
1002
}
1002
}
  0
INSERT
  5
6DA
330
2
100
AcDbEntity
  8
ASHADE
 62
     1
100
AcDbBlockReference
  2
AVE_RENDER
 10
79.42016013094771
 20
-49.05988777616243
 30
0.0
1001
AVE_RENDER
1002
{
1070
     7
1000
Pref
1070
    60
1070
    20
1070
     1
1070
     0
1000

1070
    10
1070
     1
1070
    10
1040
1.0
1070
     1
1040
0.3
1040
0.7
1040
0.0
1040
10.0
1010
-1.0
1020
-1.0
1030
-1.0
1040
0.3
1070
    49
1070
     0
1070
     0
1010
1.0
1020
1.0
1030
1.0
1040
45.0
1070
     1
1070
     0
1000
WCS
1040
0.0
1070
     0
1040
10.0
1002
}
  0
INSERT
  5
6DB
330
2
100
AcDbEntity
  8
ASHADE
 62
     3
100
AcDbBlockReference
  2
AVE_RENDER
 10
79.42016013094771
 20
-49.05988777616243
 30
0.0
1001
AVE_RENDER
1002
{
1070
     0
1000
Full Opt
1070
     0
1070
     1
1070
     1
1070
     1
1070
     0
1070
     0
1070
     0
1070
     1
1070
     1
1040
0.0001
1040
0.0001
1002
}
  0
INSERT
  5
6DC
330
2
100
AcDbEntity
  8
ASHADE
 62
     4
100
AcDbBlockReference
  2
AVE_RENDER
 10
79.42016013094771
 20
-49.05988777616243
 30
0.0
1001
AVE_RENDER
1002
{
1070
     0
1000
Quick Opt
1070
     0
1070
     1
1070
     1
1070
     1
1070
     0
1070
     0
1070
     1
1002
}
  0
INSERT
  5
6DD
330
2
100
AcDbEntity
  8
ASHADE
 62
     5
100
AcDbBlockReference
  2
AVE_RENDER
 10
79.42016013094771
 20
-49.05988777616243
 30
0.0
1001
AVE_RENDER
1002
{
1070
     1
1000
Scanl Opt
1070
     2
1070
     0
1070
     2
1040
2.0
1040
4.0
1070
     0
1070
     1
1070
     0
1040
0.03
1002
}
  0
INSERT
  5
6DE
330
2
100
AcDbEntity
  8
ASHADE
 62
     6
100
AcDbBlockReference
  2
AVE_RENDER
 10
79.42016013094771
 20
-49.05988777616243
 30
0.0
1001
AVE_RENDER
1002
{
1070
     2
1000
Raytr Opt
1070
     2
1070
     0
1070
     2
1040
2.0
1040
4.0
1070
     0
1070
     1
1070
     1
1040
0.03
1070
     3
1040
0.03
1002
}
  0
INSERT
  5
6DF
330
2
100
AcDbEntity
  8
ASHADE
 62
     7
100
AcDbBlockReference
  2
AVE_RENDER
 10
79.42016013094771
 20
-49.05988777616243
 30
0.0
1001
AVE_RENDER
1002
{
1070
     0
1000
RFile Opt
1070
     1
1070
   640
1070
   480
1070
 10000
1070
     1
1070
     8
1070
     8
1070
     0
1070
     0
1070
     0
1070
     0
1070
     0
1070
     0
1070
     0
1002
}
  0
INSERT
  5
6E0
330
2
100
AcDbEntity
  8
ASHADE
 62
     8
100
AcDbBlockReference
  2
AVE_RENDER
 10
79.42016013094771
 20
-49.05988777616243
 30
0.0
1001
AVE_RENDER
1002
{
1070
     0
1000
Fog Opt
1070
     0
1070
     0
1040
0.0
1040
1.0
1040
0.0
1040
1.0
1010
0.5
1020
0.5
1030
0.5
1002
}
  0
INSERT
  5
6E1
330
2
100
AcDbEntity
  8
ASHADE
 62
     9
100
AcDbBlockReference
  2
AVE_RENDER
 10
79.42016013094771
 20
-49.05988777616243
 30
0.0
1001
AVE_RENDER
1002
{
1070
     0
1000
BG Opt
1070
     0
1070
     1
1010
0.0
1020
0.0
1030
0.0
1010
1.0
1020
0.0
1030
0.0
1010
0.0
1020
1.0
1030
0.0
1010
0.0
1020
0.0
1030
1.0
1040
0.5
1040
0.33
1040
0.0
1000

1070
     1
1000

1070
     1
1070
     1
1040
1.0
1040
1.0
1040
0.0
1040
0.0
1070
     0
1002
}
  0
INSERT
  5
6E2
330
2
100
AcDbEntity
  8
ASHADE
 62
     1
100
AcDbBlockReference
  2
AVE_GLOBAL
 10
79.42016013094771
 20
-49.05988777616243
 30
0.0
1001
AVE_MATERIAL
1002
{
1000
*GLOBAL*
1000
1
1000
Global finish.
1002
{
1002
}
1002
{
1070
    63
1002
{
1002
{
1010
-1.0
1020
-1.0
1030
-1.0
1002
}
1040
0.1000000014901161
1000

1040
0.0
1002
{
1002
}
1040
0.0
1002
{
1002
}
1040
0.0
1002
}
1002
{
1002
{
1010
-1.0
1020
-1.0
1030
-1.0
1002
}
1040
0.6999999880790711
1000

1040
0.0
1002
{
1002
}
1040
0.0
1002
{
1002
}
1040
0.0
1002
}
1002
{
1002
{
1010
-1.0
1020
-1.0
1030
-1.0
1002
}
1040
0.2000000029802322
1000

1040
0.0
1002
{
1002
}
1040
0.0
1002
{
1002
}
1040
0.0
1002
}
1002
{
1070
     0
1002
{
1070
     1
1002
{
1040
1.0
1040
1.0
1000

1040
0.0
1002
{
1002
}
1040
0.0
1002
{
1002
}
1040
0.0
1002
}
1002
}
1040
1.0
1040
0.0
1040
0.0
1002
}
1002
{
1040
1.0
1040
1.0
1000

1040
0.0
1002
{
1002
}
1040
0.0
1002
{
1002
}
1040
0.0
1002
}
1002
{
1040
0.5
1040
1.0
1000

1040
0.0
1002
{
1002
}
1040
0.0
1002
{
1002
}
1040
0.0
1002
}
1002
{
1070
     0
1040
0.0
1002
{
1002
}
1040
1.0
1002
{
1002
}
1040
0.0
1002
}
1002
{
1040
0.0
1002
{
1002
{
1010
0.0
1020
0.0
1030
0.0
1002
}
1040
1.0
1000

1040
0.0
1002
{
1002
}
1040
0.0
1002
{
1002
}
1040
0.0
1002
}
1002
}
1002
{
1002
{
1070
     1
1002
{
1040
0.0
1040
1.0
1000

1040
0.0
1002
{
1002
}
1040
0.0
1002
{
1002
}
1040
0.0
1002
}
1002
}
1040
0.0
1002
{
1002
}
1010
1.0
1020
0.0
1030
0.0
1010
0.0
1020
1.0
1030
0.0
1010
0.0
1020
0.0
1030
1.0
1070
     0
1002
}
1002
{
1002
{
1040
1.0
1040
1.0
1002
{
1070
     1
1002
{
1040
1.0
1040
1.0
1000

1040
0.0
1002
{
1002
}
1040
0.0
1002
{
1002
}
1040
0.0
1002
}
1002
}
1002
}
1070
     0
1040
0.0
1002
{
1002
}
1002
}
1002
{
1002
}
1002
}
1002
{
1071
        3
1070
     3
1070
     0
1002
{
1070
     2
1070
     0
1070
     0
1040
0.0
1002
}
1070
     0
1070
     2
1002
{
1002
}
1002
}
1002
{
1040
8030.0
1040
190.3000030517578
1040
0.3050000071525574
1040
228.0
1040
545.0
1040
14.0
1040
17.39999961853027
1040
0.4560000002384186
1002
}
1002
}
  0
LINE
  5
7B9
330
2
100
AcDbEntity
  8
LINEWORK
 62
     7
370
    30
100
AcDbLine
 10
67.07154421068063
 20
41.14032478489676
 30
0.0
 11
66.42441403400764
 21
45.09683102211605
 31
0.0
  0
LINE
  5
7EF
330
2
100
AcDbEntity
  8
LINEWORK
 62
     7
370
    30
100
AcDbLine
 10
119.5545006786629
 20
92.35257365386525
 30
0.0
 11
119.57287226737
 21
93.31507365386526
 31
0.0
  0
LINE
  5
7F2
330
2
100
AcDbEntity
  8
LINEWORK
 62
     7
370
    30
100
AcDbLine
 10
42.32432983679133
 20
74.54579077682777
 30
0.0
 11
64.08705622933815
 21
74.54579077682777
 31
0.0
  0
DIMENSION
  5
913
330
2
100
AcDbEntity
  8
DIM
 62
     7
370
    30
100
AcDbDimension
  2
*D5
 10
154.0546612654514
 20
89.32056741664618
 30
0.0
 11
154.0546612654514
 21
76.06318389676832
 31
0.0
 70
   160
 71
     5
 42
-1.0
  3
STANDARD
100
AcDbAlignedDimension
 13
144.4987393791601
 23
63.32056741664619
 33
0.0
 14
144.4987393791601
 24
89.32056741664618
 34
0.0
 50
90.0
100
AcDbRotatedDimension
1001
ACAD
1000
DSTYLE
1002
{
1070
   287
1070
     4
1070
   287
1070
     4
1070
   287
1070
     4
1070
    40
1040
2.399999999999999
1070
    73
1070
     1
1070
    74
1070
     1
1070
    77
1070
     0
1070
   147
1040
0.5
1070
   279
1070
     1
1070
   288
1070
     1
1070
   289
1070
     3
1002
}
  0
DIMENSION
  5
982
330
2
100
AcDbEntity
  8
DIM
 62
     7
370
    30
100
AcDbDimension
  2
*D7
 10
162.825450824269
 20
94.37056741664601
 30
0.0
 11
162.825450824269
 21
76.05637333529021
 31
0.0
 70
   160
  1
36"
 71
     5
 42
-1.0
  3
STANDARD
100
AcDbAlignedDimension
 13
147.6123831291607
 23
58.5705674166463
 33
0.0
 14
147.5557577410421
 24
94.37056741664603
 34
0.0
 50
90.0
100
AcDbRotatedDimension
1001
ACAD
1000
DSTYLE
1002
{
1070
   287
1070
     4
1070
   287
1070
     4
1070
   287
1070
     4
1070
    40
1040
2.399999999999999
1070
    73
1070
     1
1070
    74
1070
     1
1070
    77
1070
     0
1070
   147
1040
0.5
1070
   279
1070
     1
1070
   288
1070
     1
1070
   289
1070
     3
1002
}
  0
DIMENSION
  5
983
330
2
100
AcDbEntity
  8
DIM
 62
     7
370
    30
100
AcDbDimension
  2
*D8
 10
137.8003831291601
 20
50.24806936016715
 30
0.0
 11
157.2995607885985
 21
50.24806936016715
 31
0.0
 70
   160
 71
     5
 42
-1.0
  3
STANDARD
100
AcDbAlignedDimension
 13
145.4243831291601
 23
58.94556741664624
 33
0.0
 14
137.8003831291601
 24
58.94556741664605
 34
0.0
100
AcDbRotatedDimension
1001
ACAD
1000
DSTYLE
1002
{
1070
   287
1070
     4
1070
   287
1070
     4
1070
   287
1070
     4
1070
    40
1040
2.399999999999999
1070
    73
1070
     1
1070
    74
1070
     1
1070
    77
1070
     0
1070
   147
1040
0.5
1070
   279
1070
     1
1070
   288
1070
     1
1070
   289
1070
     3
1002
}
  0
ARC
  5
985
330
2
100
AcDbEntity
  8
LINEWORK
 62
     7
370
    30
100
AcDbCircle
 10
143.5781703637964
 20
66.87049381297683
 30
0.0
 40
0.752962499999997
100
AcDbArc
 50
298.2029473425565
 51
72.18591047291425
  0
ARC
  5
986
330
2
100
AcDbEntity
  8
LINEWORK
 62
     7
370
    30
100
AcDbCircle
 10
139.6465958945239
 20
66.87049381297683
 30
0.0
 40
0.7529625000000071
100
AcDbArc
 50
107.8140895270856
 51
241.7970526574434
  0
LINE
  5
987
330
2
100
AcDbEntity
  8
LINEWORK
  6
PHANTOM
 62
     7
 48
2.0
370
    30
100
AcDbLine
 10
147.6123831291607
 20
58.5705674166463
 30
0.0
 11
135.6123831291597
 21
58.57056741664601
 31
0.0
  0
LINE
  5
988
330
2
100
AcDbEntity
  8
LINEWORK
 62
     7
370
    30
100
AcDbLine
 10
137.8003831291601
 20
58.94556741664605
 30
0.0
 11
145.4243831291601
 21
58.94556741664624
 31
0.0
  0
LINE
  5
989
330
2
100
AcDbEntity
  8
LINEWORK
 62
     7
370
    30
100
AcDbLine
 10
144.9243831291598
 20
62.94556741664624
 30
0.0
 11
138.3003831291601
 21
62.94556741664606
 31
0.0
  0
INSERT
  5
98A
330
2
100
AcDbEntity
  8
LINEWORK
 62
     7
370
    30
100
AcDbBlockReference
 66
     1
  2
PROFILE LOGO
 10
138.0043374440158
 20
60.39252959060799
 30
0.0
 41
0.7000000000000171
 42
0.6999999999999887
 43
0.7
  0
ATTRIB
  5
98B
330
98A
100
AcDbEntity
  8
A1
 62
    22
100
AcDbText
 10
138.1741327859491
 20
59.21772081637342
 30
0.0
 40
0.14888671875
  1
054M
 72
     1
 11
138.4790287277125
 21
59.21772081637342
 31
0.0
100
AcDbAttribute
  2
XXXX
 70
     0
  0
SEQEND
  5
98C
330
98A
100
AcDbEntity
  8
A1
 62
     7
  0
LINE
  5
98D
330
2
100
AcDbEntity
  8
LINEWORK
 62
     7
370
    30
100
AcDbLine
 10
138.7260268791601
 20
65.83044241664615
 30
0.0
 11
141.61238312916
 21
65.83044241664615
 31
0.0
  0
LINE
  5
98E
330
2
100
AcDbEntity
  8
LINEWORK
 62
     7
370
    30
100
AcDbLine
 10
141.61238312916
 20
65.83044241664615
 30
0.0
 11
138.7260268791601
 21
65.83044241664615
 31
0.0
  0
LINE
  5
98F
330
2
100
AcDbEntity
  8
LINEWORK
 62
     7
370
    30
100
AcDbLine
 10
139.2907487541601
 20
65.95593616664618
 30
0.0
 11
138.7260268791601
 21
65.83044241664615
 31
0.0
  0
LINE
  5
990
330
2
100
AcDbEntity
  8
LINEWORK
 62
     7
370
    30
100
AcDbLine
 10
138.7260268791601
 20
65.83044241664615
 30
0.0
 11
139.2907487541601
 21
65.95593616664618
 31
0.0
  0
LINE
  5
991
330
2
100
AcDbEntity
  8
LINEWORK
 62
     7
370
    30
100
AcDbLine
 10
138.7260268791601
 20
63.32056741664619
 30
0.0
 11
144.4987393791601
 21
63.32056741664619
 31
0.0
  0
LINE
  5
992
330
2
100
AcDbEntity
  8
LINEWORK
 62
     7
370
    30
100
AcDbLine
 10
137.8003831291601
 20
62.44556741664606
 30
0.0
 11
137.8003831291601
 21
58.94556741664605
 31
0.0
  0
LINE
  5
993
330
2
100
AcDbEntity
  8
LINEWORK
 62
     7
370
    30
100
AcDbLine
 10
138.7260268791601
 20
65.83044241664615
 30
0.0
 11
138.7260268791601
 21
63.32056741664619
 31
0.0
  0
LINE
  5
994
330
2
100
AcDbEntity
  8
LINEWORK
 62
     7
370
    30
100
AcDbLine
 10
138.7260268791601
 20
63.32056741664619
 30
0.0
 11
138.7260268791601
 21
65.83044241664615
 31
0.0
  0
LINE
  5
995
330
2
100
AcDbEntity
  8
LINEWORK
 62
     7
370
    30
100
AcDbLine
 10
138.3003831291601
 20
62.94556741664606
 30
0.0
 11
137.8003831291601
 21
62.44556741664606
 31
0.0
  0
LINE
  5
996
330
2
100
AcDbEntity
  8
LINEWORK
 62
     7
370
    30
100
AcDbLine
 10
145.4243831291599
 20
62.44556741664624
 30
0.0
 11
145.4243831291601
 21
58.94556741664624
 31
0.0
  0
LINE
  5
997
330
2
100
AcDbEntity
  8
LINEWORK
  6
DASHED
 62
     7
 48
2.0
370
    30
100
AcDbLine
 10
141.3623831291602
 20
65.13056741664619
 30
0.0
 11
141.3623831291602
 21
61.13056741664618
 31
0.0
  0
LINE
  5
998
330
2
100
AcDbEntity
  8
LINEWORK
  6
DASHED
 62
     7
 48
2.0
370
    30
100
AcDbLine
 10
141.8623831291602
 20
61.13056741664618
 30
0.0
 11
141.8623831291602
 21
65.13056741664619
 31
0.0
  0
LINE
  5
999
330
2
100
AcDbEntity
  8
LINEWORK
  6
DASHED
 62
     7
 48
2.0
370
    30
100
AcDbLine
 10
141.3623831291602
 20
61.13056741664618
 30
0.0
 11
141.8623831291602
 21
61.13056741664618
 31
0.0
  0
LINE
  5
99A
330
2
100
AcDbEntity
  8
LINEWORK
 62
     7
370
    30
100
AcDbLine
 10
143.9340175041601
 20
65.95593616664618
 30
0.0
 11
141.61238312916
 21
65.95593616664618
 31
0.0
  0
LINE
  5
99B
330
2
100
AcDbEntity
  8
LINEWORK
 62
     7
370
    30
100
AcDbLine
 10
143.9340175041601
 20
66.20692366664624
 30
0.0
 11
141.61238312916
 21
66.20692366664624
 31
0.0
  0
LINE
  5
99C
330
2
100
AcDbEntity
  8
LINEWORK
 62
     7
370
    30
100
AcDbLine
 10
141.61238312916
 20
65.95593616664618
 30
0.0
 11
143.9340175041601
 21
65.95593616664618
 31
0.0
  0
LINE
  5
99D
330
2
100
AcDbEntity
  8
LINEWORK
 62
     7
370
    30
100
AcDbLine
 10
141.61238312916
 20
66.20692366664624
 30
0.0
 11
143.9340175041601
 21
66.20692366664624
 31
0.0
  0
LINE
  5
99E
330
2
100
AcDbEntity
  8
LINEWORK
 62
     7
370
    30
100
AcDbLine
 10
144.4987393791601
 20
65.83044241664615
 30
0.0
 11
141.61238312916
 21
65.83044241664615
 31
0.0
  0
LINE
  5
99F
330
2
100
AcDbEntity
  8
LINEWORK
 62
     7
370
    30
100
AcDbLine
 10
141.61238312916
 20
65.83044241664615
 30
0.0
 11
144.4987393791601
 21
65.83044241664615
 31
0.0
  0
LINE
  5
9A0
330
2
100
AcDbEntity
  8
LINEWORK
 62
     7
370
    30
100
AcDbLine
 10
139.2907487541601
 20
66.20692366664624
 30
0.0
 11
141.61238312916
 21
66.20692366664624
 31
0.0
  0
LINE
  5
9A1
330
2
100
AcDbEntity
  8
LINEWORK
 62
     7
370
    30
100
AcDbLine
 10
139.2907487541601
 20
65.95593616664618
 30
0.0
 11
141.61238312916
 21
65.95593616664618
 31
0.0
  0
LINE
  5
9A2
330
2
100
AcDbEntity
  8
LINEWORK
 62
     7
370
    30
100
AcDbLine
 10
141.61238312916
 20
66.20692366664624
 30
0.0
 11
139.2907487541601
 21
66.20692366664624
 31
0.0
  0
LINE
  5
9A3
330
2
100
AcDbEntity
  8
LINEWORK
 62
     7
370
    30
100
AcDbLine
 10
141.61238312916
 20
65.95593616664618
 30
0.0
 11
139.2907487541601
 21
65.95593616664618
 31
0.0
  0
LINE
  5
9A4
330
2
100
AcDbEntity
  8
LINEWORK
 62
     7
370
    30
100
AcDbLine
 10
139.2907487541601
 20
66.20692366664624
 30
0.0
 11
139.2907487541601
 21
65.95593616664618
 31
0.0
  0
LINE
  5
9A5
330
2
100
AcDbEntity
  8
LINEWORK
 62
     7
370
    30
100
AcDbLine
 10
139.2907487541601
 20
65.95593616664618
 30
0.0
 11
139.2907487541601
 21
66.20692366664624
 31
0.0
  0
LINE
  5
9A6
330
2
100
AcDbEntity
  8
LINEWORK
  6
DASHED
 62
     7
 48
2.0
370
    30
100
AcDbLine
 10
141.8623831291602
 20
65.13056741664619
 30
0.0
 11
141.3623831291602
 21
65.13056741664619
 31
0.0
  0
LINE
  5
9A7
330
2
100
AcDbEntity
  8
LINEWORK
  6
DASHED
 62
     7
 48
2.0
370
    30
100
AcDbLine
 10
141.8623831291602
 20
65.13056741664619
 30
0.0
 11
141.3623831291602
 21
65.13056741664619
 31
0.0
  0
LINE
  5
9A8
330
2
100
AcDbEntity
  8
LINEWORK
 62
     7
370
    30
100
AcDbLine
 10
144.4987393791601
 20
65.83044241664615
 30
0.0
 11
144.4987393791601
 21
63.32056741664619
 31
0.0
  0
LINE
  5
9A9
330
2
100
AcDbEntity
  8
LINEWORK
 62
     7
370
    30
100
AcDbLine
 10
144.4987393791601
 20
63.32056741664619
 30
0.0
 11
144.4987393791601
 21
65.83044241664615
 31
0.0
  0
LINE
  5
9AA
330
2
100
AcDbEntity
  8
LINEWORK
 62
     7
370
    30
100
AcDbLine
 10
144.9243831291598
 20
62.94556741664624
 30
0.0
 11
145.4243831291599
 21
62.44556741664624
 31
0.0
  0
POINT
  5
9AB
330
2
100
AcDbEntity
  8
LINEWORK
 62
     7
370
    30
100
AcDbPoint
 10
144.4987393791601
 20
63.32056741664619
 30
0.0
  0
LWPOLYLINE
  5
9AC
330
2
100
AcDbEntity
  8
LINEWORK
 62
     7
370
    30
100
AcDbPolyline
 90
        2
 70
     1
 43
0.0
 10
143.9340175041601
 20
65.95593616664618
 10
144.4987393791601
 20
65.83044241664615
  0
LINE
  5
9AD
330
2
100
AcDbEntity
  8
LINEWORK
 62
     7
370
    30
100
AcDbLine
 10
143.9340175041601
 20
66.20692366664624
 30
0.0
 11
143.9340175041601
 21
65.95593616664618
 31
0.0
  0
LINE
  5
9AE
330
2
100
AcDbEntity
  8
LINEWORK
 62
     7
370
    30
100
AcDbLine
 10
143.9340175041601
 20
65.95593616664618
 30
0.0
 11
143.9340175041601
 21
66.20692366664624
 31
0.0
  0
LINE
  5
9AF
330
2
100
AcDbEntity
  8
LINEWORK
  6
PHANTOM
 62
     7
 48
4.0
370
    30
100
AcDbLine
 10
135.6690085172774
 20
94.37056741664603
 30
0.0
 11
147.5557577410421
 21
94.37056741664603
 31
0.0
  0
ARC
  5
9B1
330
2
100
AcDbEntity
  8
LINEWORK
370
    30
100
AcDbCircle
 10
145.5373831291604
 20
89.69556741664575
 30
0.0
 40
0.5500000000002502
100
AcDbArc
 50
89.99999999997395
 51
179.9999999999739
  0
LINE
  5
9B2
330
2
100
AcDbEntity
  8
LINEWORK
  6
DASHED
 62
     7
 48
2.0
370
    30
100
AcDbLine
 10
141.3623831291602
 20
87.51056741664744
 30
0.0
 11
141.3623831291602
 21
91.51056741664744
 31
0.0
  0
LINE
  5
9B3
330
2
100
AcDbEntity
  8
LINEWORK
  6
DASHED
 62
     7
 48
2.0
370
    30
100
AcDbLine
 10
141.8623831291602
 20
91.51056741664744
 30
0.0
 11
141.8623831291602
 21
87.51056741664744
 31
0.0
  0
LINE
  5
9B4
330
2
100
AcDbEntity
  8
LINEWORK
 62
     7
370
    30
100
AcDbLine
 10
138.7260268791602
 20
89.32056741664618
 30
0.0
 11
138.7260268791601
 21
87.16437991664614
 31
0.0
  0
LINE
  5
9B5
330
2
100
AcDbEntity
  8
LINEWORK
 62
     7
370
    30
100
AcDbLine
 10
138.7260268791601
 20
87.16437991664614
 30
0.0
 11
138.7260268791602
 21
89.32056741664618
 31
0.0
  0
LINE
  5
9B6
330
2
100
AcDbEntity
  8
LINEWORK
 62
     7
370
    30
100
AcDbLine
 10
144.4987393791601
 20
89.32056741664618
 30
0.0
 11
144.4987393791601
 21
87.16437991664614
 31
0.0
  0
LINE
  5
9B7
330
2
100
AcDbEntity
  8
LINEWORK
 62
     7
370
    30
100
AcDbLine
 10
144.4987393791601
 20
87.16437991664614
 30
0.0
 11
144.4987393791601
 21
89.32056741664618
 31
0.0
  0
ARC
  5
9B8
330
2
100
AcDbEntity
  8
LINEWORK
 62
     7
370
    30
100
AcDbCircle
 10
129.8353632032528
 20
71.28094257774037
 30
0.0
 40
15.21611718749983
100
AcDbArc
 50
19.54686554134467
 51
25.69286435959128
  0
ARC
  5
9B9
330
2
100
AcDbEntity
  8
LINEWORK
 62
     7
370
    30
100
AcDbCircle
 10
153.3894030550674
 20
71.28094257774037
 30
0.0
 40
15.2161171874998
100
AcDbArc
 50
154.3071356404087
 51
160.4531344586553
  0
ARC
  5
9BA
330
2
100
AcDbEntity
  8
LINEWORK
 62
     7
370
    30
100
AcDbCircle
 10
142.6041189797447
 20
74.30262221188335
 30
0.0
 40
3.858932812500603
100
AcDbArc
 50
179.0883918675776
 51
229.8694558705641
  0
ARC
  5
9BB
330
2
100
AcDbEntity
  8
LINEWORK
 62
     7
370
    30
100
AcDbCircle
 10
142.6031463522181
 20
74.30217939199505
 30
0.0
 40
3.857967380510689
100
AcDbArc
 50
179.081586440103
 51
229.876261298032
  0
ARC
  5
9BC
330
2
100
AcDbEntity
  8
LINEWORK
 62
     7
370
    30
100
AcDbCircle
 10
144.0746698828738
 20
74.58279764038199
 30
0.0
 40
5.333484374999923
100
AcDbArc
 50
160.4000676171815
 51
182.3509399547389
  0
ARC
  5
9BD
330
2
100
AcDbEntity
  8
LINEWORK
 62
     7
370
    30
100
AcDbCircle
 10
144.0711981433522
 20
74.5833242099732
 30
0.0
 40
5.330037199451427
100
AcDbArc
 50
160.3928811039779
 51
182.3581264680185
  0
ARC
  5
9BE
330
2
100
AcDbEntity
  8
LINEWORK
 62
     7
370
    30
100
AcDbCircle
 10
140.6206472785756
 20
74.30262221188335
 30
0.0
 40
3.858932812500603
100
AcDbArc
 50
310.1305441294356
 51
0.9116081324222998
  0
ARC
  5
9BF
330
2
100
AcDbEntity
  8
LINEWORK
 62
     7
370
    30
100
AcDbCircle
 10
140.6216199061021
 20
74.30217939199505
 30
0.0
 40
3.857967380510689
100
AcDbArc
 50
310.1237387019679
 51
0.9184135598969776
  0
LINE
  5
9C0
330
2
100
AcDbEntity
  8
LINEWORK
 62
     7
370
    30
100
AcDbLine
 10
143.80852375416
 20
68.21482366664625
 30
0.0
 11
141.61238312916
 21
68.21482366664625
 31
0.0
  0
LINE
  5
9C1
330
2
100
AcDbEntity
  8
LINEWORK
 62
     7
370
    30
100
AcDbLine
 10
141.61238312916
 20
68.21482366664614
 30
0.0
 11
143.80852375416
 21
68.21482366664614
 31
0.0
  0
LINE
  5
9C2
330
2
100
AcDbEntity
  8
LINEWORK
 62
     7
370
    30
100
AcDbLine
 10
141.61238312916
 20
67.58735491664626
 30
0.0
 11
143.8085237541602
 21
67.58735491664626
 31
0.0
  0
LINE
  5
9C3
330
2
100
AcDbEntity
  8
LINEWORK
 62
     7
370
    30
100
AcDbLine
 10
141.61238312916
 20
67.58735491664615
 30
0.0
 11
143.80852375416
 21
67.58735491664615
 31
0.0
  0
LINE
  5
9C4
330
2
100
AcDbEntity
  8
LINEWORK
 62
     7
370
    30
100
AcDbLine
 10
143.1078503166601
 20
70.34821741664618
 30
0.0
 11
141.61238312916
 21
70.34821741664618
 31
0.0
  0
LINE
  5
9C5
330
2
100
AcDbEntity
  8
LINEWORK
 62
     7
370
    30
100
AcDbLine
 10
141.61238312916
 20
70.34821741664618
 30
0.0
 11
143.1078503166601
 21
70.34821741664618
 31
0.0
  0
LINE
  5
9C6
330
2
100
AcDbEntity
  8
LINEWORK
 62
     7
370
    30
100
AcDbLine
 10
141.61238312916
 20
71.35216741664627
 30
0.0
 11
143.1078503166601
 21
71.35216741664627
 31
0.0
  0
LINE
  5
9C7
330
2
100
AcDbEntity
  8
LINEWORK
 62
     7
370
    30
100
AcDbLine
 10
141.61238312916
 20
71.35216741664615
 30
0.0
 11
143.1078503166601
 21
71.35216741664615
 31
0.0
  0
ARC
  5
9C8
330
2
100
AcDbEntity
  8
LINEWORK
 62
     7
370
    30
100
AcDbCircle
 10
137.4000274910201
 20
69.85742327376678
 30
0.0
 40
2.760862499999871
100
AcDbArc
 50
339.8207155174581
 51
10.23980302638196
  0
ARC
  5
9C9
330
2
100
AcDbEntity
  8
LINEWORK
 62
     7
370
    30
100
AcDbCircle
 10
137.396485406889
 20
69.85773128108277
 30
0.0
 40
2.764293570461533
100
AcDbArc
 50
339.8400491762123
 51
10.22046936756234
  0
LINE
  5
9CA
330
2
100
AcDbEntity
  8
LINEWORK
 62
     7
370
    30
100
AcDbLine
 10
139.41624250416
 20
68.21482366664625
 30
0.0
 11
141.61238312916
 21
68.21482366664625
 31
0.0
  0
LINE
  5
9CB
330
2
100
AcDbEntity
  8
LINEWORK
 62
     7
370
    30
100
AcDbLine
 10
141.61238312916
 20
67.58735491664626
 30
0.0
 11
139.41624250416
 21
67.58735491664626
 31
0.0
  0
LINE
  5
9CC
330
2
100
AcDbEntity
  8
LINEWORK
 62
     7
370
    30
100
AcDbLine
 10
141.61238312916
 20
68.21482366664614
 30
0.0
 11
139.41624250416
 21
68.21482366664614
 31
0.0
  0
LINE
  5
9CD
330
2
100
AcDbEntity
  8
LINEWORK
 62
     7
370
    30
100
AcDbLine
 10
141.61238312916
 20
67.58735491664615
 30
0.0
 11
139.41624250416
 21
67.58735491664615
 31
0.0
  0
LINE
  5
9CE
330
2
100
AcDbEntity
  8
LINEWORK
 62
     7
370
    30
100
AcDbLine
 10
139.41624250416
 20
67.58735491664626
 30
0.0
 11
139.41624250416
 21
68.21482366664625
 31
0.0
  0
LINE
  5
9CF
330
2
100
AcDbEntity
  8
LINEWORK
 62
     7
370
    30
100
AcDbLine
 10
139.41624250416
 20
68.21482366664614
 30
0.0
 11
139.41624250416
 21
67.58735491664615
 31
0.0
  0
ARC
  5
9D0
330
2
100
AcDbEntity
  8
LINEWORK
 62
     7
370
    30
100
AcDbCircle
 10
138.4239476291868
 20
69.62650207808244
 30
0.0
 40
1.725539062499979
100
AcDbArc
 50
305.1040931533556
 51
335.2847646621123
  0
LINE
  5
9D1
330
2
100
AcDbEntity
  8
LINEWORK
 62
     7
370
    30
100
AcDbLine
 10
140.1169159416601
 20
70.34821741664618
 30
0.0
 11
141.61238312916
 21
70.34821741664618
 31
0.0
  0
LINE
  5
9D2
330
2
100
AcDbEntity
  8
LINEWORK
 62
     7
370
    30
100
AcDbLine
 10
141.61238312916
 20
70.34821741664618
 30
0.0
 11
140.1169159416601
 21
70.34821741664618
 31
0.0
  0
LINE
  5
9D3
330
2
100
AcDbEntity
  8
LINEWORK
 62
     7
370
    30
100
AcDbLine
 10
141.61238312916
 20
71.35216741664627
 30
0.0
 11
140.1169159416601
 21
71.35216741664627
 31
0.0
  0
LINE
  5
9D4
330
2
100
AcDbEntity
  8
LINEWORK
 62
     7
370
    30
100
AcDbLine
 10
141.61238312916
 20
71.35216741664615
 30
0.0
 11
140.1169159416601
 21
71.35216741664615
 31
0.0
  0
ARC
  5
9D5
330
2
100
AcDbEntity
  8
LINEWORK
 62
     7
370
    30
100
AcDbCircle
 10
140.4383980110849
 20
70.85019241664841
 30
0.0
 40
0.5960953125000341
100
AcDbArc
 50
122.6368975039398
 51
237.3631024959575
  0
ARC
  5
9D6
330
2
100
AcDbEntity
  8
LINEWORK
 62
     7
370
    30
100
AcDbCircle
 10
145.8247387673
 20
69.85742327376678
 30
0.0
 40
2.760862499999871
100
AcDbArc
 50
169.760196973618
 51
200.1792844825418
  0
ARC
  5
9D7
330
2
100
AcDbEntity
  8
LINEWORK
 62
     7
370
    30
100
AcDbCircle
 10
145.8282808514312
 20
69.85773128108277
 30
0.0
 40
2.764293570461533
100
AcDbArc
 50
169.7795306324376
 51
200.159950823786
  0
ARC
  5
9D8
330
2
100
AcDbEntity
  8
LINEWORK
 62
     7
370
    30
100
AcDbCircle
 10
144.8008186291334
 20
69.62650207808232
 30
0.0
 40
1.725539062499889
100
AcDbArc
 50
204.7152353378864
 51
234.8959068466442
  0
LINE
  5
9D9
330
2
100
AcDbEntity
  8
LINEWORK
 62
     7
370
    30
100
AcDbLine
 10
143.8085237541602
 20
67.58735491664626
 30
0.0
 11
143.80852375416
 21
68.21482366664625
 31
0.0
  0
LINE
  5
9DA
330
2
100
AcDbEntity
  8
LINEWORK
 62
     7
370
    30
100
AcDbLine
 10
143.80852375416
 20
68.21482366664614
 30
0.0
 11
143.80852375416
 21
67.58735491664615
 31
0.0
  0
ARC
  5
9DB
330
2
100
AcDbEntity
  8
LINEWORK
 62
     7
370
    30
100
AcDbCircle
 10
142.7863682472353
 20
70.85019241664841
 30
0.0
 40
0.5960953125000341
100
AcDbArc
 50
302.6368975040365
 51
57.36310249606014
  0
ARC
  5
9DC
330
2
100
AcDbEntity
  8
LINEWORK
 62
     7
370
    30
100
AcDbCircle
 10
139.1500963754464
 20
74.58279764038199
 30
0.0
 40
5.333484374999923
100
AcDbArc
 50
357.649060045261
 51
19.59993238281846
  0
ARC
  5
9DD
330
2
100
AcDbEntity
  8
LINEWORK
 62
     7
370
    30
100
AcDbCircle
 10
139.1535681149681
 20
74.5833242099732
 30
0.0
 40
5.330037199451427
100
AcDbArc
 50
357.6418735319815
 51
19.60711889602341
  0
ARC
  5
9DE
330
2
100
AcDbEntity
  8
LINEWORK
 62
     7
370
    30
100
AcDbCircle
 10
140.4275988357965
 20
86.93915064310081
 30
0.0
 40
1.631418750000056
100
AcDbArc
 50
176.4950813054349
 51
249.8619420133485
  0
LINE
  5
9DF
330
2
100
AcDbEntity
  8
LINEWORK
 62
     7
370
    30
100
AcDbLine
 10
141.61238312916
 20
87.16437991664614
 30
0.0
 11
138.7260268791601
 21
87.16437991664614
 31
0.0
  0
LINE
  5
9E0
330
2
100
AcDbEntity
  8
LINEWORK
 62
     7
370
    30
100
AcDbLine
 10
141.61238312916
 20
87.16437991664614
 30
0.0
 11
138.7260268791601
 21
87.16437991664614
 31
0.0
  0
LINE
  5
9E1
330
2
100
AcDbEntity
  8
LINEWORK
 62
     7
370
    30
100
AcDbLine
 10
139.8659284416601
 20
81.6426549166462
 30
0.0
 11
139.8659284416601
 21
82.39561741664621
 31
0.0
  0
LINE
  5
9E2
330
2
100
AcDbEntity
  8
LINEWORK
 62
     7
370
    30
100
AcDbLine
 10
139.8659284416601
 20
81.6426549166462
 30
0.0
 11
139.8659284416601
 21
82.39561741664621
 31
0.0
  0
LINE
  5
9E3
330
2
100
AcDbEntity
  8
LINEWORK
 62
     7
370
    30
100
AcDbLine
 10
143.3588378166601
 20
81.6426549166462
 30
0.0
 11
143.3588378166601
 21
82.39561741664621
 31
0.0
  0
LINE
  5
9E4
330
2
100
AcDbEntity
  8
LINEWORK
 62
     7
370
    30
100
AcDbLine
 10
143.3588378166601
 20
81.6426549166462
 30
0.0
 11
143.3588378166601
 21
82.39561741664621
 31
0.0
  0
LINE
  5
9E5
330
2
100
AcDbEntity
  8
LINEWORK
 62
     7
370
    30
100
AcDbLine
 10
143.2333440666601
 20
81.51716116664628
 30
0.0
 11
141.61238312916
 21
81.51716116664616
 31
0.0
  0
LINE
  5
9E6
330
2
100
AcDbEntity
  8
LINEWORK
 62
     7
370
    30
100
AcDbLine
 10
141.61238312916
 20
81.6426549166462
 30
0.0
 11
143.3588378166601
 21
81.6426549166462
 31
0.0
  0
LINE
  5
9E7
330
2
100
AcDbEntity
  8
LINEWORK
 62
     7
370
    30
100
AcDbLine
 10
141.61238312916
 20
81.51716116664616
 30
0.0
 11
143.2333440666601
 21
81.51716116664616
 31
0.0
  0
LINE
  5
9E8
330
2
100
AcDbEntity
  8
LINEWORK
 62
     7
370
    30
100
AcDbLine
 10
143.3588378166601
 20
81.6426549166462
 30
0.0
 11
141.61238312916
 21
81.6426549166462
 31
0.0
  0
ARC
  5
9E9
330
2
100
AcDbEntity
  8
LINEWORK
 62
     7
370
    30
100
AcDbCircle
 10
112.3593172856675
 20
80.85663706470544
 30
0.0
 40
27.63999843750035
100
AcDbArc
 50
355.902794411471
 51
1.369350525323726
  0
ARC
  5
9EA
330
2
100
AcDbEntity
  8
LINEWORK
 62
     7
370
    30
100
AcDbCircle
 10
112.3646971315634
 20
80.85650897313659
 30
0.0
 40
27.63462319024747
100
AcDbArc
 50
355.9022623541394
 51
1.36988258265595
  0
ARC
  5
9EB
330
2
100
AcDbEntity
  8
LINEWORK
 62
     7
370
    30
100
AcDbCircle
 10
137.7012852090604
 20
78.90529150604615
 30
0.0
 40
2.227514062500199
100
AcDbArc
 50
332.5319642964282
 51
359.3955487677153
  0
ARC
  5
9EC
330
2
100
AcDbEntity
  8
LINEWORK
 62
     7
370
    30
100
AcDbCircle
 10
137.7011612541601
 20
78.90532249477124
 30
0.0
 40
2.22763833761492
100
AcDbArc
 50
332.5327276613888
 51
359.3947854027546
  0
LINE
  5
9ED
330
2
100
AcDbEntity
  8
LINEWORK
 62
     7
370
    30
100
AcDbLine
 10
139.9914221916601
 20
81.51716116664628
 30
0.0
 11
141.61238312916
 21
81.51716116664616
 31
0.0
  0
LINE
  5
9EE
330
2
100
AcDbEntity
  8
LINEWORK
 62
     7
370
    30
100
AcDbLine
 10
141.61238312916
 20
81.6426549166462
 30
0.0
 11
139.8659284416601
 21
81.6426549166462
 31
0.0
  0
LINE
  5
9EF
330
2
100
AcDbEntity
  8
LINEWORK
 62
     7
370
    30
100
AcDbLine
 10
139.8659284416601
 20
81.6426549166462
 30
0.0
 11
141.61238312916
 21
81.6426549166462
 31
0.0
  0
LINE
  5
9F0
330
2
100
AcDbEntity
  8
LINEWORK
 62
     7
370
    30
100
AcDbLine
 10
141.61238312916
 20
81.51716116664616
 30
0.0
 11
139.9914221916601
 21
81.51716116664616
 31
0.0
  0
LINE
  5
9F1
330
2
100
AcDbEntity
  8
LINEWORK
 62
     7
370
    30
100
AcDbLine
 10
139.8659284416601
 20
81.6426549166462
 30
0.0
 11
139.9914221916601
 21
81.51716116664616
 31
0.0
  0
LINE
  5
9F2
330
2
100
AcDbEntity
  8
LINEWORK
 62
     7
370
    30
100
AcDbLine
 10
139.8659284416601
 20
81.6426549166462
 30
0.0
 11
139.9914221916601
 21
81.51716116664616
 31
0.0
  0
ARC
  5
9F3
330
2
100
AcDbEntity
  8
LINEWORK
 62
     7
370
    30
100
AcDbCircle
 10
170.8654489726527
 20
80.85663706470544
 30
0.0
 40
27.63999843750035
100
AcDbArc
 50
178.6306494746762
 51
184.0972055885289
  0
ARC
  5
9F4
330
2
100
AcDbEntity
  8
LINEWORK
 62
     7
370
    30
100
AcDbCircle
 10
170.8600691267569
 20
80.85650897313659
 30
0.0
 40
27.63462319024747
100
AcDbArc
 50
178.630117417344
 51
184.0977376458606
  0
ARC
  5
9F5
330
2
100
AcDbEntity
  8
LINEWORK
 62
     7
370
    30
100
AcDbCircle
 10
145.5234810492599
 20
78.90529150604615
 30
0.0
 40
2.22751406250017
100
AcDbArc
 50
180.6044512322847
 51
207.4680357035692
  0
ARC
  5
9F6
330
2
100
AcDbEntity
  8
LINEWORK
 62
     7
370
    30
100
AcDbCircle
 10
145.5236050041601
 20
78.90532249477124
 30
0.0
 40
2.22763833761492
100
AcDbArc
 50
180.6052145972454
 51
207.467272338611
  0
LINE
  5
9F7
330
2
100
AcDbEntity
  8
LINEWORK
 62
     7
370
    30
100
AcDbLine
 10
143.3588378166601
 20
81.6426549166462
 30
0.0
 11
143.2333440666601
 21
81.51716116664616
 31
0.0
  0
LINE
  5
9F8
330
2
100
AcDbEntity
  8
LINEWORK
 62
     7
370
    30
100
AcDbLine
 10
143.3588378166601
 20
81.6426549166462
 30
0.0
 11
143.2333440666601
 21
81.51716116664616
 31
0.0
  0
LINE
  5
9F9
330
2
100
AcDbEntity
  8
LINEWORK
 62
     7
370
    30
100
AcDbLine
 10
143.3588378166601
 20
82.39561741664621
 30
0.0
 11
139.8659284416601
 21
82.39561741664621
 31
0.0
  0
LINE
  5
9FA
330
2
100
AcDbEntity
  8
LINEWORK
 62
     7
370
    30
100
AcDbLine
 10
139.8659284416601
 20
82.39561741664621
 30
0.0
 11
143.3588378166601
 21
82.39561741664621
 31
0.0
  0
LINE
  5
9FB
330
2
100
AcDbEntity
  8
LINEWORK
 62
     7
370
    30
100
AcDbLine
 10
141.61238312916
 20
87.03888616664617
 30
0.0
 11
144.4255346916601
 21
87.03888616664627
 31
0.0
  0
LINE
  5
9FC
330
2
100
AcDbEntity
  8
LINEWORK
 62
     7
370
    30
100
AcDbLine
 10
144.4255346916601
 20
87.03888616664627
 30
0.0
 11
141.61238312916
 21
87.03888616664617
 31
0.0
  0
LINE
  5
9FD
330
2
100
AcDbEntity
  8
LINEWORK
 62
     7
370
    30
100
AcDbLine
 10
141.61238312916
 20
87.16437991664614
 30
0.0
 11
144.4987393791601
 21
87.16437991664614
 31
0.0
  0
LINE
  5
9FE
330
2
100
AcDbEntity
  8
LINEWORK
 62
     7
370
    30
100
AcDbLine
 10
141.61238312916
 20
87.16437991664614
 30
0.0
 11
144.4987393791601
 21
87.16437991664614
 31
0.0
  0
LINE
  5
9FF
330
2
100
AcDbEntity
  8
LINEWORK
 62
     7
370
    30
100
AcDbLine
 10
139.8659284416601
 20
85.40746741664619
 30
0.0
 11
143.3588378166601
 21
85.40746741664619
 31
0.0
  0
LINE
  5
A00
330
2
100
AcDbEntity
  8
LINEWORK
 62
     7
370
    30
100
AcDbLine
 10
143.3588378166601
 20
85.40746741664619
 30
0.0
 11
139.8659284416601
 21
85.40746741664619
 31
0.0
  0
LINE
  5
A01
330
2
100
AcDbEntity
  8
LINEWORK
 62
     7
370
    30
100
AcDbLine
 10
139.8659284416601
 20
84.77999866664621
 30
0.0
 11
143.3588378166601
 21
84.77999866664621
 31
0.0
  0
LINE
  5
A02
330
2
100
AcDbEntity
  8
LINEWORK
 62
     7
370
    30
100
AcDbLine
 10
139.8659284416601
 20
84.77999866664621
 30
0.0
 11
143.3588378166601
 21
84.77999866664621
 31
0.0
  0
LINE
  5
A03
330
2
100
AcDbEntity
  8
LINEWORK
 62
     7
370
    30
100
AcDbLine
 10
139.86592844166
 20
83.52506116664617
 30
0.0
 11
143.3588378166601
 21
83.52506116664617
 31
0.0
  0
LINE
  5
A04
330
2
100
AcDbEntity
  8
LINEWORK
 62
     7
370
    30
100
AcDbLine
 10
139.8659284416601
 20
84.77999866664621
 30
0.0
 11
139.8659284416601
 21
85.40746741664619
 31
0.0
  0
LINE
  5
A05
330
2
100
AcDbEntity
  8
LINEWORK
 62
     7
370
    30
100
AcDbLine
 10
139.8659284416601
 20
84.77999866664621
 30
0.0
 11
139.8659284416601
 21
85.40746741664619
 31
0.0
  0
ARC
  5
A06
330
2
100
AcDbEntity
  8
LINEWORK
 62
     7
370
    30
100
AcDbCircle
 10
140.3639663220494
 20
82.96033929164613
 30
0.0
 40
0.7529625000000308
100
AcDbArc
 50
131.4096221092688
 51
228.590377890729
  0
ARC
  5
A07
330
2
100
AcDbEntity
  8
LINEWORK
 62
     7
370
    30
100
AcDbCircle
 10
138.9647950558801
 20
84.15252991664621
 30
0.0
 40
1.098070312499993
100
AcDbArc
 50
325.1500954209546
 51
34.84990457904538
  0
LINE
  5
A08
330
2
100
AcDbEntity
  8
LINEWORK
 62
     7
370
    30
100
AcDbLine
 10
141.61238312916
 20
87.03888616664627
 30
0.0
 11
138.7992315666601
 21
87.03888616664627
 31
0.0
  0
LINE
  5
A09
330
2
100
AcDbEntity
  8
LINEWORK
 62
     7
370
    30
100
AcDbLine
 10
141.61238312916
 20
87.03888616664617
 30
0.0
 11
138.7992315666601
 21
87.03888616664617
 31
0.0
  0
LINE
  5
A0A
330
2
100
AcDbEntity
  8
LINEWORK
  6
DASHED
 62
     7
 48
2.0
370
    30
100
AcDbLine
 10
141.8623831291602
 20
87.51056741664744
 30
0.0
 11
141.3623831291602
 21
87.51056741664744
 31
0.0
  0
LINE
  5
A0B
330
2
100
AcDbEntity
  8
LINEWORK
  6
DASHED
 62
     7
 48
2.0
370
    30
100
AcDbLine
 10
141.8623831291602
 20
87.51056741664744
 30
0.0
 11
141.3623831291602
 21
87.51056741664744
 31
0.0
  0
LINE
  5
A0C
330
2
100
AcDbEntity
  8
LINEWORK
  6
DASHED
 62
     7
 48
2.0
370
    30
100
AcDbLine
 10
141.724393152921
 20
87.51056741664744
 30
0.0
 11
141.3623831291602
 21
87.51056741664744
 31
0.0
  0
LINE
  5
A0D
330
2
100
AcDbEntity
  8
LINEWORK
 62
     7
370
    30
100
AcDbLine
 10
143.3588378166601
 20
84.77999866664621
 30
0.0
 11
143.3588378166601
 21
85.40746741664619
 31
0.0
  0
LINE
  5
A0E
330
2
100
AcDbEntity
  8
LINEWORK
 62
     7
370
    30
100
AcDbLine
 10
143.3588378166601
 20
84.77999866664621
 30
0.0
 11
143.3588378166601
 21
85.40746741664619
 31
0.0
  0
ARC
  5
A0F
330
2
100
AcDbEntity
  8
LINEWORK
 62
     7
370
    30
100
AcDbCircle
 10
142.8607999362707
 20
82.96033929164613
 30
0.0
 40
0.7529625000000308
100
AcDbArc
 50
311.4096221092709
 51
48.5903778907312
  0
ARC
  5
A10
330
2
100
AcDbEntity
  8
LINEWORK
 62
     7
370
    30
100
AcDbCircle
 10
144.2599712024401
 20
84.15252991664621
 30
0.0
 40
1.09807031250002
100
AcDbArc
 50
145.1500954209546
 51
214.8499045790453
  0
ARC
  5
A11
330
2
100
AcDbEntity
  8
LINEWORK
 62
     7
370
    30
100
AcDbCircle
 10
144.2686675041601
 20
84.15252991664621
 30
0.0
 40
1.105218119867257
100
AcDbArc
 50
145.4077113124902
 51
214.5922886875097
  0
ARC
  5
A12
330
2
100
AcDbEntity
  8
LINEWORK
 62
     7
370
    30
100
AcDbCircle
 10
142.7971674225237
 20
86.93915064310081
 30
0.0
 40
1.631418750000088
100
AcDbArc
 50
290.1380579866514
 51
3.504918694565053
  0
LINE
  5
A13
330
2
100
AcDbEntity
  8
LINEWORK
 62
     7
370
    30
100
AcDbLine
 10
144.4987393791601
 20
87.16437991664614
 30
0.0
 11
144.4255346916601
 21
87.03888616664627
 31
0.0
  0
LINE
  5
A14
330
2
100
AcDbEntity
  8
LINEWORK
 62
     7
370
    30
100
AcDbLine
 10
144.4987393791601
 20
87.16437991664614
 30
0.0
 11
144.4255346916601
 21
87.03888616664617
 31
0.0
  0
LINE
  5
A15
330
2
100
AcDbEntity
  8
LINEWORK
 62
     7
370
    30
100
AcDbLine
 10
144.9873831291601
 20
89.69556741664598
 30
0.0
 11
138.2373831291601
 21
89.69556741664575
 31
0.0
  0
LINE
  5
A17
330
2
100
AcDbEntity
  8
LINEWORK
 62
     7
370
    30
100
AcDbLine
 10
144.4987393791601
 20
89.32056741664618
 30
0.0
 11
138.7260268791602
 21
89.32056741664618
 31
0.0
  0
LINE
  5
A18
330
2
100
AcDbEntity
  8
LINEWORK
 62
     7
370
    30
100
AcDbLine
 10
135.4873831291632
 20
92.58306741664592
 30
0.0
 11
135.4690115404561
 21
93.54556741664589
 31
0.0
  0
ARC
  5
A19
330
2
100
AcDbEntity
  8
LINEWORK
370
    30
100
AcDbCircle
 10
137.2004891095251
 20
92.0934055987089
 30
0.0
 40
1.299371506374636
100
AcDbArc
 50
185.701547859384
 51
267.2162470626179
  0
ARC
  5
A1A
330
2
100
AcDbEntity
  8
LINEWORK
370
    30
100
AcDbCircle
 10
135.117092625257
 20
91.87959054048405
 30
0.0
 40
0.7949809888151388
100
AcDbArc
 50
6.118045468726062
 51
62.23893912946982
  0
ARC
  5
A1B
330
2
100
AcDbEntity
  8
LINEWORK
370
    30
100
AcDbCircle
 10
137.6873831291599
 20
89.69556741664575
 30
0.0
 40
0.5500000000002502
100
AcDbArc
 50
0.0000000000260551
 51
90.00000000002605
  0
INSERT
  5
A1C
330
2
100
AcDbEntity
  8
LINEWORK
 62
     7
370
    30
100
AcDbBlockReference
 66
     1
  2
PROFILE LOGO
 10
136.6173500850045
 20
92.33548218813217
 30
0.0
 41
0.7150000000000034
 42
0.7149999999999786
 43
0.715000000000001
  0
ATTRIB
  5
A1D
330
A1C
100
AcDbEntity
  8
A1
 62
    22
100
AcDbText
 10
136.8208005433697
 20
91.13549894016404
 30
0.0
 40
0.1520771484375002
  1
0175
 72
     1
 11
137.1022133247803
 21
91.13549894016404
 31
0.0
100
AcDbAttribute
  2
XXXX
 70
     0
  0
SEQEND
  5
A1E
330
A1C
100
AcDbEntity
  8
A1
 62
     7
  0
LINE
  5
A1F
330
2
100
AcDbEntity
  8
LINEWORK
 62
     7
370
    30
100
AcDbLine
 10
137.6873831291596
 20
90.24556741664602
 30
0.0
 11
137.1373831291597
 21
90.245567416646
 31
0.0
  0
LINE
  5
A20
330
2
100
AcDbEntity
  8
LINEWORK
370
    30
100
AcDbLine
 10
137.1373831291597
 20
90.245567416646
 30
0.0
 11
137.1373831291597
 21
90.79556741664601
 31
0.0
  0
INSERT
  5
A21
330
2
100
AcDbEntity
  8
LINEWORK
 62
     7
370
    30
100
AcDbBlockReference
 66
     1
  2
PROFILE LOGO
 10
138.9311436682544
 20
89.13582242918257
 30
0.0
 41
0.7000000000000171
 42
0.6999999999999887
 43
0.7
  0
ATTRIB
  5
A22
330
A21
100
AcDbEntity
  8
A1
 62
    22
100
AcDbText
 10
139.1303259351855
 20
87.961013654948
 30
0.0
 40
0.14888671875
  1
0995
 72
     1
 11
139.4058349519511
 21
87.961013654948
 31
0.0
100
AcDbAttribute
  2
XXXX
 70
     0
  0
SEQEND
  5
A23
330
A21
100
AcDbEntity
  8
A1
 62
     7
  0
LINE
  5
A24
330
2
100
AcDbEntity
  8
LINEWORK
  6
DASHED
 62
     7
 48
2.0
370
    30
100
AcDbLine
 10
141.3623831291602
 20
91.51056741664744
 30
0.0
 11
141.8623831291602
 21
91.51056741664744
 31
0.0
  0
POINT
  5
A25
330
2
100
AcDbEntity
  8
LINEWORK
 62
     1
370
    30
100
AcDbPoint
 10
144.4987393791601
 20
89.42326741664627
 30
0.0
  0
LINE
  5
A26
330
2
100
AcDbEntity
  8
LINEWORK
 62
     7
370
    30
100
AcDbLine
 10
147.7373831291571
 20
92.58306741664592
 30
0.0
 11
147.7557547178642
 21
93.54556741664589
 31
0.0
  0
ARC
  5
A27
330
2
100
AcDbEntity
  8
LINEWORK
370
    30
100
AcDbCircle
 10
146.0242771487952
 20
92.0934055987089
 30
0.0
 40
1.299371506374636
100
AcDbArc
 50
272.783752937382
 51
354.2984521406158
  0
LINE
  5
A28
330
2
100
AcDbEntity
  8
LINEWORK
 62
     7
370
    30
100
AcDbLine
 10
146.0873831291606
 20
90.245567416646
 30
0.0
 11
145.5373831291606
 21
90.24556741664602
 31
0.0
  0
LINE
  5
A29
330
2
100
AcDbEntity
  8
LINEWORK
370
    30
100
AcDbLine
 10
146.0873831291606
 20
90.245567416646
 30
0.0
 11
146.0873831291606
 21
90.79556741664601
 31
0.0
  0
ARC
  5
A2A
330
2
100
AcDbEntity
  8
LINEWORK
370
    30
100
AcDbCircle
 10
148.1076736330632
 20
91.87959054048405
 30
0.0
 40
0.7949809888151388
100
AcDbArc
 50
117.7610608705301
 51
173.8819545312739
  0
DIMENSION
  5
AA2
330
2
100
AcDbEntity
  8
DIM
 62
     7
370
    30
100
AcDbDimension
  2
*D9
 10
105.304500678665
 20
34.07410950805291
 30
0.0
 11
81.33238257437744
 21
34.07410950805291
 31
0.0
 70
   160
  1
VARIES
 71
     5
 42
-1.0
  3
STANDARD
100
AcDbAlignedDimension
 13
56.59270142549281
 23
40.95078453960856
 33
0.0
 14
105.304500678665
 24
58.94556741664601
 34
0.0
100
AcDbRotatedDimension
1001
ACAD
1000
DSTYLE
1002
{
1070
   287
1070
     4
1070
   287
1070
     4
1070
    40
1040
2.399999999999999
1070
    73
1070
     1
1070
    74
1070
     1
1070
    77
1070
     0
1070
   147
1040
0.5
1070
   279
1070
     1
1070
   288
1070
     1
1070
   289
1070
     3
1002
}
  0
DIMENSION
  5
ABB
330
2
100
AcDbEntity
  8
DIM
 62
     7
370
    30
100
AcDbDimension
  2
*D10
 10
84.97940999955735
 20
42.35874539042322
 30
0.0
 11
95.92736413451524
 21
42.35874539042322
 31
0.0
 70
   160
  1
7 3/8"
 71
     5
 42
-1.0
  3
STANDARD
100
AcDbAlignedDimension
 13
77.50994089191656
 23
48.93742810388889
 33
0.0
 14
84.97940999955735
 24
53.24992810388889
 34
0.0
100
AcDbRotatedDimension
1001
ACAD
1000
DSTYLE
1002
{
1070
   287
1070
     4
1070
   287
1070
     4
1070
    40
1040
2.399999999999999
1070
    73
1070
     1
1070
    74
1070
     1
1070
    77
1070
     0
1070
   147
1040
0.5
1070
   279
1070
     1
1070
   288
1070
     1
1070
   289
1070
     3
1002
}
  0
LINE
  5
AD8
330
2
100
AcDbEntity
  8
LINEWORK
 62
     7
370
    30
100
AcDbLine
 10
141.6123831291601
 20
93.99556741664602
 30
0.0
 11
135.4690115404561
 21
93.54556741664589
 31
0.0
  0
LINE
  5
AD9
330
2
100
AcDbEntity
  8
LINEWORK
 62
     7
370
    30
100
AcDbLine
 10
141.6123831291601
 20
93.99556741664602
 30
0.0
 11
147.7557547178642
 21
93.54556741664589
 31
0.0
  0
DIMENSION
  5
ADA
330
2
100
AcDbEntity
  8
DIM
 62
     7
370
    30
100
AcDbDimension
  2
*D11
 10
147.7557547178642
 20
100.817936881224
 30
0.0
 11
160.0103650178986
 21
100.817936881224
 31
0.0
 70
   160
  1
12 1/4"
 71
     5
 42
-1.0
  3
STANDARD
100
AcDbAlignedDimension
 13
135.4690115404561
 23
93.54556741664589
 33
0.0
 14
147.7557547178642
 24
93.54556741664589
 34
0.0
100
AcDbRotatedDimension
1001
ACAD
1000
DSTYLE
1002
{
1070
   287
1070
     4
1070
   287
1070
     4
1070
    40
1040
2.399999999999999
1070
    73
1070
     1
1070
    74
1070
     1
1070
    77
1070
     0
1070
   147
1040
0.5
1070
   279
1070
     1
1070
   288
1070
     1
1070
   289
1070
     3
1002
}
  0
ENDSEC
  0
SECTION
  2
OBJECTS
  0
DICTIONARY
  5
8
330
0
100
AcDbDictionary
281
     1
  3
ACAD_GROUP
350
21
  3
ACAD_LAYOUT
350
C
  3
ACAD_MLINESTYLE
350
22
  3
ACAD_PLOTSETTINGS
350
23
  3
ACAD_PLOTSTYLENAME
350
7
  0
DICTIONARY
  5
3
330
2
100
AcDbDictionary
280
     1
281
     1
  3
ACAD_LAYOUTSELFREF
360
CF2
  0
DICTIONARY
  5
951
330
D
100
AcDbDictionary
280
     1
281
     1
  3
ACAD_LAYOUTSELFREF
360
CF5
  0
DICTIONARY
  5
21
102
{ACAD_REACTORS
330
8
102
}
330
8
100
AcDbDictionary
281
     1
  0
DICTIONARY
  5
C
102
{ACAD_REACTORS
330
8
102
}
330
8
100
AcDbDictionary
281
     1
  3
Layout1
350
10
  3
Model
350
B
  0
DICTIONARY
  5
22
102
{ACAD_REACTORS
330
8
102
}
330
8
100
AcDbDictionary
281
     1
  3
STANDARD
350
25
  0
DICTIONARY
  5
23
102
{ACAD_REACTORS
330
8
102
}
330
8
100
AcDbDictionary
281
     1
  0
ACDBDICTIONARYWDFLT
  5
7
102
{ACAD_REACTORS
330
8
102
}
330
8
100
AcDbDictionary
281
     1
  3
Normal
350
6
100
AcDbDictionaryWithDefault
340
6
  0
XRECORD
  5
CF2
102
{ACAD_REACTORS
330
3
102
}
330
3
100
AcDbXrecord
280
     1
340
2
  0
XRECORD
  5
CF5
102
{ACAD_REACTORS
330
951
102
}
330
951
100
AcDbXrecord
280
     1
340
D
  0
LAYOUT
  5
10
102
{ACAD_REACTORS
330
C
102
}
330
C
100
AcDbPlotSettings
  1

  2
None
  4

  6

 40
0.0
 41
0.0
 42
0.0
 43
0.0
 44
0.0
 45
0.0
 46
0.0
 47
0.0
 48
0.0
 49
0.0
140
0.0
141
0.0
142
1.0
143
1.0
 70
   688
 72
     0
 73
     0
 74
     5
  7

 75
    16
147
1.0
148
0.0
149
0.0
100
AcDbLayout
  1
Layout1
 70
     1
 71
     1
 10
0.0
 20
0.0
 11
12.0
 21
9.0
 12
0.0
 22
0.0
 32
0.0
 14
1.000000000000000E+20
 24
1.000000000000000E+20
 34
1.000000000000000E+20
 15
-1.000000000000000E+20
 25
-1.000000000000000E+20
 35
-1.000000000000000E+20
146
0.0
 13
0.0
 23
0.0
 33
0.0
 16
1.0
 26
0.0
 36
0.0
 17
0.0
 27
1.0
 37
0.0
 76
     0
330
D
  0
LAYOUT
  5
B
102
{ACAD_REACTORS
330
C
102
}
330
C
100
AcDbPlotSettings
  1

  2
HP LaserJet 5
  4
Letter
  6

 40
7.143749713897705
 41
6.381738662719726
 42
7.14373779296875
 43
6.381744384765625
 44
215.8999938964843
 45
279.3999938964843
 46
0.0
 47
0.0
 48
384.482208949714
 49
318.3711668150766
140
565.7294511324651
141
453.2014323412695
142
1.0
143
17.09518126445242
 70
 11952
 72
     0
 73
     1
 74
     1
  7

 75
     0
147
0.058496016189041
148
0.2780947460313996
149
0.2068753598500734
100
AcDbLayout
  1
Model
 70
     1
 71
     0
 10
0.0
 20
0.0
 11
12.0
 21
9.0
 12
0.0
 22
0.0
 32
0.0
 14
0.0
 24
0.0
 34
0.0
 15
0.0
 25
0.0
 35
0.0
146
0.0
 13
0.0
 23
0.0
 33
0.0
 16
1.0
 26
0.0
 36
0.0
 17
0.0
 27
1.0
 37
0.0
 76
     0
330
2
  0
MLINESTYLE
  5
25
102
{ACAD_REACTORS
330
22
102
}
330
22
100
AcDbMlineStyle
  2
STANDARD
 70
     0
  3

 62
   256
 51
90.0
 52
90.0
 71
     2
 49
0.5
 62
   256
  6
BYLAYER
 49
-0.5
 62
   256
  6
BYLAYER
  0
ACDBPLACEHOLDER
  5
6
102
{ACAD_REACTORS
330
7
102
}
330
7
  0
ENDSEC
  0
EOF
