  0
SECTION
  2
HEADER
  9
$ACADVER
  1
AC1015
  9
$ACADMAINTVER
 70
     6
  9
$DWGCODEPAGE
  3
ANSI_1252
  9
$INSBASE
 10
0.0
 20
0.0
 30
0.0
  9
$EXTMIN
 10
8.575624758376378
 20
4.962142969044691
 30
0.0
  9
$EXTMAX
 10
192.4508308796099
 20
141.7473572787469
 30
0.0
  9
$LIMMIN
 10
0.0
 20
0.0
  9
$LIMMAX
 10
12.0
 20
9.0
  9
$ORTHOMODE
 70
     1
  9
$REGENMODE
 70
     1
  9
$FILLMODE
 70
     1
  9
$QTEXTMODE
 70
     0
  9
$MIRRTEXT
 70
     0
  9
$LTSCALE
 40
1.0
  9
$ATTMODE
 70
     2
  9
$TEXTSIZE
 40
1.0
  9
$TRACEWID
 40
0.05
  9
$TEXTSTYLE
  7
STANDARD
  9
$CLAYER
  8
TEXT
  9
$CELTYPE
  6
BYLAYER
  9
$CECOLOR
 62
     7
  9
$CELTSCALE
 40
1.0
  9
$DISPSILH
 70
     0
  9
$DIMSCALE
 40
2.399999999999999
  9
$DIMASZ
 40
0.5
  9
$DIMEXO
 40
1.0
  9
$DIMDLI
 40
0.0625
  9
$DIMRND
 40
0.0
  9
$DIMDLE
 40
0.0
  9
$DIMEXE
 40
0.25
  9
$DIMTP
 40
0.0
  9
$DIMTM
 40
0.0
  9
$DIMTXT
 40
1.0
  9
$DIMCEN
 40
0.0
  9
$DIMTSZ
 40
0.0
  9
$DIMTOL
 70
     0
  9
$DIMLIM
 70
     0
  9
$DIMTIH
 70
     1
  9
$DIMTOH
 70
     1
  9
$DIMSE1
 70
     0
  9
$DIMSE2
 70
     0
  9
$DIMTAD
 70
     0
  9
$DIMZIN
 70
     0
  9
$DIMBLK
  1

  9
$DIMASO
 70
     1
  9
$DIMSHO
 70
     1
  9
$DIMPOST
  1
"
  9
$DIMAPOST
  1

  9
$DIMALT
 70
     0
  9
$DIMALTD
 70
     0
  9
$DIMALTF
 40
25.4
  9
$DIMLFAC
 40
1.0
  9
$DIMTOFL
 70
     0
  9
$DIMTVP
 40
0.0
  9
$DIMTIX
 70
     0
  9
$DIMSOXD
 70
     0
  9
$DIMSAH
 70
     0
  9
$DIMBLK1
  1

  9
$DIMBLK2
  1

  9
$DIMSTYLE
  2
STANDARD
  9
$DIMCLRD
 70
     0
  9
$DIMCLRE
 70
     0
  9
$DIMCLRT
 70
     0
  9
$DIMTFAC
 40
0.125
  9
$DIMGAP
 40
0.5
  9
$DIMJUST
 70
     0
  9
$DIMSD1
 70
     0
  9
$DIMSD2
 70
     0
  9
$DIMTOLJ
 70
     1
  9
$DIMTZIN
 70
     0
  9
$DIMALTZ
 70
     2
  9
$DIMALTTZ
 70
     2
  9
$DIMUPT
 70
     1
  9
$DIMDEC
 70
     4
  9
$DIMTDEC
 70
     4
  9
$DIMALTU
 70
     2
  9
$DIMALTTD
 70
     0
  9
$DIMTXSTY
  7
STANDARD
  9
$DIMAUNIT
 70
     0
  9
$DIMADEC
 70
     0
  9
$DIMALTRND
 40
0.0
  9
$DIMAZIN
 70
     0
  9
$DIMDSEP
 70
    46
  9
$DIMATFIT
 70
     1
  9
$DIMFRAC
 70
     2
  9
$DIMLDRBLK
  1

  9
$DIMLUNIT
 70
     5
  9
$DIMLWD
 70
    -2
  9
$DIMLWE
 70
    -2
  9
$DIMTMOVE
 70
     1
  9
$LUNITS
 70
     5
  9
$LUPREC
 70
     4
  9
$SKETCHINC
 40
0.1
  9
$FILLETRAD
 40
0.03125
  9
$AUNITS
 70
     0
  9
$AUPREC
 70
     1
  9
$MENU
  1
acad
  9
$ELEVATION
 40
0.0
  9
$PELEVATION
 40
0.0
  9
$THICKNESS
 40
0.0
  9
$LIMCHECK
 70
     0
  9
$CHAMFERA
 40
0.75
  9
$CHAMFERB
 40
0.75
  9
$CHAMFERC
 40
0.0
  9
$CHAMFERD
 40
0.0
  9
$SKPOLY
 70
     0
  9
$TDCREATE
 40
2451085.664838310
  9
$TDUCREATE
 40
2451085.831504977
  9
$TDUPDATE
 40
2451661.332872569
  9
$TDUUPDATE
 40
2451661.499539236
  9
$TDINDWG
 40
3.7795000000
  9
$TDUSRTIMER
 40
3.7795000000
  9
$USRTIMER
 70
     1
  9
$ANGBASE
 50
0.0
  9
$ANGDIR
 70
     0
  9
$PDMODE
 70
     0
  9
$PDSIZE
 40
0.0
  9
$PLINEWID
 40
0.12
  9
$SPLFRAME
 70
     0
  9
$SPLINETYPE
 70
     6
  9
$SPLINESEGS
 70
     8
  9
$HANDSEED
  5
765
  9
$SURFTAB1
 70
     6
  9
$SURFTAB2
 70
     6
  9
$SURFTYPE
 70
     6
  9
$SURFU
 70
     6
  9
$SURFV
 70
     6
  9
$UCSBASE
  2

  9
$UCSNAME
  2

  9
$UCSORG
 10
0.0
 20
0.0
 30
0.0
  9
$UCSXDIR
 10
1.0
 20
0.0
 30
0.0
  9
$UCSYDIR
 10
0.0
 20
1.0
 30
0.0
  9
$UCSORTHOREF
  2

  9
$UCSORTHOVIEW
 70
     0
  9
$UCSORGTOP
 10
0.0
 20
0.0
 30
0.0
  9
$UCSORGBOTTOM
 10
0.0
 20
0.0
 30
0.0
  9
$UCSORGLEFT
 10
0.0
 20
0.0
 30
0.0
  9
$UCSORGRIGHT
 10
0.0
 20
0.0
 30
0.0
  9
$UCSORGFRONT
 10
0.0
 20
0.0
 30
0.0
  9
$UCSORGBACK
 10
0.0
 20
0.0
 30
0.0
  9
$PUCSBASE
  2

  9
$PUCSNAME
  2

  9
$PUCSORG
 10
0.0
 20
0.0
 30
0.0
  9
$PUCSXDIR
 10
1.0
 20
0.0
 30
0.0
  9
$PUCSYDIR
 10
0.0
 20
1.0
 30
0.0
  9
$PUCSORTHOREF
  2

  9
$PUCSORTHOVIEW
 70
     0
  9
$PUCSORGTOP
 10
0.0
 20
0.0
 30
0.0
  9
$PUCSORGBOTTOM
 10
0.0
 20
0.0
 30
0.0
  9
$PUCSORGLEFT
 10
0.0
 20
0.0
 30
0.0
  9
$PUCSORGRIGHT
 10
0.0
 20
0.0
 30
0.0
  9
$PUCSORGFRONT
 10
0.0
 20
0.0
 30
0.0
  9
$PUCSORGBACK
 10
0.0
 20
0.0
 30
0.0
  9
$USERI1
 70
     0
  9
$USERI2
 70
     0
  9
$USERI3
 70
     0
  9
$USERI4
 70
     0
  9
$USERI5
 70
     0
  9
$USERR1
 40
0.0
  9
$USERR2
 40
0.0
  9
$USERR3
 40
0.0
  9
$USERR4
 40
0.0
  9
$USERR5
 40
0.0
  9
$WORLDVIEW
 70
     1
  9
$SHADEDGE
 70
     1
  9
$SHADEDIF
 70
    70
  9
$TILEMODE
 70
     1
  9
$MAXACTVP
 70
    16
  9
$PINSBASE
 10
0.0
 20
0.0
 30
0.0
  9
$PLIMCHECK
 70
     0
  9
$PEXTMIN
 10
1.000000000000000E+20
 20
1.000000000000000E+20
 30
1.000000000000000E+20
  9
$PEXTMAX
 10
-1.000000000000000E+20
 20
-1.000000000000000E+20
 30
-1.000000000000000E+20
  9
$PLIMMIN
 10
0.0
 20
0.0
  9
$PLIMMAX
 10
12.0
 20
9.0
  9
$UNITMODE
 70
     0
  9
$VISRETAIN
 70
     0
  9
$PLINEGEN
 70
     0
  9
$PSLTSCALE
 70
     1
  9
$TREEDEPTH
 70
  3020
  9
$CMLSTYLE
  2
STANDARD
  9
$CMLJUST
 70
     0
  9
$CMLSCALE
 40
1.0
  9
$PROXYGRAPHICS
 70
     1
  9
$MEASUREMENT
 70
     0
  9
$CELWEIGHT
370
    -1
  9
$ENDCAPS
280
     0
  9
$JOINSTYLE
280
     0
  9
$LWDISPLAY
290
     0
  9
$INSUNITS
 70
     0
  9
$HYPERLINKBASE
  1

  9
$STYLESHEET
  1

  9
$XEDIT
290
     1
  9
$CEPSNTYPE
380
     0
  9
$PSTYLEMODE
290
     1
  9
$FINGERPRINTGUID
  2
{A6232B84-9B2E-11D3-8DA4-00A0C981A35F}
  9
$VERSIONGUID
  2
{1C381AD5-176D-11D4-8DA4-00A0C981A35F}
  9
$EXTNAMES
290
     1
  9
$PSVPSCALE
 40
0.0
  9
$OLESTARTUP
290
     0
  0
ENDSEC
  0
SECTION
  2
CLASSES
  0
CLASS
  1
DICTIONARYVAR
  2
AcDbDictionaryVar
  3
AutoCAD 2000
 90
    32768
280
     0
281
     0
  0
CLASS
  1
LWPOLYLINE
  2
AcDbPolyline
  3
AutoCAD 2000
 90
    32768
280
     0
281
     1
  0
CLASS
  1
RASTERVARIABLES
  2
AcDbRasterVariables
  3
ISM
 90
    32768
280
     0
281
     0
  0
CLASS
  1
ACDBDICTIONARYWDFLT
  2
AcDbDictionaryWithDefault
  3
AutoCAD 2000
 90
        0
280
     0
281
     0
  0
CLASS
  1
ACDBPLACEHOLDER
  2
AcDbPlaceHolder
  3
AutoCAD 2000
 90
        0
280
     0
281
     0
  0
CLASS
  1
LAYOUT
  2
AcDbLayout
  3
AutoCAD 2000
 90
        0
280
     0
281
     0
  0
CLASS
  1
ACME_DOCUMENT
  2
AcMeDbDoc
  3
AcMeServices
 90
    32768
280
     1
281
     0
  0
CLASS
  1
ACMESCOPE
  2
AcMeScope
  3
AcMeServices
 90
    32768
280
     1
281
     0
  0
CLASS
  1
ACMECOMMANDHISTORY
  2
AcMeCommandHistory
  3
AcMeServices
 90
    32768
280
     1
281
     0
  0
CLASS
  1
ACIMSYSVARMAN
  2
AcImSysVarManager
  3
AcMeServices
 90
    32768
280
     1
281
     0
  0
CLASS
  1
ACIMREALSYSVAR
  2
AcImRealSysVar
  3
AcMeServices
 90
    32768
280
     1
281
     0
  0
CLASS
  1
ACIMINTSYSVAR
  2
AcImIntSysVar
  3
AcMeServices
 90
    32768
280
     1
281
     0
  0
CLASS
  1
ACMEDRAWINGMAN
  2
AcMeDrawingMan
  3
AcMeServices
 90
    32768
280
     1
281
     0
  0
CLASS
  1
ACMEVIEW
  2
AcMeView
  3
AcMeServices
 90
    32768
280
     1
281
     0
  0
CLASS
  1
ACDBENTITYCACHE
  2
AcMeEntityCache
  3
AcMeServices
 90
    32768
280
     1
281
     0
  0
CLASS
  1
GSMANAGER
  2
AcMeGSManager
  3
AcMeServices
 90
    32768
280
     1
281
     0
  0
CLASS
  1
AmdtInternalReactor
  2
AmdtInternalReactor
  3
AcMeServices
 90
    32768
280
     1
281
     0
  0
CLASS
  1
ACMESTATEMGR
  2
AcMeStateMgr
  3
AcMeServices
 90
    32768
280
     1
281
     0
  0
CLASS
  1
ACGREFMASTER
  2
AcGrefMaster
  3
AcAttribServices
 90
    32768
280
     1
281
     0
  0
CLASS
  1
AM_DRAWING_MGR
  2
AcDmDwgMgr
  3
AcMechDwgViewMgmt
 90
    32768
280
     1
281
     0
  0
CLASS
  1
AM_DWG_DOCUMENT
  2
AcDmDwgDocument
  3
AcMechDwgViewMgmt
 90
    32768
280
     1
281
     0
  0
CLASS
  1
AM_DWG_SHEET
  2
AcDmSheet
  3
AcMechDwgViewMgmt
 90
    32768
280
     1
281
     0
  0
CLASS
  1
AM_VIEWDIMPARMAP
  2
AcDmViewDimParMap
  3
AcMechDwgViewMgmt
 90
    32768
280
     1
281
     0
  0
CLASS
  1
AM_DWGMGR_NAME
  2
AcDmDwgMgrName
  3
AcMechDwgViewMgmt
 90
    32768
280
     1
281
     0
  0
CLASS
  1
ACME_DATABASE
  2
AcMeDbDatabase
  3
AcMeServices
 90
    32768
280
     1
281
     0
  0
CLASS
  1
ACRFINSADJUSTERMGR
  2
AcRfInsAdjusterMgr
  3
AcMeServices
 90
    32768
280
     1
281
     0
  0
CLASS
  1
ACGREFMASTER
  2
AcGrefacadMaster
  3
AcGrefServices
 90
    32768
280
     1
281
     0
  0
CLASS
  1
AMDTMENUSTATEMGR
  2
AmdtMenuStateMgr
  3
McadcomServices
 90
    32768
280
     1
281
     0
  0
CLASS
  1
AMDTMCOMMENUSTATE
  2
AmdtMcomMenuState
  3
McadcomServices
 90
    32768
280
     1
281
     0
  0
CLASS
  1
ASAPP
  2
AcAsAppObject
  3
AutoSurfServices
 90
    32768
280
     1
281
     0
  0
CLASS
  1
IM_STATIC_MAN
  2
AcImStaticVarManager
  3
AcMeServices
 90
    32768
280
     1
281
     0
  0
CLASS
  1
ACIMSTRSYSVAR
  2
AcImStrSysVar
  3
AcMeServices
 90
    32768
280
     1
281
     0
  0
CLASS
  1
ACIMDBLSTATICVAR
  2
AcImDblStaticVar
  3
AcMeServices
 90
    32768
280
     1
281
     0
  0
CLASS
  1
ACIMSTRSTATICVAR
  2
AcImStrStaticVar
  3
AcMeServices
 90
    32768
280
     1
281
     0
  0
CLASS
  1
ACIMINTSTATICVAR
  2
AcImIntStaticVar
  3
AcMeServices
 90
    32768
280
     1
281
     0
  0
CLASS
  1
ACADGREFMODULE
  2
AcAdGrefModule
  3
AdGrefServices
 90
    32768
280
     1
281
     0
  0
CLASS
  1
AMIMASTER
  2
AmiMaster
  3
AmiServices
 90
    32768
280
     1
281
     0
  0
CLASS
  1
ACASGREFMASTER
  2
AcAsGrefMaster
  3
AutoSurfResolverServices
 90
    32768
280
     1
281
     0
  0
CLASS
  1
MAPIAMMOUDLE
  2
MApiAmModule
  3
MApiAmServices
 90
    32768
280
     1
281
     0
  0
CLASS
  1
AMDTDMMENUSTATE
  2
AmdtDmMenuState
  3
AcMechDwgViewMgmt
 90
    32768
280
     1
281
     0
  0
CLASS
  1
AMDTADMENUSTATE
  2
AmdtAdMenuState
  3
DesignerServices
 90
    32768
280
     1
281
     0
  0
CLASS
  1
ADAPPL
  2
AcAdAppl
  3
DesignerServices
 90
    32768
280
     1
281
     0
  0
CLASS
  1
DEPMGR
  2
AcAdDepMgr
  3
DesignerServices
 90
    32768
280
     1
281
     0
  0
CLASS
  1
PARAMMGR
  2
AcAdParamMgr
  3
DesignerServices
 90
    32768
280
     1
281
     0
  0
CLASS
  1
PARAMSCOPE
  2
AcAdParamScope
  3
DesignerServices
 90
    32768
280
     1
281
     0
  0
CLASS
  1
NAMEDAPPL
  2
AcAdNamedAppl
  3
DesignerServices
 90
    32768
280
     1
281
     0
  0
CLASS
  1
ADHNTMPLT
  2
AdHoleNoteTemplateMgr
  3
DesignerServices
 90
    32768
280
     1
281
     0
  0
CLASS
  1
AM_HNTEMPLATE_MGR_NAME
  2
AdHoleNoteTemplateMgrName
  3
DesignerServices
 90
    32768
280
     1
281
     0
  0
CLASS
  1
AMDTAMMENUSTATE
  2
AmdtAmMenuState
  3
DesignerAssemblies
 90
    32768
280
     1
281
     0
  0
CLASS
  1
ACAMPROJECT
  2
AcAmProject
  3
DesignerAssemblies
 90
    32768
280
     1
281
     0
  0
CLASS
  1
ACAMGRCOMPDEF
  2
AcAmGrCompDef
  3
DesignerAssemblies
 90
    32768
280
     1
281
     0
  0
CLASS
  1
ACCMCONTEXT
  2
AcCmContext
  3
DesignerAssemblies
 90
    32768
280
     1
281
     0
  0
CLASS
  1
ACAMCOMPDEF
  2
AcAmCompDef
  3
DesignerAssemblies
 90
    32768
280
     1
281
     0
  0
CLASS
  1
ACAMCOMPDEFMGR
  2
AcAmCompDefMgr
  3
DesignerAssemblies
 90
    32768
280
     1
281
     0
  0
CLASS
  1
AMCONTEXTMGR
  2
AcAmContextMgr
  3
DesignerAssemblies
 90
    32768
280
     1
281
     0
  0
CLASS
  1
ACAMCONTEXTMODELER
  2
AcAmContextModeler
  3
DesignerAssemblies
 90
    32768
280
     1
281
     0
  0
CLASS
  1
MAPIADMODULE
  2
MApiAdModule
  3
MApiAdServices
 90
    32768
280
     1
281
     0
  0
CLASS
  1
ACMDATADICTIONARY
  2
AcmDataDictionary
  3
"AcmSymBB|Product Description: AutoCAD Mechanical 2000|Company: Autodesk"
 90
    32768
280
     1
281
     0
  0
CLASS
  1
ACMDATAENTRYBLOCK
  2
AcmDataEntryBlock
  3
"AcmSymBB|Product Description: AutoCAD Mechanical 2000|Company: Autodesk"
 90
    32768
280
     1
281
     0
  0
CLASS
  1
AMDTBROWSERDBTAB
  2
AmdtBrowserDbTab
  3
McadcomServices
 90
    32768
280
     1
281
     0
  0
CLASS
  1
CBROWSERAPPOBJECT
  2
CBrowserAppObject
  3
McadcomServices
 90
    32768
280
     1
281
     0
  0
CLASS
  1
DM_PLACEHOLDER
  2
AcDmSelsetPlaceholder
  3
AcMechDwgViewMgmt
 90
    32768
280
     1
281
     0
  0
CLASS
  1
CATALOGSTATE
  2
AcAmCatalogState
  3
DesignerAssemblies
 90
    32768
280
     1
281
     0
  0
CLASS
  1
ACAMGRCOMPDEFSET
  2
AcAmGrCompDefSet
  3
DesignerAssemblies
 90
    32768
280
     1
281
     0
  0
CLASS
  1
AMGOBJPROPCFG
  2
AmgObjPropCfg
  3
"AmgLay|Product Description: AutoCAD Mechanical 2000|Company: Autodesk"
 90
    32769
280
     1
281
     0
  0
CLASS
  1
LAYER_INDEX
  2
AcDbLayerIndex
  3
AutoCAD 2000
 90
    32768
280
     0
281
     0
  0
CLASS
  1
IDBUFFER
  2
AcDbIdBuffer
  3
AutoCAD 2000
 90
    32768
280
     0
281
     0
  0
CLASS
  1
ACRFATTGENMGR
  2
AcRfAttGeneralMgr
  3
AcAttribServices
 90
    32768
280
     1
281
     0
  0
CLASS
  1
PLOTSETTINGS
  2
AcDbPlotSettings
  3
AutoCAD 2000
 90
    32768
280
     0
281
     0
  0
CLASS
  1
VBA_PROJECT
  2
AcDbVbaProject
  3
acadvba
 90
    32768
280
     0
281
     0
  0
CLASS
  1
LONG_TRANSACTION
  2
AcDbLongTransaction
  3
AutoCAD 2000
 90
    32768
280
     0
281
     0
  0
CLASS
  1
LWPOLYLINE
  2
AcDbPolyline
  3
AutoCAD 2000
 90
    32768
280
     0
281
     1
  0
CLASS
  1
HATCH
  2
AcDbHatch
  3
AutoCAD 2000
 90
    32768
280
     0
281
     1
  0
CLASS
  1
XRECORD
  2
AcDbXrecord
  3
AutoCAD 2000
 90
    32768
280
     0
281
     0
  0
CLASS
  1
LONG_TRANSACTION
  2
AcDbLongTransaction
  3
AutoCAD 2000
 90
    32768
280
     0
281
     0
  0
CLASS
  1
LWPOLYLINE
  2
AcDbPolyline
  3
AutoCAD 2000
 90
    32768
280
     0
281
     1
  0
CLASS
  1
HATCH
  2
AcDbHatch
  3
AutoCAD 2000
 90
    32768
280
     0
281
     1
  0
CLASS
  1
XRECORD
  2
AcDbXrecord
  3
AutoCAD 2000
 90
    32768
280
     0
281
     0
  0
CLASS
  1
LONG_TRANSACTION
  2
AcDbLongTransaction
  3
AutoCAD 2000
 90
    32768
280
     0
281
     0
  0
CLASS
  1
LWPOLYLINE
  2
AcDbPolyline
  3
AutoCAD 2000
 90
    32768
280
     0
281
     1
  0
CLASS
  1
HATCH
  2
AcDbHatch
  3
AutoCAD 2000
 90
    32768
280
     0
281
     1
  0
CLASS
  1
XRECORD
  2
AcDbXrecord
  3
AutoCAD 2000
 90
    32768
280
     0
281
     0
  0
CLASS
  1
LONG_TRANSACTION
  2
AcDbLongTransaction
  3
AutoCAD 2000
 90
    32768
280
     0
281
     0
  0
CLASS
  1
LWPOLYLINE
  2
AcDbPolyline
  3
AutoCAD 2000
 90
    32768
280
     0
281
     1
  0
CLASS
  1
HATCH
  2
AcDbHatch
  3
AutoCAD 2000
 90
    32768
280
     0
281
     1
  0
CLASS
  1
XRECORD
  2
AcDbXrecord
  3
AutoCAD 2000
 90
    32768
280
     0
281
     0
  0
CLASS
  1
LONG_TRANSACTION
  2
AcDbLongTransaction
  3
AutoCAD 2000
 90
    32768
280
     0
281
     0
  0
CLASS
  1
LWPOLYLINE
  2
AcDbPolyline
  3
AutoCAD 2000
 90
    32768
280
     0
281
     1
  0
CLASS
  1
HATCH
  2
AcDbHatch
  3
AutoCAD 2000
 90
    32768
280
     0
281
     1
  0
CLASS
  1
XRECORD
  2
AcDbXrecord
  3
AutoCAD 2000
 90
    32768
280
     0
281
     0
  0
CLASS
  1
LONG_TRANSACTION
  2
AcDbLongTransaction
  3
AutoCAD 2000
 90
    32768
280
     0
281
     0
  0
CLASS
  1
LWPOLYLINE
  2
AcDbPolyline
  3
AutoCAD 2000
 90
    32768
280
     0
281
     1
  0
CLASS
  1
HATCH
  2
AcDbHatch
  3
AutoCAD 2000
 90
    32768
280
     0
281
     1
  0
CLASS
  1
XRECORD
  2
AcDbXrecord
  3
AutoCAD 2000
 90
    32768
280
     0
281
     0
  0
CLASS
  1
LONG_TRANSACTION
  2
AcDbLongTransaction
  3
AutoCAD 2000
 90
    32768
280
     0
281
     0
  0
CLASS
  1
LWPOLYLINE
  2
AcDbPolyline
  3
AutoCAD 2000
 90
    32768
280
     0
281
     1
  0
CLASS
  1
HATCH
  2
AcDbHatch
  3
AutoCAD 2000
 90
    32768
280
     0
281
     1
  0
CLASS
  1
XRECORD
  2
AcDbXrecord
  3
AutoCAD 2000
 90
    32768
280
     0
281
     0
  0
ENDSEC
  0
SECTION
  2
TABLES
  0
TABLE
  2
VPORT
  5
1E
330
0
100
AcDbSymbolTable
 70
     2
  0
VPORT
  5
764
330
1E
100
AcDbSymbolTableRecord
100
AcDbViewportTableRecord
  2
*Active
 70
     0
 10
0.0
 20
0.0
 11
1.0
 21
1.0
 12
183.5876782611124
 22
53.50245929023051
 13
0.0
 23
0.0
 14
1.0
 24
1.0
 15
0.0
 25
0.0
 16
0.0
 26
0.0
 36
1.0
 17
-64.46234487877643
 27
33.0238264231553
 37
6.148717398612387
 40
164.1601870269814
 41
1.413068844807467
 42
50.0
 43
-6.148717398612387
 44
-6.148717398612387
 50
0.0
 51
0.0
 71
     0
 72
 20000
 73
     1
 74
     1
 75
     0
 76
     0
 77
     0
 78
     2
281
     0
 65
     1
110
0.0
120
0.0
130
0.0
111
1.0
121
0.0
131
0.0
112
0.0
122
1.0
132
0.0
 79
     0
146
0.0
  0
ENDTAB
  0
TABLE
  2
LTYPE
  5
19
330
0
100
AcDbSymbolTable
 70
     3
  0
LTYPE
  5
1A
330
19
100
AcDbSymbolTableRecord
100
AcDbLinetypeTableRecord
  2
BYBLOCK
 70
     0
  3

 72
    65
 73
     0
 40
0.0
  0
LTYPE
  5
1B
330
19
100
AcDbSymbolTableRecord
100
AcDbLinetypeTableRecord
  2
BYLAYER
 70
     0
  3

 72
    65
 73
     0
 40
0.0
  0
LTYPE
  5
A
330
19
100
AcDbSymbolTableRecord
100
AcDbLinetypeTableRecord
  2
CONTINUOUS
 70
     0
  3
Solid line
 72
    65
 73
     0
 40
0.0
  0
LTYPE
  5
48
330
19
100
AcDbSymbolTableRecord
100
AcDbLinetypeTableRecord
  2
DASHED
 70
     0
  3
Dashed __ __ __ __ __ __ __ __ __ __ __ __ __ _
 72
    65
 73
     2
 40
0.75
 49
0.5
 74
     0
 49
-0.25
 74
     0
  0
LTYPE
  5
B4
330
19
100
AcDbSymbolTableRecord
100
AcDbLinetypeTableRecord
  2
PHANTOM
 70
     0
  3
Phantom ______  __  __  ______  __  __  ______
 72
    65
 73
     6
 40
2.5
 49
1.25
 74
     0
 49
-0.25
 74
     0
 49
0.25
 74
     0
 49
-0.25
 74
     0
 49
0.25
 74
     0
 49
-0.25
 74
     0
  0
ENDTAB
  0
TABLE
  2
LAYER
  5
14
330
0
100
AcDbSymbolTable
 70
     8
  0
LAYER
  5
6
330
14
100
AcDbSymbolTableRecord
100
AcDbLayerTableRecord
  2
0
 70
     0
 62
     7
  6
CONTINUOUS
370
    -3
390
7
  0
LAYER
  5
8B
330
14
100
AcDbSymbolTableRecord
100
AcDbLayerTableRecord
  2
BALUSTERS
 70
     0
 62
     7
  6
CONTINUOUS
370
    -3
390
7
  0
LAYER
  5
2A
330
14
100
AcDbSymbolTableRecord
100
AcDbLayerTableRecord
  2
LINEWORK
 70
     0
 62
     7
  6
CONTINUOUS
370
    -3
390
7
  0
LAYER
  5
55
330
14
100
AcDbSymbolTableRecord
100
AcDbLayerTableRecord
  2
Defpoints
 70
     0
 62
     7
  6
CONTINUOUS
290
     0
370
    -3
390
7
  0
LAYER
  5
F1
330
14
100
AcDbSymbolTableRecord
100
AcDbLayerTableRecord
  2
leaders
 70
     0
 62
     1
  6
CONTINUOUS
370
    -3
390
7
  0
LAYER
  5
26
330
14
100
AcDbSymbolTableRecord
100
AcDbLayerTableRecord
  2
TEXT
 70
     0
 62
     7
  6
CONTINUOUS
370
    -3
390
7
  0
LAYER
  5
4B
330
14
100
AcDbSymbolTableRecord
100
AcDbLayerTableRecord
  2
DIM
 70
     0
 62
     7
  6
CONTINUOUS
370
    -3
390
7
  0
LAYER
  5
78
330
14
100
AcDbSymbolTableRecord
100
AcDbLayerTableRecord
  2
A1
 70
     0
 62
     7
  6
CONTINUOUS
370
    -3
390
7
  0
ENDTAB
  0
TABLE
  2
STYLE
  5
15
330
0
100
AcDbSymbolTable
 70
     3
  0
STYLE
  5
16
330
15
100
AcDbSymbolTableRecord
100
AcDbTextStyleTableRecord
  2
STANDARD
 70
     0
 40
0.0
 41
1.0
 50
0.0
 71
     0
 42
1.0
  3
unvr55w.ttf
  4

1001
ACAD
1000
Univers
1071
       34
  0
STYLE
  5
9B
330
15
100
AcDbSymbolTableRecord
100
AcDbTextStyleTableRecord
  2
ROMANC
 70
     0
 40
0.0
 41
1.0
 50
0.0
 71
     0
 42
0.5
  3
TIMESBD.TTF
  4

1001
ACAD
1000
Times New Roman
1071
 33554450
  0
STYLE
  5
7B
330
15
100
AcDbSymbolTableRecord
100
AcDbTextStyleTableRecord
  2
barcoder
 70
     0
 40
0.0
 41
1.0
 50
0.0
 71
     0
 42
4.5625
  3
cw_barcd.ttf
  4

1001
ACAD
1000
Barcoder
1071
 33554434
  0
ENDTAB
  0
TABLE
  2
VIEW
  5
1C
330
0
100
AcDbSymbolTable
 70
     0
  0
ENDTAB
  0
TABLE
  2
UCS
  5
1D
330
0
100
AcDbSymbolTable
 70
     0
  0
ENDTAB
  0
TABLE
  2
APPID
  5
20
330
0
100
AcDbSymbolTable
 70
     1
  0
APPID
  5
17
330
20
100
AcDbSymbolTableRecord
100
AcDbRegAppTableRecord
  2
ACAD
 70
     0
  0
ENDTAB
  0
TABLE
  2
DIMSTYLE
  5
21
330
0
100
AcDbSymbolTable
 70
     1
100
AcDbDimStyleTable
 71
     0
  0
DIMSTYLE
105
28
102
{ACAD_REACTORS
330
20A
330
68
330
5A
330
4A
330
C0
330
363
330
F0
102
}
330
21
100
AcDbSymbolTableRecord
100
AcDbDimStyleTableRecord
  2
STANDARD
 70
     0
  3
"
 41
0.5
 42
1.0
 43
0.0625
 44
0.25
 73
     0
 74
     0
 77
     3
140
1.0
141
0.0
146
0.125
147
0.125
171
     0
274
     0
276
     2
277
     5
285
     2
286
     2
289
     0
340
16
  0
ENDTAB
  0
TABLE
  2
BLOCK_RECORD
  5
1
330
0
100
AcDbSymbolTable
 70
     8
  0
BLOCK_RECORD
  5
2
102
{ACAD_XDICTIONARY
360
3
102
}
330
1
100
AcDbSymbolTableRecord
100
AcDbBlockTableRecord
  2
*MODEL_SPACE
340
C
  0
BLOCK_RECORD
  5
E
102
{ACAD_XDICTIONARY
360
F
102
}
330
1
100
AcDbSymbolTableRecord
100
AcDbBlockTableRecord
  2
*PAPER_SPACE
340
13
  0
BLOCK_RECORD
  5
7F
330
1
100
AcDbSymbolTableRecord
100
AcDbBlockTableRecord
  2
TSFORMB
340
0
102
{BLKREFS
331
76
102
}
  0
BLOCK_RECORD
  5
643
330
1
100
AcDbSymbolTableRecord
100
AcDbBlockTableRecord
  2
*D1
340
0
  0
BLOCK_RECORD
  5
650
330
1
100
AcDbSymbolTableRecord
100
AcDbBlockTableRecord
  2
*D2
340
0
  0
BLOCK_RECORD
  5
65D
330
1
100
AcDbSymbolTableRecord
100
AcDbBlockTableRecord
  2
*D3
340
0
  0
BLOCK_RECORD
  5
66A
330
1
100
AcDbSymbolTableRecord
100
AcDbBlockTableRecord
  2
*D4
340
0
  0
BLOCK_RECORD
  5
677
330
1
100
AcDbSymbolTableRecord
100
AcDbBlockTableRecord
  2
*D5
340
0
  0
BLOCK_RECORD
  5
684
330
1
100
AcDbSymbolTableRecord
100
AcDbBlockTableRecord
  2
*D6
340
0
  0
BLOCK_RECORD
  5
691
330
1
100
AcDbSymbolTableRecord
100
AcDbBlockTableRecord
  2
*D7
340
0
  0
ENDTAB
  0
ENDSEC
  0
SECTION
  2
BLOCKS
  0
BLOCK
  5
5
330
2
100
AcDbEntity
  8
0
100
AcDbBlockBegin
  2
*MODEL_SPACE
 70
     2
 10
0.0
 20
0.0
 30
0.0
  3
*MODEL_SPACE
  1

  0
ENDBLK
  5
B
330
2
100
AcDbEntity
  8
0
100
AcDbBlockEnd
  0
BLOCK
  5
11
330
E
100
AcDbEntity
 67
     1
  8
0
100
AcDbBlockBegin
  2
*PAPER_SPACE
 70
     0
 10
0.0
 20
0.0
 30
0.0
  3
*PAPER_SPACE
  1

  0
ENDBLK
  5
12
330
E
100
AcDbEntity
 67
     1
  8
0
100
AcDbBlockEnd
  0
BLOCK
  5
AD
330
7F
100
AcDbEntity
  8
0
 62
     7
100
AcDbBlockBegin
  2
TSFORMB
 70
     2
 10
0.0
 20
0.0
 30
0.0
  3
TSFORMB
  1

  0
LINE
  5
80
330
7F
100
AcDbEntity
  8
0
100
AcDbLine
 10
105.9925392881563
 20
78.84810849484797
 30
0.0
 11
105.9925392881563
 21
70.31072004936999
 31
0.0
  0
LINE
  5
81
330
7F
100
AcDbEntity
  8
0
100
AcDbLine
 10
105.9925392881563
 20
0.0
 30
0.0
 11
105.9925392881563
 21
78.84810849484797
 31
0.0
  0
LINE
  5
82
330
7F
100
AcDbEntity
  8
0
100
AcDbLine
 10
0.0
 20
0.0
 30
0.0
 11
105.9925392881563
 21
0.0
 31
0.0
  0
LINE
  5
83
330
7F
100
AcDbEntity
  8
0
100
AcDbLine
 10
0.0
 20
78.84810849484797
 30
0.0
 11
0.0
 21
0.0
 31
0.0
  0
LINE
  5
84
330
7F
100
AcDbEntity
  8
0
100
AcDbLine
 10
56.87404547169354
 20
0.0
 30
0.0
 11
56.87404547169354
 21
12.46470592426129
 31
0.0
  0
TEXT
  5
85
330
7F
100
AcDbEntity
  8
0
 62
     7
100
AcDbText
 10
39.28098221173831
 20
10.97304845086642
 30
0.0
 40
0.8085000000000002
  1
LEGEND
100
AcDbText
  0
TEXT
  5
86
330
7F
100
AcDbEntity
  8
0
 62
     7
100
AcDbText
 10
38.18320344075362
 20
3.401999220949562
 30
0.0
 40
0.8400000000000002
  1
CATEGORY
 72
     1
 11
41.47652732452399
 21
3.401999220949562
 31
0.0
100
AcDbText
  0
LINE
  5
87
330
7F
100
AcDbEntity
  8
0
 62
     7
100
AcDbLine
 10
26.78791925899645
 20
8.549200111339303
 30
0.0
 11
29.32320076794366
 21
8.549200111339303
 31
0.0
  0
TEXT
  5
88
330
7F
100
AcDbEntity
  8
0
 62
     7
100
AcDbText
 10
30.56536100380196
 20
8.165961840384341
 30
0.0
 40
1.05
  1
- Unfinished Side
100
AcDbText
  0
LINE
  5
89
330
7F
100
AcDbEntity
  8
0
100
AcDbLine
 10
25.9704997615305
 20
0.0
 30
0.0
 11
25.9704997615305
 21
12.46470592426129
 31
0.0
  0
ATTDEF
  5
8A
330
7F
100
AcDbEntity
  8
BALUSTERS
 62
     1
100
AcDbText
 10
41.26016333205519
 20
0.916484150045278
 30
0.0
 40
1.025589599999999
  1

 72
     1
 11
41.26016333205519
 21
0.916484150045278
 31
0.0
100
AcDbAttributeDefinition
  3
ADD CATEGORY NAMES
  2
XXXXXX
 70
     0
  0
ATTDEF
  5
8C
330
7F
100
AcDbEntity
  8
BALUSTERS
 62
     1
100
AcDbText
 10
21.55372231158242
 20
1.875018704105684
 30
0.0
 40
0.8400000000000002
  1

 72
     2
 11
21.55372231158242
 21
1.875018704105684
 31
0.0
100
AcDbAttributeDefinition
  3
ADD BARCODE TEXT
  2
XXXXXX
 70
     0
  0
LINE
  5
8D
330
7F
100
AcDbEntity
  8
0
 62
     7
100
AcDbLine
 10
25.9704997615305
 20
12.46470592426129
 30
0.0
 11
0.0
 21
12.46470592426129
 31
0.0
  0
ATTDEF
  5
8E
330
7F
100
AcDbEntity
  8
BALUSTERS
 62
     1
100
AcDbText
 10
12.85191920549937
 20
3.11796280247222
 30
0.0
 40
6.132000000000001
  1

  7
barcoder
 72
     1
 11
12.85191920549937
 21
3.11796280247222
 31
0.0
100
AcDbAttributeDefinition
  3
ADD BARCODE NUMBER
  2
BARCODE
 70
     0
  0
LINE
  5
8F
330
7F
100
AcDbEntity
  8
0
 62
     7
100
AcDbLine
 10
56.87404547169354
 20
10.31505184057846
 30
0.0
 11
25.9704997615305
 21
10.31505184057846
 31
0.0
  0
LINE
  5
90
330
7F
100
AcDbEntity
  8
0
 62
     7
100
AcDbLine
 10
56.87404547169354
 20
2.864660228904256
 30
0.0
 11
25.9704997615305
 21
2.864660228904256
 31
0.0
  0
LINE
  5
91
330
7F
100
AcDbEntity
  8
0
 62
     7
100
AcDbLine
 10
56.87404547169354
 20
4.753491724833224
 30
0.0
 11
25.9704997615305
 21
4.753491724833224
 31
0.0
  0
LINE
  5
92
330
7F
100
AcDbEntity
  8
0
100
AcDbLine
 10
92.45878286761296
 20
70.31072004936999
 30
0.0
 11
92.45878286761296
 21
78.84810849484797
 31
0.0
  0
ATTDEF
  5
93
330
7F
100
AcDbEntity
  8
BALUSTERS
 62
     1
100
AcDbText
 10
99.20289126219257
 20
73.40001633244828
 30
0.0
 40
2.079
  1

 72
     1
 11
99.20289126219257
 21
73.40001633244828
 31
0.0
100
AcDbAttributeDefinition
  3
ADD PAGE NUMBER
  2
TS00XX
 70
     0
  0
LINE
  5
94
330
7F
100
AcDbEntity
  8
0
100
AcDbLine
 10
105.9925392881563
 20
70.31072004936999
 30
0.0
 11
92.45878286761296
 21
70.31072004936999
 31
0.0
  0
LINE
  5
95
330
7F
100
AcDbEntity
  8
0
100
AcDbLine
 10
105.9925392881563
 20
78.84810849484797
 30
0.0
 11
0.0
 21
78.84810849484797
 31
0.0
  0
TEXT
  5
96
330
7F
100
AcDbEntity
  8
0
 62
     7
100
AcDbText
 10
101.0916707105178
 20
4.784832420392319
 30
0.0
 40
0.8459472656250001
  1
1:1
100
AcDbText
  0
ARC
  5
97
330
7F
100
AcDbEntity
  8
0
 62
     7
100
AcDbCircle
 10
92.02173719823599
 20
7.854684255185304
 30
0.0
 40
0.5838368232859321
100
AcDbArc
 50
297.5553548372056
 51
304.8408806463489
  0
LINE
  5
98
330
7F
100
AcDbEntity
  8
0
 62
     7
100
AcDbLine
 10
96.44018670993672
 20
6.648784575743377
 30
0.0
 11
95.62662822118033
 21
6.648784575743377
 31
0.0
  0
ARC
  5
99
330
7F
100
AcDbEntity
  8
0
 62
     7
100
AcDbCircle
 10
92.02173719823599
 20
7.854684255185304
 30
0.0
 40
0.5838368232859408
100
AcDbArc
 50
304.8408806463489
 51
297.5553548372056
  0
TEXT
  5
9A
330
7F
100
AcDbEntity
  8
0
 62
     7
100
AcDbText
 10
91.5997577365548
 20
7.487990433787842
 30
0.0
 40
0.7875000000000002
  1
R
  7
ROMANC
 72
     1
 11
92.02565639984959
 21
7.487990433787842
 31
0.0
100
AcDbText
  0
LINE
  5
9C
330
7F
100
AcDbEntity
  8
0
100
AcDbLine
 10
96.44018670993649
 20
0.0
 30
0.0
 11
96.44018670993695
 21
12.46470592426129
 31
0.0
  0
TEXT
  5
9D
330
7F
100
AcDbEntity
  8
0
100
AcDbText
 10
57.83820509574335
 20
4.931128255646488
 30
0.0
 40
1.111564440985976
  1
ARCHITECTURAL CONCRETE CO., INC.
 41
1.25
 72
     4
 11
76.69038922088157
 21
5.404193065577089
 31
0.0
100
AcDbText
  0
TEXT
  5
9E
330
7F
100
AcDbEntity
  8
0
100
AcDbText
 10
64.01730751652124
 20
0.6790765005606179
 30
0.0
 40
0.6552430415498756
  1
PHONE: 1-800-789-4841  FAX : 770-463-2635
 41
1.1875
 72
     4
 11
76.73327742292065
 21
1.005769257279496
 31
0.0
100
AcDbText
  0
TEXT
  5
9F
330
7F
100
AcDbEntity
  8
0
 62
     7
100
AcDbText
 10
61.23651428794109
 20
7.899354841769707
 30
0.0
 40
3.572100000000002
  1
TannerStone
  7
ROMANC
 72
     1
 11
75.92109734429948
 21
7.899354841769707
 31
0.0
100
AcDbText
  0
TEXT
  5
A0
330
7F
100
AcDbEntity
  8
0
100
AcDbText
 10
61.57240842020546
 20
1.964543484004154
 30
0.0
 40
0.6552430415498756
  1
http://TannerStone.com ~ Email:Sales@TannerStone.com 
 41
1.1875
 72
     4
 11
77.08342119362362
 21
2.259193880788984
 31
0.0
100
AcDbText
  0
TEXT
  5
A1
330
7F
100
AcDbEntity
  8
0
100
AcDbText
 10
59.98363509556096
 20
3.260563711198551
 30
0.0
 40
0.74899296216962
  1
101 JOHNSTON CIRCLE, PALMETTO, GEORGIA 30268
 41
1.1875
 72
     4
 11
76.85158629384147
 21
3.579323650094977
 31
0.0
100
AcDbText
  0
LINE
  5
A2
330
7F
100
AcDbEntity
  8
0
100
AcDbLine
 10
56.87404547169354
 20
6.648784575743377
 30
0.0
 11
105.9925392881563
 21
6.648784575743377
 31
0.0
  0
LINE
  5
A3
330
7F
100
AcDbEntity
  8
0
 62
     7
100
AcDbLine
 10
96.44018670993682
 20
9.556745250002336
 30
0.0
 11
105.9925392881563
 21
9.556745250002336
 31
0.0
  0
TEXT
  5
A4
330
7F
100
AcDbEntity
  8
0
 62
     7
100
AcDbText
 10
96.66995560986686
 20
8.813345575893606
 30
0.0
 40
0.5414062500000001
  1
LBS/LINEAR FEET:
100
AcDbText
  0
LINE
  5
A5
330
7F
100
AcDbEntity
  8
LINEWORK
 62
     7
100
AcDbLine
 10
96.40991550469017
 20
3.757904136908962
 30
0.0
 11
105.9622680829099
 21
3.757904136909189
 31
0.0
  0
TEXT
  5
A6
330
7F
100
AcDbEntity
  8
0
 62
     7
100
AcDbText
 10
98.85330873086445
 20
1.524519923848686
 30
0.0
 40
0.8459472656250001
  1
1-1-2000
100
AcDbText
  0
TEXT
  5
A7
330
7F
100
AcDbEntity
  8
0
 62
     7
100
AcDbText
 10
96.68542089784603
 20
5.927566558083469
 30
0.0
 40
0.5414062500000001
  1
SCALE:
100
AcDbText
  0
TEXT
  5
A8
330
7F
100
AcDbEntity
  8
0
 62
     7
100
AcDbText
 10
96.74158717246577
 20
2.97910930546476
 30
0.0
 40
0.5414062500000001
  1
DATE:
100
AcDbText
  0
TEXT
  5
A9
330
7F
100
AcDbEntity
  8
0
 62
     7
100
AcDbText
 10
96.70022651293084
 20
11.66518473255649
 30
0.0
 40
0.5414062500000001
  1
PROFILE AREA:
100
AcDbText
  0
ATTDEF
  5
AA
330
7F
100
AcDbEntity
  8
BALUSTERS
 62
     1
100
AcDbText
 10
101.1759733039033
 20
10.07900441527107
 30
0.0
 40
0.9450000000000002
  1

 72
     1
 11
101.1759733039033
 21
10.07900441527107
 31
0.0
100
AcDbAttributeDefinition
  3
ADD PROFILE AREA
  2
XXXXX
 70
     0
  0
ATTDEF
  5
AB
330
7F
100
AcDbEntity
  8
BALUSTERS
 62
     1
100
AcDbText
 10
101.1418062311347
 20
7.21953861551384
 30
0.0
 40
0.9450000000000002
  1

 72
     1
 11
101.1418062311347
 21
7.21953861551384
 31
0.0
100
AcDbAttributeDefinition
  3
ADD #/LF
  2
XXXXX
 70
     0
  0
LINE
  5
AC
330
7F
100
AcDbEntity
  8
0
100
AcDbLine
 10
25.9704997615305
 20
12.46470592426129
 30
0.0
 11
105.9925392881563
 21
12.46470592426129
 31
0.0
  0
ENDBLK
  5
AE
330
7F
100
AcDbEntity
  8
0
 62
     7
100
AcDbBlockEnd
  0
BLOCK
  5
64E
330
643
100
AcDbEntity
  8
0
 62
     7
100
AcDbBlockBegin
  2
*D1
 70
     1
 10
0.0
 20
0.0
 30
0.0
  3
*D1
  1

  0
LINE
  5
719
330
643
100
AcDbEntity
  8
DIM
 62
     0
100
AcDbLine
 10
167.3949859868434
 20
68.24577989702413
 30
0.0
 11
172.5298521132293
 21
68.24577989702413
 31
0.0
  0
LINE
  5
71A
330
643
100
AcDbEntity
  8
DIM
 62
     0
100
AcDbLine
 10
167.3949859868434
 20
94.29505635784664
 30
0.0
 11
172.5298521132293
 21
94.29505635784664
 31
0.0
  0
LINE
  5
71B
330
643
100
AcDbEntity
  8
DIM
 62
     0
100
AcDbLine
 10
171.9298521132293
 20
69.44577989702414
 30
0.0
 11
171.9298521132293
 21
78.5361104868315
 31
0.0
  0
LINE
  5
71C
330
643
100
AcDbEntity
  8
DIM
 62
     0
100
AcDbLine
 10
171.9298521132293
 20
93.09505635784665
 30
0.0
 11
171.9298521132293
 21
83.42625931744811
 31
0.0
  0
MTEXT
  5
71D
330
643
100
AcDbEntity
  8
DIM
 62
     0
100
AcDbMText
 10
171.9298521132293
 20
80.98118490213982
 30
0.0
 40
2.399999999999999
 41
0.0
 71
     5
 72
     1
  1
\A1;26"
 73
     1
 44
1.0
  0
SOLID
  5
71E
330
643
100
AcDbEntity
  8
DIM
 62
     0
100
AcDbTrace
 10
171.7298521132293
 20
69.44577989702414
 30
0.0
 11
172.1298521132293
 21
69.44577989702414
 31
0.0
 12
171.9298521132293
 22
68.24577989702413
 32
0.0
 13
171.9298521132293
 23
68.24577989702413
 33
0.0
  0
SOLID
  5
71F
330
643
100
AcDbEntity
  8
DIM
 62
     0
100
AcDbTrace
 10
171.7298521132293
 20
93.09505635784665
 30
0.0
 11
172.1298521132293
 21
93.09505635784665
 31
0.0
 12
171.9298521132293
 22
94.29505635784664
 32
0.0
 13
171.9298521132293
 23
94.29505635784664
 33
0.0
  0
POINT
  5
720
330
643
100
AcDbEntity
  8
Defpoints
 62
     0
100
AcDbPoint
 10
164.9949859868434
 20
68.24577989702413
 30
0.0
  0
POINT
  5
721
330
643
100
AcDbEntity
  8
Defpoints
 62
     0
100
AcDbPoint
 10
164.9949859868434
 20
94.29505635784664
 30
0.0
  0
POINT
  5
722
330
643
100
AcDbEntity
  8
Defpoints
 62
     0
100
AcDbPoint
 10
171.9298521132293
 20
94.29505635784664
 30
0.0
  0
ENDBLK
  5
64F
330
643
100
AcDbEntity
  8
0
 62
     7
100
AcDbBlockEnd
  0
BLOCK
  5
65B
330
650
100
AcDbEntity
  8
0
 62
     7
100
AcDbBlockBegin
  2
*D2
 70
     1
 10
0.0
 20
0.0
 30
0.0
  3
*D2
  1

  0
LINE
  5
723
330
650
100
AcDbEntity
  8
DIM
 62
     0
100
AcDbLine
 10
170.3302533658267
 20
63.49577989702391
 30
0.0
 11
183.5172592079832
 21
63.4957798970239
 31
0.0
  0
LINE
  5
724
330
650
100
AcDbEntity
  8
DIM
 62
     0
100
AcDbLine
 10
170.4520043487254
 20
99.3450563578466
 30
0.0
 11
183.5172592079833
 21
99.3450563578466
 31
0.0
  0
LINE
  5
725
330
650
100
AcDbEntity
  8
DIM
 62
     0
100
AcDbLine
 10
182.9172592079833
 20
64.6957798970239
 30
0.0
 11
182.9172592079833
 21
78.5361104868315
 31
0.0
  0
LINE
  5
726
330
650
100
AcDbEntity
  8
DIM
 62
     0
100
AcDbLine
 10
182.9172592079833
 20
98.1450563578466
 30
0.0
 11
182.9172592079833
 21
83.42625931744811
 31
0.0
  0
MTEXT
  5
727
330
650
100
AcDbEntity
  8
DIM
 62
     0
100
AcDbMText
 10
182.9172592079833
 20
80.98118490213982
 30
0.0
 40
2.399999999999999
 41
0.0
 71
     5
 72
     1
  1
\A1;36"
 73
     1
 44
1.0
  0
SOLID
  5
728
330
650
100
AcDbEntity
  8
DIM
 62
     0
100
AcDbTrace
 10
182.7172592079833
 20
64.6957798970239
 30
0.0
 11
183.1172592079832
 21
64.6957798970239
 31
0.0
 12
182.9172592079832
 22
63.4957798970239
 32
0.0
 13
182.9172592079832
 23
63.4957798970239
 33
0.0
  0
SOLID
  5
729
330
650
100
AcDbEntity
  8
DIM
 62
     0
100
AcDbTrace
 10
182.7172592079833
 20
98.1450563578466
 30
0.0
 11
183.1172592079832
 21
98.1450563578466
 31
0.0
 12
182.9172592079833
 22
99.3450563578466
 32
0.0
 13
182.9172592079833
 23
99.3450563578466
 33
0.0
  0
POINT
  5
72A
330
650
100
AcDbEntity
  8
Defpoints
 62
     0
100
AcDbPoint
 10
167.9302533658267
 20
63.49577989702391
 30
0.0
  0
POINT
  5
72B
330
650
100
AcDbEntity
  8
Defpoints
 62
     0
100
AcDbPoint
 10
168.0520043487254
 20
99.3450563578466
 30
0.0
  0
POINT
  5
72C
330
650
100
AcDbEntity
  8
Defpoints
 62
     0
100
AcDbPoint
 10
182.9172592079833
 20
99.3450563578466
 30
0.0
  0
ENDBLK
  5
65C
330
650
100
AcDbEntity
  8
0
 62
     7
100
AcDbBlockEnd
  0
BLOCK
  5
668
330
65D
100
AcDbEntity
  8
0
 62
     7
100
AcDbBlockBegin
  2
*D3
 70
     1
 10
0.0
 20
0.0
 30
0.0
  3
*D3
  1

  0
LINE
  5
72D
330
65D
100
AcDbEntity
  8
DIM
 62
     0
100
AcDbLine
 10
134.5064324307415
 20
67.87077989702414
 30
0.0
 11
142.7566739456338
 21
67.87077989702414
 31
0.0
  0
LINE
  5
72E
330
65D
100
AcDbEntity
  8
DIM
 62
     0
100
AcDbLine
 10
134.5064324307415
 20
95.93377989702402
 30
0.0
 11
142.7566739456338
 21
95.93377989702402
 31
0.0
  0
LINE
  5
72F
330
65D
100
AcDbEntity
  8
DIM
 62
     0
100
AcDbLine
 10
142.1566739456338
 20
69.07077989702414
 30
0.0
 11
142.1566739456338
 21
79.61623412717539
 31
0.0
  0
LINE
  5
730
330
65D
100
AcDbEntity
  8
DIM
 62
     0
100
AcDbLine
 10
142.1566739456338
 20
94.73377989702401
 30
0.0
 11
142.1566739456338
 21
84.63225113638872
 31
0.0
  0
MTEXT
  5
731
330
65D
100
AcDbEntity
  8
DIM
 62
     0
100
AcDbMText
 10
142.1566739456338
 20
82.12424263178206
 30
0.0
 40
2.399999999999999
 41
0.0
 71
     5
 72
     1
  1
\A1;26-3/4"
 73
     1
 44
1.0
  0
SOLID
  5
732
330
65D
100
AcDbEntity
  8
DIM
 62
     0
100
AcDbTrace
 10
141.9566739456338
 20
69.07077989702414
 30
0.0
 11
142.3566739456338
 21
69.07077989702414
 31
0.0
 12
142.1566739456338
 22
67.87077989702414
 32
0.0
 13
142.1566739456338
 23
67.87077989702414
 33
0.0
  0
SOLID
  5
733
330
65D
100
AcDbEntity
  8
DIM
 62
     0
100
AcDbTrace
 10
141.9566739456338
 20
94.73377989702401
 30
0.0
 11
142.3566739456338
 21
94.73377989702401
 31
0.0
 12
142.1566739456338
 22
95.93377989702402
 32
0.0
 13
142.1566739456338
 23
95.93377989702402
 33
0.0
  0
POINT
  5
734
330
65D
100
AcDbEntity
  8
Defpoints
 62
     0
100
AcDbPoint
 10
132.1064324307415
 20
67.87077989702414
 30
0.0
  0
POINT
  5
735
330
65D
100
AcDbEntity
  8
Defpoints
 62
     0
100
AcDbPoint
 10
132.1064324307415
 20
95.93377989702402
 30
0.0
  0
POINT
  5
736
330
65D
100
AcDbEntity
  8
Defpoints
 62
     0
100
AcDbPoint
 10
142.1566739456338
 20
95.93377989702402
 30
0.0
  0
ENDBLK
  5
669
330
65D
100
AcDbEntity
  8
0
 62
     7
100
AcDbBlockEnd
  0
BLOCK
  5
675
330
66A
100
AcDbEntity
  8
0
 62
     7
100
AcDbBlockBegin
  2
*D4
 70
     1
 10
0.0
 20
0.0
 30
0.0
  3
*D4
  1

  0
LINE
  5
737
330
66A
100
AcDbEntity
  8
DIM
 62
     0
100
AcDbLine
 10
158.2966297368434
 20
61.47077989702425
 30
0.0
 11
158.2966297368434
 21
54.77788618467005
 31
0.0
  0
LINE
  5
738
330
66A
100
AcDbEntity
  8
DIM
 62
     0
100
AcDbLine
 10
165.9206297368434
 20
61.47077989702436
 30
0.0
 11
165.9206297368434
 21
54.77788618467005
 31
0.0
  0
LINE
  5
739
330
66A
100
AcDbEntity
  8
DIM
 62
     0
100
AcDbLine
 10
159.4966297368434
 20
55.37788618467004
 30
0.0
 11
164.7206297368434
 21
55.37788618467004
 31
0.0
  0
LINE
  5
73A
330
66A
100
AcDbEntity
  8
DIM
 62
     0
100
AcDbLine
 10
170.1986854996034
 20
55.37788618467004
 30
0.0
 11
165.9206297368434
 21
55.37788618467004
 31
0.0
  0
MTEXT
  5
73B
330
66A
100
AcDbEntity
  8
DIM
 62
     0
100
AcDbMText
 10
176.8552411339053
 20
55.37788618467004
 30
0.0
 40
2.399999999999999
 41
0.0
 71
     5
 72
     1
  1
\A1;7 5/8"
 73
     1
 44
1.0
  0
SOLID
  5
73C
330
66A
100
AcDbEntity
  8
DIM
 62
     0
100
AcDbTrace
 10
159.4966297368434
 20
55.57788618467005
 30
0.0
 11
159.4966297368434
 21
55.17788618467005
 31
0.0
 12
158.2966297368434
 22
55.37788618467004
 32
0.0
 13
158.2966297368434
 23
55.37788618467004
 33
0.0
  0
SOLID
  5
73D
330
66A
100
AcDbEntity
  8
DIM
 62
     0
100
AcDbTrace
 10
164.7206297368434
 20
55.57788618467005
 30
0.0
 11
164.7206297368434
 21
55.17788618467005
 31
0.0
 12
165.9206297368434
 22
55.37788618467004
 32
0.0
 13
165.9206297368434
 23
55.37788618467004
 33
0.0
  0
POINT
  5
73E
330
66A
100
AcDbEntity
  8
Defpoints
 62
     0
100
AcDbPoint
 10
158.2966297368434
 20
63.87077989702425
 30
0.0
  0
POINT
  5
73F
330
66A
100
AcDbEntity
  8
Defpoints
 62
     0
100
AcDbPoint
 10
165.9206297368434
 20
63.87077989702437
 30
0.0
  0
POINT
  5
740
330
66A
100
AcDbEntity
  8
Defpoints
 62
     0
100
AcDbPoint
 10
165.9206297368434
 20
55.37788618467004
 30
0.0
  0
ENDBLK
  5
676
330
66A
100
AcDbEntity
  8
0
 62
     7
100
AcDbBlockEnd
  0
BLOCK
  5
682
330
677
100
AcDbEntity
  8
0
 62
     7
100
AcDbBlockBegin
  2
*D5
 70
     1
 10
0.0
 20
0.0
 30
0.0
  3
*D5
  1

  0
LINE
  5
741
330
677
100
AcDbEntity
  8
leaders
 62
     0
100
AcDbLine
 10
60.27502030253322
 20
42.06298155172019
 30
0.0
 11
60.27502030253322
 21
39.64002284748246
 31
0.0
  0
LINE
  5
742
330
677
100
AcDbEntity
  8
leaders
 62
     0
100
AcDbLine
 10
120.6064324307403
 20
61.51427365980474
 30
0.0
 11
120.6064324307403
 21
39.64002284748246
 31
0.0
  0
LINE
  5
743
330
677
100
AcDbEntity
  8
leaders
 62
     0
100
AcDbLine
 10
61.47502030253322
 20
40.24002284748246
 30
0.0
 11
83.39978218343725
 21
40.24002284748246
 31
0.0
  0
LINE
  5
744
330
677
100
AcDbEntity
  8
leaders
 62
     0
100
AcDbLine
 10
119.4064324307403
 20
40.24002284748246
 30
0.0
 11
97.82019323942591
 21
40.24002284748246
 31
0.0
  0
MTEXT
  5
745
330
677
100
AcDbEntity
  8
leaders
 62
     0
100
AcDbMText
 10
90.60998771143159
 20
40.24002284748246
 30
0.0
 40
2.399999999999999
 41
0.0
 71
     5
 72
     1
  1
\A1;VARIES
 73
     1
 44
1.0
  0
SOLID
  5
746
330
677
100
AcDbEntity
  8
leaders
 62
     0
100
AcDbTrace
 10
61.47502030253322
 20
40.44002284748247
 30
0.0
 11
61.47502030253322
 21
40.04002284748246
 31
0.0
 12
60.27502030253322
 22
40.24002284748246
 32
0.0
 13
60.27502030253322
 23
40.24002284748246
 33
0.0
  0
SOLID
  5
747
330
677
100
AcDbEntity
  8
leaders
 62
     0
100
AcDbTrace
 10
119.4064324307403
 20
40.44002284748247
 30
0.0
 11
119.4064324307403
 21
40.04002284748246
 31
0.0
 12
120.6064324307403
 22
40.24002284748246
 32
0.0
 13
120.6064324307403
 23
40.24002284748246
 33
0.0
  0
POINT
  5
748
330
677
100
AcDbEntity
  8
Defpoints
 62
     0
100
AcDbPoint
 10
60.27502030253322
 20
44.46298155172018
 30
0.0
  0
POINT
  5
749
330
677
100
AcDbEntity
  8
Defpoints
 62
     0
100
AcDbPoint
 10
120.6064324307403
 20
63.91427365980473
 30
0.0
  0
POINT
  5
74A
330
677
100
AcDbEntity
  8
Defpoints
 62
     0
100
AcDbPoint
 10
120.6064324307403
 20
40.24002284748246
 30
0.0
  0
ENDBLK
  5
683
330
677
100
AcDbEntity
  8
0
 62
     7
100
AcDbBlockEnd
  0
BLOCK
  5
68F
330
684
100
AcDbEntity
  8
0
 62
     7
100
AcDbBlockBegin
  2
*D6
 70
     1
 10
0.0
 20
0.0
 30
0.0
  3
*D6
  1

  0
LINE
  5
74B
330
684
100
AcDbEntity
  8
DIM
 62
     0
100
AcDbLine
 10
90.20655917350484
 20
55.0338076586605
 30
0.0
 11
90.20655917350484
 21
49.87520978370642
 31
0.0
  0
LINE
  5
74C
330
684
100
AcDbEntity
  8
DIM
 62
     0
100
AcDbLine
 10
102.2065591735048
 20
61.96201088893597
 30
0.0
 11
102.2065591735048
 21
49.87520978370642
 31
0.0
  0
LINE
  5
74D
330
684
100
AcDbEntity
  8
DIM
 62
     0
100
AcDbLine
 10
89.00655917350484
 20
50.47520978370641
 30
0.0
 11
87.80655917350484
 21
50.47520978370641
 31
0.0
  0
LINE
  5
74E
330
684
100
AcDbEntity
  8
DIM
 62
     0
100
AcDbLine
 10
103.4065591735048
 20
50.47520978370641
 30
0.0
 11
104.6065591735048
 21
50.47520978370641
 31
0.0
  0
MTEXT
  5
74F
330
684
100
AcDbEntity
  8
DIM
 62
     0
100
AcDbMText
 10
96.88027260538582
 20
50.47520978370641
 30
0.0
 40
2.399999999999999
 41
0.0
 71
     5
 72
     1
  1
\A1;12"
 73
     1
 44
1.0
  0
SOLID
  5
750
330
684
100
AcDbEntity
  8
DIM
 62
     0
100
AcDbTrace
 10
89.00655917350484
 20
50.67520978370642
 30
0.0
 11
89.00655917350484
 21
50.27520978370642
 31
0.0
 12
90.20655917350484
 22
50.47520978370641
 32
0.0
 13
90.20655917350484
 23
50.47520978370641
 33
0.0
  0
SOLID
  5
751
330
684
100
AcDbEntity
  8
DIM
 62
     0
100
AcDbTrace
 10
103.4065591735048
 20
50.67520978370642
 30
0.0
 11
103.4065591735048
 21
50.27520978370642
 31
0.0
 12
102.2065591735048
 22
50.47520978370641
 32
0.0
 13
102.2065591735048
 23
50.47520978370641
 33
0.0
  0
POINT
  5
752
330
684
100
AcDbEntity
  8
Defpoints
 62
     0
100
AcDbPoint
 10
90.20655917350484
 20
57.43380765866049
 30
0.0
  0
POINT
  5
753
330
684
100
AcDbEntity
  8
Defpoints
 62
     0
100
AcDbPoint
 10
102.2065591735048
 20
64.36201088893596
 30
0.0
  0
POINT
  5
754
330
684
100
AcDbEntity
  8
Defpoints
 62
     0
100
AcDbPoint
 10
102.2065591735048
 20
50.47520978370641
 30
0.0
  0
ENDBLK
  5
690
330
684
100
AcDbEntity
  8
0
 62
     7
100
AcDbBlockEnd
  0
BLOCK
  5
69C
330
691
100
AcDbEntity
  8
0
 62
     7
100
AcDbBlockBegin
  2
*D7
 70
     1
 10
0.0
 20
0.0
 30
0.0
  3
*D7
  1

  0
LINE
  5
755
330
691
100
AcDbEntity
  8
DIM
 62
     0
100
AcDbLine
 10
155.9743817771225
 20
100.9200563578465
 30
0.0
 11
155.9743817771225
 21
106.502738750787
 31
0.0
  0
LINE
  5
756
330
691
100
AcDbEntity
  8
DIM
 62
     0
100
AcDbLine
 10
168.2427533658271
 20
100.9200563578465
 30
0.0
 11
168.2427533658271
 21
106.502738750787
 31
0.0
  0
LINE
  5
757
330
691
100
AcDbEntity
  8
DIM
 62
     0
100
AcDbLine
 10
157.1743817771225
 20
105.902738750787
 30
0.0
 11
167.0427533658271
 21
105.902738750787
 31
0.0
  0
LINE
  5
758
330
691
100
AcDbEntity
  8
DIM
 62
     0
100
AcDbLine
 10
172.2634867794116
 20
105.902738750787
 30
0.0
 11
168.2427533658271
 21
105.902738750787
 31
0.0
  0
MTEXT
  5
759
330
691
100
AcDbEntity
  8
DIM
 62
     0
100
AcDbMText
 10
179.8104747312188
 20
105.902738750787
 30
0.0
 40
2.399999999999999
 41
0.0
 71
     5
 72
     1
  1
\A1;12 1/4"
 73
     1
 44
1.0
  0
SOLID
  5
75A
330
691
100
AcDbEntity
  8
DIM
 62
     0
100
AcDbTrace
 10
157.1743817771225
 20
106.102738750787
 30
0.0
 11
157.1743817771225
 21
105.702738750787
 31
0.0
 12
155.9743817771225
 22
105.902738750787
 32
0.0
 13
155.9743817771225
 23
105.902738750787
 33
0.0
  0
SOLID
  5
75B
330
691
100
AcDbEntity
  8
DIM
 62
     0
100
AcDbTrace
 10
167.0427533658271
 20
106.102738750787
 30
0.0
 11
167.0427533658271
 21
105.702738750787
 31
0.0
 12
168.2427533658271
 22
105.902738750787
 32
0.0
 13
168.2427533658271
 23
105.902738750787
 33
0.0
  0
POINT
  5
75C
330
691
100
AcDbEntity
  8
Defpoints
 62
     0
100
AcDbPoint
 10
155.9743817771225
 20
98.52005635784657
 30
0.0
  0
POINT
  5
75D
330
691
100
AcDbEntity
  8
Defpoints
 62
     0
100
AcDbPoint
 10
168.2427533658271
 20
98.52005635784657
 30
0.0
  0
POINT
  5
75E
330
691
100
AcDbEntity
  8
Defpoints
 62
     0
100
AcDbPoint
 10
168.2427533658271
 20
105.902738750787
 30
0.0
  0
ENDBLK
  5
69D
330
691
100
AcDbEntity
  8
0
 62
     7
100
AcDbBlockEnd
  0
ENDSEC
  0
SECTION
  2
ENTITIES
  0
LINE
  5
29
330
2
100
AcDbEntity
  8
LINEWORK
 62
     7
370
    30
100
AcDbLine
 10
132.0166372689282
 20
94.93619182091277
 30
0.0
 11
132.0166372689284
 21
68.87077989702413
 31
0.0
  0
LINE
  5
2B
330
2
100
AcDbEntity
  8
LINEWORK
 62
     7
370
    30
100
AcDbLine
 10
121.1337013288502
 20
68.87077989702413
 30
0.0
 11
121.13370132885
 21
94.93619182091277
 31
0.0
  0
LINE
  5
2C
330
2
100
AcDbEntity
  8
LINEWORK
 62
     7
370
    30
100
AcDbLine
 10
81.18506612146882
 20
76.26693265866174
 30
0.0
 11
81.18506612146882
 21
80.50654601468556
 31
0.0
  0
ARC
  5
2D
330
2
100
AcDbEntity
  8
LINEWORK
 62
     7
370
    30
100
AcDbCircle
 10
112.3458198096019
 20
79.84011115308397
 30
0.0
 40
3.858932812500603
100
AcDbArc
 50
310.1305441294352
 51
0.9116081324222738
  0
ARC
  5
2E
330
2
100
AcDbEntity
  8
LINEWORK
 62
     7
370
    30
100
AcDbCircle
 10
112.3467924371284
 20
79.83966833319584
 30
0.0
 40
3.857967380510689
100
AcDbArc
 50
310.1237387019697
 51
0.9184135598970037
  0
ARC
  5
2F
330
2
100
AcDbEntity
  8
LINEWORK
 62
     7
370
    30
100
AcDbCircle
 10
114.3292915107709
 20
79.84011115308397
 30
0.0
 40
3.858932812500603
100
AcDbArc
 50
179.0883918675777
 51
229.8694558705647
  0
ARC
  5
30
330
2
100
AcDbEntity
  8
LINEWORK
 62
     7
370
    30
100
AcDbCircle
 10
114.3283188832443
 20
79.83966833319584
 30
0.0
 40
3.857967380510689
100
AcDbArc
 50
179.0815864401029
 51
229.8762612980302
  0
LINE
  5
31
330
2
100
AcDbEntity
  8
LINEWORK
 62
     7
370
    30
100
AcDbLine
 10
75.41235362146881
 20
77.17366889885624
 30
0.0
 11
81.18506612146882
 21
80.50654601468556
 31
0.0
  0
LINE
  5
32
330
2
100
AcDbEntity
  8
LINEWORK
370
    30
100
AcDbLine
 10
130.1064324307415
 20
71.30877989702492
 30
0.0
 11
130.1064324307415
 21
92.30877989702447
 31
0.0
  0
LINE
  5
33
330
2
100
AcDbEntity
  8
LINEWORK
370
    30
100
AcDbLine
 10
123.1064324307415
 20
71.30877989702401
 30
0.0
 11
123.1064324307415
 21
92.30877989702378
 31
0.0
  0
LINE
  5
34
330
2
100
AcDbEntity
  8
LINEWORK
 62
     7
370
    30
100
AcDbLine
 10
72.19225254381967
 20
75.85748778893947
 30
0.0
 11
71.29559006920408
 21
80.53248778893943
 31
0.0
  0
LINE
  5
35
330
2
100
AcDbEntity
  8
LINEWORK
 62
     7
370
    30
100
AcDbLine
 10
72.55408669320968
 20
75.95646042030228
 30
0.0
 11
71.65742421859431
 21
80.63146042030224
 31
0.0
  0
LINE
  5
36
330
2
100
AcDbEntity
  8
LINEWORK
 62
     7
370
    30
100
AcDbLine
 10
72.55408669320968
 20
75.95646042030228
 30
0.0
 11
106.1269808462311
 21
95.33977989702396
 31
0.0
  0
LINE
  5
37
330
2
100
AcDbEntity
  8
LINEWORK
 62
     7
370
    30
100
AcDbLine
 10
72.3422334845643
 20
77.06101623529002
 30
0.0
 11
105.8366162556178
 21
96.39900714449835
 31
0.0
  0
LINE
  5
38
330
2
100
AcDbEntity
  8
LINEWORK
 62
     7
370
    30
100
AcDbLine
 10
72.44192911216214
 20
76.54122526353103
 30
0.0
 11
105.9732584159064
 21
95.90054726333391
 31
0.0
  0
ARC
  5
39
330
2
100
AcDbEntity
  8
LINEWORK
370
    30
100
AcDbCircle
 10
60.81191432216724
 20
78.25532597100243
 30
0.0
 40
1.299371506374636
100
AcDbArc
 50
272.783752937382
 51
354.2984521406171
  0
ARC
  5
3A
330
2
100
AcDbEntity
  8
LINEWORK
370
    30
100
AcDbCircle
 10
47.73812628289715
 20
78.25532597100243
 30
0.0
 40
1.299371506374636
100
AcDbArc
 50
185.7015478593828
 51
267.2162470626179
  0
ARC
  5
3B
330
2
100
AcDbEntity
  8
LINEWORK
 62
     7
370
    30
100
AcDbCircle
 10
161.1178665137854
 20
79.21466833319584
 30
0.0
 40
3.857967380510689
100
AcDbArc
 50
310.1237387019697
 51
0.9184135598970037
  0
ARC
  5
3C
330
2
100
AcDbEntity
  8
LINEWORK
 62
     7
370
    30
100
AcDbCircle
 10
161.116893886259
 20
79.21511115308397
 30
0.0
 40
3.858932812500603
100
AcDbArc
 50
310.1305441294352
 51
0.9116081324222738
  0
ARC
  5
3D
330
2
100
AcDbEntity
  8
LINEWORK
 62
     7
370
    30
100
AcDbCircle
 10
163.0993929599014
 20
79.21466833319584
 30
0.0
 40
3.857967380510689
100
AcDbArc
 50
179.0815864401029
 51
229.8762612980302
  0
ARC
  5
3E
330
2
100
AcDbEntity
  8
LINEWORK
 62
     7
370
    30
100
AcDbCircle
 10
163.100365587428
 20
79.21511115308397
 30
0.0
 40
3.858932812500603
100
AcDbArc
 50
179.0883918675777
 51
229.8694558705647
  0
ARC
  5
3F
330
2
100
AcDbEntity
  8
LINEWORK
 62
     7
370
    30
100
AcDbCircle
 10
99.76298061141813
 20
77.25137695198885
 30
0.0
 40
5.330037199451427
100
AcDbArc
 50
357.6418735319813
 51
19.60711889602133
  0
ARC
  5
40
330
2
100
AcDbEntity
  8
LINEWORK
 62
     7
370
    30
100
AcDbCircle
 10
99.75950887189652
 20
77.25085038239774
 30
0.0
 40
5.333484374999923
100
AcDbArc
 50
357.649060045261
 51
19.59993238281736
  0
LINE
  5
41
330
2
100
AcDbEntity
  8
LINEWORK
 62
     7
370
    30
100
AcDbLine
 10
91.95301386100481
 20
77.59220765866178
 30
0.0
 11
91.95301386100481
 21
78.34517015866186
 31
0.0
  0
LINE
  5
42
330
2
100
AcDbEntity
  8
LINEWORK
 62
     7
370
    30
100
AcDbLine
 10
91.95301386100481
 20
77.59220765866178
 30
0.0
 11
91.95301386100481
 21
78.34517015866186
 31
0.0
  0
ARC
  5
43
330
2
100
AcDbEntity
  8
LINEWORK
 62
     7
370
    30
100
AcDbCircle
 10
104.6806106398021
 20
77.25137695198885
 30
0.0
 40
5.330037199451427
100
AcDbArc
 50
160.3928811039786
 51
182.3581264680186
  0
ARC
  5
44
330
2
100
AcDbEntity
  8
LINEWORK
 62
     7
370
    30
100
AcDbCircle
 10
104.6840823793238
 20
77.25085038239774
 30
0.0
 40
5.333484374999923
100
AcDbArc
 50
160.4000676171826
 51
182.3509399547389
  0
LINE
  5
45
330
2
100
AcDbEntity
  8
LINEWORK
 62
     7
370
    30
100
AcDbLine
 10
88.46010448600475
 20
77.59220765866178
 30
0.0
 11
88.46010448600475
 21
78.34517015866186
 31
0.0
  0
LINE
  5
46
330
2
100
AcDbEntity
  8
LINEWORK
 62
     7
370
    30
100
AcDbLine
 10
88.46010448600475
 20
77.59220765866178
 30
0.0
 11
88.46010448600486
 21
78.34517015866186
 31
0.0
  0
LINE
  5
47
330
2
100
AcDbEntity
  8
LINEWORK
  6
DASHED
 62
     7
 48
2.0
370
    30
100
AcDbLine
 10
78.54870987146887
 20
81.02879904714177
 30
0.0
 11
78.54870987146887
 21
77.02879904714177
 31
0.0
  0
LINE
  5
49
330
2
100
AcDbEntity
  8
LINEWORK
  6
DASHED
 62
     7
 48
2.0
370
    30
100
AcDbLine
 10
78.04870987146887
 20
77.02879904714177
 30
0.0
 11
78.04870987146887
 21
81.02879904714177
 31
0.0
  0
DIMENSION
  5
4A
330
2
100
AcDbEntity
  8
DIM
 62
     7
370
    30
100
AcDbDimension
  2
*D1
 10
171.9298521132293
 20
94.29505635784664
 30
0.0
 11
171.9298521132293
 21
80.98118490213982
 31
0.0
 70
   160
  1
26"
 71
     5
 42
-1.0
  3
STANDARD
100
AcDbAlignedDimension
 13
164.9949859868434
 23
68.24577989702413
 33
0.0
 14
164.9949859868434
 24
94.29505635784664
 34
0.0
 50
90.0
100
AcDbRotatedDimension
1001
ACAD
1000
DSTYLE
1002
{
1070
   287
1070
     4
1070
   287
1070
     4
1070
   287
1070
     4
1070
   287
1070
     4
1070
    40
1040
2.399999999999999
1070
    73
1070
     1
1070
    74
1070
     1
1070
    77
1070
     0
1070
   147
1040
0.5
1070
   279
1070
     1
1070
   288
1070
     1
1070
   289
1070
     3
1002
}
  0
DIMENSION
  5
5A
330
2
100
AcDbEntity
  8
DIM
 62
     7
370
    30
100
AcDbDimension
  2
*D2
 10
182.9172592079833
 20
99.3450563578466
 30
0.0
 11
182.9172592079833
 21
80.98118490213982
 31
0.0
 70
   160
  1
36"
 71
     5
 42
-1.0
  3
STANDARD
100
AcDbAlignedDimension
 13
167.9302533658267
 23
63.49577989702391
 33
0.0
 14
168.0520043487254
 24
99.3450563578466
 34
0.0
 50
90.0
100
AcDbRotatedDimension
1001
ACAD
1000
DSTYLE
1002
{
1070
   287
1070
     4
1070
   287
1070
     4
1070
   287
1070
     4
1070
   287
1070
     4
1070
    40
1040
2.399999999999999
1070
    73
1070
     1
1070
    74
1070
     1
1070
    77
1070
     0
1070
   147
1040
0.5
1070
   279
1070
     1
1070
   288
1070
     1
1070
   289
1070
     3
1002
}
  0
DIMENSION
  5
68
330
2
100
AcDbEntity
  8
DIM
 62
     7
370
    30
100
AcDbDimension
  2
*D3
 10
142.1566739456338
 20
95.93377989702402
 30
0.0
 11
142.1566739456338
 21
82.12424263178206
 31
0.0
 70
   160
  1
26-3/4"
 71
     5
 42
-1.0
  3
STANDARD
100
AcDbAlignedDimension
 13
132.1064324307415
 23
67.87077989702414
 33
0.0
 14
132.1064324307415
 24
95.93377989702402
 34
0.0
 50
90.0
100
AcDbRotatedDimension
1001
ACAD
1000
DSTYLE
1002
{
1070
   287
1070
     4
1070
   287
1070
     4
1070
   287
1070
     4
1070
   287
1070
     4
1070
    40
1040
2.399999999999999
1070
    73
1070
     1
1070
    74
1070
     1
1070
    77
1070
     0
1070
   147
1040
0.5
1070
   279
1070
     1
1070
   288
1070
     1
1070
   289
1070
     3
1002
}
  0
INSERT
  5
76
330
2
100
AcDbEntity
  8
LINEWORK
 62
     7
370
    13
100
AcDbBlockReference
 66
     1
  2
TSFORMB
 10
8.575624758376378
 20
4.962142969044691
 30
0.0
 41
1.734793857719945
 42
1.734793857719998
 43
1.73479385772
  0
ATTRIB
  5
77
330
76
100
AcDbEntity
  8
A1
 62
     1
100
AcDbText
 10
71.24054729034185
 20
6.5520540432409
 30
0.0
 40
1.779186538621511
  1
BALUSTRADE 
 72
     1
 11
80.15350267534975
 21
6.5520540432409
 31
0.0
100
AcDbAttribute
  2
XXXXXX
 70
     0
  0
ATTRIB
  5
79
330
76
100
AcDbEntity
  8
A1
 62
     1
100
AcDbText
 10
37.87313593836159
 20
8.214913900037259
 30
0.0
 40
1.4572268404848
  1
TSB007
 72
     2
 11
45.96688983551212
 21
8.214913900037259
 31
0.0
100
AcDbAttribute
  2
XXXXXX
 70
     0
  0
ATTRIB
  5
7A
330
76
100
AcDbEntity
  8
A1
 62
     1
100
AcDbText
 10
20.36627126964567
 20
10.37116568737288
 30
0.0
 40
10.63775593553904
  1
TSB007
  7
barcoder
 72
     1
 11
30.87105525599048
 21
10.37116568737288
 31
0.0
100
AcDbAttribute
  2
BARCODE
 70
     0
  0
ATTRIB
  5
7C
330
76
100
AcDbEntity
  8
A1
 62
     1
100
AcDbText
 10
170.6561707403694
 20
132.2960404591236
 30
0.0
 40
3.606636430199881
  1
TSB007
 72
     1
 11
180.6721911880931
 21
132.2960404591236
 31
0.0
100
AcDbAttribute
  2
TS00XX
 70
     0
  0
ATTRIB
  5
7D
330
76
100
AcDbEntity
  8
A1
 62
     1
100
AcDbText
 10
184.0950817948307
 20
22.44713792058962
 30
0.0
 40
1.6393801955454
  1

 72
     1
 11
184.0950817948307
 21
22.44713792058962
 31
0.0
100
AcDbAttribute
  2
XXXXX
 70
     0
  0
ATTRIB
  5
7E
330
76
100
AcDbEntity
  8
A1
 62
     1
100
AcDbText
 10
184.0358089668555
 20
17.48655421481039
 30
0.0
 40
1.6393801955454
  1

 72
     1
 11
184.0358089668555
 21
17.48655421481039
 31
0.0
100
AcDbAttribute
  2
XXXXX
 70
     0
  0
SEQEND
  5
AF
330
76
100
AcDbEntity
  8
LINEWORK
 62
     7
  0
LINE
  5
B0
330
2
100
AcDbEntity
  8
LINEWORK
 62
     7
370
    30
100
AcDbLine
 10
164.9949859868434
 20
68.24577989702413
 30
0.0
 11
159.2222734868435
 21
68.24577989702413
 31
0.0
  0
LINE
  5
B1
330
2
100
AcDbEntity
  8
LINEWORK
 62
     7
370
    30
100
AcDbLine
 10
165.4206297368432
 20
67.87077989702436
 30
0.0
 11
158.7966297368434
 21
67.87077989702424
 31
0.0
  0
LINE
  5
B2
330
2
100
AcDbEntity
  8
LINEWORK
 62
     7
370
    30
100
AcDbLine
 10
158.2966297368434
 20
63.87077989702425
 30
0.0
 11
165.9206297368434
 21
63.87077989702437
 31
0.0
  0
LINE
  5
B3
330
2
100
AcDbEntity
  8
LINEWORK
  6
PHANTOM
 62
     7
 48
3.0
370
    30
100
AcDbLine
 10
156.3052533658267
 20
63.49577989702391
 30
0.0
 11
167.9302533658267
 21
63.49577989702391
 31
0.0
  0
ARC
  5
B5
330
2
100
AcDbEntity
  8
LINEWORK
 62
     7
370
    30
100
AcDbCircle
 10
163.2826148549186
 20
75.76268135784914
 30
0.0
 40
0.5960953125000341
100
AcDbArc
 50
302.6368975040358
 51
57.36310249606355
  0
ARC
  5
B6
330
2
100
AcDbEntity
  8
LINEWORK
 62
     7
370
    30
100
AcDbCircle
 10
165.2970652368167
 20
74.53899101928311
 30
0.0
 40
1.725539062499889
100
AcDbArc
 50
204.715235337887
 51
234.8959068466427
  0
LINE
  5
B7
330
2
100
AcDbEntity
  8
LINEWORK
 62
     7
370
    30
100
AcDbLine
 10
162.1086297368433
 20
72.49984385784694
 30
0.0
 11
164.3047703618433
 21
72.49984385784694
 31
0.0
  0
LINE
  5
B8
330
2
100
AcDbEntity
  8
LINEWORK
 62
     7
370
    30
100
AcDbLine
 10
162.1086297368433
 20
72.49984385784694
 30
0.0
 11
164.3047703618435
 21
72.49984385784694
 31
0.0
  0
LINE
  5
B9
330
2
100
AcDbEntity
  8
LINEWORK
 62
     7
370
    30
100
AcDbLine
 10
162.1086297368433
 20
73.12731260784687
 30
0.0
 11
164.3047703618433
 21
73.12731260784687
 31
0.0
  0
LINE
  5
BA
330
2
100
AcDbEntity
  8
LINEWORK
 62
     7
370
    30
100
AcDbLine
 10
164.3047703618433
 20
73.12731260784687
 30
0.0
 11
162.1086297368433
 21
73.12731260784687
 31
0.0
  0
LINE
  5
BB
330
2
100
AcDbEntity
  8
LINEWORK
 62
     7
370
    30
100
AcDbLine
 10
162.1086297368433
 20
70.74293135784694
 30
0.0
 11
164.9949859868434
 21
70.74293135784694
 31
0.0
  0
LINE
  5
BC
330
2
100
AcDbEntity
  8
LINEWORK
 62
     7
370
    30
100
AcDbLine
 10
162.1086297368433
 20
71.11941260784703
 30
0.0
 11
164.4302641118433
 21
71.11941260784703
 31
0.0
  0
LINE
  5
BD
330
2
100
AcDbEntity
  8
LINEWORK
 62
     7
370
    30
100
AcDbLine
 10
162.1086297368433
 20
70.86842510784697
 30
0.0
 11
164.4302641118433
 21
70.86842510784697
 31
0.0
  0
LINE
  5
BE
330
2
100
AcDbEntity
  8
LINEWORK
 62
     7
370
    30
100
AcDbLine
 10
164.4302641118433
 20
71.11941260784703
 30
0.0
 11
162.1086297368433
 21
71.11941260784703
 31
0.0
  0
LINE
  5
BF
330
2
100
AcDbEntity
  8
LINEWORK
 62
     7
370
    30
100
AcDbLine
 10
164.4302641118433
 20
70.86842510784697
 30
0.0
 11
162.1086297368433
 21
70.86842510784697
 31
0.0
  0
DIMENSION
  5
C0
330
2
100
AcDbEntity
  8
DIM
 62
     7
370
    30
100
AcDbDimension
  2
*D4
 10
165.9206297368434
 20
55.37788618467004
 30
0.0
 11
176.8552411339053
 21
55.37788618467004
 31
0.0
 70
   160
 71
     5
 42
-1.0
  3
STANDARD
100
AcDbAlignedDimension
 13
158.2966297368434
 23
63.87077989702425
 33
0.0
 14
165.9206297368434
 24
63.87077989702437
 34
0.0
100
AcDbRotatedDimension
1001
ACAD
1000
DSTYLE
1002
{
1070
   287
1070
     4
1070
   287
1070
     4
1070
   287
1070
     4
1070
   287
1070
     4
1070
    40
1040
2.399999999999999
1070
    73
1070
     1
1070
    74
1070
     1
1070
    77
1070
     0
1070
   147
1040
0.5
1070
   279
1070
     1
1070
   288
1070
     1
1070
   289
1070
     3
1002
}
  0
LINE
  5
CE
330
2
100
AcDbEntity
  8
LINEWORK
  6
PHANTOM
 62
     7
 48
3.0
370
    30
100
AcDbLine
 10
74.67341558513272
 20
44.71298155172019
 30
0.0
 11
108.364041789199
 21
64.16427365980462
 31
0.0
  0
LINE
  5
CF
330
2
100
AcDbEntity
  8
LINEWORK
 62
     7
370
    30
100
AcDbLine
 10
81.18506612146882
 20
53.66863716444925
 30
0.0
 11
75.41235362146881
 21
50.33576004862005
 31
0.0
  0
LINE
  5
D0
330
2
100
AcDbEntity
  8
LINEWORK
 62
     7
370
    30
100
AcDbLine
 10
108.090425532612
 20
64.43931394230173
 30
0.0
 11
74.74606994739679
 21
45.1879412692233
 31
0.0
  0
LINE
  5
D1
330
2
100
AcDbEntity
  8
LINEWORK
 62
     7
370
    30
100
AcDbLine
 10
107.5295793794955
 20
67.86828601455841
 30
0.0
 11
74.18522379428009
 21
48.61691334147997
 31
0.0
  0
LINE
  5
D2
330
2
100
AcDbEntity
  8
LINEWORK
 62
     7
370
    30
100
AcDbLine
 10
107.4432953559389
 20
68.39582017952102
 30
0.0
 11
74.09893977072352
 21
49.14444750644259
 31
0.0
  0
LINE
  5
D3
330
2
100
AcDbEntity
  8
LINEWORK
 62
     7
370
    30
100
AcDbLine
 10
78.29870987146875
 20
74.51002015866186
 30
0.0
 11
80.04516455896885
 21
74.51002015866186
 31
0.0
  0
LINE
  5
D4
330
2
100
AcDbEntity
  8
LINEWORK
 62
     7
370
    30
100
AcDbLine
 10
80.04516455896885
 20
74.51002015866186
 30
0.0
 11
78.29870987146875
 21
74.51002015866186
 31
0.0
  0
LINE
  5
D5
330
2
100
AcDbEntity
  8
LINEWORK
 62
     7
370
    30
100
AcDbLine
 10
78.29870987146875
 20
73.88255140866181
 30
0.0
 11
80.04516455896885
 21
73.88255140866181
 31
0.0
  0
LINE
  5
D6
330
2
100
AcDbEntity
  8
LINEWORK
 62
     7
370
    30
100
AcDbLine
 10
78.29870987146875
 20
73.88255140866181
 30
0.0
 11
80.04516455896885
 21
73.88255140866181
 31
0.0
  0
LINE
  5
D7
330
2
100
AcDbEntity
  8
LINEWORK
 62
     7
370
    30
100
AcDbLine
 10
78.29870987146875
 20
72.62761390866183
 30
0.0
 11
80.04516455896885
 21
72.62761390866183
 31
0.0
  0
LINE
  5
D8
330
2
100
AcDbEntity
  8
LINEWORK
 62
     7
370
    30
100
AcDbLine
 10
78.29870987146875
 20
76.14143890866182
 30
0.0
 11
81.11186143396878
 21
76.14143890866194
 31
0.0
  0
LINE
  5
D9
330
2
100
AcDbEntity
  8
LINEWORK
 62
     7
370
    30
100
AcDbLine
 10
81.11186143396878
 20
76.14143890866194
 30
0.0
 11
78.29870987146875
 21
76.14143890866182
 31
0.0
  0
LINE
  5
DA
330
2
100
AcDbEntity
  8
LINEWORK
 62
     7
370
    30
100
AcDbLine
 10
78.29870987146875
 20
76.26693265866174
 30
0.0
 11
81.18506612146882
 21
76.26693265866174
 31
0.0
  0
LINE
  5
DB
330
2
100
AcDbEntity
  8
LINEWORK
 62
     7
370
    30
100
AcDbLine
 10
78.29870987146875
 20
76.26693265866174
 30
0.0
 11
81.18506612146882
 21
76.26693265866174
 31
0.0
  0
LINE
  5
DC
330
2
100
AcDbEntity
  8
LINEWORK
 62
     7
370
    30
100
AcDbLine
 10
79.91967080896881
 20
70.61971390866188
 30
0.0
 11
78.29870987146875
 21
70.61971390866188
 31
0.0
  0
LINE
  5
DD
330
2
100
AcDbEntity
  8
LINEWORK
 62
     7
370
    30
100
AcDbLine
 10
80.04516455896885
 20
71.49817015866188
 30
0.0
 11
78.29870987146875
 21
71.49817015866188
 31
0.0
  0
LINE
  5
DE
330
2
100
AcDbEntity
  8
LINEWORK
 62
     7
370
    30
100
AcDbLine
 10
78.29870987146875
 20
70.74520765866179
 30
0.0
 11
80.04516455896885
 21
70.74520765866179
 31
0.0
  0
LINE
  5
DF
330
2
100
AcDbEntity
  8
LINEWORK
 62
     7
370
    30
100
AcDbLine
 10
78.29870987146875
 20
71.49817015866188
 30
0.0
 11
80.04516455896885
 21
71.49817015866188
 31
0.0
  0
LINE
  5
E0
330
2
100
AcDbEntity
  8
LINEWORK
 62
     7
370
    30
100
AcDbLine
 10
78.29870987146875
 20
70.61971390866188
 30
0.0
 11
79.91967080896881
 21
70.61971390866188
 31
0.0
  0
LINE
  5
E1
330
2
100
AcDbEntity
  8
LINEWORK
 62
     7
370
    30
100
AcDbLine
 10
80.04516455896885
 20
70.74520765866179
 30
0.0
 11
78.29870987146875
 21
70.74520765866179
 31
0.0
  0
ARC
  5
E2
330
2
100
AcDbEntity
  8
LINEWORK
 62
     7
370
    30
100
AcDbCircle
 10
79.47269498954404
 20
59.95274515866402
 30
0.0
 40
0.5960953125000341
100
AcDbArc
 50
302.6368975040358
 51
57.36310249606355
  0
ARC
  5
E3
330
2
100
AcDbEntity
  8
LINEWORK
 62
     7
370
    30
100
AcDbCircle
 10
79.48915752771881
 20
59.95274515866185
 30
0.0
 40
0.587380468750003
100
AcDbArc
 50
301.2844929144179
 51
58.71550708558205
  0
LINE
  5
E4
330
2
100
AcDbEntity
  8
LINEWORK
 62
     7
370
    30
100
AcDbLine
 10
80.49485049646875
 20
57.31737640866185
 30
0.0
 11
78.29870987146875
 21
57.31737640866185
 31
0.0
  0
LINE
  5
E5
330
2
100
AcDbEntity
  8
LINEWORK
 62
     7
370
    30
100
AcDbLine
 10
78.29870987146875
 20
57.31737640866185
 30
0.0
 11
80.49485049646875
 21
57.31737640866185
 31
0.0
  0
LINE
  5
E6
330
2
100
AcDbEntity
  8
LINEWORK
 62
     7
370
    30
100
AcDbLine
 10
78.29870987146875
 20
56.68990765866192
 30
0.0
 11
80.49485049646888
 21
56.68990765866192
 31
0.0
  0
LINE
  5
E7
330
2
100
AcDbEntity
  8
LINEWORK
 62
     7
370
    30
100
AcDbLine
 10
78.29870987146875
 20
56.68990765866169
 30
0.0
 11
80.49485049646875
 21
56.68990765866169
 31
0.0
  0
ARC
  5
E8
330
2
100
AcDbEntity
  8
LINEWORK
 62
     7
370
    30
100
AcDbCircle
 10
82.51106550960868
 20
58.95997601578244
 30
0.0
 40
2.760862499999871
100
AcDbArc
 50
169.7601969736183
 51
200.1792844825406
  0
ARC
  5
E9
330
2
100
AcDbEntity
  8
LINEWORK
 62
     7
370
    30
100
AcDbCircle
 10
82.51460759373992
 20
58.96028402309844
 30
0.0
 40
2.764293570461533
100
AcDbArc
 50
169.7795306324382
 51
200.159950823787
  0
LINE
  5
EA
330
2
100
AcDbEntity
  8
LINEWORK
 62
     7
370
    30
100
AcDbLine
 10
80.6203442464688
 20
55.30947640866179
 30
0.0
 11
78.29870987146875
 21
55.30947640866179
 31
0.0
  0
LINE
  5
EB
330
2
100
AcDbEntity
  8
LINEWORK
 62
     7
370
    30
100
AcDbLine
 10
78.29870987146875
 20
55.30947640866179
 30
0.0
 11
80.6203442464688
 21
55.30947640866179
 31
0.0
  0
LINE
  5
EC
330
2
100
AcDbEntity
  8
LINEWORK
 62
     7
370
    30
100
AcDbLine
 10
81.18506612146882
 20
54.93299515866181
 30
0.0
 11
75.41235362146881
 21
54.93299515866181
 31
0.0
  0
LINE
  5
ED
330
2
100
AcDbEntity
  8
LINEWORK
 62
     7
370
    30
100
AcDbLine
 10
80.6203442464688
 20
55.05848890866184
 30
0.0
 11
75.97707549646873
 21
55.05848890866184
 31
0.0
  0
ARC
  5
EE
330
2
100
AcDbEntity
  8
LINEWORK
 62
     7
370
    30
100
AcDbCircle
 10
77.30697402088435
 20
63.40517495389895
 30
0.0
 40
3.858932812500603
100
AcDbArc
 50
310.1305441294352
 51
0.9116081324222738
  0
ARC
  5
EF
330
2
100
AcDbEntity
  8
LINEWORK
 62
     7
370
    30
100
AcDbCircle
 10
77.30794664841074
 20
63.40473213401072
 30
0.0
 40
3.857967380510689
100
AcDbArc
 50
310.1237387019697
 51
0.9184135598970037
  0
DIMENSION
  5
F0
330
2
100
AcDbEntity
  8
leaders
 62
     7
370
    30
100
AcDbDimension
  2
*D5
 10
120.6064324307403
 20
40.24002284748246
 30
0.0
 11
90.60998771143159
 21
40.24002284748246
 31
0.0
 70
   160
  1
VARIES
 71
     5
 42
-1.0
  3
STANDARD
100
AcDbAlignedDimension
 13
60.27502030253322
 23
44.46298155172018
 33
0.0
 14
120.6064324307403
 24
63.91427365980473
 34
0.0
100
AcDbRotatedDimension
1001
ACAD
1000
DSTYLE
1002
{
1070
   287
1070
     4
1070
   287
1070
     4
1070
   287
1070
     4
1070
   287
1070
     4
1070
    40
1040
2.399999999999999
1070
    73
1070
     1
1070
    74
1070
     1
1070
    77
1070
     0
1070
   147
1040
0.5
1070
   279
1070
     1
1070
   288
1070
     1
1070
   289
1070
     3
1002
}
  0
LINE
  5
FF
330
2
100
AcDbEntity
  8
leaders
 62
     1
370
    30
100
AcDbLine
 10
33.0856370767126
 20
71.28056101816821
 30
0.0
 11
42.81171377713258
 21
71.28056101816821
 31
0.0
  0
LINE
  5
100
330
2
100
AcDbEntity
  8
leaders
 62
     1
370
    30
100
AcDbLine
 10
33.0856370767126
 20
57.05132855497447
 30
0.0
 11
41.54142838156099
 21
57.05132855497447
 31
0.0
  0
LINE
  5
101
330
2
100
AcDbEntity
  8
leaders
 62
     1
370
    30
100
AcDbLine
 10
33.0856370767126
 20
39.17154360908978
 30
0.0
 11
55.05868050850984
 21
39.17154360908978
 31
0.0
  0
ATTDEF
  5
102
330
2
100
AcDbEntity
  8
leaders
 62
     1
370
    30
100
AcDbText
 10
15.03103159811212
 20
55.61757359432125
 30
0.0
 40
2.879999999999999
  1

100
AcDbAttributeDefinition
  3
ADD LINK NUMBER (WMF)
  2
TS054M
 70
     0
  0
ATTDEF
  5
103
330
2
100
AcDbEntity
  8
leaders
 62
     1
370
    30
100
AcDbText
 10
15.76412120356985
 20
37.85852132596847
 30
0.0
 40
2.879999999999999
  1

100
AcDbAttributeDefinition
  3
ADD LINK NUMBER (WMF)
  2
TS0995
 70
     0
  0
ATTDEF
  5
104
330
2
100
AcDbEntity
  8
leaders
 62
     1
370
    30
100
AcDbText
 10
15.73156034545741
 20
69.84680605751498
 30
0.0
 40
2.879999999999999
  1

100
AcDbAttributeDefinition
  3
ADD LINK NUMBER (WMF)
  2
TS1618
 70
     0
  0
LINE
  5
105
330
2
100
AcDbEntity
  8
leaders
 62
     1
370
    30
100
AcDbLine
 10
33.0856370767126
 20
54.79531481106199
 30
0.0
 11
33.0856370767126
 21
59.30734229888719
 31
0.0
  0
LINE
  5
106
330
2
100
AcDbEntity
  8
leaders
 62
     1
370
    30
100
AcDbLine
 10
33.0856370767126
 20
36.91552986517729
 30
0.0
 11
33.0856370767126
 21
41.4275573530025
 31
0.0
  0
LINE
  5
107
330
2
100
AcDbEntity
  8
leaders
 62
     1
370
    30
100
AcDbLine
 10
33.0856370767126
 20
69.02454727425549
 30
0.0
 11
33.0856370767126
 21
73.53657476208093
 31
0.0
  0
LINE
  5
108
330
2
100
AcDbEntity
  8
LINEWORK
  6
PHANTOM
 62
     7
 48
3.0
370
    30
100
AcDbLine
 10
47.07881446747911
 20
44.71298155172019
 30
0.0
 11
74.67341558513272
 21
44.71298155172019
 31
0.0
  0
LINE
  5
109
330
2
100
AcDbEntity
  8
LINEWORK
 62
     7
370
    30
100
AcDbLine
 10
59.74775140442353
 20
49.41948778893959
 30
0.0
 11
48.86481546434538
 21
49.41948778893959
 31
0.0
  0
LINE
  5
10A
330
2
100
AcDbEntity
  8
LINEWORK
 62
     7
370
    30
100
AcDbLine
 10
60.87502030253268
 20
76.9574877889396
 30
0.0
 11
47.67502030253171
 21
76.9574877889396
 31
0.0
  0
LINE
  5
10B
330
2
100
AcDbEntity
  8
LINEWORK
 62
     7
370
    30
100
AcDbLine
 10
47.67502030253171
 20
76.40748778893964
 30
0.0
 11
60.87502030253268
 21
76.40748778893964
 31
0.0
  0
LINE
  5
10C
330
2
100
AcDbEntity
  8
LINEWORK
370
    30
100
AcDbLine
 10
59.74775140442353
 20
75.48489971282823
 30
0.0
 11
48.86481546434538
 21
75.48489971282823
 31
0.0
  0
LINE
  5
10D
330
2
100
AcDbEntity
  8
LINEWORK
 62
     7
370
    30
100
AcDbLine
 10
48.77502030253231
 20
75.85748778893947
 30
0.0
 11
59.77502030253231
 21
75.85748778893947
 31
0.0
  0
LINE
  5
10E
330
2
100
AcDbEntity
  8
LINEWORK
 62
     7
370
    30
100
AcDbLine
 10
74.38344981567524
 20
45.08798155172018
 30
0.0
 11
48.27502030253231
 21
45.08798155172018
 31
0.0
  0
LINE
  5
10F
330
2
100
AcDbEntity
  8
LINEWORK
 62
     7
370
    30
100
AcDbLine
 10
48.27502030253231
 20
48.54448778893959
 30
0.0
 11
73.81810014658572
 21
48.54448778893948
 31
0.0
  0
LINE
  5
110
330
2
100
AcDbEntity
  8
LINEWORK
 62
     7
370
    30
100
AcDbLine
 10
48.77502030253231
 20
49.04448778893959
 30
0.0
 11
73.7363196390022
 21
49.04448778893959
 31
0.0
  0
LINE
  5
111
330
2
100
AcDbEntity
  8
leaders
 62
     1
370
    30
100
AcDbLine
 10
65.59419858467254
 20
60.43010577867505
 30
0.0
 11
55.05868050850984
 21
39.17154360908978
 31
0.0
  0
LINE
  5
112
330
2
100
AcDbEntity
  8
LINEWORK
370
    30
100
AcDbLine
 10
48.86481546434549
 20
75.48489971282823
 30
0.0
 11
48.86481546434538
 21
49.41948778893959
 31
0.0
  0
LINE
  5
113
330
2
100
AcDbEntity
  8
LINEWORK
370
    30
100
AcDbLine
 10
57.77502030253231
 20
51.85748778893946
 30
0.0
 11
57.77502030253231
 21
72.85748778893924
 31
0.0
  0
LINE
  5
114
330
2
100
AcDbEntity
  8
LINEWORK
370
    30
100
AcDbLine
 10
50.77502030253231
 20
51.85748778894037
 30
0.0
 11
50.77502030253231
 21
72.85748778893992
 31
0.0
  0
LINE
  5
115
330
2
100
AcDbEntity
  8
leaders
 62
     1
370
    30
100
AcDbLine
 10
48.27502030253231
 20
47.91948778893959
 30
0.0
 11
41.54142838156099
 21
57.05132855497447
 31
0.0
  0
LINE
  5
116
330
2
100
AcDbEntity
  8
LINEWORK
 62
     7
370
    30
100
AcDbLine
 10
48.77502030253231
 20
49.04448778893959
 30
0.0
 11
48.27502030253231
 21
48.54448778893959
 31
0.0
  0
LINE
  5
117
330
2
100
AcDbEntity
  8
LINEWORK
 62
     7
370
    30
100
AcDbLine
 10
48.27502030253231
 20
48.54448778893959
 30
0.0
 11
48.27502030253231
 21
45.08798155172018
 31
0.0
  0
SOLID
  5
118
330
2
100
AcDbEntity
  8
leaders
 62
     1
370
    30
100
AcDbTrace
 10
47.74513565665166
 20
49.01457785923515
 30
0.0
 11
47.4186137228196
 21
48.78352932163636
 31
0.0
 12
48.27502030253231
 22
47.91948778893959
 32
0.0
 13
48.27502030253231
 23
47.91948778893959
 33
0.0
  0
ARC
  5
119
330
2
100
AcDbEntity
  8
LINEWORK
370
    30
100
AcDbCircle
 10
57.77502030253231
 20
50.60748778893946
 30
0.0
 40
1.25
100
AcDbArc
 50
89.99999999999349
 51
179.9999999999934
  0
LINE
  5
11A
330
2
100
AcDbEntity
  8
LINEWORK
  6
DASHED
 62
     7
 48
2.0
370
    30
100
AcDbLine
 10
54.52502030253231
 20
51.04248778893964
 30
0.0
 11
54.02502030253231
 21
51.04248778893964
 31
0.0
  0
ARC
  5
11B
330
2
100
AcDbEntity
  8
LINEWORK
370
    30
100
AcDbCircle
 10
50.77502030253231
 20
50.60748778894037
 30
0.0
 40
1.25
100
AcDbArc
 50
359.9999999999934
 51
89.99999999999349
  0
LINE
  5
11C
330
2
100
AcDbEntity
  8
LINEWORK
370
    30
100
AcDbLine
 10
52.02502030253231
 20
50.60748778893946
 30
0.0
 11
56.52502030253299
 21
50.60748778893946
 31
0.0
  0
LINE
  5
11D
330
2
100
AcDbEntity
  8
LINEWORK
  6
DASHED
 62
     7
 48
2.0
370
    30
100
AcDbLine
 10
54.02502030253231
 20
47.22948778893953
 30
0.0
 11
54.52502030253231
 21
47.22948778893953
 31
0.0
  0
LINE
  5
11E
330
2
100
AcDbEntity
  8
LINEWORK
  6
DASHED
 62
     7
 48
2.0
370
    30
100
AcDbLine
 10
54.02502030253231
 20
51.04248778893964
 30
0.0
 11
54.02502030253231
 21
47.22948778893953
 31
0.0
  0
LINE
  5
11F
330
2
100
AcDbEntity
  8
LINEWORK
  6
DASHED
 62
     7
 48
2.0
370
    30
100
AcDbLine
 10
54.52502030253231
 20
47.22948778893953
 30
0.0
 11
54.52502030253231
 21
51.04248778893964
 31
0.0
  0
ARC
  5
120
330
2
100
AcDbEntity
  8
LINEWORK
370
    30
100
AcDbCircle
 10
48.2250203025319
 20
75.85748778893924
 30
0.0
 40
0.5500000000002502
100
AcDbArc
 50
0.0000000000260551
 51
90.00000000002605
  0
SOLID
  5
121
330
2
100
AcDbEntity
  8
leaders
 62
     1
370
    30
100
AcDbTrace
 10
48.30471028899501
 20
64.2913414965177
 30
0.0
 11
47.98473366340272
 21
64.05131033380223
 31
0.0
 12
48.86481546434538
 22
63.2113960383831
 32
0.0
 13
48.86481546434538
 23
63.2113960383831
 33
0.0
  0
LINE
  5
122
330
2
100
AcDbEntity
  8
LINEWORK
370
    30
100
AcDbLine
 10
47.67502030253171
 20
76.40748778893964
 30
0.0
 11
47.67502030253171
 21
76.9574877889396
 31
0.0
  0
LINE
  5
123
330
2
100
AcDbEntity
  8
leaders
 62
     1
370
    30
100
AcDbLine
 10
48.14472197619875
 20
64.17132591515997
 30
0.0
 11
42.81171377713258
 21
71.28056101816833
 31
0.0
  0
ARC
  5
124
330
2
100
AcDbEntity
  8
LINEWORK
370
    30
100
AcDbCircle
 10
57.77502030253231
 20
74.10748778893946
 30
0.0
 40
1.25
100
AcDbArc
 50
180.0
 51
270.0
  0
LINE
  5
125
330
2
100
AcDbEntity
  8
LINEWORK
  6
DASHED
 62
     7
 48
2.0
370
    30
100
AcDbLine
 10
54.02502030253231
 20
73.67248778894088
 30
0.0
 11
54.02502030253231
 21
77.67248778894089
 31
0.0
  0
LINE
  5
126
330
2
100
AcDbEntity
  8
LINEWORK
  6
DASHED
 62
     7
 48
2.0
370
    30
100
AcDbLine
 10
54.52502030253231
 20
77.67248778894089
 30
0.0
 11
54.52502030253231
 21
73.67248778894088
 31
0.0
  0
LINE
  5
127
330
2
100
AcDbEntity
  8
LINEWORK
  6
DASHED
 62
     7
 48
2.0
370
    30
100
AcDbLine
 10
54.52502030253231
 20
73.67248778894088
 30
0.0
 11
54.02502030253231
 21
73.67248778894088
 31
0.0
  0
LINE
  5
128
330
2
100
AcDbEntity
  8
LINEWORK
  6
DASHED
 62
     7
 48
2.0
370
    30
100
AcDbLine
 10
54.02502030253231
 20
77.67248778894089
 30
0.0
 11
54.52502030253231
 21
77.67248778894089
 31
0.0
  0
ARC
  5
129
330
2
100
AcDbEntity
  8
LINEWORK
370
    30
100
AcDbCircle
 10
50.77502030253231
 20
74.10748778893946
 30
0.0
 40
1.25
100
AcDbArc
 50
270.0
 51
0.0
  0
LINE
  5
12A
330
2
100
AcDbEntity
  8
LINEWORK
370
    30
100
AcDbLine
 10
52.02502030253185
 20
74.10748778893946
 30
0.0
 11
56.52502030253231
 21
74.10748778893946
 31
0.0
  0
ARC
  5
12B
330
2
100
AcDbEntity
  8
LINEWORK
 62
     7
370
    30
100
AcDbCircle
 10
70.74900975548939
 20
55.9677242010979
 30
0.0
 40
2.760862499999871
100
AcDbArc
 50
169.7601969736183
 51
200.1792844825406
  0
ARC
  5
12C
330
2
100
AcDbEntity
  8
LINEWORK
 62
     7
370
    30
100
AcDbCircle
 10
70.75255183962065
 20
55.96803220841377
 30
0.0
 40
2.764293570461533
100
AcDbArc
 50
169.7795306324382
 51
200.159950823787
  0
ARC
  5
12D
330
2
100
AcDbEntity
  8
LINEWORK
 62
     7
370
    30
100
AcDbCircle
 10
62.32429847920958
 20
55.9677242010979
 30
0.0
 40
2.760862499999871
100
AcDbArc
 50
339.8207155174592
 51
10.23980302638167
  0
ARC
  5
12E
330
2
100
AcDbEntity
  8
LINEWORK
 62
     7
370
    30
100
AcDbCircle
 10
62.32075639507844
 20
55.96803220841377
 30
0.0
 40
2.764293570461533
100
AcDbArc
 50
339.8400491762129
 51
10.22046936756176
  0
LINE
  5
12F
330
2
100
AcDbEntity
  8
LINEWORK
370
    30
100
AcDbLine
 10
59.74775140442353
 20
49.41948778893959
 30
0.0
 11
59.74775140442353
 21
75.48489971282823
 31
0.0
  0
ARC
  5
130
330
2
100
AcDbEntity
  8
LINEWORK
 62
     7
370
    30
100
AcDbCircle
 10
76.33292263683256
 20
55.97304655499238
 30
0.0
 40
0.7529625000000071
100
AcDbArc
 50
107.8140895270852
 51
241.7970526574468
  0
ARC
  5
131
330
2
100
AcDbEntity
  8
LINEWORK
 62
     7
370
    30
100
AcDbCircle
 10
76.3667666148898
 20
55.9699698297145
 30
0.0
 40
0.7668837767419853
100
AcDbArc
 50
110.1517470342117
 51
239.4593951503194
  0
LINE
  5
132
330
2
100
AcDbEntity
  8
LINEWORK
 62
     7
370
    30
100
AcDbLine
 10
69.42301036734955
 20
51.94074334397726
 30
0.0
 11
68.85828849234951
 21
52.06623709397729
 31
0.0
  0
LINE
  5
133
330
2
100
AcDbEntity
  8
LINEWORK
 62
     7
370
    30
100
AcDbLine
 10
68.85828849234951
 20
52.06623709397729
 30
0.0
 11
69.42301036734955
 21
51.94074334397726
 31
0.0
  0
LINE
  5
134
330
2
100
AcDbEntity
  8
LINEWORK
 62
     7
370
    30
100
AcDbLine
 10
69.42301036734955
 20
49.41948778893959
 30
0.0
 11
63.65029786734954
 21
49.41948778893959
 31
0.0
  0
LINE
  5
135
330
2
100
AcDbEntity
  8
LINEWORK
 62
     7
370
    30
100
AcDbLine
 10
69.42301036734955
 20
51.94074334397726
 30
0.0
 11
66.53665411734948
 21
51.94074334397726
 31
0.0
  0
LINE
  5
136
330
2
100
AcDbEntity
  8
LINEWORK
 62
     7
370
    30
100
AcDbLine
 10
66.53665411734948
 20
51.94074334397726
 30
0.0
 11
69.42301036734955
 21
51.94074334397726
 31
0.0
  0
LINE
  5
137
330
2
100
AcDbEntity
  8
LINEWORK
 62
     7
370
    30
100
AcDbLine
 10
63.65029786734954
 20
49.41948778893959
 30
0.0
 11
63.65029786734954
 21
51.94074334397726
 31
0.0
  0
LINE
  5
138
330
2
100
AcDbEntity
  8
LINEWORK
 62
     7
370
    30
100
AcDbLine
 10
64.34051349234948
 20
54.32512459397719
 30
0.0
 11
64.34051349234948
 21
53.69765584397725
 31
0.0
  0
ARC
  5
139
330
2
100
AcDbEntity
  8
LINEWORK
 62
     7
370
    30
100
AcDbCircle
 10
64.57086688271329
 20
52.98079474030783
 30
0.0
 40
0.752962499999997
100
AcDbArc
 50
107.8140895270852
 51
241.7970526574468
  0
ARC
  5
13A
330
2
100
AcDbEntity
  8
LINEWORK
 62
     7
370
    30
100
AcDbCircle
 10
68.50244135198568
 20
52.98079474030783
 30
0.0
 40
0.752962499999997
100
AcDbArc
 50
298.202947342553
 51
72.18591047291477
  0
LINE
  5
13B
330
2
100
AcDbEntity
  8
LINEWORK
 62
     7
370
    30
100
AcDbLine
 10
68.73279474234959
 20
53.69765584397725
 30
0.0
 11
68.73279474234948
 21
54.32512459397731
 31
0.0
  0
LINE
  5
13C
330
2
100
AcDbEntity
  8
LINEWORK
 62
     7
370
    30
100
AcDbLine
 10
68.73279474234948
 20
54.32512459397719
 30
0.0
 11
68.73279474234948
 21
53.69765584397725
 31
0.0
  0
LINE
  5
13D
330
2
100
AcDbEntity
  8
LINEWORK
 62
     7
370
    30
100
AcDbLine
 10
68.85828849234951
 20
52.31722459397736
 30
0.0
 11
68.85828849234951
 21
52.06623709397729
 31
0.0
  0
LINE
  5
13E
330
2
100
AcDbEntity
  8
LINEWORK
 62
     7
370
    30
100
AcDbLine
 10
68.85828849234951
 20
52.06623709397729
 30
0.0
 11
68.85828849234951
 21
52.31722459397736
 31
0.0
  0
ARC
  5
13F
330
2
100
AcDbEntity
  8
LINEWORK
 62
     7
370
    30
100
AcDbCircle
 10
69.72508961732285
 20
55.73680300541344
 30
0.0
 40
1.725539062499889
100
AcDbArc
 50
204.715235337887
 51
234.8959068466427
  0
LINE
  5
140
330
2
100
AcDbEntity
  8
LINEWORK
 62
     7
370
    30
100
AcDbLine
 10
64.21501974234946
 20
52.06623709397729
 30
0.0
 11
63.65029786734954
 21
51.94074334397726
 31
0.0
  0
LINE
  5
141
330
2
100
AcDbEntity
  8
LINEWORK
 62
     7
370
    30
100
AcDbLine
 10
63.65029786734954
 20
51.94074334397726
 30
0.0
 11
64.21501974234946
 21
52.06623709397729
 31
0.0
  0
LINE
  5
142
330
2
100
AcDbEntity
  8
LINEWORK
 62
     7
370
    30
100
AcDbLine
 10
64.21501974234946
 20
52.31722459397736
 30
0.0
 11
64.21501974234946
 21
52.06623709397729
 31
0.0
  0
LINE
  5
143
330
2
100
AcDbEntity
  8
LINEWORK
 62
     7
370
    30
100
AcDbLine
 10
64.21501974234946
 20
52.06623709397729
 30
0.0
 11
64.21501974234946
 21
52.31722459397736
 31
0.0
  0
LINE
  5
144
330
2
100
AcDbEntity
  8
LINEWORK
 62
     7
370
    30
100
AcDbLine
 10
63.65029786734954
 20
51.94074334397726
 30
0.0
 11
66.53665411734948
 21
51.94074334397726
 31
0.0
  0
LINE
  5
145
330
2
100
AcDbEntity
  8
LINEWORK
 62
     7
370
    30
100
AcDbLine
 10
64.21501974234946
 20
52.31722459397736
 30
0.0
 11
66.53665411734948
 21
52.31722459397736
 31
0.0
  0
LINE
  5
146
330
2
100
AcDbEntity
  8
LINEWORK
 62
     7
370
    30
100
AcDbLine
 10
64.21501974234946
 20
52.06623709397729
 30
0.0
 11
66.53665411734948
 21
52.06623709397729
 31
0.0
  0
ARC
  5
147
330
2
100
AcDbEntity
  8
LINEWORK
 62
     7
370
    30
100
AcDbCircle
 10
63.34821861737623
 20
55.73680300541344
 30
0.0
 40
1.725539062499979
100
AcDbArc
 50
305.1040931533572
 51
335.284764662113
  0
LINE
  5
148
330
2
100
AcDbEntity
  8
LINEWORK
 62
     7
370
    30
100
AcDbLine
 10
68.73279474234948
 20
54.32512459397731
 30
0.0
 11
66.53665411734948
 21
54.32512459397731
 31
0.0
  0
LINE
  5
149
330
2
100
AcDbEntity
  8
LINEWORK
 62
     7
370
    30
100
AcDbLine
 10
64.34051349234948
 20
54.32512459397719
 30
0.0
 11
68.73279474234948
 21
54.32512459397719
 31
0.0
  0
LINE
  5
14A
330
2
100
AcDbEntity
  8
LINEWORK
 62
     7
370
    30
100
AcDbLine
 10
66.53665411734948
 20
53.69765584397725
 30
0.0
 11
68.73279474234959
 21
53.69765584397725
 31
0.0
  0
LINE
  5
14B
330
2
100
AcDbEntity
  8
LINEWORK
 62
     7
370
    30
100
AcDbLine
 10
64.34051349234948
 20
53.69765584397725
 30
0.0
 11
68.73279474234948
 21
53.69765584397725
 31
0.0
  0
LINE
  5
14C
330
2
100
AcDbEntity
  8
LINEWORK
 62
     7
370
    30
100
AcDbLine
 10
68.85828849234951
 20
52.06623709397729
 30
0.0
 11
66.53665411734948
 21
52.06623709397729
 31
0.0
  0
LINE
  5
14D
330
2
100
AcDbEntity
  8
LINEWORK
 62
     7
370
    30
100
AcDbLine
 10
68.85828849234951
 20
52.31722459397736
 30
0.0
 11
66.53665411734948
 21
52.31722459397736
 31
0.0
  0
LINE
  5
14E
330
2
100
AcDbEntity
  8
LINEWORK
 62
     7
370
    30
100
AcDbLine
 10
66.53665411734948
 20
52.06623709397729
 30
0.0
 11
68.85828849234951
 21
52.06623709397729
 31
0.0
  0
LINE
  5
14F
330
2
100
AcDbEntity
  8
LINEWORK
 62
     7
370
    30
100
AcDbLine
 10
66.53665411734948
 20
52.31722459397736
 30
0.0
 11
68.85828849234951
 21
52.31722459397736
 31
0.0
  0
LINE
  5
150
330
2
100
AcDbEntity
  8
LINEWORK
  6
DASHED
 62
     7
 48
2.0
370
    30
100
AcDbLine
 10
66.7866541173496
 20
47.20503838275215
 30
0.0
 11
66.7866541173496
 21
51.20503838275215
 31
0.0
  0
LINE
  5
151
330
2
100
AcDbEntity
  8
LINEWORK
  6
DASHED
 62
     7
 48
2.0
370
    30
100
AcDbLine
 10
66.2866541173496
 20
51.20503838275215
 30
0.0
 11
66.2866541173496
 21
47.20503838275215
 31
0.0
  0
LINE
  5
152
330
2
100
AcDbEntity
  8
LINEWORK
  6
DASHED
 62
     7
 48
2.0
370
    30
100
AcDbLine
 10
66.2866541173496
 20
47.20503838275215
 30
0.0
 11
66.7866541173496
 21
47.20503838275215
 31
0.0
  0
LINE
  5
153
330
2
100
AcDbEntity
  8
LINEWORK
  6
DASHED
 62
     7
 48
2.0
370
    30
100
AcDbLine
 10
66.7866541173496
 20
51.20503838275215
 30
0.0
 11
66.2866541173496
 21
51.20503838275215
 31
0.0
  0
LINE
  5
154
330
2
100
AcDbEntity
  8
LINEWORK
  6
DASHED
 62
     7
 48
2.0
370
    30
100
AcDbLine
 10
66.7866541173496
 20
51.20503838275215
 30
0.0
 11
66.2866541173496
 21
51.20503838275215
 31
0.0
  0
LINE
  5
155
330
2
100
AcDbEntity
  8
LINEWORK
 62
     7
370
    30
100
AcDbLine
 10
59.77502030253299
 20
49.04448778893982
 30
0.0
 11
60.27502030253299
 21
48.54448778893981
 31
0.0
  0
LINE
  5
156
330
2
100
AcDbEntity
  8
LINEWORK
 62
     7
370
    30
100
AcDbLine
 10
60.27502030253299
 20
48.54448778893981
 30
0.0
 11
60.27502030253322
 21
45.08798155172018
 31
0.0
  0
LINE
  5
157
330
2
100
AcDbEntity
  8
LINEWORK
 62
     7
370
    30
100
AcDbLine
 10
69.42301036734955
 20
49.41948778893959
 30
0.0
 11
69.42301036734955
 21
51.94074334397726
 31
0.0
  0
LINE
  5
158
330
2
100
AcDbEntity
  8
LINEWORK
 62
     7
370
    30
100
AcDbLine
 10
74.38344981567524
 20
45.08798155172018
 30
0.0
 11
73.7363196390022
 21
49.04448778893959
 31
0.0
  0
LINE
  5
159
330
2
100
AcDbEntity
  8
LINEWORK
 62
     7
370
    30
100
AcDbLine
 10
74.74606994739656
 20
45.1879412692233
 30
0.0
 11
74.09893977072352
 21
49.14444750644259
 31
0.0
  0
LINE
  5
15A
330
2
100
AcDbEntity
  8
LINEWORK
  6
DASHED
 62
     7
 48
2.0
370
    30
100
AcDbLine
 10
78.04870987146887
 20
53.96180765866052
 30
0.0
 11
78.54870987146887
 21
53.96180765866052
 31
0.0
  0
LINE
  5
15B
330
2
100
AcDbEntity
  8
LINEWORK
 62
     7
370
    30
100
AcDbLine
 10
75.97707549646873
 20
55.30947640866179
 30
0.0
 11
75.97707549646873
 21
55.05848890866184
 31
0.0
  0
LINE
  5
15C
330
2
100
AcDbEntity
  8
LINEWORK
 62
     7
370
    30
100
AcDbLine
 10
75.97707549646873
 20
55.05848890866184
 30
0.0
 11
75.97707549646873
 21
55.30947640866179
 31
0.0
  0
POINT
  5
15D
330
2
100
AcDbEntity
  8
LINEWORK
 62
     1
370
    30
100
AcDbPoint
 10
75.41235362146881
 20
52.67410765866168
 30
0.0
  0
LINE
  5
15E
330
2
100
AcDbEntity
  8
LINEWORK
 62
     7
370
    30
100
AcDbLine
 10
75.41235362146881
 20
54.93299515866181
 30
0.0
 11
75.41235362146881
 21
50.33576004862005
 31
0.0
  0
LINE
  5
15F
330
2
100
AcDbEntity
  8
LINEWORK
 62
     7
370
    30
100
AcDbLine
 10
75.41235362146881
 20
54.93299515866181
 30
0.0
 11
75.41235362146881
 21
52.42312015866184
 31
0.0
  0
LINE
  5
160
330
2
100
AcDbEntity
  8
LINEWORK
 62
     7
370
    30
100
AcDbLine
 10
75.41235362146881
 20
52.42312015866184
 30
0.0
 11
75.41235362146881
 21
54.93299515866181
 31
0.0
  0
LINE
  5
161
330
2
100
AcDbEntity
  8
LINEWORK
 62
     7
370
    30
100
AcDbLine
 10
75.97707549646873
 20
55.30947640866179
 30
0.0
 11
78.29870987146875
 21
55.30947640866179
 31
0.0
  0
LINE
  5
162
330
2
100
AcDbEntity
  8
LINEWORK
 62
     7
370
    30
100
AcDbLine
 10
78.29870987146875
 20
55.30947640866179
 30
0.0
 11
75.97707549646873
 21
55.30947640866179
 31
0.0
  0
LINE
  5
163
330
2
100
AcDbEntity
  8
LINEWORK
  6
DASHED
 62
     7
 48
2.0
370
    30
100
AcDbLine
 10
78.54870987146887
 20
49.96180765866052
 30
0.0
 11
78.04870987146887
 21
49.96180765866052
 31
0.0
  0
LINE
  5
164
330
2
100
AcDbEntity
  8
LINEWORK
  6
DASHED
 62
     7
 48
2.0
370
    30
100
AcDbLine
 10
78.04870987146887
 20
49.96180765866052
 30
0.0
 11
78.04870987146887
 21
53.96180765866052
 31
0.0
  0
LINE
  5
165
330
2
100
AcDbEntity
  8
LINEWORK
  6
DASHED
 62
     7
 48
2.0
370
    30
100
AcDbLine
 10
78.54870987146887
 20
53.96180765866052
 30
0.0
 11
78.54870987146887
 21
49.96180765866052
 31
0.0
  0
LINE
  5
166
330
2
100
AcDbEntity
  8
LINEWORK
 62
     7
370
    30
100
AcDbLine
 10
63.65029786734954
 20
75.48248778893946
 30
0.0
 11
69.42301036734955
 21
75.48248778893946
 31
0.0
  0
LINE
  5
167
330
2
100
AcDbEntity
  8
LINEWORK
 62
     7
370
    30
100
AcDbLine
 10
66.53665411734948
 20
73.14918709397727
 30
0.0
 11
69.3498056798495
 21
73.14918709397727
 31
0.0
  0
LINE
  5
168
330
2
100
AcDbEntity
  8
LINEWORK
 62
     7
370
    30
100
AcDbLine
 10
69.3498056798495
 20
73.14918709397727
 30
0.0
 11
66.53665411734948
 21
73.14918709397727
 31
0.0
  0
LINE
  5
169
330
2
100
AcDbEntity
  8
LINEWORK
 62
     7
370
    30
100
AcDbLine
 10
66.53665411734948
 20
73.27468084397719
 30
0.0
 11
69.42301036734955
 21
73.27468084397719
 31
0.0
  0
LINE
  5
16A
330
2
100
AcDbEntity
  8
LINEWORK
 62
     7
370
    30
100
AcDbLine
 10
66.53665411734948
 20
73.27468084397719
 30
0.0
 11
69.42301036734955
 21
73.27468084397719
 31
0.0
  0
ARC
  5
16B
330
2
100
AcDbEntity
  8
LINEWORK
 62
     7
370
    30
100
AcDbCircle
 10
65.54491826676508
 20
60.4129231392144
 30
0.0
 40
3.858932812500603
100
AcDbArc
 50
310.1305441294352
 51
0.9116081324222738
  0
ARC
  5
16C
330
2
100
AcDbEntity
  8
LINEWORK
 62
     7
370
    30
100
AcDbCircle
 10
65.54589089429146
 20
60.41248031932616
 30
0.0
 40
3.857967380510689
100
AcDbArc
 50
310.1237387019697
 51
0.9184135598970037
  0
ARC
  5
16D
330
2
100
AcDbEntity
  8
LINEWORK
 62
     7
370
    30
100
AcDbCircle
 10
64.07436736363582
 20
60.69309856771304
 30
0.0
 40
5.333484374999923
100
AcDbArc
 50
357.649060045261
 51
19.59993238281736
  0
ARC
  5
16E
330
2
100
AcDbEntity
  8
LINEWORK
 62
     7
370
    30
100
AcDbCircle
 10
64.07783910315754
 20
60.69362513730425
 30
0.0
 40
5.330037199451427
100
AcDbArc
 50
357.6418735319813
 51
19.60711889602133
  0
ARC
  5
16F
330
2
100
AcDbEntity
  8
LINEWORK
 62
     7
370
    30
100
AcDbCircle
 10
67.72143841071306
 20
73.04945157043187
 30
0.0
 40
1.631418750000088
100
AcDbArc
 50
290.1380579866513
 51
3.504918694565252
  0
LINE
  5
170
330
2
100
AcDbEntity
  8
LINEWORK
 62
     7
370
    30
100
AcDbLine
 10
60.25002030253268
 20
76.9574877889396
 30
0.0
 11
71.98127313802775
 21
76.9574877889396
 31
0.0
  0
LINE
  5
171
330
2
100
AcDbEntity
  8
LINEWORK
 62
     7
370
    30
100
AcDbLine
 10
60.25002030253268
 20
76.40748778893964
 30
0.0
 11
72.08676284092371
 21
76.40748778893954
 31
0.0
  0
LINE
  5
172
330
2
100
AcDbEntity
  8
LINEWORK
 62
     7
370
    30
100
AcDbLine
 10
59.15002030253231
 20
75.85748778893947
 30
0.0
 11
72.19225254381967
 21
75.85748778893947
 31
0.0
  0
LINE
  5
173
330
2
100
AcDbEntity
  8
LINEWORK
 62
     7
370
    30
100
AcDbLine
 10
63.65029786734954
 20
73.27468084397719
 30
0.0
 11
63.65029786734954
 21
75.48248778893946
 31
0.0
  0
LINE
  5
174
330
2
100
AcDbEntity
  8
LINEWORK
  6
DASHED
 62
     7
 48
2.0
370
    30
100
AcDbLine
 10
66.7866541173496
 20
77.65669830520358
 30
0.0
 11
66.7866541173496
 21
73.65669830520357
 31
0.0
  0
LINE
  5
175
330
2
100
AcDbEntity
  8
LINEWORK
  6
DASHED
 62
     7
 48
2.0
370
    30
100
AcDbLine
 10
66.64866414111043
 20
73.65669830520357
 30
0.0
 11
66.2866541173496
 21
73.65669830520357
 31
0.0
  0
LINE
  5
176
330
2
100
AcDbEntity
  8
LINEWORK
 62
     7
370
    30
100
AcDbLine
 10
63.65029786734954
 20
73.27468084397719
 30
0.0
 11
63.72350255484957
 21
73.14918709397727
 31
0.0
  0
LINE
  5
177
330
2
100
AcDbEntity
  8
LINEWORK
 62
     7
370
    30
100
AcDbLine
 10
63.65029786734954
 20
73.27468084397719
 30
0.0
 11
63.72350255484957
 21
73.14918709397727
 31
0.0
  0
LINE
  5
178
330
2
100
AcDbEntity
  8
LINEWORK
 62
     7
370
    30
100
AcDbLine
 10
66.53665411734948
 20
73.14918709397727
 30
0.0
 11
63.72350255484957
 21
73.14918709397727
 31
0.0
  0
LINE
  5
179
330
2
100
AcDbEntity
  8
LINEWORK
 62
     7
370
    30
100
AcDbLine
 10
66.53665411734948
 20
73.27468084397719
 30
0.0
 11
63.65029786734954
 21
73.27468084397719
 31
0.0
  0
LINE
  5
17A
330
2
100
AcDbEntity
  8
LINEWORK
 62
     7
370
    30
100
AcDbLine
 10
66.53665411734948
 20
73.14918709397727
 30
0.0
 11
63.72350255484957
 21
73.14918709397727
 31
0.0
  0
LINE
  5
17B
330
2
100
AcDbEntity
  8
LINEWORK
 62
     7
370
    30
100
AcDbLine
 10
66.53665411734948
 20
73.27468084397719
 30
0.0
 11
63.65029786734954
 21
73.27468084397719
 31
0.0
  0
LINE
  5
17C
330
2
100
AcDbEntity
  8
LINEWORK
  6
DASHED
 62
     7
 48
2.0
370
    30
100
AcDbLine
 10
66.2866541173496
 20
73.65669830520357
 30
0.0
 11
66.2866541173496
 21
77.65669830520358
 31
0.0
  0
LINE
  5
17D
330
2
100
AcDbEntity
  8
LINEWORK
  6
DASHED
 62
     7
 48
2.0
370
    30
100
AcDbLine
 10
66.2866541173496
 20
77.65669830520358
 30
0.0
 11
66.7866541173496
 21
77.65669830520358
 31
0.0
  0
LINE
  5
17E
330
2
100
AcDbEntity
  8
LINEWORK
  6
DASHED
 62
     7
 48
2.0
370
    30
100
AcDbLine
 10
66.7866541173496
 20
73.65669830520357
 30
0.0
 11
66.2866541173496
 21
73.65669830520357
 31
0.0
  0
LINE
  5
17F
330
2
100
AcDbEntity
  8
LINEWORK
  6
DASHED
 62
     7
 48
2.0
370
    30
100
AcDbLine
 10
66.7866541173496
 20
73.65669830520357
 30
0.0
 11
66.2866541173496
 21
73.65669830520357
 31
0.0
  0
LINE
  5
180
330
2
100
AcDbEntity
  8
LINEWORK
 62
     7
370
    30
100
AcDbLine
 10
68.28310880484957
 20
70.89029959397726
 30
0.0
 11
68.28310880484957
 21
71.51776834397731
 31
0.0
  0
LINE
  5
181
330
2
100
AcDbEntity
  8
LINEWORK
 62
     7
370
    30
100
AcDbLine
 10
68.28310880484957
 20
70.89029959397726
 30
0.0
 11
68.28310880484957
 21
71.51776834397731
 31
0.0
  0
LINE
  5
182
330
2
100
AcDbEntity
  8
LINEWORK
 62
     7
370
    30
100
AcDbLine
 10
68.28310880484957
 20
67.75295584397724
 30
0.0
 11
68.28310880484957
 21
68.50591834397722
 31
0.0
  0
LINE
  5
183
330
2
100
AcDbEntity
  8
LINEWORK
 62
     7
370
    30
100
AcDbLine
 10
68.28310880484957
 20
67.75295584397724
 30
0.0
 11
68.28310880484957
 21
68.50591834397722
 31
0.0
  0
LINE
  5
184
330
2
100
AcDbEntity
  8
LINEWORK
 62
     7
370
    30
100
AcDbLine
 10
68.28310880484957
 20
67.75295584397724
 30
0.0
 11
68.15761505484954
 21
67.62746209397722
 31
0.0
  0
LINE
  5
185
330
2
100
AcDbEntity
  8
LINEWORK
 62
     7
370
    30
100
AcDbLine
 10
68.28310880484957
 20
67.75295584397724
 30
0.0
 11
68.15761505484954
 21
67.62746209397722
 31
0.0
  0
ARC
  5
186
330
2
100
AcDbEntity
  8
LINEWORK
 62
     7
370
    30
100
AcDbCircle
 10
67.78507092446012
 20
69.07064021897724
 30
0.0
 40
0.7529625000000308
100
AcDbArc
 50
311.4096221092697
 51
48.59037789073025
  0
ARC
  5
187
330
2
100
AcDbEntity
  8
LINEWORK
 62
     7
370
    30
100
AcDbCircle
 10
69.18424219062956
 20
70.26283084397721
 30
0.0
 40
1.09807031250002
100
AcDbArc
 50
145.1500954209564
 51
214.8499045790435
  0
ARC
  5
188
330
2
100
AcDbEntity
  8
LINEWORK
 62
     7
370
    30
100
AcDbCircle
 10
69.19293849234953
 20
70.26283084397721
 30
0.0
 40
1.105218119867257
100
AcDbArc
 50
145.4077113124904
 51
214.5922886875095
  0
ARC
  5
189
330
2
100
AcDbEntity
  8
LINEWORK
 62
     7
370
    30
100
AcDbCircle
 10
54.75963419144227
 20
57.39124350507143
 30
0.0
 40
15.21611718749983
100
AcDbArc
 50
19.54686554134448
 51
25.6928643595911
  0
ARC
  5
18A
330
2
100
AcDbEntity
  8
LINEWORK
 62
     7
370
    30
100
AcDbCircle
 10
70.44775203744928
 20
65.01559243337727
 30
0.0
 40
2.22751406250017
100
AcDbArc
 50
180.6044512322847
 51
207.4680357035701
  0
ARC
  5
18B
330
2
100
AcDbEntity
  8
LINEWORK
 62
     7
370
    30
100
AcDbCircle
 10
70.4478759923495
 20
65.01562342210229
 30
0.0
 40
2.22763833761492
100
AcDbArc
 50
180.6052145972454
 51
207.467272338611
  0
ARC
  5
18C
330
2
100
AcDbEntity
  8
LINEWORK
 62
     7
370
    30
100
AcDbCircle
 10
95.78971996084215
 20
66.96693799203649
 30
0.0
 40
27.63999843750035
100
AcDbArc
 50
178.6306494746762
 51
184.0972055885288
  0
ARC
  5
18D
330
2
100
AcDbEntity
  8
LINEWORK
 62
     7
370
    30
100
AcDbCircle
 10
95.7843401149463
 20
66.96680990046764
 30
0.0
 40
27.63462319024747
100
AcDbArc
 50
178.630117417344
 51
184.0977376458605
  0
LINE
  5
18E
330
2
100
AcDbEntity
  8
LINEWORK
 62
     7
370
    30
100
AcDbLine
 10
64.79019942984951
 20
70.89029959397726
 30
0.0
 11
64.79019942984951
 21
71.51776834397731
 31
0.0
  0
LINE
  5
18F
330
2
100
AcDbEntity
  8
LINEWORK
 62
     7
370
    30
100
AcDbLine
 10
64.79019942984951
 20
70.89029959397726
 30
0.0
 11
64.79019942984951
 21
71.51776834397731
 31
0.0
  0
LINE
  5
190
330
2
100
AcDbEntity
  8
LINEWORK
 62
     7
370
    30
100
AcDbLine
 10
64.91569317984954
 20
67.62746209397732
 30
0.0
 11
66.53665411734948
 21
67.62746209397722
 31
0.0
  0
LINE
  5
191
330
2
100
AcDbEntity
  8
LINEWORK
 62
     7
370
    30
100
AcDbLine
 10
66.53665411734948
 20
67.62746209397722
 30
0.0
 11
64.91569317984954
 21
67.62746209397722
 31
0.0
  0
ARC
  5
192
330
2
100
AcDbEntity
  8
LINEWORK
 62
     7
370
    30
100
AcDbCircle
 10
65.28823731023885
 20
69.07064021897724
 30
0.0
 40
0.7529625000000308
100
AcDbArc
 50
131.4096221092697
 51
228.5903778907302
  0
LINE
  5
193
330
2
100
AcDbEntity
  8
LINEWORK
 62
     7
370
    30
100
AcDbLine
 10
64.79019942984951
 20
67.75295584397724
 30
0.0
 11
64.79019942984951
 21
68.50591834397722
 31
0.0
  0
LINE
  5
194
330
2
100
AcDbEntity
  8
LINEWORK
 62
     7
370
    30
100
AcDbLine
 10
64.79019942984951
 20
67.75295584397724
 30
0.0
 11
64.79019942984951
 21
68.50591834397722
 31
0.0
  0
LINE
  5
195
330
2
100
AcDbEntity
  8
LINEWORK
 62
     7
370
    30
100
AcDbLine
 10
64.79019942984951
 20
67.75295584397724
 30
0.0
 11
64.91569317984954
 21
67.62746209397722
 31
0.0
  0
LINE
  5
196
330
2
100
AcDbEntity
  8
LINEWORK
 62
     7
370
    30
100
AcDbLine
 10
64.79019942984951
 20
67.75295584397724
 30
0.0
 11
64.91569317984954
 21
67.62746209397722
 31
0.0
  0
LINE
  5
197
330
2
100
AcDbEntity
  8
LINEWORK
 62
     7
370
    30
100
AcDbLine
 10
66.53665411734948
 20
67.75295584397724
 30
0.0
 11
64.79019942984951
 21
67.75295584397724
 31
0.0
  0
LINE
  5
198
330
2
100
AcDbEntity
  8
LINEWORK
 62
     7
370
    30
100
AcDbLine
 10
64.79019942984951
 20
67.75295584397724
 30
0.0
 11
66.53665411734948
 21
67.75295584397724
 31
0.0
  0
ARC
  5
199
330
2
100
AcDbEntity
  8
LINEWORK
 62
     7
370
    30
100
AcDbCircle
 10
63.88906604406952
 20
70.26283084397721
 30
0.0
 40
1.098070312499993
100
AcDbArc
 50
325.1500954209564
 51
34.84990457904352
  0
ARC
  5
19A
330
2
100
AcDbEntity
  8
LINEWORK
 62
     7
370
    30
100
AcDbCircle
 10
78.31367404325681
 20
57.39124350507143
 30
0.0
 40
15.2161171874998
100
AcDbArc
 50
154.3071356404088
 51
160.4531344586555
  0
ARC
  5
19B
330
2
100
AcDbEntity
  8
LINEWORK
 62
     7
370
    30
100
AcDbCircle
 10
62.62555619724981
 20
65.01559243337727
 30
0.0
 40
2.227514062500199
100
AcDbArc
 50
332.5319642964298
 51
359.3955487677153
  0
ARC
  5
19C
330
2
100
AcDbEntity
  8
LINEWORK
 62
     7
370
    30
100
AcDbCircle
 10
62.62543224234957
 20
65.01562342210229
 30
0.0
 40
2.22763833761492
100
AcDbArc
 50
332.532727661389
 51
359.3947854027546
  0
ARC
  5
19D
330
2
100
AcDbEntity
  8
LINEWORK
 62
     7
370
    30
100
AcDbCircle
 10
37.28358827385693
 20
66.96693799203649
 30
0.0
 40
27.63999843750035
100
AcDbArc
 50
355.9027944114711
 51
1.369350525323726
  0
ARC
  5
19E
330
2
100
AcDbEntity
  8
LINEWORK
 62
     7
370
    30
100
AcDbCircle
 10
37.28896811975278
 20
66.96680990046764
 30
0.0
 40
27.63462319024747
100
AcDbArc
 50
355.9022623541395
 51
1.369882582655912
  0
LINE
  5
19F
330
2
100
AcDbEntity
  8
LINEWORK
 62
     7
370
    30
100
AcDbLine
 10
64.79019942984951
 20
71.51776834397731
 30
0.0
 11
68.28310880484957
 21
71.51776834397731
 31
0.0
  0
LINE
  5
1A0
330
2
100
AcDbEntity
  8
LINEWORK
 62
     7
370
    30
100
AcDbLine
 10
68.28310880484957
 20
71.51776834397731
 30
0.0
 11
64.79019942984951
 21
71.51776834397731
 31
0.0
  0
LINE
  5
1A1
330
2
100
AcDbEntity
  8
LINEWORK
 62
     7
370
    30
100
AcDbLine
 10
68.15761505484954
 20
67.62746209397732
 30
0.0
 11
66.53665411734948
 21
67.62746209397722
 31
0.0
  0
LINE
  5
1A2
330
2
100
AcDbEntity
  8
LINEWORK
 62
     7
370
    30
100
AcDbLine
 10
66.53665411734948
 20
67.75295584397724
 30
0.0
 11
68.28310880484957
 21
67.75295584397724
 31
0.0
  0
LINE
  5
1A3
330
2
100
AcDbEntity
  8
LINEWORK
 62
     7
370
    30
100
AcDbLine
 10
66.53665411734948
 20
67.62746209397722
 30
0.0
 11
68.15761505484954
 21
67.62746209397722
 31
0.0
  0
LINE
  5
1A4
330
2
100
AcDbEntity
  8
LINEWORK
 62
     7
370
    30
100
AcDbLine
 10
68.28310880484957
 20
67.75295584397724
 30
0.0
 11
66.53665411734948
 21
67.75295584397724
 31
0.0
  0
LINE
  5
1A5
330
2
100
AcDbEntity
  8
LINEWORK
 62
     7
370
    30
100
AcDbLine
 10
68.28310880484957
 20
68.50591834397722
 30
0.0
 11
64.79019942984951
 21
68.50591834397722
 31
0.0
  0
LINE
  5
1A6
330
2
100
AcDbEntity
  8
LINEWORK
 62
     7
370
    30
100
AcDbLine
 10
64.79019942984951
 20
68.50591834397722
 30
0.0
 11
68.28310880484957
 21
68.50591834397722
 31
0.0
  0
LINE
  5
1A7
330
2
100
AcDbEntity
  8
LINEWORK
 62
     7
370
    30
100
AcDbLine
 10
64.79019942984951
 20
70.89029959397726
 30
0.0
 11
68.28310880484957
 21
70.89029959397726
 31
0.0
  0
LINE
  5
1A8
330
2
100
AcDbEntity
  8
LINEWORK
 62
     7
370
    30
100
AcDbLine
 10
64.79019942984951
 20
70.89029959397726
 30
0.0
 11
68.28310880484957
 21
70.89029959397726
 31
0.0
  0
LINE
  5
1A9
330
2
100
AcDbEntity
  8
LINEWORK
 62
     7
370
    30
100
AcDbLine
 10
64.79019942984939
 20
69.63536209397727
 30
0.0
 11
68.28310880484957
 21
69.63536209397727
 31
0.0
  0
ARC
  5
1AA
330
2
100
AcDbEntity
  8
LINEWORK
 62
     7
370
    30
100
AcDbCircle
 10
67.71063923542476
 20
56.96049334397947
 30
0.0
 40
0.5960953125000341
100
AcDbArc
 50
302.6368975040358
 51
57.36310249606355
  0
ARC
  5
1AB
330
2
100
AcDbEntity
  8
LINEWORK
 62
     7
370
    30
100
AcDbCircle
 10
67.52838996793411
 20
60.4129231392144
 30
0.0
 40
3.858932812500603
100
AcDbArc
 50
179.0883918675777
 51
229.8694558705647
  0
ARC
  5
1AC
330
2
100
AcDbEntity
  8
LINEWORK
 62
     7
370
    30
100
AcDbCircle
 10
67.52741734040751
 20
60.41248031932616
 30
0.0
 40
3.857967380510689
100
AcDbArc
 50
179.0815864401029
 51
229.8762612980302
  0
ARC
  5
1AD
330
2
100
AcDbEntity
  8
LINEWORK
 62
     7
370
    30
100
AcDbCircle
 10
65.36266899927432
 20
56.96049334397947
 30
0.0
 40
0.5960953125000341
100
AcDbArc
 50
122.6368975039364
 51
237.3631024959568
  0
LINE
  5
1AE
330
2
100
AcDbEntity
  8
LINEWORK
 62
     7
370
    30
100
AcDbLine
 10
68.03212130484951
 20
56.45851834397729
 30
0.0
 11
66.53665411734948
 21
56.45851834397729
 31
0.0
  0
LINE
  5
1AF
330
2
100
AcDbEntity
  8
LINEWORK
 62
     7
370
    30
100
AcDbLine
 10
65.04118692985628
 20
56.45851834397729
 30
0.0
 11
68.03212130484951
 21
56.45851834397729
 31
0.0
  0
LINE
  5
1B0
330
2
100
AcDbEntity
  8
LINEWORK
 62
     7
370
    30
100
AcDbLine
 10
66.53665411734948
 20
57.46246834397732
 30
0.0
 11
68.03212130484951
 21
57.46246834397732
 31
0.0
  0
LINE
  5
1B1
330
2
100
AcDbEntity
  8
LINEWORK
 62
     7
370
    30
100
AcDbLine
 10
65.04118692984935
 20
57.4624683439772
 30
0.0
 11
68.03212130484951
 21
57.4624683439772
 31
0.0
  0
ARC
  5
1B2
330
2
100
AcDbEntity
  8
LINEWORK
 62
     7
370
    30
100
AcDbCircle
 10
68.99894087106327
 20
60.69309856771304
 30
0.0
 40
5.333484374999923
100
AcDbArc
 50
160.4000676171826
 51
182.3509399547389
  0
ARC
  5
1B3
330
2
100
AcDbEntity
  8
LINEWORK
 62
     7
370
    30
100
AcDbCircle
 10
68.99546913154154
 20
60.69362513730425
 30
0.0
 40
5.330037199451427
100
AcDbArc
 50
160.3928811039786
 51
182.3581264680186
  0
ARC
  5
1B4
330
2
100
AcDbEntity
  8
LINEWORK
 62
     7
370
    30
100
AcDbCircle
 10
65.35186982398591
 20
73.04945157043187
 30
0.0
 40
1.631418750000056
100
AcDbArc
 50
176.4950813054347
 51
249.8619420133486
  0
LINE
  5
1B5
330
2
100
AcDbEntity
  8
LINEWORK
370
    30
100
AcDbLine
 10
60.87502030253268
 20
76.40748778893964
 30
0.0
 11
60.87502030253268
 21
76.9574877889396
 31
0.0
  0
ARC
  5
1B6
330
2
100
AcDbEntity
  8
LINEWORK
370
    30
100
AcDbCircle
 10
60.32502030253249
 20
75.85748778893924
 30
0.0
 40
0.5500000000002502
100
AcDbArc
 50
89.99999999997395
 51
179.9999999999739
  0
SOLID
  5
1B7
330
2
100
AcDbEntity
  8
leaders
 62
     1
370
    30
100
AcDbTrace
 10
65.41499811135463
 20
60.51891563377409
 30
0.0
 11
65.77339905798999
 21
60.34129592357601
 31
0.0
 12
66.1270577152668
 22
61.50530861858112
 32
0.0
 13
66.1270577152668
 23
61.50530861858112
 33
0.0
  0
TEXT
  5
1B8
330
2
100
AcDbEntity
  8
leaders
 62
     1
370
    30
100
AcDbText
 10
64.7334021187305
 20
61.27133174989364
 30
0.0
 40
1.799999999999999
  1
~
 50
344.9999999999992
100
AcDbText
  0
LINE
  5
1B9
330
2
100
AcDbEntity
  8
LINEWORK
 62
     7
370
    30
100
AcDbLine
 10
69.42301036734955
 20
73.27468084397719
 30
0.0
 11
69.42301036734955
 21
75.48248778893946
 31
0.0
  0
LINE
  5
1BA
330
2
100
AcDbEntity
  8
LINEWORK
 62
     7
370
    30
100
AcDbLine
 10
69.42301036734955
 20
73.27468084397719
 30
0.0
 11
69.3498056798495
 21
73.14918709397727
 31
0.0
  0
LINE
  5
1BB
330
2
100
AcDbEntity
  8
LINEWORK
 62
     7
370
    30
100
AcDbLine
 10
69.42301036734955
 20
73.27468084397719
 30
0.0
 11
69.3498056798495
 21
73.14918709397727
 31
0.0
  0
LINE
  5
1BC
330
2
100
AcDbEntity
  8
LINEWORK
  6
DASHED
 62
     7
 48
2.0
370
    30
100
AcDbLine
 10
78.54870987146887
 20
77.02879904714177
 30
0.0
 11
78.04870987146887
 21
77.02879904714177
 31
0.0
  0
LINE
  5
1BD
330
2
100
AcDbEntity
  8
LINEWORK
 62
     7
370
    30
100
AcDbLine
 10
75.41235362146881
 20
76.26693265866174
 30
0.0
 11
75.48555830896884
 21
76.14143890866194
 31
0.0
  0
LINE
  5
1BE
330
2
100
AcDbEntity
  8
LINEWORK
 62
     7
370
    30
100
AcDbLine
 10
75.41235362146881
 20
76.26693265866174
 30
0.0
 11
75.48555830896884
 21
76.14143890866182
 31
0.0
  0
ARC
  5
1BF
330
2
100
AcDbEntity
  8
LINEWORK
 62
     7
370
    30
100
AcDbCircle
 10
77.11392557810518
 20
76.04170338511642
 30
0.0
 40
1.631418750000056
100
AcDbArc
 50
176.4950813054347
 51
249.8619420133486
  0
ARC
  5
1C0
330
2
100
AcDbEntity
  8
LINEWORK
 62
     7
370
    30
100
AcDbCircle
 10
75.65112179818879
 20
73.25508265866187
 30
0.0
 40
1.098070312499993
100
AcDbArc
 50
325.1500954209564
 51
34.84990457904352
  0
ARC
  5
1C1
330
2
100
AcDbEntity
  8
LINEWORK
 62
     7
370
    30
100
AcDbCircle
 10
75.64242549646883
 20
73.25508265866187
 30
0.0
 40
1.105218119867257
100
AcDbArc
 50
325.4077113124903
 51
34.59228868750958
  0
LINE
  5
1C2
330
2
100
AcDbEntity
  8
LINEWORK
 62
     7
370
    30
100
AcDbLine
 10
76.55225518396878
 20
73.88255140866181
 30
0.0
 11
76.55225518396878
 21
74.51002015866186
 31
0.0
  0
LINE
  5
1C3
330
2
100
AcDbEntity
  8
LINEWORK
 62
     7
370
    30
100
AcDbLine
 10
76.55225518396878
 20
73.88255140866181
 30
0.0
 11
76.55225518396878
 21
74.51002015866186
 31
0.0
  0
LINE
  5
1C4
330
2
100
AcDbEntity
  8
LINEWORK
 62
     7
370
    30
100
AcDbLine
 10
75.41235362146881
 20
77.18450807992758
 30
0.0
 11
75.41235362146881
 21
76.26693265866174
 31
0.0
  0
LINE
  5
1C5
330
2
100
AcDbEntity
  8
LINEWORK
 62
     7
370
    30
100
AcDbLine
 10
76.55225518396878
 20
74.51002015866186
 30
0.0
 11
78.29870987146875
 21
74.51002015866186
 31
0.0
  0
LINE
  5
1C6
330
2
100
AcDbEntity
  8
LINEWORK
 62
     7
370
    30
100
AcDbLine
 10
78.29870987146875
 20
73.88255140866181
 30
0.0
 11
76.55225518396878
 21
73.88255140866181
 31
0.0
  0
LINE
  5
1C7
330
2
100
AcDbEntity
  8
LINEWORK
 62
     7
370
    30
100
AcDbLine
 10
78.29870987146875
 20
72.62761390866183
 30
0.0
 11
76.55225518396878
 21
72.62761390866183
 31
0.0
  0
LINE
  5
1C8
330
2
100
AcDbEntity
  8
LINEWORK
 62
     7
370
    30
100
AcDbLine
 10
78.29870987146875
 20
73.88255140866181
 30
0.0
 11
76.55225518396878
 21
73.88255140866181
 31
0.0
  0
LINE
  5
1C9
330
2
100
AcDbEntity
  8
LINEWORK
 62
     7
370
    30
100
AcDbLine
 10
78.29870987146875
 20
74.51002015866186
 30
0.0
 11
76.55225518396878
 21
74.51002015866186
 31
0.0
  0
LINE
  5
1CA
330
2
100
AcDbEntity
  8
LINEWORK
 62
     7
370
    30
100
AcDbLine
 10
78.29870987146875
 20
76.14143890866194
 30
0.0
 11
75.48555830896884
 21
76.14143890866194
 31
0.0
  0
LINE
  5
1CB
330
2
100
AcDbEntity
  8
LINEWORK
 62
     7
370
    30
100
AcDbLine
 10
78.29870987146875
 20
76.26693265866174
 30
0.0
 11
75.41235362146881
 21
76.26693265866174
 31
0.0
  0
LINE
  5
1CC
330
2
100
AcDbEntity
  8
LINEWORK
 62
     7
370
    30
100
AcDbLine
 10
78.29870987146875
 20
76.14143890866182
 30
0.0
 11
75.48555830896884
 21
76.14143890866182
 31
0.0
  0
LINE
  5
1CD
330
2
100
AcDbEntity
  8
LINEWORK
 62
     7
370
    30
100
AcDbLine
 10
78.29870987146875
 20
76.26693265866174
 30
0.0
 11
75.41235362146881
 21
76.26693265866174
 31
0.0
  0
LINE
  5
1CE
330
2
100
AcDbEntity
  8
LINEWORK
 62
     7
370
    30
100
AcDbLine
 10
76.55225518396878
 20
70.74520765866179
 30
0.0
 11
76.67774893396881
 21
70.61971390866188
 31
0.0
  0
LINE
  5
1CF
330
2
100
AcDbEntity
  8
LINEWORK
 62
     7
370
    30
100
AcDbLine
 10
76.55225518396878
 20
70.74520765866179
 30
0.0
 11
76.55225518396878
 21
71.49817015866188
 31
0.0
  0
LINE
  5
1D0
330
2
100
AcDbEntity
  8
LINEWORK
 62
     7
370
    30
100
AcDbLine
 10
76.55225518396878
 20
70.74520765866179
 30
0.0
 11
76.55225518396878
 21
71.49817015866188
 31
0.0
  0
LINE
  5
1D1
330
2
100
AcDbEntity
  8
LINEWORK
 62
     7
370
    30
100
AcDbLine
 10
76.55225518396878
 20
70.74520765866179
 30
0.0
 11
76.67774893396881
 21
70.61971390866188
 31
0.0
  0
ARC
  5
1D2
330
2
100
AcDbEntity
  8
LINEWORK
 62
     7
370
    30
100
AcDbCircle
 10
74.38761195136908
 20
68.00784424806181
 30
0.0
 40
2.227514062500199
100
AcDbArc
 50
332.5319642964298
 51
359.3955487677153
  0
ARC
  5
1D3
330
2
100
AcDbEntity
  8
LINEWORK
 62
     7
370
    30
100
AcDbCircle
 10
74.38748799646885
 20
68.00787523678684
 30
0.0
 40
2.22763833761492
100
AcDbArc
 50
332.532727661389
 51
359.3947854027546
  0
ARC
  5
1D4
330
2
100
AcDbEntity
  8
LINEWORK
 62
     7
370
    30
100
AcDbCircle
 10
49.04564402797621
 20
69.95918980672104
 30
0.0
 40
27.63999843750035
100
AcDbArc
 50
355.9027944114711
 51
1.369350525323726
  0
ARC
  5
1D5
330
2
100
AcDbEntity
  8
LINEWORK
 62
     7
370
    30
100
AcDbCircle
 10
49.05102387387206
 20
69.9590617151523
 30
0.0
 40
27.63462319024747
100
AcDbArc
 50
355.9022623541395
 51
1.369882582655912
  0
ARC
  5
1D6
330
2
100
AcDbEntity
  8
LINEWORK
 62
     7
370
    30
100
AcDbCircle
 10
80.76099662518254
 20
63.6853503823977
 30
0.0
 40
5.333484374999923
100
AcDbArc
 50
160.4000676171826
 51
182.3509399547389
  0
ARC
  5
1D7
330
2
100
AcDbEntity
  8
LINEWORK
 62
     7
370
    30
100
AcDbCircle
 10
80.75752488566081
 20
63.6858769519888
 30
0.0
 40
5.330037199451427
100
AcDbArc
 50
160.3928811039786
 51
182.3581264680186
  0
ARC
  5
1D8
330
2
100
AcDbEntity
  8
LINEWORK
 62
     7
370
    30
100
AcDbCircle
 10
90.07572979737608
 20
60.38349531975609
 30
0.0
 40
15.2161171874998
100
AcDbArc
 50
154.3071356404088
 51
160.4531344586555
  0
LINE
  5
1D9
330
2
100
AcDbEntity
  8
LINEWORK
 62
     7
370
    30
100
AcDbLine
 10
76.67774893396881
 20
70.61971390866188
 30
0.0
 11
78.29870987146875
 21
70.61971390866188
 31
0.0
  0
LINE
  5
1DA
330
2
100
AcDbEntity
  8
LINEWORK
 62
     7
370
    30
100
AcDbLine
 10
78.29870987146875
 20
70.74520765866179
 30
0.0
 11
76.55225518396878
 21
70.74520765866179
 31
0.0
  0
LINE
  5
1DB
330
2
100
AcDbEntity
  8
LINEWORK
 62
     7
370
    30
100
AcDbLine
 10
76.55225518396878
 20
71.49817015866188
 30
0.0
 11
78.29870987146875
 21
71.49817015866188
 31
0.0
  0
LINE
  5
1DC
330
2
100
AcDbEntity
  8
LINEWORK
 62
     7
370
    30
100
AcDbLine
 10
76.55225518396878
 20
70.74520765866179
 30
0.0
 11
78.29870987146875
 21
70.74520765866179
 31
0.0
  0
LINE
  5
1DD
330
2
100
AcDbEntity
  8
LINEWORK
 62
     7
370
    30
100
AcDbLine
 10
78.29870987146875
 20
70.61971390866188
 30
0.0
 11
76.67774893396881
 21
70.61971390866188
 31
0.0
  0
LINE
  5
1DE
330
2
100
AcDbEntity
  8
LINEWORK
 62
     7
370
    30
100
AcDbLine
 10
78.29870987146875
 20
71.49817015866188
 30
0.0
 11
76.55225518396878
 21
71.49817015866188
 31
0.0
  0
LINE
  5
1DF
330
2
100
AcDbEntity
  8
LINEWORK
 62
     7
370
    30
100
AcDbLine
 10
79.79417705896878
 20
59.45077015866184
 30
0.0
 11
78.29870987146875
 21
59.45077015866184
 31
0.0
  0
LINE
  5
1E0
330
2
100
AcDbEntity
  8
LINEWORK
 62
     7
370
    30
100
AcDbLine
 10
78.29870987146875
 20
59.45077015866184
 30
0.0
 11
79.79417705896878
 21
59.45077015866184
 31
0.0
  0
LINE
  5
1E1
330
2
100
AcDbEntity
  8
LINEWORK
 62
     7
370
    30
100
AcDbLine
 10
78.29870987146875
 20
60.45472015866199
 30
0.0
 11
79.79417705896878
 21
60.45472015866199
 31
0.0
  0
LINE
  5
1E2
330
2
100
AcDbEntity
  8
LINEWORK
 62
     7
370
    30
100
AcDbLine
 10
78.29870987146875
 20
60.45472015866176
 30
0.0
 11
79.79417705896878
 21
60.45472015866176
 31
0.0
  0
ARC
  5
1E3
330
2
100
AcDbEntity
  8
LINEWORK
 62
     7
370
    30
100
AcDbCircle
 10
77.12472475339359
 20
59.95274515866402
 30
0.0
 40
0.5960953125000341
100
AcDbArc
 50
122.6368975039364
 51
237.3631024959568
  0
ARC
  5
1E4
330
2
100
AcDbEntity
  8
LINEWORK
 62
     7
370
    30
100
AcDbCircle
 10
77.10826221521881
 20
59.95274515866185
 30
0.0
 40
0.587380468750003
100
AcDbArc
 50
121.2844929144179
 51
238.715507085582
  0
ARC
  5
1E5
330
2
100
AcDbEntity
  8
LINEWORK
 62
     7
370
    30
100
AcDbCircle
 10
75.1102743714955
 20
58.7290548200981
 30
0.0
 40
1.725539062499979
100
AcDbArc
 50
305.1040931533572
 51
335.284764662113
  0
ARC
  5
1E6
330
2
100
AcDbEntity
  8
LINEWORK
 62
     7
370
    30
100
AcDbCircle
 10
75.11404451990632
 20
58.7259130297557
 30
0.0
 40
1.720801135514404
100
AcDbArc
 50
305.0615521464798
 51
335.3273056689872
  0
LINE
  5
1E7
330
2
100
AcDbEntity
  8
LINEWORK
 62
     7
370
    30
100
AcDbLine
 10
76.10256924646876
 20
56.68990765866192
 30
0.0
 11
76.10256924646876
 21
57.31737640866185
 31
0.0
  0
LINE
  5
1E8
330
2
100
AcDbEntity
  8
LINEWORK
 62
     7
370
    30
100
AcDbLine
 10
76.10256924646876
 20
57.31737640866185
 30
0.0
 11
76.10256924646876
 21
56.68990765866169
 31
0.0
  0
ARC
  5
1E9
330
2
100
AcDbEntity
  8
LINEWORK
 62
     7
370
    30
100
AcDbCircle
 10
74.08635423332885
 20
58.95997601578244
 30
0.0
 40
2.760862499999871
100
AcDbArc
 50
339.8207155174592
 51
10.23980302638167
  0
ARC
  5
1EA
330
2
100
AcDbEntity
  8
LINEWORK
 62
     7
370
    30
100
AcDbCircle
 10
74.08281214919771
 20
58.96028402309844
 30
0.0
 40
2.764293570461533
100
AcDbArc
 50
339.8400491762129
 51
10.22046936756176
  0
LINE
  5
1EB
330
2
100
AcDbEntity
  8
LINEWORK
 62
     7
370
    30
100
AcDbLine
 10
76.10256924646876
 20
57.31737640866185
 30
0.0
 11
78.29870987146875
 21
57.31737640866185
 31
0.0
  0
LINE
  5
1EC
330
2
100
AcDbEntity
  8
LINEWORK
 62
     7
370
    30
100
AcDbLine
 10
78.29870987146875
 20
56.68990765866192
 30
0.0
 11
76.10256924646876
 21
56.68990765866192
 31
0.0
  0
LINE
  5
1ED
330
2
100
AcDbEntity
  8
LINEWORK
 62
     7
370
    30
100
AcDbLine
 10
78.29870987146875
 20
57.31737640866185
 30
0.0
 11
76.10256924646876
 21
57.31737640866185
 31
0.0
  0
LINE
  5
1EE
330
2
100
AcDbEntity
  8
LINEWORK
 62
     7
370
    30
100
AcDbLine
 10
78.29870987146875
 20
56.68990765866169
 30
0.0
 11
76.10256924646876
 21
56.68990765866169
 31
0.0
  0
LINE
  5
1EF
330
2
100
AcDbEntity
  8
LINEWORK
 62
     7
370
    30
100
AcDbLine
 10
76.80324268396884
 20
59.45077015866184
 30
0.0
 11
78.29870987146875
 21
59.45077015866184
 31
0.0
  0
LINE
  5
1F0
330
2
100
AcDbEntity
  8
LINEWORK
 62
     7
370
    30
100
AcDbLine
 10
78.29870987146875
 20
59.45077015866184
 30
0.0
 11
76.80324268396884
 21
59.45077015866184
 31
0.0
  0
LINE
  5
1F1
330
2
100
AcDbEntity
  8
LINEWORK
 62
     7
370
    30
100
AcDbLine
 10
78.29870987146875
 20
60.45472015866199
 30
0.0
 11
76.80324268396884
 21
60.45472015866199
 31
0.0
  0
LINE
  5
1F2
330
2
100
AcDbEntity
  8
LINEWORK
 62
     7
370
    30
100
AcDbLine
 10
78.29870987146875
 20
60.45472015866176
 30
0.0
 11
76.80324268396884
 21
60.45472015866176
 31
0.0
  0
ARC
  5
1F3
330
2
100
AcDbEntity
  8
LINEWORK
 62
     7
370
    30
100
AcDbCircle
 10
79.29044572205339
 20
63.40517495389895
 30
0.0
 40
3.858932812500603
100
AcDbArc
 50
179.0883918675777
 51
229.8694558705647
  0
ARC
  5
1F4
330
2
100
AcDbEntity
  8
LINEWORK
 62
     7
370
    30
100
AcDbCircle
 10
79.28947309452678
 20
63.40473213401072
 30
0.0
 40
3.857967380510689
100
AcDbArc
 50
179.0815864401029
 51
229.8762612980302
  0
ARC
  5
1F5
330
2
100
AcDbEntity
  8
LINEWORK
 62
     7
370
    30
100
AcDbCircle
 10
77.05029306435813
 20
72.06289203366179
 30
0.0
 40
0.7529625000000308
100
AcDbArc
 50
131.4096221092697
 51
228.5903778907302
  0
ARC
  5
1F6
330
2
100
AcDbEntity
  8
LINEWORK
 62
     7
370
    30
100
AcDbCircle
 10
77.06207354334378
 20
72.06289203366179
 30
0.0
 40
0.760805859375
100
AcDbArc
 50
132.0750220508426
 51
227.9249779491573
  0
LINE
  5
1F7
330
2
100
AcDbEntity
  8
LINEWORK
  6
PHANTOM
 62
     7
 48
3.0
370
    30
100
AcDbLine
 10
108.364041789199
 20
64.16427365980462
 30
0.0
 11
133.6689324307415
 21
64.16427365980462
 31
0.0
  0
LINE
  5
1F8
330
2
100
AcDbEntity
  8
LINEWORK
 62
     7
370
    30
100
AcDbLine
 10
132.0166372689284
 20
68.87077989702413
 30
0.0
 11
121.1337013288502
 21
68.87077989702413
 31
0.0
  0
LINE
  5
1F9
330
2
100
AcDbEntity
  8
LINEWORK
 62
     7
370
    30
100
AcDbLine
 10
132.1064324307412
 20
68.49577989702414
 30
0.0
 11
107.8059154876602
 21
68.49577989702414
 31
0.0
  0
LINE
  5
1FA
330
2
100
AcDbEntity
  8
LINEWORK
 62
     7
370
    30
100
AcDbLine
 10
132.6064324307412
 20
67.99577989702413
 30
0.0
 11
107.8876959952435
 21
67.99577989702413
 31
0.0
  0
LINE
  5
1FB
330
2
100
AcDbEntity
  8
LINEWORK
 62
     7
370
    30
100
AcDbLine
 10
108.4530456643333
 20
64.53927365980473
 30
0.0
 11
132.6064324307412
 21
64.53927365980462
 31
0.0
  0
LINE
  5
1FC
330
2
100
AcDbEntity
  8
LINEWORK
 62
     7
370
    30
100
AcDbLine
 10
105.1081518756101
 20
67.48063716444903
 30
0.0
 11
99.33543937561012
 21
64.14776004861971
 31
0.0
  0
LINE
  5
1FD
330
2
100
AcDbEntity
  8
LINEWORK
 62
     7
370
    30
100
AcDbLine
 10
102.2217956256101
 20
74.0202201586618
 30
0.0
 11
100.7263284381101
 21
74.0202201586618
 31
0.0
  0
LINE
  5
1FE
330
2
100
AcDbEntity
  8
LINEWORK
 62
     7
370
    30
100
AcDbLine
 10
102.2217956256101
 20
74.02022015866203
 30
0.0
 11
100.7263284381101
 21
74.02022015866203
 31
0.0
  0
LINE
  5
1FF
330
2
100
AcDbEntity
  8
LINEWORK
 62
     7
370
    30
100
AcDbLine
 10
102.2217956256101
 20
73.01627015866188
 30
0.0
 11
100.7263284381101
 21
73.01627015866188
 31
0.0
  0
LINE
  5
200
330
2
100
AcDbEntity
  8
LINEWORK
 62
     7
370
    30
100
AcDbLine
 10
100.7263284381101
 20
73.01627015866188
 30
0.0
 11
102.2217956256101
 21
73.01627015866188
 31
0.0
  0
LINE
  5
201
330
2
100
AcDbEntity
  8
LINEWORK
 62
     7
370
    30
100
AcDbLine
 10
99.33543937561012
 20
68.49849515866186
 30
0.0
 11
105.1081518756101
 21
68.49849515866186
 31
0.0
  0
LINE
  5
202
330
2
100
AcDbEntity
  8
LINEWORK
 62
     7
370
    30
100
AcDbLine
 10
104.5434300006102
 20
68.62398890866188
 30
0.0
 11
99.90016125061016
 21
68.62398890866188
 31
0.0
  0
LINE
  5
203
330
2
100
AcDbEntity
  8
LINEWORK
 62
     7
370
    30
100
AcDbLine
 10
105.1081518756101
 20
68.49849515866186
 30
0.0
 11
99.33543937561012
 21
68.49849515866186
 31
0.0
  0
LINE
  5
204
330
2
100
AcDbEntity
  8
LINEWORK
 62
     7
370
    30
100
AcDbLine
 10
102.2217956256101
 20
70.25540765866185
 30
0.0
 11
100.0256550006101
 21
70.25540765866185
 31
0.0
  0
LINE
  5
205
330
2
100
AcDbEntity
  8
LINEWORK
 62
     7
370
    30
100
AcDbLine
 10
102.2217956256101
 20
70.88287640866179
 30
0.0
 11
100.0256550006101
 21
70.88287640866179
 31
0.0
  0
LINE
  5
206
330
2
100
AcDbEntity
  8
LINEWORK
 62
     7
370
    30
100
AcDbLine
 10
102.2217956256101
 20
70.25540765866196
 30
0.0
 11
100.0256550006101
 21
70.25540765866196
 31
0.0
  0
LINE
  5
207
330
2
100
AcDbEntity
  8
LINEWORK
 62
     7
370
    30
100
AcDbLine
 10
100.0256550006101
 20
70.8828764086619
 30
0.0
 11
102.2217956256101
 21
70.8828764086619
 31
0.0
  0
LINE
  5
208
330
2
100
AcDbEntity
  8
LINEWORK
 62
     7
370
    30
100
AcDbLine
 10
102.2217956256101
 20
68.87497640866195
 30
0.0
 11
99.90016125061016
 21
68.87497640866195
 31
0.0
  0
LINE
  5
209
330
2
100
AcDbEntity
  8
LINEWORK
 62
     7
370
    30
100
AcDbLine
 10
99.90016125061016
 20
68.87497640866195
 30
0.0
 11
102.2217956256101
 21
68.87497640866195
 31
0.0
  0
DIMENSION
  5
20A
330
2
100
AcDbEntity
  8
DIM
 62
     7
370
    30
100
AcDbDimension
  2
*D6
 10
102.2065591735048
 20
50.47520978370641
 30
0.0
 11
96.88027260538582
 21
50.47520978370641
 31
0.0
 70
   160
 71
     5
 42
-1.0
  3
STANDARD
100
AcDbAlignedDimension
 13
90.20655917350484
 23
57.43380765866049
 33
0.0
 14
102.2065591735048
 24
64.36201088893596
 34
0.0
100
AcDbRotatedDimension
1001
ACAD
1000
DSTYLE
1002
{
1070
   287
1070
     4
1070
   287
1070
     4
1070
   287
1070
     4
1070
   287
1070
     4
1070
    40
1040
2.399999999999999
1070
    73
1070
     1
1070
    74
1070
     1
1070
    77
1070
     0
1070
   147
1040
0.5
1070
   279
1070
     1
1070
   288
1070
     1
1070
   289
1070
     3
1002
}
  0
LINE
  5
218
330
2
100
AcDbEntity
  8
LINEWORK
 62
     7
370
    30
100
AcDbLine
 10
81.18506612146882
 20
53.66863716444925
 30
0.0
 11
86.45417751972047
 21
56.83576004861993
 31
0.0
  0
ARC
  5
219
330
2
100
AcDbEntity
  8
LINEWORK
 62
     7
370
    30
100
AcDbCircle
 10
80.26449710610506
 20
55.97304655499238
 30
0.0
 40
0.752962499999997
100
AcDbArc
 50
298.202947342553
 51
72.18591047291477
  0
ARC
  5
21A
330
2
100
AcDbEntity
  8
LINEWORK
 62
     7
370
    30
100
AcDbCircle
 10
80.23065312804773
 20
55.9699698297145
 30
0.0
 40
0.7668837767419853
100
AcDbArc
 50
300.5406048496805
 51
69.84825296578828
  0
LINE
  5
21B
330
2
100
AcDbEntity
  8
LINEWORK
 62
     7
370
    30
100
AcDbLine
 10
80.6203442464688
 20
55.30947640866179
 30
0.0
 11
80.6203442464688
 21
55.05848890866184
 31
0.0
  0
LINE
  5
21C
330
2
100
AcDbEntity
  8
LINEWORK
 62
     7
370
    30
100
AcDbLine
 10
80.6203442464688
 20
55.05848890866184
 30
0.0
 11
80.6203442464688
 21
55.30947640866179
 31
0.0
  0
LINE
  5
21D
330
2
100
AcDbEntity
  8
LINEWORK
 62
     7
370
    30
100
AcDbLine
 10
81.18506612146882
 20
53.66863716444925
 30
0.0
 11
81.18506612146882
 21
54.93299515866181
 31
0.0
  0
LINE
  5
21E
330
2
100
AcDbEntity
  8
LINEWORK
 62
     7
370
    30
100
AcDbLine
 10
81.18506612146882
 20
54.93299515866181
 30
0.0
 11
81.18506612146882
 21
54.12089375221706
 31
0.0
  0
LINE
  5
21F
330
2
100
AcDbEntity
  8
LINEWORK
 62
     7
370
    30
100
AcDbLine
 10
81.18506612146882
 20
54.12089375221706
 30
0.0
 11
81.18506612146882
 21
54.93299515866181
 31
0.0
  0
LINE
  5
220
330
2
100
AcDbEntity
  8
LINEWORK
 62
     7
370
    30
100
AcDbLine
 10
93.09291542350479
 20
60.66863716444913
 30
0.0
 11
87.32020292350489
 21
57.33576004861993
 31
0.0
  0
LINE
  5
221
330
2
100
AcDbEntity
  8
LINEWORK
 62
     7
370
    30
100
AcDbLine
 10
90.20655917350484
 20
77.46671390866186
 30
0.0
 11
91.82752011100479
 21
77.46671390866186
 31
0.0
  0
LINE
  5
222
330
2
100
AcDbEntity
  8
LINEWORK
 62
     7
370
    30
100
AcDbLine
 10
91.82752011100479
 20
77.46671390866186
 30
0.0
 11
90.20655917350484
 21
77.46671390866186
 31
0.0
  0
LINE
  5
223
330
2
100
AcDbEntity
  8
LINEWORK
 62
     7
370
    30
100
AcDbLine
 10
91.95301386100481
 20
77.59220765866178
 30
0.0
 11
90.20655917350484
 21
77.59220765866178
 31
0.0
  0
LINE
  5
224
330
2
100
AcDbEntity
  8
LINEWORK
 62
     7
370
    30
100
AcDbLine
 10
90.20655917350484
 20
77.59220765866178
 30
0.0
 11
91.95301386100481
 21
77.59220765866178
 31
0.0
  0
LINE
  5
225
330
2
100
AcDbEntity
  8
LINEWORK
 62
     7
370
    30
100
AcDbLine
 10
90.20655917350484
 20
67.30172015866173
 30
0.0
 11
91.70202636100487
 21
67.30172015866173
 31
0.0
  0
LINE
  5
226
330
2
100
AcDbEntity
  8
LINEWORK
 62
     7
370
    30
100
AcDbLine
 10
90.20655917350484
 20
67.30172015866196
 30
0.0
 11
91.70202636100487
 21
67.30172015866196
 31
0.0
  0
LINE
  5
227
330
2
100
AcDbEntity
  8
LINEWORK
 62
     7
370
    30
100
AcDbLine
 10
90.20655917350484
 20
66.29777015866181
 30
0.0
 11
91.70202636100487
 21
66.29777015866181
 31
0.0
  0
LINE
  5
228
330
2
100
AcDbEntity
  8
LINEWORK
 62
     7
370
    30
100
AcDbLine
 10
91.70202636100487
 20
66.29777015866181
 30
0.0
 11
90.20655917350484
 21
66.29777015866181
 31
0.0
  0
LINE
  5
229
330
2
100
AcDbEntity
  8
LINEWORK
 62
     7
370
    30
100
AcDbLine
 10
87.32020292350489
 20
61.77999515866179
 30
0.0
 11
93.09291542350479
 21
61.77999515866179
 31
0.0
  0
LINE
  5
22A
330
2
100
AcDbEntity
  8
LINEWORK
 62
     7
370
    30
100
AcDbLine
 10
92.52819354850487
 20
61.90548890866182
 30
0.0
 11
87.8849247985048
 21
61.90548890866182
 31
0.0
  0
LINE
  5
22B
330
2
100
AcDbEntity
  8
LINEWORK
 62
     7
370
    30
100
AcDbLine
 10
93.09291542350479
 20
61.77999515866179
 30
0.0
 11
87.32020292350489
 21
61.77999515866179
 31
0.0
  0
LINE
  5
22C
330
2
100
AcDbEntity
  8
LINEWORK
 62
     7
370
    30
100
AcDbLine
 10
90.20655917350484
 20
63.53690765866179
 30
0.0
 11
92.40269979850484
 21
63.53690765866179
 31
0.0
  0
LINE
  5
22D
330
2
100
AcDbEntity
  8
LINEWORK
 62
     7
370
    30
100
AcDbLine
 10
90.20655917350484
 20
63.5369076586619
 30
0.0
 11
92.40269979850484
 21
63.5369076586619
 31
0.0
  0
LINE
  5
22E
330
2
100
AcDbEntity
  8
LINEWORK
 62
     7
370
    30
100
AcDbLine
 10
90.20655917350484
 20
64.16437640866184
 30
0.0
 11
92.40269979850484
 21
64.16437640866184
 31
0.0
  0
LINE
  5
22F
330
2
100
AcDbEntity
  8
LINEWORK
 62
     7
370
    30
100
AcDbLine
 10
92.40269979850484
 20
64.16437640866184
 30
0.0
 11
90.20655917350484
 21
64.16437640866184
 31
0.0
  0
LINE
  5
230
330
2
100
AcDbEntity
  8
LINEWORK
 62
     7
370
    30
100
AcDbLine
 10
90.20655917350484
 20
62.15647640866189
 30
0.0
 11
92.52819354850487
 21
62.15647640866189
 31
0.0
  0
LINE
  5
231
330
2
100
AcDbEntity
  8
LINEWORK
 62
     7
370
    30
100
AcDbLine
 10
92.52819354850487
 20
62.15647640866189
 30
0.0
 11
90.20655917350484
 21
62.15647640866189
 31
0.0
  0
LINE
  5
232
330
2
100
AcDbEntity
  8
LINEWORK
 62
     7
370
    30
100
AcDbLine
 10
90.45655917350485
 20
60.9338076586605
 30
0.0
 11
89.95655917350484
 21
60.9338076586605
 31
0.0
  0
LINE
  5
233
330
2
100
AcDbEntity
  8
LINEWORK
  6
DASHED
 62
     7
 48
2.0
370
    30
100
AcDbLine
 10
90.45655917350485
 20
56.9338076586605
 30
0.0
 11
89.95655917350484
 21
56.9338076586605
 31
0.0
  0
LINE
  5
234
330
2
100
AcDbEntity
  8
LINEWORK
 62
     7
370
    30
100
AcDbLine
 10
88.46010448600475
 20
77.59220765866178
 30
0.0
 11
88.58559823600478
 21
77.46671390866186
 31
0.0
  0
LINE
  5
235
330
2
100
AcDbEntity
  8
LINEWORK
 62
     7
370
    30
100
AcDbLine
 10
88.46010448600475
 20
77.59220765866178
 30
0.0
 11
88.58559823600478
 21
77.46671390866186
 31
0.0
  0
LINE
  5
236
330
2
100
AcDbEntity
  8
LINEWORK
 62
     7
370
    30
100
AcDbLine
 10
90.20655917350484
 20
77.46671390866186
 30
0.0
 11
88.58559823600478
 21
77.46671390866186
 31
0.0
  0
LINE
  5
237
330
2
100
AcDbEntity
  8
LINEWORK
 62
     7
370
    30
100
AcDbLine
 10
88.46010448600475
 20
77.59220765866178
 30
0.0
 11
90.20655917350484
 21
77.59220765866178
 31
0.0
  0
LINE
  5
238
330
2
100
AcDbEntity
  8
LINEWORK
 62
     7
370
    30
100
AcDbLine
 10
90.20655917350484
 20
77.59220765866178
 30
0.0
 11
88.46010448600475
 21
77.59220765866178
 31
0.0
  0
LINE
  5
239
330
2
100
AcDbEntity
  8
LINEWORK
 62
     7
370
    30
100
AcDbLine
 10
88.58559823600478
 20
77.46671390866186
 30
0.0
 11
90.20655917350484
 21
77.46671390866186
 31
0.0
  0
ARC
  5
23A
330
2
100
AcDbEntity
  8
LINEWORK
 62
     7
370
    30
100
AcDbCircle
 10
101.9835790994121
 20
67.23049531975608
 30
0.0
 40
15.2161171874998
100
AcDbArc
 50
154.3071356404088
 51
160.4531344586555
  0
ARC
  5
23B
330
2
100
AcDbEntity
  8
LINEWORK
 62
     7
370
    30
100
AcDbCircle
 10
86.29533729850493
 20
74.85487523678682
 30
0.0
 40
2.22763833761492
100
AcDbArc
 50
332.532727661389
 51
359.3947854027546
  0
ARC
  5
23C
330
2
100
AcDbEntity
  8
LINEWORK
 62
     7
370
    30
100
AcDbCircle
 10
86.29546125340505
 20
74.8548442480618
 30
0.0
 40
2.227514062500199
100
AcDbArc
 50
332.5319642964298
 51
359.3955487677153
  0
ARC
  5
23D
330
2
100
AcDbEntity
  8
LINEWORK
 62
     7
370
    30
100
AcDbCircle
 10
60.95887317590814
 20
76.80606171515228
 30
0.0
 40
27.63462319024747
100
AcDbArc
 50
355.9022623541395
 51
1.369882582655912
  0
ARC
  5
23E
330
2
100
AcDbEntity
  8
LINEWORK
 62
     7
370
    30
100
AcDbCircle
 10
60.95349333001229
 20
76.80618980672102
 30
0.0
 40
27.63999843750035
100
AcDbArc
 50
355.9027944114711
 51
1.369350525323726
  0
LINE
  5
23F
330
2
100
AcDbEntity
  8
LINEWORK
 62
     7
370
    30
100
AcDbLine
 10
81.18506612146882
 20
76.26693265866174
 30
0.0
 11
81.11186143396878
 21
76.14143890866194
 31
0.0
  0
LINE
  5
240
330
2
100
AcDbEntity
  8
LINEWORK
 62
     7
370
    30
100
AcDbLine
 10
81.18506612146882
 20
76.26693265866174
 30
0.0
 11
81.11186143396878
 21
76.14143890866182
 31
0.0
  0
ARC
  5
241
330
2
100
AcDbEntity
  8
LINEWORK
 62
     7
370
    30
100
AcDbCircle
 10
80.94629794474883
 20
73.25508265866187
 30
0.0
 40
1.09807031250002
100
AcDbArc
 50
145.1500954209564
 51
214.8499045790435
  0
ARC
  5
242
330
2
100
AcDbEntity
  8
LINEWORK
 62
     7
370
    30
100
AcDbCircle
 10
80.95499424646879
 20
73.25508265866187
 30
0.0
 40
1.105218119867257
100
AcDbArc
 50
145.4077113124904
 51
214.5922886875095
  0
LINE
  5
243
330
2
100
AcDbEntity
  8
LINEWORK
 62
     7
370
    30
100
AcDbLine
 10
80.04516455896885
 20
73.88255140866181
 30
0.0
 11
80.04516455896885
 21
74.51002015866186
 31
0.0
  0
LINE
  5
244
330
2
100
AcDbEntity
  8
LINEWORK
 62
     7
370
    30
100
AcDbLine
 10
80.04516455896885
 20
73.88255140866181
 30
0.0
 11
80.04516455896885
 21
74.51002015866186
 31
0.0
  0
ARC
  5
245
330
2
100
AcDbEntity
  8
LINEWORK
 62
     7
370
    30
100
AcDbCircle
 10
79.48349416483234
 20
76.04170338511642
 30
0.0
 40
1.631418750000088
100
AcDbArc
 50
290.1380579866513
 51
3.504918694565252
  0
LINE
  5
246
330
2
100
AcDbEntity
  8
LINEWORK
 62
     7
370
    30
100
AcDbLine
 10
90.20655917350484
 20
67.30172015866173
 30
0.0
 11
88.71109198600482
 21
67.30172015866173
 31
0.0
  0
LINE
  5
247
330
2
100
AcDbEntity
  8
LINEWORK
 62
     7
370
    30
100
AcDbLine
 10
90.20655917350484
 20
67.30172015866196
 30
0.0
 11
88.71109198600482
 21
67.30172015866196
 31
0.0
  0
ARC
  5
248
330
2
100
AcDbEntity
  8
LINEWORK
 62
     7
370
    30
100
AcDbCircle
 10
91.19732239656286
 20
70.25173213401069
 30
0.0
 40
3.857967380510689
100
AcDbArc
 50
179.0815864401029
 51
229.8762612980302
  0
ARC
  5
249
330
2
100
AcDbEntity
  8
LINEWORK
 62
     7
370
    30
100
AcDbCircle
 10
91.19829502408936
 20
70.25217495389893
 30
0.0
 40
3.858932812500603
100
AcDbArc
 50
179.0883918675777
 51
229.8694558705647
  0
ARC
  5
24A
330
2
100
AcDbEntity
  8
LINEWORK
 62
     7
370
    30
100
AcDbCircle
 10
85.99066145123368
 20
65.80728402309842
 30
0.0
 40
2.764293570461533
100
AcDbArc
 50
339.8400491762129
 51
10.22046936756176
  0
ARC
  5
24B
330
2
100
AcDbEntity
  8
LINEWORK
 62
     7
370
    30
100
AcDbCircle
 10
85.99420353536492
 20
65.80697601578243
 30
0.0
 40
2.760862499999871
100
AcDbArc
 50
339.8207155174592
 51
10.23980302638167
  0
LINE
  5
24C
330
2
100
AcDbEntity
  8
LINEWORK
 62
     7
370
    30
100
AcDbLine
 10
90.20655917350484
 20
66.29777015866181
 30
0.0
 11
88.71109198600482
 21
66.29777015866181
 31
0.0
  0
LINE
  5
24D
330
2
100
AcDbEntity
  8
LINEWORK
 62
     7
370
    30
100
AcDbLine
 10
88.71109198600482
 20
66.29777015866181
 30
0.0
 11
90.20655917350484
 21
66.29777015866181
 31
0.0
  0
LINE
  5
24E
330
2
100
AcDbEntity
  8
LINEWORK
 62
     7
370
    30
100
AcDbLine
 10
88.01041854850485
 20
64.16437640866184
 30
0.0
 11
88.01041854850485
 21
63.53690765866179
 31
0.0
  0
LINE
  5
24F
330
2
100
AcDbEntity
  8
LINEWORK
 62
     7
370
    30
100
AcDbLine
 10
88.01041854850485
 20
63.5369076586619
 30
0.0
 11
88.01041854850485
 21
64.16437640866184
 31
0.0
  0
LINE
  5
250
330
2
100
AcDbEntity
  8
LINEWORK
 62
     7
370
    30
100
AcDbLine
 10
87.8849247985048
 20
61.90548890866182
 30
0.0
 11
87.8849247985048
 21
62.15647640866189
 31
0.0
  0
LINE
  5
251
330
2
100
AcDbEntity
  8
LINEWORK
 62
     7
370
    30
100
AcDbLine
 10
87.8849247985048
 20
62.15647640866189
 30
0.0
 11
87.8849247985048
 21
61.90548890866182
 31
0.0
  0
ARC
  5
252
330
2
100
AcDbEntity
  8
LINEWORK
 62
     7
370
    30
100
AcDbCircle
 10
88.27461591692587
 20
62.81696982971448
 30
0.0
 40
0.7668837767419853
100
AcDbArc
 50
110.1517470342117
 51
239.4593951503194
  0
LINE
  5
253
330
2
100
AcDbEntity
  8
LINEWORK
 62
     7
370
    30
100
AcDbLine
 10
90.20655917350484
 20
63.53690765866179
 30
0.0
 11
88.01041854850485
 21
63.53690765866179
 31
0.0
  0
LINE
  5
254
330
2
100
AcDbEntity
  8
LINEWORK
 62
     7
370
    30
100
AcDbLine
 10
90.20655917350484
 20
64.16437640866184
 30
0.0
 11
88.01041854850485
 21
64.16437640866184
 31
0.0
  0
LINE
  5
255
330
2
100
AcDbEntity
  8
LINEWORK
 62
     7
370
    30
100
AcDbLine
 10
90.20655917350484
 20
63.5369076586619
 30
0.0
 11
88.01041854850485
 21
63.5369076586619
 31
0.0
  0
LINE
  5
256
330
2
100
AcDbEntity
  8
LINEWORK
 62
     7
370
    30
100
AcDbLine
 10
88.01041854850485
 20
64.16437640866184
 30
0.0
 11
90.20655917350484
 21
64.16437640866184
 31
0.0
  0
LINE
  5
257
330
2
100
AcDbEntity
  8
LINEWORK
 62
     7
370
    30
100
AcDbLine
 10
90.20655917350484
 20
62.15647640866189
 30
0.0
 11
87.8849247985048
 21
62.15647640866189
 31
0.0
  0
LINE
  5
258
330
2
100
AcDbEntity
  8
LINEWORK
 62
     7
370
    30
100
AcDbLine
 10
87.8849247985048
 20
62.15647640866189
 30
0.0
 11
90.20655917350484
 21
62.15647640866189
 31
0.0
  0
ARC
  5
259
330
2
100
AcDbEntity
  8
LINEWORK
 62
     7
370
    30
100
AcDbCircle
 10
87.02189382194228
 20
65.57291302975568
 30
0.0
 40
1.720801135514404
100
AcDbArc
 50
305.0615521464798
 51
335.3273056689872
  0
ARC
  5
25A
330
2
100
AcDbEntity
  8
LINEWORK
 62
     7
370
    30
100
AcDbCircle
 10
87.01812367353147
 20
65.57605482009808
 30
0.0
 40
1.725539062499979
100
AcDbArc
 50
305.1040931533572
 51
335.284764662113
  0
ARC
  5
25B
330
2
100
AcDbEntity
  8
LINEWORK
 62
     7
370
    30
100
AcDbCircle
 10
89.01611151725479
 20
66.79974515866184
 30
0.0
 40
0.587380468750003
100
AcDbArc
 50
121.2844929144179
 51
238.715507085582
  0
POINT
  5
25C
330
2
100
AcDbEntity
  8
LINEWORK
 62
     1
370
    30
100
AcDbPoint
 10
87.32020292350489
 20
59.52110765866177
 30
0.0
  0
LINE
  5
25D
330
2
100
AcDbEntity
  8
LINEWORK
  6
DASHED
 62
     7
 48
2.0
370
    30
100
AcDbLine
 10
89.95655917350484
 20
56.9338076586605
 30
0.0
 11
89.95655917350484
 21
60.9338076586605
 31
0.0
  0
LINE
  5
25E
330
2
100
AcDbEntity
  8
LINEWORK
 62
     7
370
    30
100
AcDbLine
 10
87.32020292350489
 20
61.77999515866179
 30
0.0
 11
87.32020292350489
 21
57.33576004861993
 31
0.0
  0
LINE
  5
25F
330
2
100
AcDbEntity
  8
LINEWORK
 62
     7
370
    30
100
AcDbLine
 10
87.32020292350489
 20
59.27012015866171
 30
0.0
 11
87.32020292350489
 21
61.77999515866179
 31
0.0
  0
LINE
  5
260
330
2
100
AcDbEntity
  8
LINEWORK
 62
     7
370
    30
100
AcDbLine
 10
87.32020292350489
 20
61.77999515866179
 30
0.0
 11
87.32020292350489
 21
59.27012015866171
 31
0.0
  0
LINE
  5
261
330
2
100
AcDbEntity
  8
LINEWORK
 62
     7
370
    30
100
AcDbLine
 10
80.04516455896885
 20
70.74520765866179
 30
0.0
 11
80.04516455896885
 21
71.49817015866188
 31
0.0
  0
LINE
  5
262
330
2
100
AcDbEntity
  8
LINEWORK
 62
     7
370
    30
100
AcDbLine
 10
80.04516455896885
 20
70.74520765866179
 30
0.0
 11
79.91967080896881
 21
70.61971390866188
 31
0.0
  0
LINE
  5
263
330
2
100
AcDbEntity
  8
LINEWORK
 62
     7
370
    30
100
AcDbLine
 10
80.04516455896885
 20
70.74520765866179
 30
0.0
 11
79.91967080896881
 21
70.61971390866188
 31
0.0
  0
LINE
  5
264
330
2
100
AcDbEntity
  8
LINEWORK
 62
     7
370
    30
100
AcDbLine
 10
80.04516455896885
 20
70.74520765866179
 30
0.0
 11
80.04516455896885
 21
71.49817015866188
 31
0.0
  0
ARC
  5
265
330
2
100
AcDbEntity
  8
LINEWORK
 62
     7
370
    30
100
AcDbCircle
 10
82.20980779156855
 20
68.00784424806181
 30
0.0
 40
2.22751406250017
100
AcDbArc
 50
180.6044512322847
 51
207.4680357035701
  0
ARC
  5
266
330
2
100
AcDbEntity
  8
LINEWORK
 62
     7
370
    30
100
AcDbCircle
 10
82.20993174646878
 20
68.00787523678684
 30
0.0
 40
2.22763833761492
100
AcDbArc
 50
180.6052145972454
 51
207.467272338611
  0
ARC
  5
267
330
2
100
AcDbEntity
  8
LINEWORK
 62
     7
370
    30
100
AcDbCircle
 10
107.5517757149614
 20
69.95918980672104
 30
0.0
 40
27.63999843750035
100
AcDbArc
 50
178.6306494746762
 51
184.0972055885288
  0
ARC
  5
268
330
2
100
AcDbEntity
  8
LINEWORK
 62
     7
370
    30
100
AcDbCircle
 10
107.5463958690655
 20
69.9590617151523
 30
0.0
 40
27.63462319024747
100
AcDbArc
 50
178.630117417344
 51
184.0977376458605
  0
ARC
  5
269
330
2
100
AcDbEntity
  8
LINEWORK
 62
     7
370
    30
100
AcDbCircle
 10
75.83642311775509
 20
63.6853503823977
 30
0.0
 40
5.333484374999923
100
AcDbArc
 50
357.649060045261
 51
19.59993238281736
  0
ARC
  5
26A
330
2
100
AcDbEntity
  8
LINEWORK
 62
     7
370
    30
100
AcDbCircle
 10
75.83989485727681
 20
63.6858769519888
 30
0.0
 40
5.330037199451427
100
AcDbArc
 50
357.6418735319813
 51
19.60711889602133
  0
ARC
  5
26B
330
2
100
AcDbEntity
  8
LINEWORK
 62
     7
370
    30
100
AcDbCircle
 10
66.52168994556143
 20
60.38349531975609
 30
0.0
 40
15.21611718749983
100
AcDbArc
 50
19.54686554134448
 51
25.6928643595911
  0
ARC
  5
26C
330
2
100
AcDbEntity
  8
LINEWORK
 62
     7
370
    30
100
AcDbCircle
 10
81.48714537144213
 20
58.72905482009798
 30
0.0
 40
1.725539062499889
100
AcDbArc
 50
204.715235337887
 51
234.8959068466427
  0
ARC
  5
26D
330
2
100
AcDbEntity
  8
LINEWORK
 62
     7
370
    30
100
AcDbCircle
 10
81.48337522303132
 20
58.7259130297557
 30
0.0
 40
1.720801135514404
100
AcDbArc
 50
204.6726943310067
 51
234.9384478535201
  0
LINE
  5
26E
330
2
100
AcDbEntity
  8
LINEWORK
 62
     7
370
    30
100
AcDbLine
 10
80.49485049646888
 20
56.68990765866192
 30
0.0
 11
80.49485049646875
 21
57.31737640866185
 31
0.0
  0
LINE
  5
26F
330
2
100
AcDbEntity
  8
LINEWORK
 62
     7
370
    30
100
AcDbLine
 10
80.49485049646875
 20
57.31737640866185
 30
0.0
 11
80.49485049646875
 21
56.68990765866169
 31
0.0
  0
ARC
  5
270
330
2
100
AcDbEntity
  8
LINEWORK
 62
     7
370
    30
100
AcDbCircle
 10
92.6653741876969
 20
70.53287695198878
 30
0.0
 40
5.330037199451427
100
AcDbArc
 50
160.3928811039786
 51
182.3581264680186
  0
ARC
  5
271
330
2
100
AcDbEntity
  8
LINEWORK
 62
     7
370
    30
100
AcDbCircle
 10
92.66884592721851
 20
70.53235038239768
 30
0.0
 40
5.333484374999923
100
AcDbArc
 50
160.4000676171826
 51
182.3509399547389
  0
ARC
  5
272
330
2
100
AcDbEntity
  8
LINEWORK
 62
     7
370
    30
100
AcDbCircle
 10
79.54712667857939
 20
72.06289203366179
 30
0.0
 40
0.7529625000000308
100
AcDbArc
 50
311.4096221092697
 51
48.59037789073025
  0
ARC
  5
273
330
2
100
AcDbEntity
  8
LINEWORK
 62
     7
370
    30
100
AcDbCircle
 10
79.53534619959384
 20
72.06289203366179
 30
0.0
 40
0.760805859375
100
AcDbArc
 50
312.0750220508427
 51
47.9249779491573
  0
LINE
  5
274
330
2
100
AcDbEntity
  8
LINEWORK
 62
     7
370
    30
100
AcDbLine
 10
93.09291542350479
 20
60.66863716444913
 30
0.0
 11
99.33543937561012
 21
64.14776004861971
 31
0.0
  0
LINE
  5
275
330
2
100
AcDbEntity
  8
LINEWORK
 62
     7
370
    30
100
AcDbLine
 10
93.09291542350479
 20
61.77999515866179
 30
0.0
 11
93.09291542350479
 21
60.66863716444913
 31
0.0
  0
ARC
  5
276
330
2
100
AcDbEntity
  8
LINEWORK
 62
     7
370
    30
100
AcDbCircle
 10
101.0313479693601
 20
73.5182451586619
 30
0.0
 40
0.587380468750003
100
AcDbArc
 50
121.2844929144179
 51
238.715507085582
  0
ARC
  5
277
330
2
100
AcDbEntity
  8
LINEWORK
 62
     7
370
    30
100
AcDbCircle
 10
101.0478105075349
 20
73.51824515866406
 30
0.0
 40
0.5960953125000341
100
AcDbArc
 50
122.6368975039364
 51
237.3631024959568
  0
ARC
  5
278
330
2
100
AcDbEntity
  8
LINEWORK
 62
     7
370
    30
100
AcDbCircle
 10
98.00589790333901
 20
72.52578402309848
 30
0.0
 40
2.764293570461533
100
AcDbArc
 50
339.8400491762129
 51
10.22046936756176
  0
ARC
  5
279
330
2
100
AcDbEntity
  8
LINEWORK
 62
     7
370
    30
100
AcDbCircle
 10
98.00943998747015
 20
72.52547601578249
 30
0.0
 40
2.760862499999871
100
AcDbArc
 50
339.8207155174592
 51
10.23980302638167
  0
ARC
  5
27A
330
2
100
AcDbEntity
  8
LINEWORK
 62
     7
370
    30
100
AcDbCircle
 10
78.42953924759751
 20
67.23049531975608
 30
0.0
 40
15.21611718749983
100
AcDbArc
 50
19.54686554134448
 51
25.6928643595911
  0
ARC
  5
27B
330
2
100
AcDbEntity
  8
LINEWORK
 62
     7
370
    30
100
AcDbCircle
 10
119.4542451711015
 20
76.80606171515228
 30
0.0
 40
27.63462319024747
100
AcDbArc
 50
178.630117417344
 51
184.0977376458605
  0
ARC
  5
27C
330
2
100
AcDbEntity
  8
LINEWORK
 62
     7
370
    30
100
AcDbCircle
 10
119.4596250169974
 20
76.80618980672102
 30
0.0
 40
27.63999843750035
100
AcDbArc
 50
178.6306494746762
 51
184.0972055885288
  0
LINE
  5
27D
330
2
100
AcDbEntity
  8
LINEWORK
 62
     7
370
    30
100
AcDbLine
 10
91.95301386100481
 20
77.59220765866178
 30
0.0
 11
91.82752011100479
 21
77.46671390866186
 31
0.0
  0
LINE
  5
27E
330
2
100
AcDbEntity
  8
LINEWORK
 62
     7
370
    30
100
AcDbLine
 10
91.95301386100481
 20
77.59220765866178
 30
0.0
 11
91.82752011100479
 21
77.46671390866186
 31
0.0
  0
ARC
  5
27F
330
2
100
AcDbEntity
  8
LINEWORK
 62
     7
370
    30
100
AcDbCircle
 10
94.11778104850487
 20
74.85487523678682
 30
0.0
 40
2.22763833761492
100
AcDbArc
 50
180.6052145972454
 51
207.467272338611
  0
ARC
  5
280
330
2
100
AcDbEntity
  8
LINEWORK
 62
     7
370
    30
100
AcDbCircle
 10
94.11765709360464
 20
74.8548442480618
 30
0.0
 40
2.22751406250017
100
AcDbArc
 50
180.6044512322847
 51
207.4680357035701
  0
LINE
  5
281
330
2
100
AcDbEntity
  8
LINEWORK
 62
     7
370
    30
100
AcDbLine
 10
100.0256550006101
 20
70.88287640866179
 30
0.0
 11
100.0256550006101
 21
70.25540765866185
 31
0.0
  0
LINE
  5
282
330
2
100
AcDbEntity
  8
LINEWORK
 62
     7
370
    30
100
AcDbLine
 10
100.0256550006101
 20
70.25540765866196
 30
0.0
 11
100.0256550006101
 21
70.8828764086619
 31
0.0
  0
LINE
  5
283
330
2
100
AcDbEntity
  8
LINEWORK
 62
     7
370
    30
100
AcDbLine
 10
99.90016125061016
 20
68.62398890866188
 30
0.0
 11
99.90016125061016
 21
68.87497640866195
 31
0.0
  0
LINE
  5
284
330
2
100
AcDbEntity
  8
LINEWORK
 62
     7
370
    30
100
AcDbLine
 10
99.90016125061016
 20
68.87497640866195
 30
0.0
 11
99.90016125061016
 21
68.62398890866188
 31
0.0
  0
ARC
  5
285
330
2
100
AcDbEntity
  8
LINEWORK
 62
     7
370
    30
100
AcDbCircle
 10
100.2898523690312
 20
69.53546982971454
 30
0.0
 40
0.7668837767419853
100
AcDbArc
 50
110.1517470342117
 51
239.4593951503194
  0
POINT
  5
286
330
2
100
AcDbEntity
  8
LINEWORK
 62
     1
370
    30
100
AcDbPoint
 10
99.33543937561012
 20
66.23960765866172
 30
0.0
  0
LINE
  5
287
330
2
100
AcDbEntity
  8
LINEWORK
 62
     7
370
    30
100
AcDbLine
 10
92.40269979850484
 20
64.16437640866184
 30
0.0
 11
92.40269979850484
 21
63.53690765866179
 31
0.0
  0
LINE
  5
288
330
2
100
AcDbEntity
  8
LINEWORK
 62
     7
370
    30
100
AcDbLine
 10
92.40269979850484
 20
63.5369076586619
 30
0.0
 11
92.40269979850484
 21
64.16437640866184
 31
0.0
  0
LINE
  5
289
330
2
100
AcDbEntity
  8
LINEWORK
 62
     7
370
    30
100
AcDbLine
 10
92.52819354850487
 20
61.90548890866182
 30
0.0
 11
92.52819354850487
 21
62.15647640866189
 31
0.0
  0
LINE
  5
28A
330
2
100
AcDbEntity
  8
LINEWORK
 62
     7
370
    30
100
AcDbLine
 10
92.52819354850487
 20
62.15647640866189
 30
0.0
 11
92.52819354850487
 21
61.90548890866182
 31
0.0
  0
ARC
  5
28B
330
2
100
AcDbEntity
  8
LINEWORK
 62
     7
370
    30
100
AcDbCircle
 10
92.1385024300838
 20
62.81696982971448
 30
0.0
 40
0.7668837767419853
100
AcDbArc
 50
300.5406048496805
 51
69.84825296578828
  0
LINE
  5
28C
330
2
100
AcDbEntity
  8
LINEWORK
 62
     7
370
    30
100
AcDbLine
 10
99.33543937561012
 20
68.49849515866186
 30
0.0
 11
99.33543937561012
 21
64.14776004861983
 31
0.0
  0
LINE
  5
28D
330
2
100
AcDbEntity
  8
LINEWORK
 62
     7
370
    30
100
AcDbLine
 10
99.33543937561012
 20
65.98862015866188
 30
0.0
 11
99.33543937561012
 21
68.49849515866186
 31
0.0
  0
LINE
  5
28E
330
2
100
AcDbEntity
  8
LINEWORK
 62
     7
370
    30
100
AcDbLine
 10
99.33543937561012
 20
68.49849515866186
 30
0.0
 11
99.33543937561012
 21
65.98862015866188
 31
0.0
  0
ARC
  5
28F
330
2
100
AcDbEntity
  8
LINEWORK
 62
     7
370
    30
100
AcDbCircle
 10
94.42245689577601
 20
65.80728402309842
 30
0.0
 40
2.764293570461533
100
AcDbArc
 50
169.7795306324382
 51
200.159950823787
  0
ARC
  5
290
330
2
100
AcDbEntity
  8
LINEWORK
 62
     7
370
    30
100
AcDbCircle
 10
94.41891481164475
 20
65.80697601578243
 30
0.0
 40
2.760862499999871
100
AcDbArc
 50
169.7601969736183
 51
200.1792844825406
  0
ARC
  5
291
330
2
100
AcDbEntity
  8
LINEWORK
 62
     7
370
    30
100
AcDbCircle
 10
91.39700682975478
 20
66.79974515866184
 30
0.0
 40
0.587380468750003
100
AcDbArc
 50
301.2844929144179
 51
58.71550708558205
  0
ARC
  5
292
330
2
100
AcDbEntity
  8
LINEWORK
 62
     7
370
    30
100
AcDbCircle
 10
89.21579595044681
 20
70.25173213401069
 30
0.0
 40
3.857967380510689
100
AcDbArc
 50
310.1237387019697
 51
0.9184135598970037
  0
ARC
  5
293
330
2
100
AcDbEntity
  8
LINEWORK
 62
     7
370
    30
100
AcDbCircle
 10
89.21482332292043
 20
70.25217495389893
 30
0.0
 40
3.858932812500603
100
AcDbArc
 50
310.1305441294352
 51
0.9116081324222738
  0
ARC
  5
294
330
2
100
AcDbEntity
  8
LINEWORK
 62
     7
370
    30
100
AcDbCircle
 10
93.39122452506728
 20
65.57291302975568
 30
0.0
 40
1.720801135514404
100
AcDbArc
 50
204.6726943310067
 51
234.9384478535201
  0
ARC
  5
295
330
2
100
AcDbEntity
  8
LINEWORK
 62
     7
370
    30
100
AcDbCircle
 10
93.3949946734781
 20
65.57605482009797
 30
0.0
 40
1.725539062499889
100
AcDbArc
 50
204.715235337887
 51
234.8959068466427
  0
LINE
  5
296
330
2
100
AcDbEntity
  8
LINEWORK
  6
DASHED
 62
     7
 48
2.0
370
    30
100
AcDbLine
 10
90.45655917350485
 20
60.9338076586605
 30
0.0
 11
90.45655917350485
 21
56.9338076586605
 31
0.0
  0
ARC
  5
297
330
2
100
AcDbEntity
  8
LINEWORK
 62
     7
370
    30
100
AcDbCircle
 10
87.74774415931279
 20
70.53287695198878
 30
0.0
 40
5.330037199451427
100
AcDbArc
 50
357.6418735319813
 51
19.60711889602133
  0
ARC
  5
298
330
2
100
AcDbEntity
  8
LINEWORK
 62
     7
370
    30
100
AcDbCircle
 10
87.74427241979116
 20
70.53235038239768
 30
0.0
 40
5.333484374999923
100
AcDbArc
 50
357.649060045261
 51
19.59993238281736
  0
ARC
  5
299
330
2
100
AcDbEntity
  8
LINEWORK
 62
     7
370
    30
100
AcDbCircle
 10
99.03713027404762
 20
72.29141302975574
 30
0.0
 40
1.720801135514404
100
AcDbArc
 50
305.0615521464798
 51
335.3273056689872
  0
ARC
  5
29A
330
2
100
AcDbEntity
  8
LINEWORK
 62
     7
370
    30
100
AcDbCircle
 10
99.03336012563682
 20
72.29455482009814
 30
0.0
 40
1.725539062499979
100
AcDbArc
 50
305.1040931533572
 51
335.284764662113
  0
ARC
  5
29B
330
2
100
AcDbEntity
  8
LINEWORK
 62
     7
370
    30
100
AcDbCircle
 10
103.212558848668
 20
76.97023213401076
 30
0.0
 40
3.857967380510689
100
AcDbArc
 50
179.0815864401029
 51
229.8762612980302
  0
ARC
  5
29C
330
2
100
AcDbEntity
  8
LINEWORK
 62
     7
370
    30
100
AcDbCircle
 10
103.2135314761946
 20
76.97067495389899
 30
0.0
 40
3.858932812500603
100
AcDbArc
 50
179.0883918675777
 51
229.8694558705647
  0
LINE
  5
29D
330
2
100
AcDbEntity
  8
LINEWORK
 62
     7
370
    30
100
AcDbLine
 10
120.6064324307403
 20
64.53927365980473
 30
0.0
 11
108.6064324307403
 21
64.53927365980473
 31
0.0
  0
LINE
  5
29E
330
2
100
AcDbEntity
  8
LINEWORK
 62
     7
370
    30
100
AcDbLine
 10
110.4511994101864
 20
68.87077989702413
 30
0.0
 11
116.2239119101864
 21
68.87077989702413
 31
0.0
  0
LINE
  5
29F
330
2
100
AcDbEntity
  8
LINEWORK
 62
     7
370
    30
100
AcDbLine
 10
110.4511994101864
 20
71.36793135784694
 30
0.0
 11
113.3375556601863
 21
71.36793135784694
 31
0.0
  0
LINE
  5
2A0
330
2
100
AcDbEntity
  8
LINEWORK
 62
     7
370
    30
100
AcDbLine
 10
113.3375556601863
 20
71.36793135784694
 30
0.0
 11
110.4511994101864
 21
71.36793135784694
 31
0.0
  0
LINE
  5
2A1
330
2
100
AcDbEntity
  8
LINEWORK
 62
     7
370
    30
100
AcDbLine
 10
111.0159212851863
 20
71.74441260784703
 30
0.0
 11
113.3375556601863
 21
71.74441260784703
 31
0.0
  0
LINE
  5
2A2
330
2
100
AcDbEntity
  8
LINEWORK
 62
     7
370
    30
100
AcDbLine
 10
111.0159212851863
 20
71.49342510784697
 30
0.0
 11
113.3375556601863
 21
71.49342510784697
 31
0.0
  0
LINE
  5
2A3
330
2
100
AcDbEntity
  8
LINEWORK
 62
     7
370
    30
100
AcDbLine
 10
113.3375556601863
 20
71.74441260784703
 30
0.0
 11
111.0159212851863
 21
71.74441260784703
 31
0.0
  0
LINE
  5
2A4
330
2
100
AcDbEntity
  8
LINEWORK
 62
     7
370
    30
100
AcDbLine
 10
113.3375556601863
 20
71.49342510784697
 30
0.0
 11
111.0159212851863
 21
71.49342510784697
 31
0.0
  0
LINE
  5
2A5
330
2
100
AcDbEntity
  8
LINEWORK
 62
     7
370
    30
100
AcDbLine
 10
113.3375556601863
 20
73.12484385784694
 30
0.0
 11
111.1414150351863
 21
73.12484385784694
 31
0.0
  0
LINE
  5
2A6
330
2
100
AcDbEntity
  8
LINEWORK
 62
     7
370
    30
100
AcDbLine
 10
113.3375556601863
 20
73.12484385784694
 30
0.0
 11
111.1414150351863
 21
73.12484385784694
 31
0.0
  0
LINE
  5
2A7
330
2
100
AcDbEntity
  8
LINEWORK
 62
     7
370
    30
100
AcDbLine
 10
111.1414150351863
 20
73.75231260784687
 30
0.0
 11
113.3375556601863
 21
73.75231260784687
 31
0.0
  0
LINE
  5
2A8
330
2
100
AcDbEntity
  8
LINEWORK
 62
     7
370
    30
100
AcDbLine
 10
113.3375556601863
 20
73.75231260784687
 30
0.0
 11
111.1414150351863
 21
73.75231260784687
 31
0.0
  0
ARC
  5
2A9
330
2
100
AcDbEntity
  8
LINEWORK
 62
     7
370
    30
100
AcDbCircle
 10
110.149120160213
 20
75.16399101928311
 30
0.0
 40
1.725539062499979
100
AcDbArc
 50
305.1040931533572
 51
335.284764662113
  0
LINE
  5
2AA
330
2
100
AcDbEntity
  8
LINEWORK
 62
     7
370
    30
100
AcDbLine
 10
110.4511994101864
 20
68.87077989702413
 30
0.0
 11
110.4511994101864
 21
71.36793135784694
 31
0.0
  0
LINE
  5
2AB
330
2
100
AcDbEntity
  8
LINEWORK
 62
     7
370
    30
100
AcDbLine
 10
105.1081518756101
 20
68.49849515866186
 30
0.0
 11
105.1081518756101
 21
67.48063716444903
 31
0.0
  0
LINE
  5
2AC
330
2
100
AcDbEntity
  8
LINEWORK
 62
     7
370
    30
100
AcDbLine
 10
111.1414150351863
 20
73.12484385784694
 30
0.0
 11
111.1414150351863
 21
73.75231260784687
 31
0.0
  0
LINE
  5
2AD
330
2
100
AcDbEntity
  8
LINEWORK
 62
     7
370
    30
100
AcDbLine
 10
111.1414150351863
 20
73.75231260784687
 30
0.0
 11
111.1414150351863
 21
73.12484385784694
 31
0.0
  0
ARC
  5
2AE
330
2
100
AcDbEntity
  8
LINEWORK
 62
     7
370
    30
100
AcDbCircle
 10
111.3717684255501
 20
72.40798275417763
 30
0.0
 40
0.7529625000000071
100
AcDbArc
 50
107.8140895270852
 51
241.7970526574468
  0
LINE
  5
2AF
330
2
100
AcDbEntity
  8
LINEWORK
 62
     7
370
    30
100
AcDbLine
 10
111.0159212851863
 20
71.49342510784697
 30
0.0
 11
110.4511994101864
 21
71.36793135784694
 31
0.0
  0
LINE
  5
2B0
330
2
100
AcDbEntity
  8
LINEWORK
 62
     7
370
    30
100
AcDbLine
 10
110.4511994101864
 20
71.36793135784694
 30
0.0
 11
111.0159212851863
 21
71.49342510784697
 31
0.0
  0
LINE
  5
2B1
330
2
100
AcDbEntity
  8
LINEWORK
 62
     7
370
    30
100
AcDbLine
 10
111.0159212851863
 20
71.74441260784703
 30
0.0
 11
111.0159212851863
 21
71.49342510784697
 31
0.0
  0
LINE
  5
2B2
330
2
100
AcDbEntity
  8
LINEWORK
 62
     7
370
    30
100
AcDbLine
 10
111.0159212851863
 20
71.49342510784697
 30
0.0
 11
111.0159212851863
 21
71.74441260784703
 31
0.0
  0
LINE
  5
2B3
330
2
100
AcDbEntity
  8
LINEWORK
 62
     7
370
    30
100
AcDbLine
 10
108.090425532612
 20
64.43931394230173
 30
0.0
 11
107.4432953559389
 21
68.39582017952102
 31
0.0
  0
LINE
  5
2B4
330
2
100
AcDbEntity
  8
LINEWORK
 62
     7
370
    30
100
AcDbLine
 10
108.4530456643333
 20
64.53927365980473
 30
0.0
 11
107.8059154876602
 21
68.49577989702402
 31
0.0
  0
ARC
  5
2B5
330
2
100
AcDbEntity
  8
LINEWORK
 62
     7
370
    30
100
AcDbCircle
 10
103.4122432818601
 20
73.5182451586619
 30
0.0
 40
0.587380468750003
100
AcDbArc
 50
301.2844929144179
 51
58.71550708558205
  0
ARC
  5
2B6
330
2
100
AcDbEntity
  8
LINEWORK
 62
     7
370
    30
100
AcDbCircle
 10
103.3957807436853
 20
73.51824515866406
 30
0.0
 40
0.5960953125000341
100
AcDbArc
 50
302.6368975040358
 51
57.36310249606355
  0
ARC
  5
2B7
330
2
100
AcDbEntity
  8
LINEWORK
 62
     7
370
    30
100
AcDbCircle
 10
101.231032402552
 20
76.97023213401076
 30
0.0
 40
3.857967380510689
100
AcDbArc
 50
310.1237387019697
 51
0.9184135598970037
  0
ARC
  5
2B8
330
2
100
AcDbEntity
  8
LINEWORK
 62
     7
370
    30
100
AcDbCircle
 10
101.2300597750256
 20
76.97067495389899
 30
0.0
 40
3.858932812500603
100
AcDbArc
 50
310.1305441294352
 51
0.9116081324222738
  0
LINE
  5
2B9
330
2
100
AcDbEntity
  8
LINEWORK
 62
     7
370
    30
100
AcDbLine
 10
102.2217956256101
 20
74.0202201586618
 30
0.0
 11
103.7172628131102
 21
74.0202201586618
 31
0.0
  0
LINE
  5
2BA
330
2
100
AcDbEntity
  8
LINEWORK
 62
     7
370
    30
100
AcDbLine
 10
102.2217956256101
 20
74.02022015866203
 30
0.0
 11
103.7172628131102
 21
74.02022015866203
 31
0.0
  0
LINE
  5
2BB
330
2
100
AcDbEntity
  8
LINEWORK
 62
     7
370
    30
100
AcDbLine
 10
102.2217956256101
 20
73.01627015866188
 30
0.0
 11
103.7172628131102
 21
73.01627015866188
 31
0.0
  0
LINE
  5
2BC
330
2
100
AcDbEntity
  8
LINEWORK
 62
     7
370
    30
100
AcDbLine
 10
103.7172628131102
 20
73.01627015866188
 30
0.0
 11
102.2217956256101
 21
73.01627015866188
 31
0.0
  0
ARC
  5
2BD
330
2
100
AcDbEntity
  8
LINEWORK
 62
     7
370
    30
100
AcDbCircle
 10
105.4064609771726
 20
72.29141302975574
 30
0.0
 40
1.720801135514404
100
AcDbArc
 50
204.6726943310067
 51
234.9384478535201
  0
ARC
  5
2BE
330
2
100
AcDbEntity
  8
LINEWORK
 62
     7
370
    30
100
AcDbCircle
 10
105.4102311255834
 20
72.29455482009803
 30
0.0
 40
1.725539062499889
100
AcDbArc
 50
204.715235337887
 51
234.8959068466427
  0
LINE
  5
2BF
330
2
100
AcDbEntity
  8
LINEWORK
 62
     7
370
    30
100
AcDbLine
 10
104.4179362506101
 20
70.88287640866179
 30
0.0
 11
104.4179362506101
 21
70.25540765866185
 31
0.0
  0
LINE
  5
2C0
330
2
100
AcDbEntity
  8
LINEWORK
 62
     7
370
    30
100
AcDbLine
 10
104.4179362506101
 20
70.25540765866196
 30
0.0
 11
104.4179362506101
 21
70.8828764086619
 31
0.0
  0
LINE
  5
2C1
330
2
100
AcDbEntity
  8
LINEWORK
 62
     7
370
    30
100
AcDbLine
 10
104.5434300006102
 20
68.62398890866188
 30
0.0
 11
104.5434300006102
 21
68.87497640866195
 31
0.0
  0
LINE
  5
2C2
330
2
100
AcDbEntity
  8
LINEWORK
 62
     7
370
    30
100
AcDbLine
 10
104.5434300006102
 20
68.87497640866195
 30
0.0
 11
104.5434300006102
 21
68.62398890866188
 31
0.0
  0
ARC
  5
2C3
330
2
100
AcDbEntity
  8
LINEWORK
 62
     7
370
    30
100
AcDbCircle
 10
104.1537388821891
 20
69.53546982971454
 30
0.0
 40
0.7668837767419853
100
AcDbArc
 50
300.5406048496805
 51
69.84825296578828
  0
LINE
  5
2C4
330
2
100
AcDbEntity
  8
LINEWORK
 62
     7
370
    30
100
AcDbLine
 10
102.2217956256101
 20
70.25540765866185
 30
0.0
 11
104.4179362506101
 21
70.25540765866185
 31
0.0
  0
LINE
  5
2C5
330
2
100
AcDbEntity
  8
LINEWORK
 62
     7
370
    30
100
AcDbLine
 10
102.2217956256101
 20
70.25540765866196
 30
0.0
 11
104.4179362506101
 21
70.25540765866196
 31
0.0
  0
LINE
  5
2C6
330
2
100
AcDbEntity
  8
LINEWORK
 62
     7
370
    30
100
AcDbLine
 10
102.2217956256101
 20
70.88287640866179
 30
0.0
 11
104.4179362506101
 21
70.88287640866179
 31
0.0
  0
LINE
  5
2C7
330
2
100
AcDbEntity
  8
LINEWORK
 62
     7
370
    30
100
AcDbLine
 10
104.4179362506101
 20
70.8828764086619
 30
0.0
 11
102.2217956256101
 21
70.8828764086619
 31
0.0
  0
LINE
  5
2C8
330
2
100
AcDbEntity
  8
LINEWORK
 62
     7
370
    30
100
AcDbLine
 10
102.2217956256101
 20
68.87497640866195
 30
0.0
 11
104.5434300006102
 21
68.87497640866195
 31
0.0
  0
LINE
  5
2C9
330
2
100
AcDbEntity
  8
LINEWORK
 62
     7
370
    30
100
AcDbLine
 10
104.5434300006102
 20
68.87497640866195
 30
0.0
 11
102.2217956256101
 21
68.87497640866195
 31
0.0
  0
LINE
  5
2CA
330
2
100
AcDbEntity
  8
LINEWORK
 62
     7
370
    30
100
AcDbLine
 10
102.4717956256101
 20
67.65230765866056
 30
0.0
 11
101.9717956256101
 21
67.65230765866056
 31
0.0
  0
LINE
  5
2CB
330
2
100
AcDbEntity
  8
LINEWORK
  6
DASHED
 62
     7
 48
2.0
370
    30
100
AcDbLine
 10
102.4717956256101
 20
63.65230765866056
 30
0.0
 11
101.9717956256101
 21
63.65230765866056
 31
0.0
  0
LINE
  5
2CC
330
2
100
AcDbEntity
  8
LINEWORK
  6
DASHED
 62
     7
 48
2.0
370
    30
100
AcDbLine
 10
102.4717956256101
 20
67.65230765866056
 30
0.0
 11
102.4717956256101
 21
63.65230765866056
 31
0.0
  0
LINE
  5
2CD
330
2
100
AcDbEntity
  8
LINEWORK
  6
DASHED
 62
     7
 48
2.0
370
    30
100
AcDbLine
 10
101.9717956256101
 20
63.65230765866056
 30
0.0
 11
101.9717956256101
 21
67.65230765866056
 31
0.0
  0
ARC
  5
2CE
330
2
100
AcDbEntity
  8
LINEWORK
 62
     7
370
    30
100
AcDbCircle
 10
106.4376933478812
 20
72.52578402309848
 30
0.0
 40
2.764293570461533
100
AcDbArc
 50
169.7795306324382
 51
200.159950823787
  0
ARC
  5
2CF
330
2
100
AcDbEntity
  8
LINEWORK
 62
     7
370
    30
100
AcDbCircle
 10
106.4341512637499
 20
72.52547601578249
 30
0.0
 40
2.760862499999871
100
AcDbArc
 50
169.7601969736183
 51
200.1792844825406
  0
LINE
  5
2D0
330
2
100
AcDbEntity
  8
LINEWORK
 62
     7
370
    30
100
AcDbLine
 10
116.2239119101864
 20
71.36793135784694
 30
0.0
 11
115.6591900351863
 21
71.49342510784697
 31
0.0
  0
LINE
  5
2D1
330
2
100
AcDbEntity
  8
LINEWORK
 62
     7
370
    30
100
AcDbLine
 10
115.6591900351863
 20
71.49342510784697
 30
0.0
 11
116.2239119101864
 21
71.36793135784694
 31
0.0
  0
LINE
  5
2D2
330
2
100
AcDbEntity
  8
LINEWORK
 62
     7
370
    30
100
AcDbLine
 10
116.2239119101864
 20
68.87077989702413
 30
0.0
 11
116.2239119101864
 21
71.36793135784694
 31
0.0
  0
ARC
  5
2D3
330
2
100
AcDbEntity
  8
LINEWORK
 62
     7
370
    30
100
AcDbCircle
 10
117.5499112983263
 20
75.39491221496757
 30
0.0
 40
2.760862499999871
100
AcDbArc
 50
169.7601969736183
 51
200.1792844825406
  0
ARC
  5
2D4
330
2
100
AcDbEntity
  8
LINEWORK
 62
     7
370
    30
100
AcDbCircle
 10
117.5534533824575
 20
75.39522022228346
 30
0.0
 40
2.764293570461533
100
AcDbArc
 50
169.7795306324382
 51
200.159950823787
  0
LINE
  5
2D5
330
2
100
AcDbEntity
  8
LINEWORK
 62
     7
370
    30
100
AcDbLine
 10
115.5336962851864
 20
73.12484385784694
 30
0.0
 11
115.5336962851863
 21
73.75231260784687
 31
0.0
  0
LINE
  5
2D6
330
2
100
AcDbEntity
  8
LINEWORK
 62
     7
370
    30
100
AcDbLine
 10
115.5336962851863
 20
73.75231260784687
 30
0.0
 11
115.5336962851863
 21
73.12484385784694
 31
0.0
  0
ARC
  5
2D7
330
2
100
AcDbEntity
  8
LINEWORK
 62
     7
370
    30
100
AcDbCircle
 10
115.3033428948226
 20
72.40798275417763
 30
0.0
 40
0.752962499999997
100
AcDbArc
 50
298.202947342553
 51
72.18591047291477
  0
LINE
  5
2D8
330
2
100
AcDbEntity
  8
LINEWORK
 62
     7
370
    30
100
AcDbLine
 10
115.6591900351863
 20
71.74441260784703
 30
0.0
 11
115.6591900351863
 21
71.49342510784697
 31
0.0
  0
LINE
  5
2D9
330
2
100
AcDbEntity
  8
LINEWORK
 62
     7
370
    30
100
AcDbLine
 10
115.6591900351863
 20
71.49342510784697
 30
0.0
 11
115.6591900351863
 21
71.74441260784703
 31
0.0
  0
ARC
  5
2DA
330
2
100
AcDbEntity
  8
LINEWORK
 62
     7
370
    30
100
AcDbCircle
 10
116.5259911601597
 20
75.16399101928311
 30
0.0
 40
1.725539062499889
100
AcDbArc
 50
204.715235337887
 51
234.8959068466427
  0
ARC
  5
2DB
330
2
100
AcDbEntity
  8
LINEWORK
 62
     7
370
    30
100
AcDbCircle
 10
114.5115407782616
 20
76.38768135784914
 30
0.0
 40
0.5960953125000341
100
AcDbArc
 50
302.6368975040358
 51
57.36310249606355
  0
LINE
  5
2DC
330
2
100
AcDbEntity
  8
LINEWORK
 62
     7
370
    30
100
AcDbLine
 10
113.3375556601863
 20
76.889656357847
 30
0.0
 11
111.8420884726864
 21
76.889656357847
 31
0.0
  0
LINE
  5
2DD
330
2
100
AcDbEntity
  8
LINEWORK
 62
     7
370
    30
100
AcDbLine
 10
113.3375556601863
 20
76.88965635784677
 30
0.0
 11
111.8420884726864
 21
76.88965635784677
 31
0.0
  0
ARC
  5
2DE
330
2
100
AcDbEntity
  8
LINEWORK
 62
     7
370
    30
100
AcDbCircle
 10
109.1252000220464
 20
75.39491221496757
 30
0.0
 40
2.760862499999871
100
AcDbArc
 50
339.8207155174592
 51
10.23980302638167
  0
ARC
  5
2DF
330
2
100
AcDbEntity
  8
LINEWORK
 62
     7
370
    30
100
AcDbCircle
 10
109.1216579379153
 20
75.39522022228346
 30
0.0
 40
2.764293570461533
100
AcDbArc
 50
339.8400491762129
 51
10.22046936756176
  0
LINE
  5
2E0
330
2
100
AcDbEntity
  8
LINEWORK
 62
     7
370
    30
100
AcDbLine
 10
111.8420884726864
 20
75.88570635784697
 30
0.0
 11
113.3375556601863
 21
75.88570635784697
 31
0.0
  0
LINE
  5
2E1
330
2
100
AcDbEntity
  8
LINEWORK
 62
     7
370
    30
100
AcDbLine
 10
113.3375556601863
 20
75.88570635784697
 30
0.0
 11
111.8420884726864
 21
75.88570635784697
 31
0.0
  0
ARC
  5
2E2
330
2
100
AcDbEntity
  8
LINEWORK
 62
     7
370
    30
100
AcDbCircle
 10
112.1635705421113
 20
76.38768135784914
 30
0.0
 40
0.5960953125000341
100
AcDbArc
 50
122.6368975039364
 51
237.3631024959568
  0
LINE
  5
2E3
330
2
100
AcDbEntity
  8
LINEWORK
 62
     7
370
    30
100
AcDbLine
 10
114.8330228476863
 20
75.88570635784697
 30
0.0
 11
113.3375556601863
 21
75.88570635784697
 31
0.0
  0
LINE
  5
2E4
330
2
100
AcDbEntity
  8
LINEWORK
 62
     7
370
    30
100
AcDbLine
 10
113.3375556601863
 20
75.88570635784697
 30
0.0
 11
114.8330228476863
 21
75.88570635784697
 31
0.0
  0
LINE
  5
2E5
330
2
100
AcDbEntity
  8
LINEWORK
 62
     7
370
    30
100
AcDbLine
 10
113.3375556601863
 20
76.889656357847
 30
0.0
 11
114.8330228476863
 21
76.889656357847
 31
0.0
  0
LINE
  5
2E6
330
2
100
AcDbEntity
  8
LINEWORK
 62
     7
370
    30
100
AcDbLine
 10
113.3375556601863
 20
76.88965635784677
 30
0.0
 11
114.8330228476863
 21
76.88965635784677
 31
0.0
  0
LINE
  5
2E7
330
2
100
AcDbEntity
  8
LINEWORK
 62
     7
370
    30
100
AcDbLine
 10
115.5336962851863
 20
73.75231260784687
 30
0.0
 11
113.3375556601863
 21
73.75231260784687
 31
0.0
  0
LINE
  5
2E8
330
2
100
AcDbEntity
  8
LINEWORK
 62
     7
370
    30
100
AcDbLine
 10
113.3375556601863
 20
73.75231260784687
 30
0.0
 11
115.5336962851863
 21
73.75231260784687
 31
0.0
  0
LINE
  5
2E9
330
2
100
AcDbEntity
  8
LINEWORK
 62
     7
370
    30
100
AcDbLine
 10
113.3375556601863
 20
73.12484385784694
 30
0.0
 11
115.5336962851864
 21
73.12484385784694
 31
0.0
  0
LINE
  5
2EA
330
2
100
AcDbEntity
  8
LINEWORK
 62
     7
370
    30
100
AcDbLine
 10
113.3375556601863
 20
73.12484385784694
 30
0.0
 11
115.5336962851863
 21
73.12484385784694
 31
0.0
  0
LINE
  5
2EB
330
2
100
AcDbEntity
  8
LINEWORK
 62
     7
370
    30
100
AcDbLine
 10
115.6591900351863
 20
71.49342510784697
 30
0.0
 11
113.3375556601863
 21
71.49342510784697
 31
0.0
  0
LINE
  5
2EC
330
2
100
AcDbEntity
  8
LINEWORK
 62
     7
370
    30
100
AcDbLine
 10
115.6591900351863
 20
71.74441260784703
 30
0.0
 11
113.3375556601863
 21
71.74441260784703
 31
0.0
  0
LINE
  5
2ED
330
2
100
AcDbEntity
  8
LINEWORK
 62
     7
370
    30
100
AcDbLine
 10
113.3375556601863
 20
71.49342510784697
 30
0.0
 11
115.6591900351863
 21
71.49342510784697
 31
0.0
  0
LINE
  5
2EE
330
2
100
AcDbEntity
  8
LINEWORK
 62
     7
370
    30
100
AcDbLine
 10
113.3375556601863
 20
71.74441260784703
 30
0.0
 11
115.6591900351863
 21
71.74441260784703
 31
0.0
  0
LINE
  5
2EF
330
2
100
AcDbEntity
  8
LINEWORK
 62
     7
370
    30
100
AcDbLine
 10
116.2239119101864
 20
71.36793135784694
 30
0.0
 11
113.3375556601863
 21
71.36793135784694
 31
0.0
  0
LINE
  5
2F0
330
2
100
AcDbEntity
  8
LINEWORK
 62
     7
370
    30
100
AcDbLine
 10
113.3375556601863
 20
71.36793135784694
 30
0.0
 11
116.2239119101864
 21
71.36793135784694
 31
0.0
  0
LINE
  5
2F1
330
2
100
AcDbEntity
  8
LINEWORK
  6
DASHED
 62
     7
 48
2.0
370
    30
100
AcDbLine
 10
113.5875556601864
 20
66.62693110921441
 30
0.0
 11
113.5875556601864
 21
70.62693110921441
 31
0.0
  0
LINE
  5
2F2
330
2
100
AcDbEntity
  8
LINEWORK
  6
DASHED
 62
     7
 48
2.0
370
    30
100
AcDbLine
 10
113.0875556601864
 20
70.62693110921441
 30
0.0
 11
113.0875556601864
 21
66.62693110921441
 31
0.0
  0
LINE
  5
2F3
330
2
100
AcDbEntity
  8
LINEWORK
  6
DASHED
 62
     7
 48
2.0
370
    30
100
AcDbLine
 10
113.0875556601864
 20
66.62693110921441
 30
0.0
 11
113.5875556601864
 21
66.62693110921441
 31
0.0
  0
LINE
  5
2F4
330
2
100
AcDbEntity
  8
LINEWORK
  6
DASHED
 62
     7
 48
2.0
370
    30
100
AcDbLine
 10
113.5875556601864
 20
70.62693110921441
 30
0.0
 11
113.0875556601864
 21
70.62693110921441
 31
0.0
  0
LINE
  5
2F5
330
2
100
AcDbEntity
  8
LINEWORK
  6
DASHED
 62
     7
 48
2.0
370
    30
100
AcDbLine
 10
113.5875556601864
 20
70.62693110921441
 30
0.0
 11
113.0875556601864
 21
70.62693110921441
 31
0.0
  0
LINE
  5
2F6
330
2
100
AcDbEntity
  8
LINEWORK
 62
     7
370
    30
100
AcDbLine
 10
120.6064324307406
 20
67.99577989702436
 30
0.0
 11
120.6064324307403
 21
64.53927365980473
 31
0.0
  0
LINE
  5
2F7
330
2
100
AcDbEntity
  8
LINEWORK
 62
     7
370
    30
100
AcDbLine
 10
121.1064324307405
 20
68.49577989702436
 30
0.0
 11
120.6064324307406
 21
67.99577989702436
 31
0.0
  0
LINE
  5
2F8
330
2
100
AcDbEntity
  8
LINEWORK
 62
     7
370
    30
100
AcDbLine
 10
132.1064324307415
 20
68.49577989702414
 30
0.0
 11
132.6064324307415
 21
67.99577989702413
 31
0.0
  0
LINE
  5
2F9
330
2
100
AcDbEntity
  8
LINEWORK
370
    30
100
AcDbLine
 10
128.8564324307415
 20
70.05877989702401
 30
0.0
 11
124.3564324307408
 21
70.05877989702401
 31
0.0
  0
LINE
  5
2FA
330
2
100
AcDbEntity
  8
LINEWORK
  6
DASHED
 62
     7
 48
2.0
370
    30
100
AcDbLine
 10
126.3564324307415
 20
70.49377989702418
 30
0.0
 11
126.8564324307415
 21
70.49377989702418
 31
0.0
  0
LINE
  5
2FB
330
2
100
AcDbEntity
  8
LINEWORK
  6
DASHED
 62
     7
 48
2.0
370
    30
100
AcDbLine
 10
126.8564324307415
 20
66.49377989702419
 30
0.0
 11
126.3564324307415
 21
66.49377989702419
 31
0.0
  0
LINE
  5
2FC
330
2
100
AcDbEntity
  8
LINEWORK
  6
DASHED
 62
     7
 48
2.0
370
    30
100
AcDbLine
 10
126.3564324307415
 20
66.49377989702419
 30
0.0
 11
126.3564324307415
 21
70.49377989702418
 31
0.0
  0
LINE
  5
2FD
330
2
100
AcDbEntity
  8
LINEWORK
  6
DASHED
 62
     7
 48
2.0
370
    30
100
AcDbLine
 10
126.8564324307415
 20
70.49377989702418
 30
0.0
 11
126.8564324307415
 21
66.49377989702419
 31
0.0
  0
ARC
  5
2FE
330
2
100
AcDbEntity
  8
LINEWORK
370
    30
100
AcDbCircle
 10
123.1064324307415
 20
70.05877989702401
 30
0.0
 40
1.25
100
AcDbArc
 50
0.0000000000065138
 51
90.00000000000651
  0
ARC
  5
2FF
330
2
100
AcDbEntity
  8
LINEWORK
370
    30
100
AcDbCircle
 10
130.1064324307415
 20
70.05877989702492
 30
0.0
 40
1.25
100
AcDbArc
 50
90.00000000000651
 51
180.0000000000065
  0
LINE
  5
300
330
2
100
AcDbEntity
  8
LINEWORK
 62
     7
370
    30
100
AcDbLine
 10
132.6064324307415
 20
67.99577989702413
 30
0.0
 11
132.6064324307415
 21
64.53927365980473
 31
0.0
  0
LWPOLYLINE
  5
301
330
2
100
AcDbEntity
  8
0
 62
    22
370
    30
100
AcDbPolyline
 90
        4
 70
     0
 43
0.0
 10
158.8948500316703
 20
66.69909298418804
 10
159.518772048729
 20
66.69909298418804
 10
159.5233938373642
 20
66.51894427989043
 10
159.4979747000236
 20
66.51894427989043
  0
ARC
  5
302
330
2
100
AcDbEntity
  8
0
 62
    22
370
    30
100
AcDbCircle
 10
159.026233767348
 20
66.52818268969269
 30
0.0
 40
0.1201627703661104
100
AcDbArc
 50
359.6316189828548
 51
90.00081606716234
  0
LINE
  5
303
330
2
100
AcDbEntity
  8
0
 62
    22
370
    30
100
AcDbLine
 10
158.8879177376913
 20
66.69909298418804
 30
0.0
 11
158.8832959490562
 21
66.51894427989043
 31
0.0
  0
ARC
  5
304
330
2
100
AcDbEntity
  8
0
 62
    22
370
    30
100
AcDbCircle
 10
159.0291974435704
 20
66.52818268969269
 30
0.0
 40
0.1201627703661104
100
AcDbArc
 50
89.99918393283769
 51
180.3683810171452
  0
LINE
  5
305
330
2
100
AcDbEntity
  8
0
 62
    22
370
    30
100
AcDbLine
 10
158.9090371568386
 20
66.5274101130916
 30
0.0
 11
158.9090371568386
 21
66.51888547610202
 31
0.0
  0
LINE
  5
306
330
2
100
AcDbEntity
  8
0
 62
    22
370
    30
100
AcDbLine
 10
158.8832959490562
 20
66.51894427989043
 30
0.0
 11
158.9087150863967
 21
66.51894427989043
 31
0.0
  0
ARC
  5
307
330
2
100
AcDbEntity
  8
0
 62
    22
370
    30
100
AcDbCircle
 10
159.3804560190724
 20
66.52818268969269
 30
0.0
 40
0.1201627703661104
100
AcDbArc
 50
89.99918393283769
 51
180.3683810171452
  0
ARC
  5
308
330
2
100
AcDbEntity
  8
0
 62
    22
370
    30
100
AcDbCircle
 10
159.37749234285
 20
66.52818268969269
 30
0.0
 40
0.1201627703661104
100
AcDbArc
 50
359.6316189828548
 51
90.00081606716234
  0
LINE
  5
309
330
2
100
AcDbEntity
  8
0
 62
    22
370
    30
100
AcDbLine
 10
159.4976526295818
 20
66.5274101130916
 30
0.0
 11
159.4976526295818
 21
66.51888547610202
 31
0.0
  0
LINE
  5
30A
330
2
100
AcDbEntity
  8
0
 62
    22
370
    30
100
AcDbLine
 10
159.0381211228541
 20
65.93923492533736
 30
0.0
 11
159.3685686635662
 21
65.93923492533736
 31
0.0
  0
LINE
  5
30B
330
2
100
AcDbEntity
  8
0
 62
    22
370
    30
100
AcDbLine
 10
159.1463755879542
 20
66.02822112055434
 30
0.0
 11
159.146729810606
 21
66.02930932529409
 31
0.0
  0
LINE
  5
30C
330
2
100
AcDbEntity
  8
0
 62
    22
370
    30
100
AcDbLine
 10
159.0381211228541
 20
65.96233094984313
 30
0.0
 11
159.0796492279225
 21
65.96233094984313
 31
0.0
  0
LINE
  5
30D
330
2
100
AcDbEntity
  8
0
 62
    22
370
    30
100
AcDbLine
 10
159.0381211228541
 20
65.93923492533736
 30
0.0
 11
159.0381211228541
 21
65.96233094984313
 31
0.0
  0
ARC
  5
30E
330
2
100
AcDbEntity
  8
0
 62
    22
370
    30
100
AcDbCircle
 10
159.079408064065
 20
66.02942674163898
 30
0.0
 40
0.0669783754509864
100
AcDbArc
 50
270.2063009286873
 51
358.9686114340258
  0
LINE
  5
30F
330
2
100
AcDbEntity
  8
0
 62
    22
370
    30
100
AcDbLine
 10
159.3685686635662
 20
65.93923492533736
 30
0.0
 11
159.3685686635662
 21
65.96233094984313
 31
0.0
  0
LINE
  5
310
330
2
100
AcDbEntity
  8
0
 62
    22
370
    30
100
AcDbLine
 10
159.3685686635662
 20
65.96233094984313
 30
0.0
 11
159.3270405584978
 21
65.96233094984313
 31
0.0
  0
ARC
  5
311
330
2
100
AcDbEntity
  8
0
 62
    22
370
    30
100
AcDbCircle
 10
159.3272817223553
 20
66.02942674163898
 30
0.0
 40
0.0669783754509864
100
AcDbArc
 50
181.0313885659742
 51
269.7936990713126
  0
LINE
  5
312
330
2
100
AcDbEntity
  8
0
 62
    22
370
    30
100
AcDbLine
 10
159.2603141984661
 20
66.02822112055434
 30
0.0
 11
159.2599599758141
 21
66.02930932529409
 31
0.0
  0
ATTDEF
  5
313
330
2
100
AcDbEntity
  8
BALUSTERS
 62
    22
370
    30
100
AcDbText
 10
158.9016273533091
 20
65.64372737013366
 30
0.0
 40
0.1488867187500036
  1

 72
     1
 11
159.2124850949373
 21
65.64372737013366
 31
0.0
100
AcDbAttributeDefinition
  3
ADD STONE MARKER
  2
XXXX
 70
     0
  0
LINE
  5
314
330
2
100
AcDbEntity
  8
0
 62
    22
370
    30
100
AcDbLine
 10
158.7562007291214
 20
65.83068380139173
 30
0.0
 11
159.6527998738217
 21
65.83068380139173
 31
0.0
  0
LWPOLYLINE
  5
315
330
2
100
AcDbEntity
  8
0
 62
    22
370
    30
100
AcDbPolyline
 90
        4
 70
     1
 43
0.0
 10
158.7562007291214
 20
66.79840569833129
 10
159.6527998738217
 20
66.79840569833129
 10
159.6527998738217
 20
65.60665274614883
 10
158.7562007291214
 20
65.60665274614883
  0
HATCH
  5
316
330
2
100
AcDbEntity
  8
0
 62
    22
370
    30
100
AcDbHatch
 10
0.0
 20
0.0
 30
0.0
210
0.0
220
0.0
230
1.0
  2
LINE
 70
     0
 71
     0
 91
        1
 92
       33
 93
       38
 72
     1
 10
159.518772048729
 20
66.69909298418804
 11
158.8902283986246
 21
66.69909298418804
 72
     1
 10
158.8902283986246
 20
66.69909298418804
 11
158.8832959490562
 21
66.52125388234094
 72
     1
 10
158.8832959490562
 20
66.52125388234094
 11
158.9040934533511
 21
66.52125388234094
 72
     1
 10
158.9040934533511
 20
66.52125388234094
 11
158.9087150863967
 21
66.55127861858261
 72
     1
 10
158.9087150863967
 20
66.55127861858261
 11
158.9156475359652
 21
66.57899384798963
 72
     1
 10
158.9156475359652
 20
66.57899384798963
 11
158.9295124351022
 21
66.60208977687955
 72
     1
 10
158.9295124351022
 20
66.60208977687955
 11
158.9456881507619
 21
66.61825699403369
 72
     1
 10
158.9456881507619
 20
66.61825699403357
 11
158.9664856550568
 21
66.63211460873708
 72
     1
 10
158.9664856550571
 20
66.63211460873708
 11
158.9872830037625
 21
66.64366262098997
 72
     1
 10
158.9872830037625
 20
66.64366262098997
 11
159.005769535945
 21
66.64828173027524
 72
     1
 10
159.005769535945
 20
66.64828173027524
 11
159.0242562237172
 21
66.64828173027524
 72
     1
 10
159.0242562237172
 20
66.64828173027524
 11
159.0681617376508
 21
66.6459722234406
 72
     1
 10
159.068161737651
 20
66.6459722234406
 11
159.0982025080372
 21
66.62749540383595
 72
     1
 10
159.0982025080372
 20
66.62749540383595
 11
159.139797205448
 21
66.58130345044026
 72
     1
 10
159.139797205448
 20
66.58130345044014
 11
159.1513514436517
 21
66.54434981123086
 72
     1
 10
159.1513514436519
 20
66.54434981123086
 11
159.1513514436519
 21
66.00852290323882
 72
     1
 10
159.1513514436519
 20
66.00852290323894
 11
159.1328647558798
 21
65.97618856454676
 72
     1
 10
159.1328647558796
 20
65.97618856454665
 11
159.0866484254231
 21
65.96002134739251
 72
     1
 10
159.0866484254231
 20
65.96002134739251
 11
159.0450535724226
 21
65.96002134739251
 72
     1
 10
159.0450535724226
 20
65.96002134739251
 11
159.0404319393769
 21
65.94385413023849
 72
     1
 10
159.0404319393769
 20
65.94385413023849
 11
159.3639470305204
 21
65.94385413023849
 72
     1
 10
159.3639470305206
 20
65.94385413023849
 11
159.3639470305206
 21
65.96002134739251
 72
     1
 10
159.3639470305206
 20
65.96002134739251
 11
159.3084872783831
 21
65.96002134739251
 72
     1
 10
159.3084872783831
 20
65.96002134739251
 11
159.26458160886
 21
65.98773648118356
 72
     1
 10
159.2645816088597
 20
65.98773648118367
 11
159.2576491592913
 21
66.02007091549182
 72
     1
 10
159.2576491592913
 20
66.02007091549182
 11
159.2553383427684
 21
66.54204020878035
 72
     1
 10
159.2553383427684
 20
66.54204020878023
 11
159.2668924253825
 21
66.58130345044014
 72
     1
 10
159.2668924253825
 20
66.58130345044014
 11
159.2969331957688
 21
66.6205665964842
 72
     1
 10
159.296933195769
 20
66.6205665964842
 11
159.3408388652922
 21
66.64366262098997
 72
     1
 10
159.3408388652922
 20
66.64366262098997
 11
159.3939876453171
 21
66.65059133272575
 72
     1
 10
159.3939876453173
 20
66.65059133272587
 11
159.4448257644091
 21
66.63211460873708
 72
     1
 10
159.4448257644089
 20
66.63211460873708
 11
159.477177351318
 21
66.60208977687955
 72
     1
 10
159.4771773513182
 20
66.60208977687955
 11
159.4979747000236
 21
66.56513623328613
 72
     1
 10
159.4979747000236
 20
66.56513623328613
 11
159.5025963330692
 21
66.52125388234094
 72
     1
 10
159.5025963330692
 20
66.52125388234094
 11
159.518772048729
 21
66.52125388234094
 72
     1
 10
159.518772048729
 20
66.52125388234094
 11
159.5141504156833
 21
66.6944737792869
 72
     1
 10
159.5141504156833
 20
66.6944737792869
 11
159.5141504156833
 21
66.69678338173753
 72
     1
 10
159.5141504156833
 20
66.69678338173753
 11
159.5118395991605
 21
66.69678338173753
 97
        0
 75
     0
 76
     1
 52
0.0
 41
0.0546875000000013
 77
     0
 78
     1
 53
0.0
 43
139.009852970224
 44
43.72389782374648
 45
0.0
 46
0.0068359375000002
 79
     0
 98
        1
 10
139.009852970224
 20
43.72389782374648
  0
LINE
  5
317
330
2
100
AcDbEntity
  8
0
 62
    22
370
    30
100
AcDbLine
 10
159.146729810606
 20
66.5274101130916
 30
0.0
 11
159.146729810606
 21
66.02930932529409
 31
0.0
  0
LINE
  5
318
330
2
100
AcDbEntity
  8
0
 62
    22
370
    30
100
AcDbLine
 10
159.2599599758143
 20
66.5274101130916
 30
0.0
 11
159.2599599758141
 21
66.02930932529409
 31
0.0
  0
LINE
  5
319
330
2
100
AcDbEntity
  8
LINEWORK
 62
     7
370
    30
100
AcDbLine
 10
158.7966297368434
 20
67.87077989702424
 30
0.0
 11
158.2966297368434
 21
67.37077989702425
 31
0.0
  0
LINE
  5
31A
330
2
100
AcDbEntity
  8
LINEWORK
 62
     7
370
    30
100
AcDbLine
 10
158.2966297368434
 20
67.37077989702425
 30
0.0
 11
158.2966297368434
 21
63.87077989702425
 31
0.0
  0
ARC
  5
31B
330
2
100
AcDbEntity
  8
LINEWORK
 62
     7
370
    30
100
AcDbCircle
 10
166.3245274591145
 20
74.77022022228346
 30
0.0
 40
2.764293570461533
100
AcDbArc
 50
169.7795306324382
 51
200.159950823787
  0
ARC
  5
31C
330
2
100
AcDbEntity
  8
LINEWORK
 62
     7
370
    30
100
AcDbCircle
 10
166.3209853749833
 20
74.76991221496757
 30
0.0
 40
2.760862499999871
100
AcDbArc
 50
169.7601969736183
 51
200.1792844825406
  0
ARC
  5
31D
330
2
100
AcDbEntity
  8
LINEWORK
 62
     7
370
    30
100
AcDbCircle
 10
160.9346446187682
 20
75.76268135784914
 30
0.0
 40
0.5960953125000341
100
AcDbArc
 50
122.6368975039364
 51
237.3631024959568
  0
LINE
  5
31E
330
2
100
AcDbEntity
  8
LINEWORK
 62
     7
370
    30
100
AcDbLine
 10
162.1086297368433
 20
76.26465635784677
 30
0.0
 11
160.6131625493435
 21
76.26465635784677
 31
0.0
  0
LINE
  5
31F
330
2
100
AcDbEntity
  8
LINEWORK
 62
     7
370
    30
100
AcDbLine
 10
162.1086297368433
 20
76.264656357847
 30
0.0
 11
160.6131625493435
 21
76.264656357847
 31
0.0
  0
LINE
  5
320
330
2
100
AcDbEntity
  8
LINEWORK
 62
     7
370
    30
100
AcDbLine
 10
162.1086297368433
 20
75.26070635784697
 30
0.0
 11
160.6131625493435
 21
75.26070635784697
 31
0.0
  0
LINE
  5
321
330
2
100
AcDbEntity
  8
LINEWORK
 62
     7
370
    30
100
AcDbLine
 10
160.6131625493435
 20
75.26070635784697
 30
0.0
 11
162.1086297368433
 21
75.26070635784697
 31
0.0
  0
ARC
  5
322
330
2
100
AcDbEntity
  8
LINEWORK
 62
     7
370
    30
100
AcDbCircle
 10
158.9201942368702
 20
74.53899101928311
 30
0.0
 40
1.725539062499979
100
AcDbArc
 50
305.1040931533572
 51
335.284764662113
  0
LINE
  5
323
330
2
100
AcDbEntity
  8
LINEWORK
 62
     7
370
    30
100
AcDbLine
 10
159.9124891118433
 20
73.12731260784687
 30
0.0
 11
159.9124891118433
 21
72.49984385784694
 31
0.0
  0
LINE
  5
324
330
2
100
AcDbEntity
  8
LINEWORK
 62
     7
370
    30
100
AcDbLine
 10
159.9124891118433
 20
72.49984385784694
 30
0.0
 11
159.9124891118433
 21
73.12731260784687
 31
0.0
  0
LINE
  5
325
330
2
100
AcDbEntity
  8
LINEWORK
 62
     7
370
    30
100
AcDbLine
 10
162.1086297368433
 20
72.49984385784694
 30
0.0
 11
159.9124891118433
 21
72.49984385784694
 31
0.0
  0
LINE
  5
326
330
2
100
AcDbEntity
  8
LINEWORK
 62
     7
370
    30
100
AcDbLine
 10
162.1086297368433
 20
73.12731260784687
 30
0.0
 11
159.9124891118433
 21
73.12731260784687
 31
0.0
  0
LINE
  5
327
330
2
100
AcDbEntity
  8
LINEWORK
 62
     7
370
    30
100
AcDbLine
 10
162.1086297368433
 20
72.49984385784694
 30
0.0
 11
159.9124891118433
 21
72.49984385784694
 31
0.0
  0
LINE
  5
328
330
2
100
AcDbEntity
  8
LINEWORK
 62
     7
370
    30
100
AcDbLine
 10
159.9124891118433
 20
73.12731260784687
 30
0.0
 11
162.1086297368433
 21
73.12731260784687
 31
0.0
  0
ARC
  5
329
330
2
100
AcDbEntity
  8
LINEWORK
 62
     7
370
    30
100
AcDbCircle
 10
157.8927320145724
 20
74.77022022228346
 30
0.0
 40
2.764293570461533
100
AcDbArc
 50
339.8400491762129
 51
10.22046936756176
  0
ARC
  5
32A
330
2
100
AcDbEntity
  8
LINEWORK
 62
     7
370
    30
100
AcDbCircle
 10
157.8962740987035
 20
74.76991221496757
 30
0.0
 40
2.760862499999871
100
AcDbArc
 50
339.8207155174592
 51
10.23980302638167
  0
LINE
  5
32B
330
2
100
AcDbEntity
  8
LINEWORK
 62
     7
370
    30
100
AcDbLine
 10
162.1086297368433
 20
76.26465635784677
 30
0.0
 11
163.6040969243433
 21
76.26465635784677
 31
0.0
  0
LINE
  5
32C
330
2
100
AcDbEntity
  8
LINEWORK
 62
     7
370
    30
100
AcDbLine
 10
162.1086297368433
 20
76.264656357847
 30
0.0
 11
163.6040969243433
 21
76.264656357847
 31
0.0
  0
LINE
  5
32D
330
2
100
AcDbEntity
  8
LINEWORK
 62
     7
370
    30
100
AcDbLine
 10
162.1086297368433
 20
75.26070635784697
 30
0.0
 11
163.6040969243433
 21
75.26070635784697
 31
0.0
  0
LINE
  5
32E
330
2
100
AcDbEntity
  8
LINEWORK
 62
     7
370
    30
100
AcDbLine
 10
163.6040969243433
 20
75.26070635784697
 30
0.0
 11
162.1086297368433
 21
75.26070635784697
 31
0.0
  0
LINE
  5
32F
330
2
100
AcDbEntity
  8
LINEWORK
  6
DASHED
 62
     7
 48
2.0
370
    30
100
AcDbLine
 10
162.3586297368435
 20
70.04305635784692
 30
0.0
 11
161.8586297368435
 21
70.04305635784692
 31
0.0
  0
LINE
  5
330
330
2
100
AcDbEntity
  8
LINEWORK
  6
DASHED
 62
     7
 48
2.0
370
    30
100
AcDbLine
 10
162.3586297368435
 20
70.04305635784692
 30
0.0
 11
161.8586297368435
 21
70.04305635784692
 31
0.0
  0
LINE
  5
331
330
2
100
AcDbEntity
  8
LINEWORK
 62
     7
370
    30
100
AcDbLine
 10
159.7869953618433
 20
70.86842510784697
 30
0.0
 11
159.7869953618433
 21
71.11941260784703
 31
0.0
  0
LINE
  5
332
330
2
100
AcDbEntity
  8
LINEWORK
 62
     7
370
    30
100
AcDbLine
 10
159.7869953618433
 20
71.11941260784703
 30
0.0
 11
159.7869953618433
 21
70.86842510784697
 31
0.0
  0
LINE
  5
333
330
2
100
AcDbEntity
  8
LINEWORK
 62
     7
370
    30
100
AcDbLine
 10
162.1086297368433
 20
70.86842510784697
 30
0.0
 11
159.7869953618433
 21
70.86842510784697
 31
0.0
  0
LINE
  5
334
330
2
100
AcDbEntity
  8
LINEWORK
 62
     7
370
    30
100
AcDbLine
 10
162.1086297368433
 20
71.11941260784703
 30
0.0
 11
159.7869953618433
 21
71.11941260784703
 31
0.0
  0
LINE
  5
335
330
2
100
AcDbEntity
  8
LINEWORK
 62
     7
370
    30
100
AcDbLine
 10
159.7869953618433
 20
70.86842510784697
 30
0.0
 11
162.1086297368433
 21
70.86842510784697
 31
0.0
  0
LINE
  5
336
330
2
100
AcDbEntity
  8
LINEWORK
 62
     7
370
    30
100
AcDbLine
 10
159.7869953618433
 20
71.11941260784703
 30
0.0
 11
162.1086297368433
 21
71.11941260784703
 31
0.0
  0
LINE
  5
337
330
2
100
AcDbEntity
  8
LINEWORK
 62
     7
370
    30
100
AcDbLine
 10
159.2222734868435
 20
68.24577989702413
 30
0.0
 11
159.2222734868435
 21
70.74293135784694
 31
0.0
  0
LINE
  5
338
330
2
100
AcDbEntity
  8
LINEWORK
 62
     7
370
    30
100
AcDbLine
 10
159.2222734868435
 20
70.74293135784694
 30
0.0
 11
159.2222734868435
 21
68.85805635784698
 31
0.0
  0
LINE
  5
339
330
2
100
AcDbEntity
  8
LINEWORK
 62
     7
370
    30
100
AcDbLine
 10
162.1086297368433
 20
70.74293135784694
 30
0.0
 11
159.2222734868435
 21
70.74293135784694
 31
0.0
  0
LINE
  5
33A
330
2
100
AcDbEntity
  8
LINEWORK
 62
     7
370
    30
100
AcDbLine
 10
159.2222734868435
 20
70.74293135784694
 30
0.0
 11
159.7869953618433
 21
70.86842510784697
 31
0.0
  0
LINE
  5
33B
330
2
100
AcDbEntity
  8
LINEWORK
 62
     7
370
    30
100
AcDbLine
 10
159.7869953618433
 20
70.86842510784697
 30
0.0
 11
159.2222734868435
 21
70.74293135784694
 31
0.0
  0
LINE
  5
33C
330
2
100
AcDbEntity
  8
LINEWORK
  6
DASHED
 62
     7
 48
2.0
370
    30
100
AcDbLine
 10
161.8586297368435
 20
66.04305635784692
 30
0.0
 11
162.3586297368435
 21
66.04305635784692
 31
0.0
  0
LINE
  5
33D
330
2
100
AcDbEntity
  8
LINEWORK
  6
DASHED
 62
     7
 48
2.0
370
    30
100
AcDbLine
 10
162.3586297368435
 20
66.04305635784692
 30
0.0
 11
162.3586297368435
 21
70.04305635784692
 31
0.0
  0
LINE
  5
33E
330
2
100
AcDbEntity
  8
LINEWORK
  6
DASHED
 62
     7
 48
2.0
370
    30
100
AcDbLine
 10
161.8586297368435
 20
70.04305635784692
 30
0.0
 11
161.8586297368435
 21
66.04305635784692
 31
0.0
  0
ARC
  5
33F
330
2
100
AcDbEntity
  8
LINEWORK
 62
     7
370
    30
100
AcDbCircle
 10
160.1428425022072
 20
71.78298275417763
 30
0.0
 40
0.7529625000000071
100
AcDbArc
 50
107.8140895270852
 51
241.7970526574468
  0
LINE
  5
340
330
2
100
AcDbEntity
  8
LINEWORK
 62
     7
370
    30
100
AcDbLine
 10
164.9949859868434
 20
70.74293135784694
 30
0.0
 11
164.4302641118433
 21
70.86842510784697
 31
0.0
  0
LINE
  5
341
330
2
100
AcDbEntity
  8
LINEWORK
 62
     7
370
    30
100
AcDbLine
 10
164.4302641118433
 20
70.86842510784697
 30
0.0
 11
164.9949859868434
 21
70.74293135784694
 31
0.0
  0
LINE
  5
342
330
2
100
AcDbEntity
  8
LINEWORK
 62
     7
370
    30
100
AcDbLine
 10
165.4206297368432
 20
67.87077989702436
 30
0.0
 11
165.9206297368434
 21
67.37077989702436
 31
0.0
  0
LINE
  5
343
330
2
100
AcDbEntity
  8
LINEWORK
 62
     7
370
    30
100
AcDbLine
 10
165.9206297368434
 20
67.37077989702436
 30
0.0
 11
165.9206297368434
 21
63.87077989702437
 31
0.0
  0
LINE
  5
344
330
2
100
AcDbEntity
  8
LINEWORK
 62
     7
370
    30
100
AcDbLine
 10
164.3047703618433
 20
73.12731260784687
 30
0.0
 11
164.3047703618433
 21
72.49984385784694
 31
0.0
  0
LINE
  5
345
330
2
100
AcDbEntity
  8
LINEWORK
 62
     7
370
    30
100
AcDbLine
 10
164.3047703618435
 20
72.49984385784694
 30
0.0
 11
164.3047703618433
 21
73.12731260784687
 31
0.0
  0
LINE
  5
346
330
2
100
AcDbEntity
  8
LINEWORK
 62
     7
370
    30
100
AcDbLine
 10
164.4302641118433
 20
70.86842510784697
 30
0.0
 11
164.4302641118433
 21
71.11941260784703
 31
0.0
  0
LINE
  5
347
330
2
100
AcDbEntity
  8
LINEWORK
 62
     7
370
    30
100
AcDbLine
 10
164.4302641118433
 20
71.11941260784703
 30
0.0
 11
164.4302641118433
 21
70.86842510784697
 31
0.0
  0
POINT
  5
348
330
2
100
AcDbEntity
  8
LINEWORK
 62
     7
370
    30
100
AcDbPoint
 10
164.9949859868434
 20
68.85805635784698
 30
0.0
  0
LINE
  5
349
330
2
100
AcDbEntity
  8
LINEWORK
 62
     7
370
    30
100
AcDbLine
 10
164.9949859868434
 20
68.24577989702413
 30
0.0
 11
164.9949859868434
 21
70.74293135784694
 31
0.0
  0
LINE
  5
34A
330
2
100
AcDbEntity
  8
LINEWORK
 62
     7
370
    30
100
AcDbLine
 10
164.9949859868434
 20
70.74293135784694
 30
0.0
 11
164.9949859868434
 21
68.85805635784698
 31
0.0
  0
ARC
  5
34B
330
2
100
AcDbEntity
  8
LINEWORK
 62
     7
370
    30
100
AcDbCircle
 10
164.0744169714796
 20
71.78298275417763
 30
0.0
 40
0.752962499999997
100
AcDbArc
 50
298.202947342553
 51
72.18591047291477
  0
LINE
  5
34C
330
2
100
AcDbEntity
  8
LINEWORK
 62
     7
370
    30
100
AcDbLine
 10
158.7427533658267
 20
94.67005635784664
 30
0.0
 11
165.4927533658267
 21
94.67005635784664
 31
0.0
  0
LINE
  5
34D
330
2
100
AcDbEntity
  8
LINEWORK
 62
     7
370
    30
100
AcDbLine
 10
162.1177533658267
 20
98.9700563578466
 30
0.0
 11
168.2427533658271
 21
98.52005635784657
 31
0.0
  0
LINE
  5
34E
330
2
100
AcDbEntity
  8
LINEWORK
 62
     7
370
    30
100
AcDbLine
 10
164.9949859868434
 20
94.29505635784664
 30
0.0
 11
159.2222734868435
 21
94.29505635784664
 31
0.0
  0
LINE
  5
34F
330
2
100
AcDbEntity
  8
LINEWORK
  6
PHANTOM
 62
     7
 48
4.0
370
    30
100
AcDbLine
 10
156.1652551249608
 20
99.3450563578466
 30
0.0
 11
168.0520043487254
 21
99.3450563578466
 31
0.0
  0
ARC
  5
350
330
2
100
AcDbEntity
  8
LINEWORK
 62
     7
370
    30
100
AcDbCircle
 10
164.7649141118433
 20
89.0650188578469
 30
0.0
 40
1.105218119867257
100
AcDbArc
 50
145.4077113124904
 51
214.5922886875095
  0
ARC
  5
351
330
2
100
AcDbEntity
  8
LINEWORK
 62
     7
370
    30
100
AcDbCircle
 10
164.7562178101234
 20
89.0650188578469
 30
0.0
 40
1.09807031250002
100
AcDbArc
 50
145.1500954209564
 51
214.8499045790435
  0
LINE
  5
352
330
2
100
AcDbEntity
  8
LINEWORK
 62
     7
370
    30
100
AcDbLine
 10
163.8550844243434
 20
86.55514385784693
 30
0.0
 11
163.7295906743434
 21
86.4296501078469
 31
0.0
  0
LINE
  5
353
330
2
100
AcDbEntity
  8
LINEWORK
 62
     7
370
    30
100
AcDbLine
 10
163.8550844243434
 20
86.55514385784693
 30
0.0
 11
163.7295906743434
 21
86.4296501078469
 31
0.0
  0
ARC
  5
354
330
2
100
AcDbEntity
  8
LINEWORK
 62
     7
370
    30
100
AcDbCircle
 10
166.0198516118434
 20
83.81781143597198
 30
0.0
 40
2.22763833761492
100
AcDbArc
 50
180.6052145972454
 51
207.467272338611
  0
ARC
  5
355
330
2
100
AcDbEntity
  8
LINEWORK
 62
     7
370
    30
100
AcDbCircle
 10
166.0197276569431
 20
83.81778044724695
 30
0.0
 40
2.22751406250017
100
AcDbArc
 50
180.6044512322847
 51
207.4680357035701
  0
LINE
  5
356
330
2
100
AcDbEntity
  8
LINEWORK
 62
     7
370
    30
100
AcDbLine
 10
160.3621750493432
 20
88.43755010784695
 30
0.0
 11
163.8550844243434
 21
88.43755010784695
 31
0.0
  0
LINE
  5
357
330
2
100
AcDbEntity
  8
LINEWORK
 62
     7
370
    30
100
AcDbLine
 10
160.3621750493434
 20
89.69248760784683
 30
0.0
 11
163.8550844243434
 21
89.69248760784683
 31
0.0
  0
LINE
  5
358
330
2
100
AcDbEntity
  8
LINEWORK
 62
     7
370
    30
100
AcDbLine
 10
160.3621750493434
 20
89.69248760784683
 30
0.0
 11
163.8550844243434
 21
89.69248760784683
 31
0.0
  0
LINE
  5
359
330
2
100
AcDbEntity
  8
LINEWORK
 62
     7
370
    30
100
AcDbLine
 10
163.8550844243434
 20
90.31995635784699
 30
0.0
 11
160.3621750493434
 21
90.31995635784699
 31
0.0
  0
LINE
  5
35A
330
2
100
AcDbEntity
  8
LINEWORK
 62
     7
370
    30
100
AcDbLine
 10
160.3621750493434
 20
90.31995635784699
 30
0.0
 11
163.8550844243434
 21
90.31995635784699
 31
0.0
  0
LINE
  5
35B
330
2
100
AcDbEntity
  8
LINEWORK
 62
     7
370
    30
100
AcDbLine
 10
160.3621750493434
 20
87.3081063578469
 30
0.0
 11
163.8550844243434
 21
87.3081063578469
 31
0.0
  0
LINE
  5
35C
330
2
100
AcDbEntity
  8
LINEWORK
 62
     7
370
    30
100
AcDbLine
 10
163.8550844243434
 20
87.3081063578469
 30
0.0
 11
160.3621750493434
 21
87.3081063578469
 31
0.0
  0
LINE
  5
35D
330
2
100
AcDbEntity
  8
LINEWORK
 62
     7
370
    30
100
AcDbLine
 10
162.1086297368433
 20
92.07686885784676
 30
0.0
 11
164.9949859868434
 21
92.07686885784676
 31
0.0
  0
LINE
  5
35E
330
2
100
AcDbEntity
  8
LINEWORK
 62
     7
370
    30
100
AcDbLine
 10
162.1086297368433
 20
92.07686885784676
 30
0.0
 11
164.9949859868434
 21
92.07686885784676
 31
0.0
  0
LINE
  5
35F
330
2
100
AcDbEntity
  8
LINEWORK
 62
     7
370
    30
100
AcDbLine
 10
164.9217812993433
 20
91.95137510784695
 30
0.0
 11
162.1086297368433
 21
91.95137510784695
 31
0.0
  0
LINE
  5
360
330
2
100
AcDbEntity
  8
LINEWORK
 62
     7
370
    30
100
AcDbLine
 10
162.1086297368433
 20
91.95137510784695
 30
0.0
 11
164.9217812993433
 21
91.95137510784695
 31
0.0
  0
LINE
  5
361
330
2
100
AcDbEntity
  8
LINEWORK
 62
     7
370
    30
100
AcDbLine
 10
163.8550844243434
 20
86.55514385784693
 30
0.0
 11
162.1086297368433
 21
86.55514385784693
 31
0.0
  0
LINE
  5
362
330
2
100
AcDbEntity
  8
LINEWORK
 62
     7
370
    30
100
AcDbLine
 10
162.1086297368433
 20
86.55514385784693
 30
0.0
 11
163.8550844243434
 21
86.55514385784693
 31
0.0
  0
DIMENSION
  5
363
330
2
100
AcDbEntity
  8
DIM
 62
     7
370
    30
100
AcDbDimension
  2
*D7
 10
168.2427533658271
 20
105.902738750787
 30
0.0
 11
179.8104747312188
 21
105.902738750787
 31
0.0
 70
   160
 71
     5
 42
-1.0
  3
STANDARD
100
AcDbAlignedDimension
 13
155.9743817771225
 23
98.52005635784657
 33
0.0
 14
168.2427533658271
 24
98.52005635784657
 34
0.0
100
AcDbRotatedDimension
1001
ACAD
1000
DSTYLE
1002
{
1070
   287
1070
     4
1070
   287
1070
     4
1070
   287
1070
     4
1070
   287
1070
     4
1070
    40
1040
2.399999999999999
1070
    73
1070
     1
1070
    74
1070
     1
1070
    77
1070
     0
1070
   147
1040
0.5
1070
   279
1070
     1
1070
   288
1070
     1
1070
   289
1070
     3
1002
}
  0
LINE
  5
371
330
2
100
AcDbEntity
  8
LINEWORK
 62
     7
370
    30
100
AcDbLine
 10
72.018721173009
 20
78.7477379386479
 30
0.0
 11
105.3932124454818
 21
98.01650945887685
 31
0.0
  0
LINE
  5
372
330
2
100
AcDbEntity
  8
LINEWORK
 62
     7
370
    30
100
AcDbLine
 10
71.65742421859431
 20
80.63146042030211
 30
0.0
 11
104.8980212565961
 21
99.82292806821659
 31
0.0
  0
LINE
  5
373
330
2
100
AcDbEntity
  8
LINEWORK
 62
     7
370
    30
100
AcDbLine
 10
71.81932991781332
 20
79.78731988216577
 30
0.0
 11
105.1199281249046
 21
99.01342922120569
 31
0.0
  0
LINE
  5
374
330
2
100
AcDbEntity
  8
leaders
 62
     1
370
    30
100
AcDbLine
 10
88.03845272903959
 20
85.53621548215359
 30
0.0
 11
67.40046814920368
 21
112.6610062486763
 31
0.0
  0
LINE
  5
375
330
2
100
AcDbEntity
  8
leaders
 62
     1
370
    30
100
AcDbLine
 10
33.0856370767126
 20
112.6610062486763
 30
0.0
 11
67.40046814920368
 21
112.6610062486763
 31
0.0
  0
LINE
  5
376
330
2
100
AcDbEntity
  8
leaders
 62
     1
370
    30
100
AcDbLine
 10
33.22134387620349
 20
85.76478259850194
 30
0.0
 11
44.54651436774304
 21
85.76478259850194
 31
0.0
  0
LINE
  5
377
330
2
100
AcDbEntity
  8
leaders
 62
     1
370
    30
100
AcDbLine
 10
33.0856370767126
 20
99.65004627272207
 30
0.0
 11
66.15401613204039
 21
99.65004627272207
 31
0.0
  0
ATTDEF
  5
378
330
2
100
AcDbEntity
  8
leaders
 62
     1
370
    30
100
AcDbText
 10
15.56691156793363
 20
111.2272512880231
 30
0.0
 40
2.879999999999999
  1

100
AcDbAttributeDefinition
  3
ADD LINK NUMBER (WMF)
  2
TS0993
 70
     0
  0
ATTDEF
  5
379
330
2
100
AcDbEntity
  8
leaders
 62
     1
370
    30
100
AcDbText
 10
15.56691156793363
 20
98.21629131206885
 30
0.0
 40
2.879999999999999
  1

100
AcDbAttributeDefinition
  3
ADD LINK NUMBER (WMF)
  2
TS0243
 70
     0
  0
ATTDEF
  5
37A
330
2
100
AcDbEntity
  8
leaders
 62
     1
370
    30
100
AcDbText
 10
15.86726714494852
 20
84.33102763784871
 30
0.0
 40
2.879999999999999
  1

100
AcDbAttributeDefinition
  3
ADD LINK NUMBER (WMF)
  2
TS1157
 70
     0
  0
LINE
  5
37B
330
2
100
AcDbEntity
  8
leaders
 62
     1
370
    30
100
AcDbLine
 10
33.0856370767126
 20
97.39403252880936
 30
0.0
 11
33.0856370767126
 21
101.9060600166348
 31
0.0
  0
LINE
  5
37C
330
2
100
AcDbEntity
  8
leaders
 62
     1
370
    30
100
AcDbLine
 10
33.22134387620349
 20
83.50876885458944
 30
0.0
 11
33.22134387620349
 21
88.02079634241465
 31
0.0
  0
LINE
  5
37D
330
2
100
AcDbEntity
  8
leaders
 62
     1
370
    30
100
AcDbLine
 10
33.0856370767126
 20
110.4049925047636
 30
0.0
 11
33.0856370767126
 21
114.917019992589
 31
0.0
  0
LINE
  5
37E
330
2
100
AcDbEntity
  8
LINEWORK
 62
     7
370
    30
100
AcDbLine
 10
48.33164569065002
 20
80.53248778893964
 30
0.0
 11
60.2183949144146
 21
80.53248778893964
 31
0.0
  0
LINE
  5
37F
330
2
100
AcDbEntity
  8
LINEWORK
 62
     7
370
    30
100
AcDbLine
 10
46.00797578392939
 20
79.70795868539415
 30
0.0
 11
71.44995465304305
 21
79.72766495997371
 31
0.0
  0
LINE
  5
380
330
2
100
AcDbEntity
  8
LINEWORK
 62
     7
370
    30
100
AcDbLine
 10
46.02502030253527
 20
78.74498778893951
 30
0.0
 11
71.63843160361579
 21
78.74498778893951
 31
0.0
  0
LINE
  5
381
330
2
100
AcDbEntity
  8
LINEWORK
 62
     7
370
    30
100
AcDbLine
 10
46.0066487138281
 20
79.70748778893938
 30
0.0
 11
48.33164569065002
 21
80.53248778893964
 31
0.0
  0
LINE
  5
382
330
2
100
AcDbEntity
  8
leaders
 62
     1
370
    30
100
AcDbLine
 10
49.97735599108114
 20
80.50910255810197
 30
0.0
 11
44.54651436774304
 21
85.76478259850194
 31
0.0
  0
ARC
  5
383
330
2
100
AcDbEntity
  8
LINEWORK
 62
     7
370
    30
100
AcDbCircle
 10
45.6547297986292
 20
78.04151091277765
 30
0.0
 40
0.7949809888151388
100
AcDbArc
 50
6.118045468726237
 51
62.23893912947279
  0
LINE
  5
384
330
2
100
AcDbEntity
  8
LINEWORK
370
    30
100
AcDbLine
 10
46.02502030253527
 20
78.74498778893951
 30
0.0
 11
46.02502030253162
 21
79.70748778893938
 31
0.0
  0
SOLID
  5
385
330
2
100
AcDbEntity
  8
leaders
 62
     1
370
    30
100
AcDbTrace
 10
49.25412020449812
 20
81.48733054635716
 30
0.0
 11
48.9759508994739
 21
81.19989039999211
 31
0.0
 12
49.97735599108114
 22
80.50910255810197
 32
0.0
 13
49.97735599108114
 23
80.50910255810197
 33
0.0
  0
LINE
  5
386
330
2
100
AcDbEntity
  8
LINEWORK
 62
     7
370
    30
100
AcDbLine
 10
59.5933949144146
 20
80.53248778893964
 30
0.0
 11
71.29559006920408
 21
80.53248778893953
 31
0.0
  0
LINE
  5
387
330
2
100
AcDbEntity
  8
leaders
 62
     1
370
    30
100
AcDbLine
 10
78.7612848335134
 20
85.35787625861155
 30
0.0
 11
66.15401613204039
 21
99.65004627272207
 31
0.0
  0
LINE
  5
388
330
2
100
AcDbEntity
  8
LINEWORK
370
    30
100
AcDbLine
 10
62.52502030252935
 20
78.74498778893951
 30
0.0
 11
62.52502030253276
 21
79.70748778893938
 31
0.0
  0
LINE
  5
389
330
2
100
AcDbEntity
  8
LINEWORK
 62
     7
370
    30
100
AcDbLine
 10
62.52502030253276
 20
79.70748778893938
 30
0.0
 11
62.5433918912363
 21
79.70748778893938
 31
0.0
  0
LINE
  5
38A
330
2
100
AcDbEntity
  8
LINEWORK
 62
     7
370
    30
100
AcDbLine
 10
62.52502030253276
 20
79.70748778893938
 30
0.0
 11
62.5433918912363
 21
79.70748778893938
 31
0.0
  0
LINE
  5
38B
330
2
100
AcDbEntity
  8
LINEWORK
 62
     7
370
    30
100
AcDbLine
 10
62.5433918912363
 20
79.70748778893938
 30
0.0
 11
60.2183949144146
 21
80.53248778893964
 31
0.0
  0
ARC
  5
38C
330
2
100
AcDbEntity
  8
LINEWORK
370
    30
100
AcDbCircle
 10
62.89531080643541
 20
78.04151091277765
 30
0.0
 40
0.7949809888151388
100
AcDbArc
 50
117.7610608705272
 51
173.8819545312737
  0
POINT
  5
38D
330
2
100
AcDbEntity
  8
LINEWORK
 62
     7
370
    30
100
AcDbPoint
 10
77.22435362146882
 20
79.56345930899067
 30
0.0
  0
POINT
  5
38E
330
2
100
AcDbEntity
  8
LINEWORK
 62
     7
370
    30
100
AcDbPoint
 10
77.22435362146882
 20
79.56345930899067
 30
0.0
  0
LINE
  5
38F
330
2
100
AcDbEntity
  8
LINEWORK
  6
DASHED
 62
     7
 48
2.0
370
    30
100
AcDbLine
 10
78.04870987146887
 20
81.02879904714177
 30
0.0
 11
78.54870987146887
 21
81.02879904714177
 31
0.0
  0
SOLID
  5
390
330
2
100
AcDbEntity
  8
leaders
 62
     1
370
    30
100
AcDbTrace
 10
78.11266123504174
 20
86.3870931587378
 30
0.0
 11
77.81392189437747
 21
86.1210954024699
 31
0.0
 12
78.7612848335134
 22
85.35787625861155
 32
0.0
 13
78.7612848335134
 23
85.35787625861155
 33
0.0
  0
LINE
  5
391
330
2
100
AcDbEntity
  8
LINEWORK
 62
     7
370
    30
100
AcDbLine
 10
120.0064324307409
 20
96.40877989702415
 30
0.0
 11
133.2064324307418
 21
96.40877989702415
 31
0.0
  0
LINE
  5
392
330
2
100
AcDbEntity
  8
LINEWORK
 62
     7
370
    30
100
AcDbLine
 10
133.2064324307418
 20
95.85877989702419
 30
0.0
 11
120.0064324307409
 21
95.85877989702419
 31
0.0
  0
LINE
  5
393
330
2
100
AcDbEntity
  8
LINEWORK
 62
     7
370
    30
100
AcDbLine
 10
132.1064324307415
 20
95.30877989702402
 30
0.0
 11
121.1064324307415
 21
95.30877989702402
 31
0.0
  0
LINE
  5
394
330
2
100
AcDbEntity
  8
LINEWORK
370
    30
100
AcDbLine
 10
121.13370132885
 20
94.93619182091277
 30
0.0
 11
132.0166372689282
 21
94.93619182091277
 31
0.0
  0
LINE
  5
395
330
2
100
AcDbEntity
  8
LINEWORK
 62
     7
370
    30
100
AcDbLine
 10
132.5498070426238
 20
99.98377989702419
 30
0.0
 11
120.6630578188592
 21
99.98377989702419
 31
0.0
  0
LINE
  5
396
330
2
100
AcDbEntity
  8
LINEWORK
 62
     7
370
    30
100
AcDbLine
 10
122.1689324307415
 20
95.30877989702402
 30
0.0
 11
106.5062999730887
 21
95.30877989702402
 31
0.0
  0
LINE
  5
397
330
2
100
AcDbEntity
  8
LINEWORK
 62
     7
370
    30
100
AcDbLine
 10
105.45090446988
 20
99.15877989702392
 30
0.0
 11
134.8564324307419
 21
99.15877989702392
 31
0.0
  0
LINE
  5
398
330
2
100
AcDbEntity
  8
LINEWORK
 62
     7
370
    30
100
AcDbLine
 10
134.8564324307385
 20
98.19627989702405
 30
0.0
 11
105.7147533456823
 21
98.19627989702405
 31
0.0
  0
LINE
  5
399
330
2
100
AcDbEntity
  8
leaders
 62
     1
370
    30
100
AcDbLine
 10
120.4281190353403
 20
124.3796417658922
 30
0.0
 11
163.4149714183433
 21
124.3796417658922
 31
0.0
  0
LINE
  5
39A
330
2
100
AcDbEntity
  8
leaders
 62
     1
370
    30
100
AcDbLine
 10
112.9200897463072
 20
101.1257330836834
 30
0.0
 11
120.4281190353403
 21
124.3796417658922
 31
0.0
  0
LINE
  5
39B
330
2
100
AcDbEntity
  8
LINEWORK
 62
     7
370
    30
100
AcDbLine
 10
99.33543937561012
 20
90.98566889885626
 30
0.0
 11
105.1081518756101
 21
94.31854601468558
 31
0.0
  0
LINE
  5
39C
330
2
100
AcDbEntity
  8
LINEWORK
 62
     7
370
    30
100
AcDbLine
 10
102.2217956256101
 20
88.07552015866191
 30
0.0
 11
100.4753409381101
 21
88.07552015866191
 31
0.0
  0
LINE
  5
39D
330
2
100
AcDbEntity
  8
LINEWORK
 62
     7
370
    30
100
AcDbLine
 10
102.2217956256101
 20
87.44805140866185
 30
0.0
 11
100.4753409381101
 21
87.44805140866185
 31
0.0
  0
LINE
  5
39E
330
2
100
AcDbEntity
  8
LINEWORK
 62
     7
370
    30
100
AcDbLine
 10
102.2217956256101
 20
86.19311390866187
 30
0.0
 11
100.4753409381101
 21
86.19311390866187
 31
0.0
  0
LINE
  5
39F
330
2
100
AcDbEntity
  8
LINEWORK
 62
     7
370
    30
100
AcDbLine
 10
102.2217956256101
 20
87.44805140866185
 30
0.0
 11
100.4753409381101
 21
87.44805140866185
 31
0.0
  0
LINE
  5
3A0
330
2
100
AcDbEntity
  8
LINEWORK
 62
     7
370
    30
100
AcDbLine
 10
100.4753409381101
 20
88.07552015866191
 30
0.0
 11
102.2217956256101
 21
88.07552015866191
 31
0.0
  0
LINE
  5
3A1
330
2
100
AcDbEntity
  8
LINEWORK
 62
     7
370
    30
100
AcDbLine
 10
102.2217956256101
 20
85.06367015866192
 30
0.0
 11
100.4753409381101
 21
85.06367015866192
 31
0.0
  0
LINE
  5
3A2
330
2
100
AcDbEntity
  8
LINEWORK
 62
     7
370
    30
100
AcDbLine
 10
100.4753409381101
 20
85.06367015866192
 30
0.0
 11
102.2217956256101
 21
85.06367015866192
 31
0.0
  0
LINE
  5
3A3
330
2
100
AcDbEntity
  8
LINEWORK
 62
     7
370
    30
100
AcDbLine
 10
102.2217956256101
 20
84.18521390866192
 30
0.0
 11
100.6008346881101
 21
84.18521390866192
 31
0.0
  0
LINE
  5
3A4
330
2
100
AcDbEntity
  8
LINEWORK
 62
     7
370
    30
100
AcDbLine
 10
100.4753409381101
 20
84.31070765866195
 30
0.0
 11
102.2217956256101
 21
84.31070765866195
 31
0.0
  0
LINE
  5
3A5
330
2
100
AcDbEntity
  8
LINEWORK
 62
     7
370
    30
100
AcDbLine
 10
102.2217956256101
 20
84.31070765866195
 30
0.0
 11
100.4753409381101
 21
84.31070765866195
 31
0.0
  0
LINE
  5
3A6
330
2
100
AcDbEntity
  8
LINEWORK
 62
     7
370
    30
100
AcDbLine
 10
100.6008346881101
 20
84.18521390866192
 30
0.0
 11
102.2217956256101
 21
84.18521390866192
 31
0.0
  0
LINE
  5
3A7
330
2
100
AcDbEntity
  8
LINEWORK
 62
     7
370
    30
100
AcDbLine
 10
102.2217956256101
 20
89.83243265866201
 30
0.0
 11
99.33543937561012
 21
89.83243265866201
 31
0.0
  0
LINE
  5
3A8
330
2
100
AcDbEntity
  8
LINEWORK
 62
     7
370
    30
100
AcDbLine
 10
102.2217956256101
 20
89.70693890866199
 30
0.0
 11
99.40864406311016
 21
89.70693890866199
 31
0.0
  0
LINE
  5
3A9
330
2
100
AcDbEntity
  8
LINEWORK
 62
     7
370
    30
100
AcDbLine
 10
102.2217956256101
 20
89.83243265866201
 30
0.0
 11
99.33543937561012
 21
89.83243265866201
 31
0.0
  0
LINE
  5
3AA
330
2
100
AcDbEntity
  8
LINEWORK
 62
     7
370
    30
100
AcDbLine
 10
102.2217956256101
 20
89.70693890866209
 30
0.0
 11
99.40864406311016
 21
89.70693890866209
 31
0.0
  0
LINE
  5
3AB
330
2
100
AcDbEntity
  8
LINEWORK
 62
     7
370
    30
100
AcDbLine
 10
87.32020292350489
 20
84.04866889885624
 30
0.0
 11
93.09291542350479
 21
87.38154601468556
 31
0.0
  0
LINE
  5
3AC
330
2
100
AcDbEntity
  8
LINEWORK
  6
DASHED
 62
     7
 48
2.0
370
    30
100
AcDbLine
 10
89.95655917350484
 20
87.71012015866313
 30
0.0
 11
90.45655917350485
 21
87.71012015866313
 31
0.0
  0
LINE
  5
3AD
330
2
100
AcDbEntity
  8
LINEWORK
  6
DASHED
 62
     7
 48
2.0
370
    30
100
AcDbLine
 10
90.45655917350485
 20
83.71012015866313
 30
0.0
 11
89.95655917350484
 21
83.71012015866313
 31
0.0
  0
LINE
  5
3AE
330
2
100
AcDbEntity
  8
LINEWORK
 62
     7
370
    30
100
AcDbLine
 10
90.20655917350484
 20
82.9884389086618
 30
0.0
 11
93.01971073600487
 21
82.98843890866193
 31
0.0
  0
LINE
  5
3AF
330
2
100
AcDbEntity
  8
LINEWORK
 62
     7
370
    30
100
AcDbLine
 10
93.01971073600487
 20
82.98843890866193
 30
0.0
 11
90.20655917350484
 21
82.9884389086618
 31
0.0
  0
LINE
  5
3B0
330
2
100
AcDbEntity
  8
LINEWORK
 62
     7
370
    30
100
AcDbLine
 10
90.20655917350484
 20
83.11393265866172
 30
0.0
 11
93.09291542350479
 21
83.11393265866172
 31
0.0
  0
LINE
  5
3B1
330
2
100
AcDbEntity
  8
LINEWORK
 62
     7
370
    30
100
AcDbLine
 10
90.20655917350484
 20
83.11393265866172
 30
0.0
 11
93.09291542350479
 21
83.11393265866172
 31
0.0
  0
LINE
  5
3B2
330
2
100
AcDbEntity
  8
LINEWORK
 62
     7
370
    30
100
AcDbLine
 10
90.20655917350484
 20
79.4746139086618
 30
0.0
 11
91.95301386100481
 21
79.4746139086618
 31
0.0
  0
LINE
  5
3B3
330
2
100
AcDbEntity
  8
LINEWORK
 62
     7
370
    30
100
AcDbLine
 10
90.20655917350484
 20
80.72955140866179
 30
0.0
 11
91.95301386100481
 21
80.72955140866179
 31
0.0
  0
LINE
  5
3B4
330
2
100
AcDbEntity
  8
LINEWORK
 62
     7
370
    30
100
AcDbLine
 10
90.20655917350484
 20
80.72955140866179
 30
0.0
 11
91.95301386100481
 21
80.72955140866179
 31
0.0
  0
LINE
  5
3B5
330
2
100
AcDbEntity
  8
LINEWORK
 62
     7
370
    30
100
AcDbLine
 10
91.95301386100481
 20
81.35702015866185
 30
0.0
 11
90.20655917350484
 21
81.35702015866185
 31
0.0
  0
LINE
  5
3B6
330
2
100
AcDbEntity
  8
LINEWORK
 62
     7
370
    30
100
AcDbLine
 10
90.20655917350484
 20
81.35702015866185
 30
0.0
 11
91.95301386100481
 21
81.35702015866185
 31
0.0
  0
LINE
  5
3B7
330
2
100
AcDbEntity
  8
LINEWORK
 62
     7
370
    30
100
AcDbLine
 10
90.20655917350484
 20
78.34517015866186
 30
0.0
 11
91.95301386100481
 21
78.34517015866186
 31
0.0
  0
LINE
  5
3B8
330
2
100
AcDbEntity
  8
LINEWORK
 62
     7
370
    30
100
AcDbLine
 10
91.95301386100481
 20
78.34517015866186
 30
0.0
 11
90.20655917350484
 21
78.34517015866186
 31
0.0
  0
TEXT
  5
3B9
330
2
100
AcDbEntity
  8
leaders
 62
     1
370
    30
100
AcDbText
 10
88.31426576302851
 20
83.12541227218844
 30
0.0
 40
1.799999999999999
  1
~
 50
35.00000000000003
100
AcDbText
  0
LINE
  5
3BA
330
2
100
AcDbEntity
  8
LINEWORK
 62
     7
370
    30
100
AcDbLine
 10
87.32020292350489
 20
83.11393265866172
 30
0.0
 11
87.32020292350489
 21
84.04866889885624
 31
0.0
  0
LINE
  5
3BB
330
2
100
AcDbEntity
  8
LINEWORK
 62
     7
370
    30
100
AcDbLine
 10
87.32020292350489
 20
83.11393265866172
 30
0.0
 11
87.39340761100482
 21
82.98843890866193
 31
0.0
  0
LINE
  5
3BC
330
2
100
AcDbEntity
  8
LINEWORK
 62
     7
370
    30
100
AcDbLine
 10
87.32020292350489
 20
83.11393265866172
 30
0.0
 11
87.39340761100482
 21
82.9884389086618
 31
0.0
  0
LINE
  5
3BD
330
2
100
AcDbEntity
  8
LINEWORK
 62
     7
370
    30
100
AcDbLine
 10
90.20655917350484
 20
82.98843890866193
 30
0.0
 11
87.39340761100482
 21
82.98843890866193
 31
0.0
  0
LINE
  5
3BE
330
2
100
AcDbEntity
  8
LINEWORK
 62
     7
370
    30
100
AcDbLine
 10
90.20655917350484
 20
83.11393265866172
 30
0.0
 11
87.32020292350489
 21
83.11393265866172
 31
0.0
  0
LINE
  5
3BF
330
2
100
AcDbEntity
  8
LINEWORK
 62
     7
370
    30
100
AcDbLine
 10
90.20655917350484
 20
82.9884389086618
 30
0.0
 11
87.39340761100482
 21
82.9884389086618
 31
0.0
  0
LINE
  5
3C0
330
2
100
AcDbEntity
  8
LINEWORK
 62
     7
370
    30
100
AcDbLine
 10
90.20655917350484
 20
83.11393265866172
 30
0.0
 11
87.32020292350489
 21
83.11393265866172
 31
0.0
  0
LINE
  5
3C1
330
2
100
AcDbEntity
  8
LINEWORK
  6
DASHED
 62
     7
 48
2.0
370
    30
100
AcDbLine
 10
89.95655917350484
 20
83.71012015866313
 30
0.0
 11
89.95655917350484
 21
87.71012015866313
 31
0.0
  0
LINE
  5
3C2
330
2
100
AcDbEntity
  8
LINEWORK
 62
     7
370
    30
100
AcDbLine
 10
88.46010448600475
 20
80.72955140866179
 30
0.0
 11
88.46010448600475
 21
81.35702015866185
 31
0.0
  0
LINE
  5
3C3
330
2
100
AcDbEntity
  8
LINEWORK
 62
     7
370
    30
100
AcDbLine
 10
88.46010448600486
 20
80.72955140866179
 30
0.0
 11
88.46010448600475
 21
81.35702015866185
 31
0.0
  0
LINE
  5
3C4
330
2
100
AcDbEntity
  8
LINEWORK
 62
     7
370
    30
100
AcDbLine
 10
90.20655917350484
 20
81.35702015866185
 30
0.0
 11
88.46010448600475
 21
81.35702015866185
 31
0.0
  0
LINE
  5
3C5
330
2
100
AcDbEntity
  8
LINEWORK
 62
     7
370
    30
100
AcDbLine
 10
90.20655917350484
 20
80.72955140866179
 30
0.0
 11
88.46010448600475
 21
80.72955140866179
 31
0.0
  0
LINE
  5
3C6
330
2
100
AcDbEntity
  8
LINEWORK
 62
     7
370
    30
100
AcDbLine
 10
90.20655917350484
 20
80.72955140866179
 30
0.0
 11
88.46010448600486
 21
80.72955140866179
 31
0.0
  0
LINE
  5
3C7
330
2
100
AcDbEntity
  8
LINEWORK
 62
     7
370
    30
100
AcDbLine
 10
88.46010448600475
 20
81.35702015866185
 30
0.0
 11
90.20655917350484
 21
81.35702015866185
 31
0.0
  0
LINE
  5
3C8
330
2
100
AcDbEntity
  8
LINEWORK
 62
     7
370
    30
100
AcDbLine
 10
90.20655917350484
 20
79.4746139086618
 30
0.0
 11
88.46010448600475
 21
79.4746139086618
 31
0.0
  0
LINE
  5
3C9
330
2
100
AcDbEntity
  8
LINEWORK
 62
     7
370
    30
100
AcDbLine
 10
90.20655917350484
 20
78.34517015866186
 30
0.0
 11
88.46010448600475
 21
78.34517015866186
 31
0.0
  0
LINE
  5
3CA
330
2
100
AcDbEntity
  8
LINEWORK
 62
     7
370
    30
100
AcDbLine
 10
88.46010448600486
 20
78.34517015866186
 30
0.0
 11
90.20655917350484
 21
78.34517015866186
 31
0.0
  0
ARC
  5
3CB
330
2
100
AcDbEntity
  8
LINEWORK
 62
     7
370
    30
100
AcDbCircle
 10
87.55027479850481
 20
80.10208265866186
 30
0.0
 40
1.105218119867257
100
AcDbArc
 50
325.4077113124903
 51
34.59228868750958
  0
ARC
  5
3CC
330
2
100
AcDbEntity
  8
LINEWORK
 62
     7
370
    30
100
AcDbCircle
 10
87.55897110022488
 20
80.10208265866186
 30
0.0
 40
1.098070312499993
100
AcDbArc
 50
325.1500954209564
 51
34.84990457904352
  0
ARC
  5
3CD
330
2
100
AcDbEntity
  8
LINEWORK
 62
     7
370
    30
100
AcDbCircle
 10
88.96992284537976
 20
78.90989203366178
 30
0.0
 40
0.760805859375
100
AcDbArc
 50
132.0750220508426
 51
227.9249779491573
  0
ARC
  5
3CE
330
2
100
AcDbEntity
  8
LINEWORK
 62
     7
370
    30
100
AcDbCircle
 10
88.95814236639422
 20
78.90989203366178
 30
0.0
 40
0.7529625000000308
100
AcDbArc
 50
131.4096221092697
 51
228.5903778907302
  0
ARC
  5
3CF
330
2
100
AcDbEntity
  8
LINEWORK
 62
     7
370
    30
100
AcDbCircle
 10
89.02177488014126
 20
82.88870338511641
 30
0.0
 40
1.631418750000056
100
AcDbArc
 50
176.4950813054347
 51
249.8619420133486
  0
SOLID
  5
3D0
330
2
100
AcDbEntity
  8
leaders
 62
     1
370
    30
100
AcDbTrace
 10
88.19761972103538
 20
85.65731820160692
 30
0.0
 11
87.8792857370438
 21
85.41511276270023
 31
0.0
 12
88.76506904575967
 22
84.58121353017862
 32
0.0
 13
88.76506904575967
 23
84.58121353017862
 33
0.0
  0
LINE
  5
3D1
330
2
100
AcDbEntity
  8
LINEWORK
 62
     7
370
    30
100
AcDbLine
 10
93.09291542350479
 20
83.11393265866172
 30
0.0
 11
93.09291542350479
 21
87.38154601468556
 31
0.0
  0
LINE
  5
3D2
330
2
100
AcDbEntity
  8
LINEWORK
 62
     7
370
    30
100
AcDbLine
 10
99.33543937561012
 20
89.83243265866201
 30
0.0
 11
99.33543937561012
 21
90.98566889885626
 31
0.0
  0
LINE
  5
3D3
330
2
100
AcDbEntity
  8
LINEWORK
 62
     7
370
    30
100
AcDbLine
 10
100.4753409381101
 20
87.44805140866185
 30
0.0
 11
100.4753409381101
 21
88.07552015866191
 31
0.0
  0
LINE
  5
3D4
330
2
100
AcDbEntity
  8
LINEWORK
 62
     7
370
    30
100
AcDbLine
 10
100.4753409381101
 20
87.44805140866185
 30
0.0
 11
100.4753409381101
 21
88.07552015866191
 31
0.0
  0
ARC
  5
3D5
330
2
100
AcDbEntity
  8
LINEWORK
 62
     7
370
    30
100
AcDbCircle
 10
99.56551125061015
 20
86.82058265866192
 30
0.0
 40
1.105218119867257
100
AcDbArc
 50
325.4077113124903
 51
34.59228868750958
  0
ARC
  5
3D6
330
2
100
AcDbEntity
  8
LINEWORK
 62
     7
370
    30
100
AcDbCircle
 10
99.57420755233011
 20
86.82058265866192
 30
0.0
 40
1.098070312499993
100
AcDbArc
 50
325.1500954209564
 51
34.84990457904352
  0
LINE
  5
3D7
330
2
100
AcDbEntity
  8
LINEWORK
 62
     7
370
    30
100
AcDbLine
 10
100.4753409381101
 20
84.31070765866195
 30
0.0
 11
100.6008346881101
 21
84.18521390866192
 31
0.0
  0
LINE
  5
3D8
330
2
100
AcDbEntity
  8
LINEWORK
 62
     7
370
    30
100
AcDbLine
 10
100.4753409381101
 20
84.31070765866195
 30
0.0
 11
100.6008346881101
 21
84.18521390866192
 31
0.0
  0
LINE
  5
3D9
330
2
100
AcDbEntity
  8
LINEWORK
 62
     7
370
    30
100
AcDbLine
 10
100.4753409381101
 20
84.31070765866195
 30
0.0
 11
100.4753409381101
 21
85.06367015866192
 31
0.0
  0
LINE
  5
3DA
330
2
100
AcDbEntity
  8
LINEWORK
 62
     7
370
    30
100
AcDbLine
 10
100.4753409381101
 20
84.31070765866195
 30
0.0
 11
100.4753409381101
 21
85.06367015866192
 31
0.0
  0
ARC
  5
3DB
330
2
100
AcDbEntity
  8
LINEWORK
 62
     7
370
    30
100
AcDbCircle
 10
100.9851592974851
 20
85.62839203366184
 30
0.0
 40
0.760805859375
100
AcDbArc
 50
132.0750220508426
 51
227.9249779491573
  0
ARC
  5
3DC
330
2
100
AcDbEntity
  8
LINEWORK
 62
     7
370
    30
100
AcDbCircle
 10
100.9733788184994
 20
85.62839203366184
 30
0.0
 40
0.7529625000000308
100
AcDbArc
 50
131.4096221092697
 51
228.5903778907302
  0
ARC
  5
3DD
330
2
100
AcDbEntity
  8
LINEWORK
 62
     7
370
    30
100
AcDbCircle
 10
98.31057375061028
 20
81.57337523678689
 30
0.0
 40
2.22763833761492
100
AcDbArc
 50
332.532727661389
 51
359.3947854027546
  0
ARC
  5
3DE
330
2
100
AcDbEntity
  8
LINEWORK
 62
     7
370
    30
100
AcDbCircle
 10
98.31069770551039
 20
81.57334424806185
 30
0.0
 40
2.227514062500199
100
AcDbArc
 50
332.5319642964298
 51
359.3955487677153
  0
ARC
  5
3DF
330
2
100
AcDbEntity
  8
LINEWORK
 62
     7
370
    30
100
AcDbCircle
 10
72.97410962801348
 20
83.52456171515234
 30
0.0
 40
27.63462319024747
100
AcDbArc
 50
355.9022623541395
 51
1.369882582655912
  0
ARC
  5
3E0
330
2
100
AcDbEntity
  8
LINEWORK
 62
     7
370
    30
100
AcDbCircle
 10
72.96872978211752
 20
83.52468980672108
 30
0.0
 40
27.63999843750035
100
AcDbArc
 50
355.9027944114711
 51
1.369350525323726
  0
LINE
  5
3E1
330
2
100
AcDbEntity
  8
LINEWORK
 62
     7
370
    30
100
AcDbLine
 10
99.33543937561012
 20
89.83243265866201
 30
0.0
 11
99.40864406311016
 21
89.70693890866199
 31
0.0
  0
LINE
  5
3E2
330
2
100
AcDbEntity
  8
LINEWORK
 62
     7
370
    30
100
AcDbLine
 10
99.33543937561012
 20
89.83243265866201
 30
0.0
 11
99.40864406311016
 21
89.70693890866209
 31
0.0
  0
LINE
  5
3E3
330
2
100
AcDbEntity
  8
LINEWORK
 62
     7
370
    30
100
AcDbLine
 10
93.09291542350479
 20
83.11393265866172
 30
0.0
 11
93.01971073600487
 21
82.98843890866193
 31
0.0
  0
LINE
  5
3E4
330
2
100
AcDbEntity
  8
LINEWORK
 62
     7
370
    30
100
AcDbLine
 10
93.09291542350479
 20
83.11393265866172
 30
0.0
 11
93.01971073600487
 21
82.9884389086618
 31
0.0
  0
LINE
  5
3E5
330
2
100
AcDbEntity
  8
LINEWORK
  6
DASHED
 62
     7
 48
2.0
370
    30
100
AcDbLine
 10
90.45655917350485
 20
87.71012015866313
 30
0.0
 11
90.45655917350485
 21
83.71012015866313
 31
0.0
  0
LINE
  5
3E6
330
2
100
AcDbEntity
  8
LINEWORK
 62
     7
370
    30
100
AcDbLine
 10
91.95301386100481
 20
80.72955140866179
 30
0.0
 11
91.95301386100481
 21
81.35702015866185
 31
0.0
  0
LINE
  5
3E7
330
2
100
AcDbEntity
  8
LINEWORK
 62
     7
370
    30
100
AcDbLine
 10
91.95301386100481
 20
80.72955140866179
 30
0.0
 11
91.95301386100481
 21
81.35702015866185
 31
0.0
  0
ARC
  5
3E8
330
2
100
AcDbEntity
  8
LINEWORK
 62
     7
370
    30
100
AcDbCircle
 10
91.44319550162981
 20
78.90989203366178
 30
0.0
 40
0.760805859375
100
AcDbArc
 50
312.0750220508427
 51
47.9249779491573
  0
ARC
  5
3E9
330
2
100
AcDbEntity
  8
LINEWORK
 62
     7
370
    30
100
AcDbCircle
 10
91.45497598061547
 20
78.90989203366178
 30
0.0
 40
0.7529625000000308
100
AcDbArc
 50
311.4096221092697
 51
48.59037789073025
  0
ARC
  5
3EA
330
2
100
AcDbEntity
  8
LINEWORK
 62
     7
370
    30
100
AcDbCircle
 10
92.86284354850488
 20
80.10208265866186
 30
0.0
 40
1.105218119867257
100
AcDbArc
 50
145.4077113124904
 51
214.5922886875095
  0
ARC
  5
3EB
330
2
100
AcDbEntity
  8
LINEWORK
 62
     7
370
    30
100
AcDbCircle
 10
92.8541472467848
 20
80.10208265866186
 30
0.0
 40
1.09807031250002
100
AcDbArc
 50
145.1500954209564
 51
214.8499045790435
  0
ARC
  5
3EC
330
2
100
AcDbEntity
  8
LINEWORK
 62
     7
370
    30
100
AcDbCircle
 10
91.39134346686843
 20
82.88870338511641
 30
0.0
 40
1.631418750000088
100
AcDbArc
 50
290.1380579866513
 51
3.504918694565252
  0
ARC
  5
3ED
330
2
100
AcDbEntity
  8
LINEWORK
 62
     7
370
    30
100
AcDbCircle
 10
113.9988155515175
 20
73.94899531975614
 30
0.0
 40
15.2161171874998
100
AcDbArc
 50
154.3071356404088
 51
160.4531344586555
  0
ARC
  5
3EE
330
2
100
AcDbEntity
  8
LINEWORK
 62
     7
370
    30
100
AcDbCircle
 10
101.0370113322464
 20
89.60720338511647
 30
0.0
 40
1.631418750000056
100
AcDbArc
 50
176.4950813054347
 51
249.8619420133486
  0
LINE
  5
3EF
330
2
100
AcDbEntity
  8
LINEWORK
 62
     7
370
    30
100
AcDbLine
 10
118.3380608420373
 20
99.15877989702392
 30
0.0
 11
120.6630578188592
 21
99.98377989702419
 31
0.0
  0
LINE
  5
3F0
330
2
100
AcDbEntity
  8
LINEWORK
 62
     7
370
    30
100
AcDbLine
 10
106.1269808462311
 20
95.33977989702396
 30
0.0
 11
104.8980212565961
 21
99.82292806821659
 31
0.0
  0
LINE
  5
3F1
330
2
100
AcDbEntity
  8
LINEWORK
 62
     7
370
    30
100
AcDbLine
 10
106.5062999730887
 20
95.30877989702402
 30
0.0
 11
105.2247482906209
 21
99.98377989702419
 31
0.0
  0
LINE
  5
3F2
330
2
100
AcDbEntity
  8
LINEWORK
 62
     7
370
    30
100
AcDbLine
 10
110.4511994101865
 20
94.92005635784664
 30
0.0
 11
116.2239119101864
 21
94.92005635784664
 31
0.0
  0
LINE
  5
3F3
330
2
100
AcDbEntity
  8
LINEWORK
 62
     7
370
    30
100
AcDbLine
 10
113.3375556601863
 20
92.57637510784695
 30
0.0
 11
110.5244040976864
 21
92.57637510784695
 31
0.0
  0
LINE
  5
3F4
330
2
100
AcDbEntity
  8
LINEWORK
 62
     7
370
    30
100
AcDbLine
 10
113.3375556601863
 20
92.70186885784676
 30
0.0
 11
110.4511994101864
 21
92.70186885784676
 31
0.0
  0
LINE
  5
3F5
330
2
100
AcDbEntity
  8
LINEWORK
 62
     7
370
    30
100
AcDbLine
 10
113.3375556601863
 20
92.57637510784695
 30
0.0
 11
110.5244040976864
 21
92.57637510784695
 31
0.0
  0
LINE
  5
3F6
330
2
100
AcDbEntity
  8
LINEWORK
 62
     7
370
    30
100
AcDbLine
 10
113.3375556601863
 20
92.70186885784676
 30
0.0
 11
110.4511994101864
 21
92.70186885784676
 31
0.0
  0
ARC
  5
3F7
330
2
100
AcDbEntity
  8
LINEWORK
 62
     7
370
    30
100
AcDbCircle
 10
125.1145755860936
 20
76.81843151894111
 30
0.0
 40
15.2161171874998
100
AcDbArc
 50
154.3071356404088
 51
160.4531344586555
  0
ARC
  5
3F8
330
2
100
AcDbEntity
  8
LINEWORK
 62
     7
370
    30
100
AcDbCircle
 10
112.1527713668227
 20
92.47663958430155
 30
0.0
 40
1.631418750000056
100
AcDbArc
 50
176.4950813054347
 51
249.8619420133486
  0
LINE
  5
3F9
330
2
100
AcDbEntity
  8
LINEWORK
 62
     7
370
    30
100
AcDbLine
 10
121.0689324307409
 20
96.40877989702415
 30
0.0
 11
106.2047584007434
 21
96.40877989702415
 31
0.0
  0
LINE
  5
3FA
330
2
100
AcDbEntity
  8
LINEWORK
 62
     7
370
    30
100
AcDbLine
 10
121.0689324307409
 20
95.85877989702419
 30
0.0
 11
106.3555291869161
 21
95.85877989702419
 31
0.0
  0
LINE
  5
3FB
330
2
100
AcDbEntity
  8
LINEWORK
 62
     7
370
    30
100
AcDbLine
 10
110.4511994101864
 20
92.70186885784676
 30
0.0
 11
110.4511994101865
 21
94.92005635784664
 31
0.0
  0
LINE
  5
3FC
330
2
100
AcDbEntity
  8
LINEWORK
 62
     7
370
    30
100
AcDbLine
 10
110.5244040976863
 20
92.57637510784695
 30
0.0
 11
110.4511994101864
 21
92.70186885784676
 31
0.0
  0
LINE
  5
3FD
330
2
100
AcDbEntity
  8
LINEWORK
 62
     7
370
    30
100
AcDbLine
 10
105.1081518756102
 20
89.83243265866201
 30
0.0
 11
105.1081518756101
 21
94.31854601468558
 31
0.0
  0
ARC
  5
3FE
330
2
100
AcDbEntity
  8
LINEWORK
 62
     7
370
    30
100
AcDbCircle
 10
115.7998424139001
 20
80.12028658158271
 30
0.0
 40
5.333484374999923
100
AcDbArc
 50
160.4000676171826
 51
182.3509399547389
  0
ARC
  5
3FF
330
2
100
AcDbEntity
  8
LINEWORK
 62
     7
370
    30
100
AcDbCircle
 10
115.7963706743785
 20
80.12081315117383
 30
0.0
 40
5.330037199451427
100
AcDbArc
 50
160.3928811039786
 51
182.3581264680186
  0
LINE
  5
400
330
2
100
AcDbEntity
  8
LINEWORK
  6
DASHED
 62
     7
 48
2.0
370
    30
100
AcDbLine
 10
101.9717956256101
 20
94.9417869481997
 30
0.0
 11
102.4717956256101
 21
94.9417869481997
 31
0.0
  0
POINT
  5
401
330
2
100
AcDbEntity
  8
LINEWORK
 62
     1
370
    30
100
AcDbPoint
 10
105.1081518756102
 20
91.46632015866202
 30
0.0
  0
LINE
  5
402
330
2
100
AcDbEntity
  8
LINEWORK
 62
     7
370
    30
100
AcDbLine
 10
105.1081518756102
 20
89.83243265866201
 30
0.0
 11
105.0349471881102
 21
89.70693890866199
 31
0.0
  0
LINE
  5
403
330
2
100
AcDbEntity
  8
LINEWORK
 62
     7
370
    30
100
AcDbLine
 10
105.1081518756102
 20
89.83243265866201
 30
0.0
 11
105.0349471881102
 21
89.70693890866209
 31
0.0
  0
POINT
  5
404
330
2
100
AcDbEntity
  8
LINEWORK
 62
     7
370
    30
100
AcDbPoint
 10
101.1474393756102
 20
92.50395930899083
 30
0.0
  0
POINT
  5
405
330
2
100
AcDbEntity
  8
LINEWORK
 62
     7
370
    30
100
AcDbPoint
 10
101.1474393756102
 20
92.50395930899083
 30
0.0
  0
LINE
  5
406
330
2
100
AcDbEntity
  8
LINEWORK
  6
DASHED
 62
     7
 48
2.0
370
    30
100
AcDbLine
 10
102.4717956256101
 20
90.94178694819971
 30
0.0
 11
101.9717956256101
 21
90.94178694819971
 31
0.0
  0
LINE
  5
407
330
2
100
AcDbEntity
  8
LINEWORK
 62
     7
370
    30
100
AcDbLine
 10
102.2217956256101
 20
89.83243265866201
 30
0.0
 11
105.1081518756102
 21
89.83243265866201
 31
0.0
  0
LINE
  5
408
330
2
100
AcDbEntity
  8
LINEWORK
 62
     7
370
    30
100
AcDbLine
 10
102.2217956256101
 20
89.83243265866201
 30
0.0
 11
105.1081518756102
 21
89.83243265866201
 31
0.0
  0
LINE
  5
409
330
2
100
AcDbEntity
  8
LINEWORK
 62
     7
370
    30
100
AcDbLine
 10
105.0349471881102
 20
89.70693890866209
 30
0.0
 11
102.2217956256101
 21
89.70693890866199
 31
0.0
  0
LINE
  5
40A
330
2
100
AcDbEntity
  8
LINEWORK
 62
     7
370
    30
100
AcDbLine
 10
102.2217956256101
 20
89.70693890866199
 30
0.0
 11
105.0349471881102
 21
89.70693890866209
 31
0.0
  0
ARC
  5
40B
330
2
100
AcDbEntity
  8
LINEWORK
 62
     7
370
    30
100
AcDbCircle
 10
104.8780800006102
 20
86.82058265866192
 30
0.0
 40
1.105218119867257
100
AcDbArc
 50
145.4077113124904
 51
214.5922886875095
  0
ARC
  5
40C
330
2
100
AcDbEntity
  8
LINEWORK
 62
     7
370
    30
100
AcDbCircle
 10
104.8693836988901
 20
86.82058265866192
 30
0.0
 40
1.09807031250002
100
AcDbArc
 50
145.1500954209564
 51
214.8499045790435
  0
LINE
  5
40D
330
2
100
AcDbEntity
  8
LINEWORK
 62
     7
370
    30
100
AcDbLine
 10
103.9682503131101
 20
87.44805140866185
 30
0.0
 11
103.9682503131101
 21
88.07552015866191
 31
0.0
  0
LINE
  5
40E
330
2
100
AcDbEntity
  8
LINEWORK
 62
     7
370
    30
100
AcDbLine
 10
103.9682503131101
 20
87.44805140866185
 30
0.0
 11
103.9682503131101
 21
88.07552015866191
 31
0.0
  0
LINE
  5
40F
330
2
100
AcDbEntity
  8
LINEWORK
 62
     7
370
    30
100
AcDbLine
 10
103.9682503131101
 20
84.31070765866195
 30
0.0
 11
103.8427565631101
 21
84.18521390866192
 31
0.0
  0
LINE
  5
410
330
2
100
AcDbEntity
  8
LINEWORK
 62
     7
370
    30
100
AcDbLine
 10
103.9682503131101
 20
84.31070765866195
 30
0.0
 11
103.8427565631101
 21
84.18521390866192
 31
0.0
  0
LINE
  5
411
330
2
100
AcDbEntity
  8
LINEWORK
 62
     7
370
    30
100
AcDbLine
 10
103.9682503131101
 20
84.31070765866195
 30
0.0
 11
103.9682503131101
 21
85.06367015866192
 31
0.0
  0
LINE
  5
412
330
2
100
AcDbEntity
  8
LINEWORK
 62
     7
370
    30
100
AcDbLine
 10
103.9682503131101
 20
84.31070765866195
 30
0.0
 11
103.9682503131101
 21
85.06367015866192
 31
0.0
  0
ARC
  5
413
330
2
100
AcDbEntity
  8
LINEWORK
 62
     7
370
    30
100
AcDbCircle
 10
103.4584319537351
 20
85.62839203366184
 30
0.0
 40
0.760805859375
100
AcDbArc
 50
312.0750220508427
 51
47.9249779491573
  0
ARC
  5
414
330
2
100
AcDbEntity
  8
LINEWORK
 62
     7
370
    30
100
AcDbCircle
 10
103.4702124327206
 20
85.62839203366184
 30
0.0
 40
0.7529625000000308
100
AcDbArc
 50
311.4096221092697
 51
48.59037789073025
  0
LINE
  5
415
330
2
100
AcDbEntity
  8
LINEWORK
 62
     7
370
    30
100
AcDbLine
 10
102.2217956256101
 20
86.19311390866187
 30
0.0
 11
103.9682503131101
 21
86.19311390866187
 31
0.0
  0
LINE
  5
416
330
2
100
AcDbEntity
  8
LINEWORK
 62
     7
370
    30
100
AcDbLine
 10
102.2217956256101
 20
87.44805140866185
 30
0.0
 11
103.9682503131101
 21
87.44805140866185
 31
0.0
  0
LINE
  5
417
330
2
100
AcDbEntity
  8
LINEWORK
 62
     7
370
    30
100
AcDbLine
 10
102.2217956256101
 20
87.44805140866185
 30
0.0
 11
103.9682503131101
 21
87.44805140866185
 31
0.0
  0
LINE
  5
418
330
2
100
AcDbEntity
  8
LINEWORK
 62
     7
370
    30
100
AcDbLine
 10
103.9682503131101
 20
88.07552015866191
 30
0.0
 11
102.2217956256101
 21
88.07552015866191
 31
0.0
  0
LINE
  5
419
330
2
100
AcDbEntity
  8
LINEWORK
 62
     7
370
    30
100
AcDbLine
 10
102.2217956256101
 20
88.07552015866191
 30
0.0
 11
103.9682503131101
 21
88.07552015866191
 31
0.0
  0
LINE
  5
41A
330
2
100
AcDbEntity
  8
LINEWORK
 62
     7
370
    30
100
AcDbLine
 10
102.2217956256101
 20
85.06367015866192
 30
0.0
 11
103.9682503131101
 21
85.06367015866192
 31
0.0
  0
LINE
  5
41B
330
2
100
AcDbEntity
  8
LINEWORK
 62
     7
370
    30
100
AcDbLine
 10
103.9682503131101
 20
85.06367015866192
 30
0.0
 11
102.2217956256101
 21
85.06367015866192
 31
0.0
  0
LINE
  5
41C
330
2
100
AcDbEntity
  8
LINEWORK
 62
     7
370
    30
100
AcDbLine
 10
103.9682503131101
 20
84.31070765866195
 30
0.0
 11
102.2217956256101
 21
84.31070765866195
 31
0.0
  0
LINE
  5
41D
330
2
100
AcDbEntity
  8
LINEWORK
 62
     7
370
    30
100
AcDbLine
 10
102.2217956256101
 20
84.18521390866192
 30
0.0
 11
103.8427565631101
 21
84.18521390866192
 31
0.0
  0
LINE
  5
41E
330
2
100
AcDbEntity
  8
LINEWORK
 62
     7
370
    30
100
AcDbLine
 10
102.2217956256101
 20
84.31070765866195
 30
0.0
 11
103.9682503131101
 21
84.31070765866195
 31
0.0
  0
LINE
  5
41F
330
2
100
AcDbEntity
  8
LINEWORK
 62
     7
370
    30
100
AcDbLine
 10
103.8427565631101
 20
84.18521390866192
 30
0.0
 11
102.2217956256101
 21
84.18521390866192
 31
0.0
  0
ARC
  5
420
330
2
100
AcDbEntity
  8
LINEWORK
 62
     7
370
    30
100
AcDbCircle
 10
103.4065799189736
 20
89.60720338511647
 30
0.0
 40
1.631418750000088
100
AcDbArc
 50
290.1380579866513
 51
3.504918694565252
  0
ARC
  5
421
330
2
100
AcDbEntity
  8
LINEWORK
 62
     7
370
    30
100
AcDbCircle
 10
106.1330175006101
 20
81.57337523678689
 30
0.0
 40
2.22763833761492
100
AcDbArc
 50
180.6052145972454
 51
207.467272338611
  0
ARC
  5
422
330
2
100
AcDbEntity
  8
LINEWORK
 62
     7
370
    30
100
AcDbCircle
 10
106.1328935457099
 20
81.57334424806185
 30
0.0
 40
2.22751406250017
100
AcDbArc
 50
180.6044512322847
 51
207.4680357035701
  0
ARC
  5
423
330
2
100
AcDbEntity
  8
LINEWORK
 62
     7
370
    30
100
AcDbCircle
 10
90.44477569970286
 20
73.94899531975614
 30
0.0
 40
15.21611718749983
100
AcDbArc
 50
19.54686554134448
 51
25.6928643595911
  0
ARC
  5
424
330
2
100
AcDbEntity
  8
LINEWORK
 62
     7
370
    30
100
AcDbCircle
 10
131.4694816232068
 20
83.52456171515234
 30
0.0
 40
27.63462319024747
100
AcDbArc
 50
178.630117417344
 51
184.0977376458605
  0
ARC
  5
425
330
2
100
AcDbEntity
  8
LINEWORK
 62
     7
370
    30
100
AcDbCircle
 10
131.4748614691027
 20
83.52468980672108
 30
0.0
 40
27.63999843750035
100
AcDbArc
 50
178.6306494746762
 51
184.0972055885288
  0
LINE
  5
426
330
2
100
AcDbEntity
  8
LINEWORK
  6
DASHED
 62
     7
 48
2.0
370
    30
100
AcDbLine
 10
102.4717956256101
 20
94.9417869481997
 30
0.0
 11
102.4717956256101
 21
90.94178694819971
 31
0.0
  0
LINE
  5
427
330
2
100
AcDbEntity
  8
LINEWORK
  6
DASHED
 62
     7
 48
2.0
370
    30
100
AcDbLine
 10
101.9717956256101
 20
90.94178694819971
 30
0.0
 11
101.9717956256101
 21
94.9417869481997
 31
0.0
  0
LINE
  5
428
330
2
100
AcDbEntity
  8
LINEWORK
 62
     7
370
    30
100
AcDbLine
 10
116.2239119101864
 20
92.70186885784676
 30
0.0
 11
116.2239119101864
 21
94.92005635784664
 31
0.0
  0
LINE
  5
429
330
2
100
AcDbEntity
  8
LINEWORK
 62
     7
370
    30
100
AcDbLine
 10
116.2239119101864
 20
92.70186885784676
 30
0.0
 11
116.1507072226863
 21
92.57637510784695
 31
0.0
  0
LINE
  5
42A
330
2
100
AcDbEntity
  8
LINEWORK
 62
     7
370
    30
100
AcDbLine
 10
116.2239119101864
 20
92.70186885784676
 30
0.0
 11
116.1507072226863
 21
92.57637510784695
 31
0.0
  0
LINE
  5
42B
330
2
100
AcDbEntity
  8
LINEWORK
  6
DASHED
 62
     7
 48
2.0
370
    30
100
AcDbLine
 10
113.5875556601864
 20
96.97816052306837
 30
0.0
 11
113.5875556601864
 21
92.97816052306837
 31
0.0
  0
LINE
  5
42C
330
2
100
AcDbEntity
  8
LINEWORK
  6
DASHED
 62
     7
 48
2.0
370
    30
100
AcDbLine
 10
113.4495656839474
 20
92.97816052306837
 30
0.0
 11
113.0875556601864
 21
92.97816052306837
 31
0.0
  0
LINE
  5
42D
330
2
100
AcDbEntity
  8
LINEWORK
  6
DASHED
 62
     7
 48
2.0
370
    30
100
AcDbLine
 10
113.0875556601864
 20
92.97816052306837
 30
0.0
 11
113.0875556601864
 21
96.97816052306837
 31
0.0
  0
LINE
  5
42E
330
2
100
AcDbEntity
  8
LINEWORK
  6
DASHED
 62
     7
 48
2.0
370
    30
100
AcDbLine
 10
113.0875556601864
 20
96.97816052306837
 30
0.0
 11
113.5875556601864
 21
96.97816052306837
 31
0.0
  0
LINE
  5
42F
330
2
100
AcDbEntity
  8
LINEWORK
  6
DASHED
 62
     7
 48
2.0
370
    30
100
AcDbLine
 10
113.5875556601864
 20
92.97816052306837
 30
0.0
 11
113.0875556601864
 21
92.97816052306837
 31
0.0
  0
LINE
  5
430
330
2
100
AcDbEntity
  8
LINEWORK
  6
DASHED
 62
     7
 48
2.0
370
    30
100
AcDbLine
 10
113.5875556601864
 20
92.97816052306837
 30
0.0
 11
113.0875556601864
 21
92.97816052306837
 31
0.0
  0
LINE
  5
431
330
2
100
AcDbEntity
  8
LINEWORK
 62
     7
370
    30
100
AcDbLine
 10
113.3375556601863
 20
92.57637510784695
 30
0.0
 11
116.1507072226863
 21
92.57637510784695
 31
0.0
  0
LINE
  5
432
330
2
100
AcDbEntity
  8
LINEWORK
 62
     7
370
    30
100
AcDbLine
 10
116.1507072226863
 20
92.57637510784695
 30
0.0
 11
113.3375556601863
 21
92.57637510784695
 31
0.0
  0
LINE
  5
433
330
2
100
AcDbEntity
  8
LINEWORK
 62
     7
370
    30
100
AcDbLine
 10
113.3375556601863
 20
92.70186885784676
 30
0.0
 11
116.2239119101864
 21
92.70186885784676
 31
0.0
  0
LINE
  5
434
330
2
100
AcDbEntity
  8
LINEWORK
 62
     7
370
    30
100
AcDbLine
 10
113.3375556601863
 20
92.70186885784676
 30
0.0
 11
116.2239119101864
 21
92.70186885784676
 31
0.0
  0
LINE
  5
435
330
2
100
AcDbEntity
  8
LINEWORK
 62
     7
370
    30
100
AcDbLine
 10
115.0840103476864
 20
90.31748760784683
 30
0.0
 11
115.0840103476864
 21
90.94495635784699
 31
0.0
  0
LINE
  5
436
330
2
100
AcDbEntity
  8
LINEWORK
 62
     7
370
    30
100
AcDbLine
 10
115.0840103476864
 20
90.31748760784683
 30
0.0
 11
115.0840103476864
 21
90.94495635784699
 31
0.0
  0
LINE
  5
437
330
2
100
AcDbEntity
  8
LINEWORK
 62
     7
370
    30
100
AcDbLine
 10
115.0840103476864
 20
87.18014385784693
 30
0.0
 11
115.0840103476864
 21
87.9331063578469
 31
0.0
  0
LINE
  5
438
330
2
100
AcDbEntity
  8
LINEWORK
 62
     7
370
    30
100
AcDbLine
 10
115.0840103476864
 20
87.18014385784693
 30
0.0
 11
115.0840103476864
 21
87.9331063578469
 31
0.0
  0
LINE
  5
439
330
2
100
AcDbEntity
  8
LINEWORK
 62
     7
370
    30
100
AcDbLine
 10
115.0840103476864
 20
87.18014385784693
 30
0.0
 11
114.9585165976864
 21
87.0546501078469
 31
0.0
  0
LINE
  5
43A
330
2
100
AcDbEntity
  8
LINEWORK
 62
     7
370
    30
100
AcDbLine
 10
115.0840103476864
 20
87.18014385784693
 30
0.0
 11
114.9585165976864
 21
87.0546501078469
 31
0.0
  0
ARC
  5
43B
330
2
100
AcDbEntity
  8
LINEWORK
 62
     7
370
    30
100
AcDbCircle
 10
114.585972467297
 20
88.49782823284693
 30
0.0
 40
0.7529625000000308
100
AcDbArc
 50
311.4096221092697
 51
48.59037789073025
  0
ARC
  5
43C
330
2
100
AcDbEntity
  8
LINEWORK
 62
     7
370
    30
100
AcDbCircle
 10
115.9851437334664
 20
89.6900188578469
 30
0.0
 40
1.09807031250002
100
AcDbArc
 50
145.1500954209564
 51
214.8499045790435
  0
ARC
  5
43D
330
2
100
AcDbEntity
  8
LINEWORK
 62
     7
370
    30
100
AcDbCircle
 10
115.9938400351864
 20
89.6900188578469
 30
0.0
 40
1.105218119867257
100
AcDbArc
 50
145.4077113124904
 51
214.5922886875095
  0
ARC
  5
43E
330
2
100
AcDbEntity
  8
LINEWORK
 62
     7
370
    30
100
AcDbCircle
 10
101.5605357342791
 20
76.81843151894111
 30
0.0
 40
15.21611718749983
100
AcDbArc
 50
19.54686554134448
 51
25.6928643595911
  0
ARC
  5
43F
330
2
100
AcDbEntity
  8
LINEWORK
 62
     7
370
    30
100
AcDbCircle
 10
117.2486535802861
 20
84.44278044724695
 30
0.0
 40
2.22751406250017
100
AcDbArc
 50
180.6044512322847
 51
207.4680357035701
  0
ARC
  5
440
330
2
100
AcDbEntity
  8
LINEWORK
 62
     7
370
    30
100
AcDbCircle
 10
117.2487775351863
 20
84.44281143597198
 30
0.0
 40
2.22763833761492
100
AcDbArc
 50
180.6052145972454
 51
207.467272338611
  0
ARC
  5
441
330
2
100
AcDbEntity
  8
LINEWORK
 62
     7
370
    30
100
AcDbCircle
 10
142.590621503679
 20
86.39412600590606
 30
0.0
 40
27.63999843750035
100
AcDbArc
 50
178.6306494746762
 51
184.0972055885288
  0
ARC
  5
442
330
2
100
AcDbEntity
  8
LINEWORK
 62
     7
370
    30
100
AcDbCircle
 10
142.5852416577831
 20
86.39399791433731
 30
0.0
 40
27.63462319024747
100
AcDbArc
 50
178.630117417344
 51
184.0977376458605
  0
LINE
  5
443
330
2
100
AcDbEntity
  8
LINEWORK
 62
     7
370
    30
100
AcDbLine
 10
111.5911009726864
 20
90.31748760784683
 30
0.0
 11
111.5911009726863
 21
90.94495635784699
 31
0.0
  0
LINE
  5
444
330
2
100
AcDbEntity
  8
LINEWORK
 62
     7
370
    30
100
AcDbLine
 10
111.5911009726863
 20
90.31748760784683
 30
0.0
 11
111.5911009726863
 21
90.94495635784699
 31
0.0
  0
LINE
  5
445
330
2
100
AcDbEntity
  8
LINEWORK
 62
     7
370
    30
100
AcDbLine
 10
111.7165947226864
 20
87.0546501078469
 30
0.0
 11
113.3375556601863
 21
87.0546501078469
 31
0.0
  0
LINE
  5
446
330
2
100
AcDbEntity
  8
LINEWORK
 62
     7
370
    30
100
AcDbLine
 10
113.3375556601863
 20
87.0546501078469
 30
0.0
 11
111.7165947226864
 21
87.0546501078469
 31
0.0
  0
ARC
  5
447
330
2
100
AcDbEntity
  8
LINEWORK
 62
     7
370
    30
100
AcDbCircle
 10
112.0891388530757
 20
88.49782823284693
 30
0.0
 40
0.7529625000000308
100
AcDbArc
 50
131.4096221092697
 51
228.5903778907302
  0
LINE
  5
448
330
2
100
AcDbEntity
  8
LINEWORK
 62
     7
370
    30
100
AcDbLine
 10
111.5911009726863
 20
87.18014385784693
 30
0.0
 11
111.5911009726864
 21
87.9331063578469
 31
0.0
  0
LINE
  5
449
330
2
100
AcDbEntity
  8
LINEWORK
 62
     7
370
    30
100
AcDbLine
 10
111.5911009726863
 20
87.18014385784693
 30
0.0
 11
111.5911009726863
 21
87.9331063578469
 31
0.0
  0
LINE
  5
44A
330
2
100
AcDbEntity
  8
LINEWORK
 62
     7
370
    30
100
AcDbLine
 10
111.5911009726863
 20
87.18014385784693
 30
0.0
 11
111.7165947226864
 21
87.0546501078469
 31
0.0
  0
LINE
  5
44B
330
2
100
AcDbEntity
  8
LINEWORK
 62
     7
370
    30
100
AcDbLine
 10
111.5911009726863
 20
87.18014385784693
 30
0.0
 11
111.7165947226864
 21
87.0546501078469
 31
0.0
  0
LINE
  5
44C
330
2
100
AcDbEntity
  8
LINEWORK
 62
     7
370
    30
100
AcDbLine
 10
113.3375556601863
 20
87.18014385784693
 30
0.0
 11
111.5911009726863
 21
87.18014385784693
 31
0.0
  0
LINE
  5
44D
330
2
100
AcDbEntity
  8
LINEWORK
 62
     7
370
    30
100
AcDbLine
 10
111.5911009726863
 20
87.18014385784693
 30
0.0
 11
113.3375556601863
 21
87.18014385784693
 31
0.0
  0
ARC
  5
44E
330
2
100
AcDbEntity
  8
LINEWORK
 62
     7
370
    30
100
AcDbCircle
 10
110.6899675869063
 20
89.6900188578469
 30
0.0
 40
1.098070312499993
100
AcDbArc
 50
325.1500954209564
 51
34.84990457904352
  0
ARC
  5
44F
330
2
100
AcDbEntity
  8
LINEWORK
 62
     7
370
    30
100
AcDbCircle
 10
109.4264577400866
 20
84.44278044724695
 30
0.0
 40
2.227514062500199
100
AcDbArc
 50
332.5319642964298
 51
359.3955487677153
  0
ARC
  5
450
330
2
100
AcDbEntity
  8
LINEWORK
 62
     7
370
    30
100
AcDbCircle
 10
109.4263337851864
 20
84.44281143597198
 30
0.0
 40
2.22763833761492
100
AcDbArc
 50
332.532727661389
 51
359.3947854027546
  0
ARC
  5
451
330
2
100
AcDbEntity
  8
LINEWORK
 62
     7
370
    30
100
AcDbCircle
 10
84.0844898166938
 20
86.39412600590606
 30
0.0
 40
27.63999843750035
100
AcDbArc
 50
355.9027944114711
 51
1.369350525323726
  0
ARC
  5
452
330
2
100
AcDbEntity
  8
LINEWORK
 62
     7
370
    30
100
AcDbCircle
 10
84.08986966258977
 20
86.39399791433731
 30
0.0
 40
27.63462319024747
100
AcDbArc
 50
355.9022623541395
 51
1.369882582655912
  0
LINE
  5
453
330
2
100
AcDbEntity
  8
LINEWORK
 62
     7
370
    30
100
AcDbLine
 10
111.5911009726863
 20
90.94495635784699
 30
0.0
 11
115.0840103476864
 21
90.94495635784699
 31
0.0
  0
LINE
  5
454
330
2
100
AcDbEntity
  8
LINEWORK
 62
     7
370
    30
100
AcDbLine
 10
115.0840103476864
 20
90.94495635784699
 30
0.0
 11
111.5911009726863
 21
90.94495635784699
 31
0.0
  0
LINE
  5
455
330
2
100
AcDbEntity
  8
LINEWORK
 62
     7
370
    30
100
AcDbLine
 10
114.9585165976864
 20
87.0546501078469
 30
0.0
 11
113.3375556601863
 21
87.0546501078469
 31
0.0
  0
LINE
  5
456
330
2
100
AcDbEntity
  8
LINEWORK
 62
     7
370
    30
100
AcDbLine
 10
113.3375556601863
 20
87.18014385784693
 30
0.0
 11
115.0840103476864
 21
87.18014385784693
 31
0.0
  0
LINE
  5
457
330
2
100
AcDbEntity
  8
LINEWORK
 62
     7
370
    30
100
AcDbLine
 10
113.3375556601863
 20
87.0546501078469
 30
0.0
 11
114.9585165976864
 21
87.0546501078469
 31
0.0
  0
LINE
  5
458
330
2
100
AcDbEntity
  8
LINEWORK
 62
     7
370
    30
100
AcDbLine
 10
115.0840103476864
 20
87.18014385784693
 30
0.0
 11
113.3375556601863
 21
87.18014385784693
 31
0.0
  0
LINE
  5
459
330
2
100
AcDbEntity
  8
LINEWORK
 62
     7
370
    30
100
AcDbLine
 10
115.0840103476864
 20
87.9331063578469
 30
0.0
 11
111.5911009726864
 21
87.9331063578469
 31
0.0
  0
LINE
  5
45A
330
2
100
AcDbEntity
  8
LINEWORK
 62
     7
370
    30
100
AcDbLine
 10
111.5911009726864
 20
87.9331063578469
 30
0.0
 11
115.0840103476864
 21
87.9331063578469
 31
0.0
  0
LINE
  5
45B
330
2
100
AcDbEntity
  8
LINEWORK
 62
     7
370
    30
100
AcDbLine
 10
111.5911009726864
 20
90.31748760784683
 30
0.0
 11
115.0840103476864
 21
90.31748760784683
 31
0.0
  0
LINE
  5
45C
330
2
100
AcDbEntity
  8
LINEWORK
 62
     7
370
    30
100
AcDbLine
 10
111.5911009726864
 20
90.31748760784683
 30
0.0
 11
115.0840103476864
 21
90.31748760784683
 31
0.0
  0
LINE
  5
45D
330
2
100
AcDbEntity
  8
LINEWORK
 62
     7
370
    30
100
AcDbLine
 10
111.5911009726862
 20
89.06255010784695
 30
0.0
 11
115.0840103476864
 21
89.06255010784695
 31
0.0
  0
ARC
  5
45E
330
2
100
AcDbEntity
  8
LINEWORK
 62
     7
370
    30
100
AcDbCircle
 10
110.8752689064726
 20
80.12028658158271
 30
0.0
 40
5.333484374999923
100
AcDbArc
 50
357.649060045261
 51
19.59993238281736
  0
ARC
  5
45F
330
2
100
AcDbEntity
  8
LINEWORK
 62
     7
370
    30
100
AcDbCircle
 10
110.8787406459944
 20
80.12081315117383
 30
0.0
 40
5.330037199451427
100
AcDbArc
 50
357.6418735319813
 51
19.60711889602133
  0
ARC
  5
460
330
2
100
AcDbEntity
  8
LINEWORK
 62
     7
370
    30
100
AcDbCircle
 10
114.52233995355
 20
92.47663958430155
 30
0.0
 40
1.631418750000088
100
AcDbArc
 50
290.1380579866513
 51
3.504918694565252
  0
ARC
  5
461
330
2
100
AcDbEntity
  8
LINEWORK
370
    30
100
AcDbCircle
 10
120.0695384111063
 20
97.70661807908698
 30
0.0
 40
1.299371506374636
100
AcDbArc
 50
185.7015478593828
 51
267.2162470626179
  0
ARC
  5
462
330
2
100
AcDbEntity
  8
LINEWORK
370
    30
100
AcDbCircle
 10
120.5564324307411
 20
95.30877989702378
 30
0.0
 40
0.5500000000002502
100
AcDbArc
 50
0.0000000000260551
 51
90.00000000002605
  0
LINE
  5
463
330
2
100
AcDbEntity
  8
LINEWORK
370
    30
100
AcDbLine
 10
120.0064324307409
 20
95.85877989702419
 30
0.0
 11
120.0064324307409
 21
96.40877989702415
 31
0.0
  0
ARC
  5
464
330
2
100
AcDbEntity
  8
LINEWORK
370
    30
100
AcDbCircle
 10
117.9861419268384
 20
97.49280302086219
 30
0.0
 40
0.7949809888151388
100
AcDbArc
 50
6.118045468726237
 51
62.23893912947279
  0
LINE
  5
465
330
2
100
AcDbEntity
  8
LINEWORK
370
    30
100
AcDbLine
 10
118.3564324307444
 20
98.19627989702405
 30
0.0
 11
118.3564324307408
 21
99.15877989702392
 31
0.0
  0
LINE
  5
466
330
2
100
AcDbEntity
  8
LINEWORK
 62
     7
370
    30
100
AcDbLine
 10
118.3564324307444
 20
98.19627989702405
 30
0.0
 11
118.3380608420373
 21
98.19627989702405
 31
0.0
  0
LINE
  5
467
330
2
100
AcDbEntity
  8
LINEWORK
 62
     7
370
    30
100
AcDbLine
 10
118.3564324307408
 20
99.15877989702392
 30
0.0
 11
118.3380608420373
 21
99.15877989702392
 31
0.0
  0
LINE
  5
468
330
2
100
AcDbEntity
  8
LINEWORK
 62
     7
370
    30
100
AcDbLine
 10
118.3564324307408
 20
99.15877989702392
 30
0.0
 11
118.3380608420373
 21
99.15877989702392
 31
0.0
  0
LINE
  5
469
330
2
100
AcDbEntity
  8
LINEWORK
 62
     7
370
    30
100
AcDbLine
 10
121.5255578188591
 20
99.98377989702419
 30
0.0
 11
105.2247482906211
 21
99.98377989702419
 31
0.0
  0
SOLID
  5
46A
330
2
100
AcDbEntity
  8
leaders
 62
     1
370
    30
100
AcDbTrace
 10
113.1104152774171
 20
101.064282353763
 30
0.0
 11
112.7297642151974
 21
101.1871838136038
 31
0.0
 12
112.5513853667848
 22
99.98377989702419
 32
0.0
 13
112.5513853667848
 23
99.98377989702419
 33
0.0
  0
MTEXT
  5
46B
330
2
100
AcDbEntity
  8
leaders
 62
     1
370
    30
100
AcDbMText
 10
137.6697637745387
 20
123.2861233219838
 30
0.0
 40
3.0
 41
0.0
 71
     1
 72
     1
  1
TannerStone
 73
     1
 44
1.0
1001
ACAD
1000
MTEXTBEGIN
1070
    73
1070
     1
1070
    44
1040
1.0
1070
    74
1070
     0
1000
MTEXTEND
1000
MTEXTBEGIN
1070
    73
1070
     1
1070
    44
1040
1.0
1070
    74
1070
     0
1000
MTEXTEND
1000
MTEXTBEGIN
1070
    73
1070
     1
1070
    44
1040
1.0
1070
    74
1070
     0
1000
MTEXTEND
1000
MTEXTBEGIN
1070
    73
1070
     1
1070
    44
1040
1.0
1070
    74
1070
     0
1000
MTEXTEND
1000
MTEXTBEGIN
1070
    73
1070
     1
1070
    44
1040
1.0
1070
    74
1070
     0
1000
MTEXTEND
  0
LINE
  5
46C
330
2
100
AcDbEntity
  8
leaders
 62
     1
370
    30
100
AcDbLine
 10
136.0927751343804
 20
115.4163091105653
 30
0.0
 11
136.0927751343804
 21
129.0796703990437
 31
0.0
  0
MTEXT
  5
46D
330
2
100
AcDbEntity
  8
leaders
 62
     1
370
    30
100
AcDbMText
 10
137.902990996584
 20
118.7346431230004
 30
0.0
 40
2.216024999999999
 41
0.0
 71
     1
 72
     1
  1
1-800-789-4841
 73
     1
 44
1.0
1001
ACAD
1000
MTEXTBEGIN
1070
    73
1070
     1
1070
    44
1040
1.0
1070
    74
1070
     0
1000
MTEXTEND
1000
MTEXTBEGIN
1070
    73
1070
     1
1070
    44
1040
1.0
1070
    74
1070
     0
1000
MTEXTEND
1000
MTEXTBEGIN
1070
    73
1070
     1
1070
    44
1040
1.0
1070
    74
1070
     0
1000
MTEXTEND
1000
MTEXTBEGIN
1070
    73
1070
     1
1070
    44
1040
1.0
1070
    74
1070
     0
1000
MTEXTEND
1000
MTEXTBEGIN
1070
    73
1070
     1
1070
    44
1040
1.0
1070
    74
1070
     0
1000
MTEXTEND
  0
LINE
  5
46E
330
2
100
AcDbEntity
  8
LINEWORK
 62
     7
370
    30
100
AcDbLine
 10
134.8748040194454
 20
99.15877989702392
 30
0.0
 11
132.5498070426238
 21
99.98377989702419
 31
0.0
  0
ARC
  5
46F
330
2
100
AcDbEntity
  8
LINEWORK
370
    30
100
AcDbCircle
 10
132.6564324307416
 20
95.30877989702378
 30
0.0
 40
0.5500000000002502
100
AcDbArc
 50
89.99999999997395
 51
179.9999999999739
  0
LINE
  5
470
330
2
100
AcDbEntity
  8
LINEWORK
  6
DASHED
 62
     7
 48
2.0
370
    30
100
AcDbLine
 10
126.8564324307415
 20
97.12377989702543
 30
0.0
 11
126.3564324307415
 21
97.12377989702543
 31
0.0
  0
LINE
  5
471
330
2
100
AcDbEntity
  8
LINEWORK
370
    30
100
AcDbLine
 10
128.8564324307417
 20
93.55877989702401
 30
0.0
 11
124.3564324307415
 21
93.55877989702401
 31
0.0
  0
ARC
  5
472
330
2
100
AcDbEntity
  8
LINEWORK
370
    30
100
AcDbCircle
 10
123.1064324307415
 20
93.55877989702401
 30
0.0
 40
1.25
100
AcDbArc
 50
270.0
 51
0.0
  0
LINE
  5
473
330
2
100
AcDbEntity
  8
LINEWORK
  6
DASHED
 62
     7
 48
2.0
370
    30
100
AcDbLine
 10
126.3564324307415
 20
93.12377989702543
 30
0.0
 11
126.8564324307415
 21
93.12377989702543
 31
0.0
  0
ARC
  5
474
330
2
100
AcDbEntity
  8
LINEWORK
370
    30
100
AcDbCircle
 10
130.1064324307415
 20
93.55877989702401
 30
0.0
 40
1.25
100
AcDbArc
 50
180.0
 51
270.0
  0
LINE
  5
475
330
2
100
AcDbEntity
  8
LINEWORK
  6
DASHED
 62
     7
 48
2.0
370
    30
100
AcDbLine
 10
126.3564324307415
 20
97.12377989702543
 30
0.0
 11
126.3564324307415
 21
93.12377989702543
 31
0.0
  0
LINE
  5
476
330
2
100
AcDbEntity
  8
LINEWORK
  6
DASHED
 62
     7
 48
2.0
370
    30
100
AcDbLine
 10
126.8564324307415
 20
93.12377989702543
 30
0.0
 11
126.8564324307415
 21
97.12377989702543
 31
0.0
  0
ARC
  5
477
330
2
100
AcDbEntity
  8
LINEWORK
370
    30
100
AcDbCircle
 10
133.1433264503764
 20
97.70661807908698
 30
0.0
 40
1.299371506374636
100
AcDbArc
 50
272.783752937382
 51
354.2984521406171
  0
LINE
  5
478
330
2
100
AcDbEntity
  8
LINEWORK
370
    30
100
AcDbLine
 10
133.2064324307418
 20
95.85877989702419
 30
0.0
 11
133.2064324307418
 21
96.40877989702415
 31
0.0
  0
ARC
  5
479
330
2
100
AcDbEntity
  8
LINEWORK
 62
     7
370
    30
100
AcDbCircle
 10
135.2267229346446
 20
97.49280302086219
 30
0.0
 40
0.7949809888151388
100
AcDbArc
 50
117.7610608705272
 51
173.8819545312737
  0
LINE
  5
47A
330
2
100
AcDbEntity
  8
LINEWORK
370
    30
100
AcDbLine
 10
134.8564324307385
 20
98.19627989702405
 30
0.0
 11
134.8564324307419
 21
99.15877989702392
 31
0.0
  0
LWPOLYLINE
  5
47B
330
2
100
AcDbEntity
  8
0
 62
    22
370
    30
100
AcDbPolyline
 90
        4
 70
     0
 43
0.0
 10
159.5844464963674
 20
93.92886821020296
 10
160.2083685134261
 20
93.92886821020296
 10
160.2129903020613
 20
93.74871950590534
 10
160.1875711647207
 20
93.74871950590534
  0
ARC
  5
47C
330
2
100
AcDbEntity
  8
0
 62
    22
370
    30
100
AcDbCircle
 10
159.7158302320451
 20
93.75795791570761
 30
0.0
 40
0.1201627703661104
100
AcDbArc
 50
359.6316189828548
 51
90.00081606716234
  0
LINE
  5
47D
330
2
100
AcDbEntity
  8
0
 62
    22
370
    30
100
AcDbLine
 10
159.5775142023885
 20
93.92886821020296
 30
0.0
 11
159.5728924137533
 21
93.74871950590534
 31
0.0
  0
ARC
  5
47E
330
2
100
AcDbEntity
  8
0
 62
    22
370
    30
100
AcDbCircle
 10
159.7187939082675
 20
93.75795791570761
 30
0.0
 40
0.1201627703661104
100
AcDbArc
 50
89.99918393283769
 51
180.3683810171452
  0
LINE
  5
47F
330
2
100
AcDbEntity
  8
0
 62
    22
370
    30
100
AcDbLine
 10
159.5986336215357
 20
93.75718533910651
 30
0.0
 11
159.5986336215357
 21
93.74866070211693
 31
0.0
  0
LINE
  5
480
330
2
100
AcDbEntity
  8
0
 62
    22
370
    30
100
AcDbLine
 10
159.5728924137533
 20
93.74871950590534
 30
0.0
 11
159.5983115510939
 21
93.74871950590534
 31
0.0
  0
ARC
  5
481
330
2
100
AcDbEntity
  8
0
 62
    22
370
    30
100
AcDbCircle
 10
160.0700524837695
 20
93.75795791570761
 30
0.0
 40
0.1201627703661104
100
AcDbArc
 50
89.99918393283769
 51
180.3683810171452
  0
ARC
  5
482
330
2
100
AcDbEntity
  8
0
 62
    22
370
    30
100
AcDbCircle
 10
160.0670888075471
 20
93.75795791570761
 30
0.0
 40
0.1201627703661104
100
AcDbArc
 50
359.6316189828548
 51
90.00081606716234
  0
LINE
  5
483
330
2
100
AcDbEntity
  8
0
 62
    22
370
    30
100
AcDbLine
 10
160.1872490942789
 20
93.75718533910651
 30
0.0
 11
160.1872490942789
 21
93.74866070211693
 31
0.0
  0
LINE
  5
484
330
2
100
AcDbEntity
  8
0
 62
    22
370
    30
100
AcDbLine
 10
159.7277175875513
 20
93.16901015135227
 30
0.0
 11
160.0581651282634
 21
93.16901015135227
 31
0.0
  0
LINE
  5
485
330
2
100
AcDbEntity
  8
0
 62
    22
370
    30
100
AcDbLine
 10
159.8359720526514
 20
93.25799634656926
 30
0.0
 11
159.8363262753032
 21
93.259084551309
 31
0.0
  0
LINE
  5
486
330
2
100
AcDbEntity
  8
0
 62
    22
370
    30
100
AcDbLine
 10
159.7277175875513
 20
93.19210617585804
 30
0.0
 11
159.7692456926197
 21
93.19210617585804
 31
0.0
  0
LINE
  5
487
330
2
100
AcDbEntity
  8
0
 62
    22
370
    30
100
AcDbLine
 10
159.7277175875513
 20
93.16901015135227
 30
0.0
 11
159.7277175875513
 21
93.19210617585804
 31
0.0
  0
ARC
  5
488
330
2
100
AcDbEntity
  8
0
 62
    22
370
    30
100
AcDbCircle
 10
159.7690045287622
 20
93.25920196765389
 30
0.0
 40
0.0669783754509864
100
AcDbArc
 50
270.2063009286873
 51
358.9686114340258
  0
LINE
  5
489
330
2
100
AcDbEntity
  8
0
 62
    22
370
    30
100
AcDbLine
 10
160.0581651282634
 20
93.16901015135227
 30
0.0
 11
160.0581651282634
 21
93.19210617585804
 31
0.0
  0
LINE
  5
48A
330
2
100
AcDbEntity
  8
0
 62
    22
370
    30
100
AcDbLine
 10
160.0581651282634
 20
93.19210617585804
 30
0.0
 11
160.016637023195
 21
93.19210617585804
 31
0.0
  0
ARC
  5
48B
330
2
100
AcDbEntity
  8
0
 62
    22
370
    30
100
AcDbCircle
 10
160.0168781870524
 20
93.25920196765389
 30
0.0
 40
0.0669783754509864
100
AcDbArc
 50
181.0313885659742
 51
269.7936990713126
  0
LINE
  5
48C
330
2
100
AcDbEntity
  8
0
 62
    22
370
    30
100
AcDbLine
 10
159.9499106631633
 20
93.25799634656926
 30
0.0
 11
159.9495564405112
 21
93.259084551309
 31
0.0
  0
ATTDEF
  5
48D
330
2
100
AcDbEntity
  8
BALUSTERS
 62
    22
370
    30
100
AcDbText
 10
159.5912238180062
 20
92.87350259614857
 30
0.0
 40
0.1488867187500036
  1

 72
     1
 11
159.9020815596345
 21
92.87350259614857
 31
0.0
100
AcDbAttributeDefinition
  3
ADD STONE MARKER
  2
XXXX
 70
     0
  0
LINE
  5
48E
330
2
100
AcDbEntity
  8
0
 62
    22
370
    30
100
AcDbLine
 10
159.4457971938186
 20
93.06045902740663
 30
0.0
 11
160.3423963385189
 21
93.06045902740663
 31
0.0
  0
LWPOLYLINE
  5
48F
330
2
100
AcDbEntity
  8
0
 62
    22
370
    30
100
AcDbPolyline
 90
        4
 70
     1
 43
0.0
 10
159.4457971938186
 20
94.02818092434619
 10
160.3423963385189
 20
94.02818092434619
 10
160.3423963385189
 20
92.83642797216373
 10
159.4457971938186
 20
92.83642797216373
  0
HATCH
  5
490
330
2
100
AcDbEntity
  8
0
 62
    22
370
    30
100
AcDbHatch
 10
0.0
 20
0.0
 30
0.0
210
0.0
220
0.0
230
1.0
  2
LINE
 70
     0
 71
     0
 91
        1
 92
       33
 93
       38
 72
     1
 10
160.2083685134261
 20
93.92886821020296
 11
159.5798248633218
 21
93.92886821020296
 72
     1
 10
159.5798248633218
 20
93.92886821020296
 11
159.5728924137533
 21
93.75102910835584
 72
     1
 10
159.5728924137533
 20
93.75102910835584
 11
159.5936899180483
 21
93.75102910835584
 72
     1
 10
159.5936899180483
 20
93.75102910835584
 11
159.5983115510939
 21
93.78105384459752
 72
     1
 10
159.5983115510939
 20
93.78105384459752
 11
159.6052440006624
 21
93.80876907400454
 72
     1
 10
159.6052440006624
 20
93.80876907400454
 11
159.6191088997993
 21
93.83186500289445
 72
     1
 10
159.6191088997993
 20
93.83186500289445
 11
159.6352846154591
 21
93.8480322200486
 72
     1
 10
159.6352846154591
 20
93.84803222004848
 11
159.656082119754
 21
93.86188983475198
 72
     1
 10
159.6560821197542
 20
93.86188983475198
 11
159.6768794684596
 21
93.87343784700489
 72
     1
 10
159.6768794684596
 20
93.87343784700489
 11
159.6953660006422
 21
93.87805695629015
 72
     1
 10
159.6953660006422
 20
93.87805695629015
 11
159.7138526884143
 21
93.87805695629015
 72
     1
 10
159.7138526884143
 20
93.87805695629015
 11
159.7577582023479
 21
93.87574744945551
 72
     1
 10
159.7577582023482
 20
93.87574744945551
 11
159.7877989727344
 21
93.85727062985086
 72
     1
 10
159.7877989727344
 20
93.85727062985086
 11
159.8293936701452
 21
93.81107867645516
 72
     1
 10
159.8293936701452
 20
93.81107867645505
 11
159.8409479083488
 21
93.77412503724576
 72
     1
 10
159.8409479083491
 20
93.77412503724576
 11
159.8409479083491
 21
93.23829812925373
 72
     1
 10
159.8409479083491
 20
93.23829812925385
 11
159.8224612205769
 21
93.20596379056167
 72
     1
 10
159.8224612205767
 20
93.20596379056155
 11
159.7762448901203
 21
93.18979657340742
 72
     1
 10
159.7762448901203
 20
93.18979657340742
 11
159.7346500371197
 21
93.18979657340742
 72
     1
 10
159.7346500371197
 20
93.18979657340742
 11
159.7300284040741
 21
93.1736293562534
 72
     1
 10
159.7300284040741
 20
93.1736293562534
 11
160.0535434952175
 21
93.1736293562534
 72
     1
 10
160.0535434952178
 20
93.1736293562534
 11
160.0535434952178
 21
93.18979657340742
 72
     1
 10
160.0535434952178
 20
93.18979657340742
 11
159.9980837430803
 21
93.18979657340742
 72
     1
 10
159.9980837430803
 20
93.18979657340742
 11
159.9541780735571
 21
93.21751170719847
 72
     1
 10
159.9541780735569
 20
93.21751170719858
 11
159.9472456239884
 21
93.24984614150674
 72
     1
 10
159.9472456239884
 20
93.24984614150674
 11
159.9449348074656
 21
93.77181543479526
 72
     1
 10
159.9449348074656
 20
93.77181543479514
 11
159.9564888900797
 21
93.81107867645505
 72
     1
 10
159.9564888900797
 20
93.81107867645505
 11
159.9865296604659
 21
93.8503418224991
 72
     1
 10
159.9865296604662
 20
93.8503418224991
 11
160.0304353299893
 21
93.87343784700489
 72
     1
 10
160.0304353299893
 20
93.87343784700489
 11
160.0835841100142
 21
93.88036655874065
 72
     1
 10
160.0835841100145
 20
93.88036655874078
 11
160.1344222291063
 21
93.86188983475198
 72
     1
 10
160.1344222291061
 20
93.86188983475198
 11
160.1667738160151
 21
93.83186500289445
 72
     1
 10
160.1667738160154
 20
93.83186500289445
 11
160.1875711647207
 21
93.79491145930103
 72
     1
 10
160.1875711647207
 20
93.79491145930103
 11
160.1921927977664
 21
93.75102910835584
 72
     1
 10
160.1921927977664
 20
93.75102910835584
 11
160.2083685134261
 21
93.75102910835584
 72
     1
 10
160.2083685134261
 20
93.75102910835584
 11
160.2037468803805
 21
93.92424900530182
 72
     1
 10
160.2037468803805
 20
93.92424900530182
 11
160.2037468803805
 21
93.92655860775244
 72
     1
 10
160.2037468803805
 20
93.92655860775244
 11
160.2014360638577
 21
93.92655860775244
 97
        0
 75
     0
 76
     1
 52
0.0
 41
0.0546875000000013
 77
     0
 78
     1
 53
0.0
 43
139.6994494349212
 44
70.95367304976139
 45
0.0
 46
0.0068359375000002
 79
     0
 98
        1
 10
139.6994494349212
 20
70.95367304976139
  0
LINE
  5
491
330
2
100
AcDbEntity
  8
0
 62
    22
370
    30
100
AcDbLine
 10
159.8363262753032
 20
93.75718533910651
 30
0.0
 11
159.8363262753032
 21
93.259084551309
 31
0.0
  0
LINE
  5
492
330
2
100
AcDbEntity
  8
0
 62
    22
370
    30
100
AcDbLine
 10
159.9495564405115
 20
93.75718533910651
 30
0.0
 11
159.9495564405112
 21
93.259084551309
 31
0.0
  0
LINE
  5
493
330
2
100
AcDbEntity
  8
LINEWORK
 62
    22
370
    30
100
AcDbLine
 10
157.177839038133
 20
96.66573958534673
 30
0.0
 11
157.4997388346257
 21
96.66573958534673
 31
0.0
  0
LINE
  5
494
330
2
100
AcDbEntity
  8
LINEWORK
 62
    22
370
    30
100
AcDbLine
 10
157.1797897700528
 20
96.67256355995608
 30
0.0
 11
157.4997388346257
 21
96.67256355995608
 31
0.0
  0
LINE
  5
495
330
2
100
AcDbEntity
  8
LINEWORK
 62
    22
370
    30
100
AcDbLine
 10
157.2262961210165
 20
96.67938753456542
 30
0.0
 11
157.4425082393347
 21
96.67938753456542
 31
0.0
  0
LINE
  5
496
330
2
100
AcDbEntity
  8
LINEWORK
 62
    22
370
    30
100
AcDbLine
 10
157.2458034402147
 20
96.68621150917477
 30
0.0
 11
157.4316978576748
 21
96.68621150917477
 31
0.0
  0
LINE
  5
497
330
2
100
AcDbEntity
  8
LINEWORK
 62
    22
370
    30
100
AcDbLine
 10
157.2653107594133
 20
96.69303548378422
 30
0.0
 11
157.4208874760149
 21
96.69303548378422
 31
0.0
  0
LINE
  5
498
330
2
100
AcDbEntity
  8
LINEWORK
 62
    22
370
    30
100
AcDbLine
 10
157.2722124147376
 20
96.69985945839357
 30
0.0
 11
157.4100770943553
 21
96.69985945839357
 31
0.0
  0
LINE
  5
499
330
2
100
AcDbEntity
  8
LINEWORK
 62
    22
370
    30
100
AcDbLine
 10
157.2761139229505
 20
96.70668343300292
 30
0.0
 11
157.4003739907657
 21
96.70668343300292
 31
0.0
  0
LINE
  5
49A
330
2
100
AcDbEntity
  8
LINEWORK
 62
    22
370
    30
100
AcDbLine
 10
157.2800154311635
 20
96.71350740761226
 30
0.0
 11
157.3989109418257
 21
96.71350740761226
 31
0.0
  0
LINE
  5
49B
330
2
100
AcDbEntity
  8
LINEWORK
 62
    22
370
    30
100
AcDbLine
 10
157.2839169393764
 20
96.72033138222174
 30
0.0
 11
157.3974478928857
 21
96.72033138222174
 31
0.0
  0
LINE
  5
49C
330
2
100
AcDbEntity
  8
LINEWORK
 62
    22
370
    30
100
AcDbLine
 10
157.2875152900342
 20
96.72715535683108
 30
0.0
 11
157.395984843946
 21
96.72715535683108
 31
0.0
  0
LINE
  5
49D
330
2
100
AcDbEntity
  8
LINEWORK
 62
    22
370
    30
100
AcDbLine
 10
157.2875152900342
 20
96.73397933144043
 30
0.0
 11
157.394521795006
 21
96.73397933144043
 31
0.0
  0
LINE
  5
49E
330
2
100
AcDbEntity
  8
LINEWORK
 62
    22
370
    30
100
AcDbLine
 10
157.2875152900342
 20
96.74080330604978
 30
0.0
 11
157.3936152511114
 21
96.74080330604978
 31
0.0
  0
LINE
  5
49F
330
2
100
AcDbEntity
  8
LINEWORK
 62
    22
370
    30
100
AcDbLine
 10
157.2875152900342
 20
96.74762728065923
 30
0.0
 11
157.3935850406114
 21
96.74762728065923
 31
0.0
  0
LINE
  5
4A0
330
2
100
AcDbEntity
  8
LINEWORK
 62
    22
370
    30
100
AcDbLine
 10
157.2875152900342
 20
96.75445125526858
 30
0.0
 11
157.3935548301117
 21
96.75445125526858
 31
0.0
  0
LINE
  5
4A1
330
2
100
AcDbEntity
  8
LINEWORK
 62
    22
370
    30
100
AcDbLine
 10
157.2875152900342
 20
96.76127522987792
 30
0.0
 11
157.3935246196117
 21
96.76127522987792
 31
0.0
  0
LINE
  5
4A2
330
2
100
AcDbEntity
  8
LINEWORK
 62
    22
370
    30
100
AcDbLine
 10
157.2875152900342
 20
96.76809920448727
 30
0.0
 11
157.3934944091117
 21
96.76809920448727
 31
0.0
  0
LINE
  5
4A3
330
2
100
AcDbEntity
  8
LINEWORK
 62
    22
370
    30
100
AcDbLine
 10
157.2875152900342
 20
96.77492317909674
 30
0.0
 11
157.393464198612
 21
96.77492317909674
 31
0.0
  0
LINE
  5
4A4
330
2
100
AcDbEntity
  8
LINEWORK
 62
    22
370
    30
100
AcDbLine
 10
157.2875152900342
 20
96.78174715370609
 30
0.0
 11
157.393433988112
 21
96.78174715370609
 31
0.0
  0
LINE
  5
4A5
330
2
100
AcDbEntity
  8
LINEWORK
 62
    22
370
    30
100
AcDbLine
 10
157.2875152900342
 20
96.78857112831543
 30
0.0
 11
157.3934037776121
 21
96.78857112831543
 31
0.0
  0
LINE
  5
4A6
330
2
100
AcDbEntity
  8
LINEWORK
 62
    22
370
    30
100
AcDbLine
 10
157.2875152900342
 20
96.79539510292478
 30
0.0
 11
157.3933735671123
 21
96.79539510292478
 31
0.0
  0
LINE
  5
4A7
330
2
100
AcDbEntity
  8
LINEWORK
 62
    22
370
    30
100
AcDbLine
 10
157.2875152900342
 20
96.80221907753423
 30
0.0
 11
157.3933433566123
 21
96.80221907753423
 31
0.0
  0
LINE
  5
4A8
330
2
100
AcDbEntity
  8
LINEWORK
 62
    22
370
    30
100
AcDbLine
 10
157.2875152900342
 20
96.80904305214358
 30
0.0
 11
157.3933131461124
 21
96.80904305214358
 31
0.0
  0
LINE
  5
4A9
330
2
100
AcDbEntity
  8
LINEWORK
 62
    22
370
    30
100
AcDbLine
 10
157.2875152900342
 20
96.81586702675293
 30
0.0
 11
157.3932829356126
 21
96.81586702675293
 31
0.0
  0
LINE
  5
4AA
330
2
100
AcDbEntity
  8
LINEWORK
 62
    22
370
    30
100
AcDbLine
 10
157.2875152900342
 20
96.82269100136227
 30
0.0
 11
157.3932527251126
 21
96.82269100136227
 31
0.0
  0
LINE
  5
4AB
330
2
100
AcDbEntity
  8
LINEWORK
 62
    22
370
    30
100
AcDbLine
 10
157.2875152900342
 20
96.82951497597173
 30
0.0
 11
157.3932225146127
 21
96.82951497597173
 31
0.0
  0
LINE
  5
4AC
330
2
100
AcDbEntity
  8
LINEWORK
 62
    22
370
    30
100
AcDbLine
 10
157.2875152900342
 20
96.83633895058108
 30
0.0
 11
157.3931923041129
 21
96.83633895058108
 31
0.0
  0
LINE
  5
4AD
330
2
100
AcDbEntity
  8
LINEWORK
 62
    22
370
    30
100
AcDbLine
 10
157.2875152900342
 20
96.84316292519042
 30
0.0
 11
157.393162093613
 21
96.84316292519042
 31
0.0
  0
LINE
  5
4AE
330
2
100
AcDbEntity
  8
LINEWORK
 62
    22
370
    30
100
AcDbLine
 10
157.2875152900342
 20
96.84998689979977
 30
0.0
 11
157.393131883113
 21
96.84998689979977
 31
0.0
  0
LINE
  5
4AF
330
2
100
AcDbEntity
  8
LINEWORK
 62
    22
370
    30
100
AcDbLine
 10
157.2875152900342
 20
96.85681087440924
 30
0.0
 11
157.3931016726132
 21
96.85681087440924
 31
0.0
  0
LINE
  5
4B0
330
2
100
AcDbEntity
  8
LINEWORK
 62
    22
370
    30
100
AcDbLine
 10
157.2875152900342
 20
96.86363484901859
 30
0.0
 11
157.3930714621133
 21
96.86363484901859
 31
0.0
  0
LINE
  5
4B1
330
2
100
AcDbEntity
  8
LINEWORK
 62
    22
370
    30
100
AcDbLine
 10
157.2875152900342
 20
96.87045882362793
 30
0.0
 11
157.3930412516135
 21
96.87045882362793
 31
0.0
  0
LINE
  5
4B2
330
2
100
AcDbEntity
  8
LINEWORK
 62
    22
370
    30
100
AcDbLine
 10
157.2875152900342
 20
96.87728279823728
 30
0.0
 11
157.3930110411136
 21
96.87728279823728
 31
0.0
  0
LINE
  5
4B3
330
2
100
AcDbEntity
  8
LINEWORK
 62
    22
370
    30
100
AcDbLine
 10
157.2875152900342
 20
96.88410677284673
 30
0.0
 11
157.3929808306136
 21
96.88410677284673
 31
0.0
  0
LINE
  5
4B4
330
2
100
AcDbEntity
  8
LINEWORK
 62
    22
370
    30
100
AcDbLine
 10
157.2875152900342
 20
96.89093074745608
 30
0.0
 11
157.3929506201138
 21
96.89093074745608
 31
0.0
  0
LINE
  5
4B5
330
2
100
AcDbEntity
  8
LINEWORK
 62
    22
370
    30
100
AcDbLine
 10
157.2875152900342
 20
96.89775472206543
 30
0.0
 11
157.3929204096138
 21
96.89775472206543
 31
0.0
  0
LINE
  5
4B6
330
2
100
AcDbEntity
  8
LINEWORK
 62
    22
370
    30
100
AcDbLine
 10
157.2875152900342
 20
96.90457869667477
 30
0.0
 11
157.3928901991139
 21
96.90457869667477
 31
0.0
  0
LINE
  5
4B7
330
2
100
AcDbEntity
  8
LINEWORK
 62
    22
370
    30
100
AcDbLine
 10
157.2875152900342
 20
96.91140267128425
 30
0.0
 11
157.3928599886141
 21
96.91140267128425
 31
0.0
  0
LINE
  5
4B8
330
2
100
AcDbEntity
  8
LINEWORK
 62
    22
370
    30
100
AcDbLine
 10
157.2875152900342
 20
96.91822664589359
 30
0.0
 11
157.3928297781142
 21
96.91822664589359
 31
0.0
  0
LINE
  5
4B9
330
2
100
AcDbEntity
  8
LINEWORK
 62
    22
370
    30
100
AcDbLine
 10
157.2875152900342
 20
96.92505062050294
 30
0.0
 11
157.3927995676142
 21
96.92505062050294
 31
0.0
  0
LINE
  5
4BA
330
2
100
AcDbEntity
  8
LINEWORK
 62
    22
370
    30
100
AcDbLine
 10
157.2875152900342
 20
96.93187459511229
 30
0.0
 11
157.3927693571144
 21
96.93187459511229
 31
0.0
  0
LINE
  5
4BB
330
2
100
AcDbEntity
  8
LINEWORK
 62
    22
370
    30
100
AcDbLine
 10
157.2875152900342
 20
96.93869856972174
 30
0.0
 11
157.3927391466145
 21
96.93869856972174
 31
0.0
  0
LINE
  5
4BC
330
2
100
AcDbEntity
  8
LINEWORK
 62
    22
370
    30
100
AcDbLine
 10
157.2875152900342
 20
96.94552254433109
 30
0.0
 11
157.3927089361145
 21
96.94552254433109
 31
0.0
  0
LINE
  5
4BD
330
2
100
AcDbEntity
  8
LINEWORK
 62
    22
370
    30
100
AcDbLine
 10
157.2875152900342
 20
96.95234651894043
 30
0.0
 11
157.3926787256148
 21
96.95234651894043
 31
0.0
  0
LINE
  5
4BE
330
2
100
AcDbEntity
  8
LINEWORK
 62
    22
370
    30
100
AcDbLine
 10
157.2875152900342
 20
96.95917049354978
 30
0.0
 11
157.3926485151148
 21
96.95917049354978
 31
0.0
  0
LINE
  5
4BF
330
2
100
AcDbEntity
  8
LINEWORK
 62
    22
370
    30
100
AcDbLine
 10
157.2875152900342
 20
96.96599446815923
 30
0.0
 11
157.3926183046148
 21
96.96599446815923
 31
0.0
  0
LINE
  5
4C0
330
2
100
AcDbEntity
  8
LINEWORK
 62
    22
370
    30
100
AcDbLine
 10
157.2875152900342
 20
96.97281844276858
 30
0.0
 11
157.3925880941151
 21
96.97281844276858
 31
0.0
  0
LINE
  5
4C1
330
2
100
AcDbEntity
  8
LINEWORK
 62
    22
370
    30
100
AcDbLine
 10
157.2875152900342
 20
96.97964241737793
 30
0.0
 11
157.3925578836151
 21
96.97964241737793
 31
0.0
  0
LINE
  5
4C2
330
2
100
AcDbEntity
  8
LINEWORK
 62
    22
370
    30
100
AcDbLine
 10
157.2875152900342
 20
96.98646639198727
 30
0.0
 11
157.3925276731151
 21
96.98646639198727
 31
0.0
  0
LINE
  5
4C3
330
2
100
AcDbEntity
  8
LINEWORK
 62
    22
370
    30
100
AcDbLine
 10
157.2875152900342
 20
96.99329036659662
 30
0.0
 11
157.3924974626154
 21
96.99329036659662
 31
0.0
  0
LINE
  5
4C4
330
2
100
AcDbEntity
  8
LINEWORK
 62
    22
370
    30
100
AcDbLine
 10
157.2875152900342
 20
97.00011434120609
 30
0.0
 11
157.3924672521154
 21
97.00011434120609
 31
0.0
  0
LINE
  5
4C5
330
2
100
AcDbEntity
  8
LINEWORK
 62
    22
370
    30
100
AcDbLine
 10
157.2875152900342
 20
97.00693831581544
 30
0.0
 11
157.3924370416154
 21
97.00693831581544
 31
0.0
  0
LINE
  5
4C6
330
2
100
AcDbEntity
  8
LINEWORK
 62
    22
370
    30
100
AcDbLine
 10
157.2875152900342
 20
97.01376229042478
 30
0.0
 11
157.3924068311157
 21
97.01376229042478
 31
0.0
  0
LINE
  5
4C7
330
2
100
AcDbEntity
  8
LINEWORK
 62
    22
370
    30
100
AcDbLine
 10
157.2875152900342
 20
97.02058626503424
 30
0.0
 11
157.3923766206157
 21
97.02058626503424
 31
0.0
  0
LINE
  5
4C8
330
2
100
AcDbEntity
  8
LINEWORK
 62
    22
370
    30
100
AcDbLine
 10
157.2875152900342
 20
97.02741023964359
 30
0.0
 11
157.3923464101158
 21
97.02741023964359
 31
0.0
  0
LINE
  5
4C9
330
2
100
AcDbEntity
  8
LINEWORK
 62
    22
370
    30
100
AcDbLine
 10
157.2875152900342
 20
97.03423421425293
 30
0.0
 11
157.392316199616
 21
97.03423421425293
 31
0.0
  0
LINE
  5
4CA
330
2
100
AcDbEntity
  8
LINEWORK
 62
    22
370
    30
100
AcDbLine
 10
157.2875152900342
 20
97.04105818886228
 30
0.0
 11
157.392285989116
 21
97.04105818886228
 31
0.0
  0
LINE
  5
4CB
330
2
100
AcDbEntity
  8
LINEWORK
 62
    22
370
    30
100
AcDbLine
 10
157.2875152900342
 20
97.04788216347163
 30
0.0
 11
157.3922557786161
 21
97.04788216347163
 31
0.0
  0
LINE
  5
4CC
330
2
100
AcDbEntity
  8
LINEWORK
 62
    22
370
    30
100
AcDbLine
 10
157.2875152900342
 20
97.0547061380811
 30
0.0
 11
157.3922255681163
 21
97.0547061380811
 31
0.0
  0
LINE
  5
4CD
330
2
100
AcDbEntity
  8
LINEWORK
 62
    22
370
    30
100
AcDbLine
 10
157.2875152900342
 20
97.06153011269044
 30
0.0
 11
157.3921953576164
 21
97.06153011269044
 31
0.0
  0
LINE
  5
4CE
330
2
100
AcDbEntity
  8
LINEWORK
 62
    22
370
    30
100
AcDbLine
 10
157.2875152900342
 20
97.06835408729979
 30
0.0
 11
157.3921651471164
 21
97.06835408729979
 31
0.0
  0
LINE
  5
4CF
330
2
100
AcDbEntity
  8
LINEWORK
 62
    22
370
    30
100
AcDbLine
 10
157.2875152900342
 20
97.07517806190914
 30
0.0
 11
157.3921349366166
 21
97.07517806190914
 31
0.0
  0
LINE
  5
4D0
330
2
100
AcDbEntity
  8
LINEWORK
 62
    22
370
    30
100
AcDbLine
 10
157.2875152900342
 20
97.08200203651859
 30
0.0
 11
157.3921047261167
 21
97.08200203651859
 31
0.0
  0
LINE
  5
4D1
330
2
100
AcDbEntity
  8
LINEWORK
 62
    22
370
    30
100
AcDbLine
 10
157.2875152900342
 20
97.08882601112794
 30
0.0
 11
157.3920745156169
 21
97.08882601112794
 31
0.0
  0
LINE
  5
4D2
330
2
100
AcDbEntity
  8
LINEWORK
 62
    22
370
    30
100
AcDbLine
 10
157.2875152900342
 20
97.09564998573728
 30
0.0
 11
157.392044305117
 21
97.09564998573728
 31
0.0
  0
LINE
  5
4D3
330
2
100
AcDbEntity
  8
LINEWORK
 62
    22
370
    30
100
AcDbLine
 10
157.2875152900342
 20
97.10247396034663
 30
0.0
 11
157.392014094617
 21
97.10247396034663
 31
0.0
  0
LINE
  5
4D4
330
2
100
AcDbEntity
  8
LINEWORK
 62
    22
370
    30
100
AcDbLine
 10
157.2875152900342
 20
97.10929793495608
 30
0.0
 11
157.3919838841172
 21
97.10929793495608
 31
0.0
  0
LINE
  5
4D5
330
2
100
AcDbEntity
  8
LINEWORK
 62
    22
370
    30
100
AcDbLine
 10
157.2875152900342
 20
97.11612190956543
 30
0.0
 11
157.3919536736173
 21
97.11612190956543
 31
0.0
  0
LINE
  5
4D6
330
2
100
AcDbEntity
  8
LINEWORK
 62
    22
370
    30
100
AcDbLine
 10
157.2875152900342
 20
97.12294588417478
 30
0.0
 11
157.3919234631173
 21
97.12294588417478
 31
0.0
  0
LINE
  5
4D7
330
2
100
AcDbEntity
  8
LINEWORK
 62
    22
370
    30
100
AcDbLine
 10
157.2875152900342
 20
97.12976985878412
 30
0.0
 11
157.3918932526176
 21
97.12976985878412
 31
0.0
  0
LINE
  5
4D8
330
2
100
AcDbEntity
  8
LINEWORK
 62
    22
370
    30
100
AcDbLine
 10
157.2875152900342
 20
97.1365938333936
 30
0.0
 11
157.3918630421176
 21
97.1365938333936
 31
0.0
  0
LINE
  5
4D9
330
2
100
AcDbEntity
  8
LINEWORK
 62
    22
370
    30
100
AcDbLine
 10
157.2875152900342
 20
97.14341780800294
 30
0.0
 11
157.3918328316176
 21
97.14341780800294
 31
0.0
  0
LINE
  5
4DA
330
2
100
AcDbEntity
  8
LINEWORK
 62
    22
370
    30
100
AcDbLine
 10
157.2875152900342
 20
97.15024178261229
 30
0.0
 11
157.3918026211179
 21
97.15024178261229
 31
0.0
  0
LINE
  5
4DB
330
2
100
AcDbEntity
  8
LINEWORK
 62
    22
370
    30
100
AcDbLine
 10
157.2875152900342
 20
97.15706575722164
 30
0.0
 11
157.3917724106179
 21
97.15706575722164
 31
0.0
  0
LINE
  5
4DC
330
2
100
AcDbEntity
  8
LINEWORK
 62
    22
370
    30
100
AcDbLine
 10
157.2875152900342
 20
97.16388973183109
 30
0.0
 11
157.3917422001179
 21
97.16388973183109
 31
0.0
  0
LINE
  5
4DD
330
2
100
AcDbEntity
  8
LINEWORK
 62
    22
370
    30
100
AcDbLine
 10
157.2875152900342
 20
97.17071370644044
 30
0.0
 11
157.3917119896182
 21
97.17071370644044
 31
0.0
  0
LINE
  5
4DE
330
2
100
AcDbEntity
  8
LINEWORK
 62
    22
370
    30
100
AcDbLine
 10
157.2875152900342
 20
97.17753768104978
 30
0.0
 11
157.3916817791182
 21
97.17753768104978
 31
0.0
  0
LINE
  5
4DF
330
2
100
AcDbEntity
  8
LINEWORK
 62
    22
370
    30
100
AcDbLine
 10
157.2875152900342
 20
97.18436165565913
 30
0.0
 11
157.3916515686182
 21
97.18436165565913
 31
0.0
  0
LINE
  5
4E0
330
2
100
AcDbEntity
  8
LINEWORK
 62
    22
370
    30
100
AcDbLine
 10
157.2875152900342
 20
97.1911856302686
 30
0.0
 11
157.3916213581185
 21
97.1911856302686
 31
0.0
  0
LINE
  5
4E1
330
2
100
AcDbEntity
  8
LINEWORK
 62
    22
370
    30
100
AcDbLine
 10
157.2875152900342
 20
97.19800960487795
 30
0.0
 11
157.3915911476185
 21
97.19800960487795
 31
0.0
  0
LINE
  5
4E2
330
2
100
AcDbEntity
  8
LINEWORK
 62
    22
370
    30
100
AcDbLine
 10
157.2875152900342
 20
97.20483357948729
 30
0.0
 11
157.3915609371185
 21
97.20483357948729
 31
0.0
  0
LINE
  5
4E3
330
2
100
AcDbEntity
  8
LINEWORK
 62
    22
370
    30
100
AcDbLine
 10
157.2875152900342
 20
97.21165755409664
 30
0.0
 11
157.3915307266188
 21
97.21165755409664
 31
0.0
  0
LINE
  5
4E4
330
2
100
AcDbEntity
  8
LINEWORK
 62
    22
370
    30
100
AcDbLine
 10
157.2875152900342
 20
97.21848152870609
 30
0.0
 11
157.3915005161188
 21
97.21848152870609
 31
0.0
  0
LINE
  5
4E5
330
2
100
AcDbEntity
  8
LINEWORK
 62
    22
370
    30
100
AcDbLine
 10
157.2875152900342
 20
97.22530550331544
 30
0.0
 11
157.3914703056189
 21
97.22530550331544
 31
0.0
  0
LINE
  5
4E6
330
2
100
AcDbEntity
  8
LINEWORK
 62
    22
370
    30
100
AcDbLine
 10
157.2875152900342
 20
97.23212947792479
 30
0.0
 11
157.3914400951191
 21
97.23212947792479
 31
0.0
  0
LINE
  5
4E7
330
2
100
AcDbEntity
  8
LINEWORK
 62
    22
370
    30
100
AcDbLine
 10
157.2875152900342
 20
97.23895345253414
 30
0.0
 11
157.3914098846191
 21
97.23895345253414
 31
0.0
  0
LINE
  5
4E8
330
2
100
AcDbEntity
  8
LINEWORK
 62
    22
370
    30
100
AcDbLine
 10
157.6380934063829
 20
97.23895345253414
 30
0.0
 11
157.6542797117829
 21
97.23895345253414
 31
0.0
  0
LINE
  5
4E9
330
2
100
AcDbEntity
  8
LINEWORK
 62
    22
370
    30
100
AcDbLine
 10
157.0199481742779
 20
97.23895345253414
 30
0.0
 11
157.040766139426
 21
97.23895345253414
 31
0.0
  0
LINE
  5
4EA
330
2
100
AcDbEntity
  8
LINEWORK
 62
    22
370
    30
100
AcDbLine
 10
157.2875152900342
 20
97.24577742714359
 30
0.0
 11
157.3913796741192
 21
97.24577742714359
 31
0.0
  0
LINE
  5
4EB
330
2
100
AcDbEntity
  8
LINEWORK
 62
    22
370
    30
100
AcDbLine
 10
157.6373747141096
 20
97.24577742714359
 30
0.0
 11
157.6540976431688
 21
97.24577742714359
 31
0.0
  0
LINE
  5
4EC
330
2
100
AcDbEntity
  8
LINEWORK
 62
    22
370
    30
100
AcDbLine
 10
157.0202141836052
 20
97.24577742714359
 30
0.0
 11
157.0418165368819
 21
97.24577742714359
 31
0.0
  0
LINE
  5
4ED
330
2
100
AcDbEntity
  8
LINEWORK
 62
    22
370
    30
100
AcDbLine
 10
157.2875152900342
 20
97.25260140175294
 30
0.0
 11
157.3913494636194
 21
97.25260140175294
 31
0.0
  0
LINE
  5
4EE
330
2
100
AcDbEntity
  8
LINEWORK
 62
    22
370
    30
100
AcDbLine
 10
157.6366560218364
 20
97.25260140175294
 30
0.0
 11
157.6539155745549
 21
97.25260140175294
 31
0.0
  0
LINE
  5
4EF
330
2
100
AcDbEntity
  8
LINEWORK
 62
    22
370
    30
100
AcDbLine
 10
157.0204801929323
 20
97.25260140175294
 30
0.0
 11
157.0428669343375
 21
97.25260140175294
 31
0.0
  0
LINE
  5
4F0
330
2
100
AcDbEntity
  8
LINEWORK
 62
    22
370
    30
100
AcDbLine
 10
157.2875152900342
 20
97.25942537636228
 30
0.0
 11
157.3913839544593
 21
97.25942537636228
 31
0.0
  0
LINE
  5
4F1
330
2
100
AcDbEntity
  8
LINEWORK
 62
    22
370
    30
100
AcDbLine
 10
157.6359373295631
 20
97.25942537636228
 30
0.0
 11
157.6537335059408
 21
97.25942537636228
 31
0.0
  0
LINE
  5
4F2
330
2
100
AcDbEntity
  8
LINEWORK
 62
    22
370
    30
100
AcDbLine
 10
157.0207462022597
 20
97.25942537636228
 30
0.0
 11
157.0439173317931
 21
97.25942537636228
 31
0.0
  0
LINE
  5
4F3
330
2
100
AcDbEntity
  8
LINEWORK
 62
    22
370
    30
100
AcDbLine
 10
157.2860347972152
 20
97.26624935097163
 30
0.0
 11
157.3933920608474
 21
97.26624935097163
 31
0.0
  0
LINE
  5
4F4
330
2
100
AcDbEntity
  8
LINEWORK
 62
    22
370
    30
100
AcDbLine
 10
157.6352186372898
 20
97.26624935097163
 30
0.0
 11
157.6535514373267
 21
97.26624935097163
 31
0.0
  0
LINE
  5
4F5
330
2
100
AcDbEntity
  8
LINEWORK
 62
    22
370
    30
100
AcDbLine
 10
157.0210122115868
 20
97.26624935097163
 30
0.0
 11
157.044967729249
 21
97.26624935097163
 31
0.0
  0
LINE
  5
4F6
330
2
100
AcDbEntity
  8
LINEWORK
 62
    22
370
    30
100
AcDbLine
 10
157.2839011554463
 20
97.2730733255811
 30
0.0
 11
157.3954001672355
 21
97.2730733255811
 31
0.0
  0
LINE
  5
4F7
330
2
100
AcDbEntity
  8
LINEWORK
 62
    22
370
    30
100
AcDbLine
 10
157.6344999450166
 20
97.2730733255811
 30
0.0
 11
157.6533693687129
 21
97.2730733255811
 31
0.0
  0
LINE
  5
4F8
330
2
100
AcDbEntity
  8
LINEWORK
 62
    22
370
    30
100
AcDbLine
 10
157.0212782209141
 20
97.2730733255811
 30
0.0
 11
157.0464647356946
 21
97.2730733255811
 31
0.0
  0
LINE
  5
4F9
330
2
100
AcDbEntity
  8
LINEWORK
 62
    22
370
    30
100
AcDbLine
 10
157.2817675136773
 20
97.27989730019045
 30
0.0
 11
157.3974082736235
 21
97.27989730019045
 31
0.0
  0
LINE
  5
4FA
330
2
100
AcDbEntity
  8
LINEWORK
 62
    22
370
    30
100
AcDbLine
 10
157.6337812527433
 20
97.27989730019045
 30
0.0
 11
157.6531873000988
 21
97.27989730019045
 31
0.0
  0
LINE
  5
4FB
330
2
100
AcDbEntity
  8
LINEWORK
 62
    22
370
    30
100
AcDbLine
 10
157.0215442302412
 20
97.27989730019045
 30
0.0
 11
157.0481716261244
 21
97.27989730019045
 31
0.0
  0
LINE
  5
4FC
330
2
100
AcDbEntity
  8
LINEWORK
 62
    22
370
    30
100
AcDbLine
 10
157.2796338719083
 20
97.28672127479979
 30
0.0
 11
157.3994163800116
 21
97.28672127479979
 31
0.0
  0
LINE
  5
4FD
330
2
100
AcDbEntity
  8
LINEWORK
 62
    22
370
    30
100
AcDbLine
 10
157.6310236238837
 20
97.28672127479979
 30
0.0
 11
157.6530052314847
 21
97.28672127479979
 31
0.0
  0
LINE
  5
4FE
330
2
100
AcDbEntity
  8
LINEWORK
 62
    22
370
    30
100
AcDbLine
 10
157.0218102395686
 20
97.28672127479979
 30
0.0
 11
157.0498785165543
 21
97.28672127479979
 31
0.0
  0
LINE
  5
4FF
330
2
100
AcDbEntity
  8
LINEWORK
 62
    22
370
    30
100
AcDbLine
 10
157.2775002301393
 20
97.29354524940914
 30
0.0
 11
157.4014244863997
 21
97.29354524940914
 31
0.0
  0
LINE
  5
500
330
2
100
AcDbEntity
  8
LINEWORK
 62
    22
370
    30
100
AcDbLine
 10
157.6271831104793
 20
97.29354524940914
 30
0.0
 11
157.6528231628708
 21
97.29354524940914
 31
0.0
  0
LINE
  5
501
330
2
100
AcDbEntity
  8
LINEWORK
 62
    22
370
    30
100
AcDbLine
 10
157.0220762488957
 20
97.29354524940914
 30
0.0
 11
157.0515854069842
 21
97.29354524940914
 31
0.0
  0
LINE
  5
502
330
2
100
AcDbEntity
  8
LINEWORK
 62
    22
370
    30
100
AcDbLine
 10
157.2742110037963
 20
97.30036922401859
 30
0.0
 11
157.4043582326262
 21
97.30036922401859
 31
0.0
  0
LINE
  5
503
330
2
100
AcDbEntity
  8
LINEWORK
 62
    22
370
    30
100
AcDbLine
 10
157.6233425970751
 20
97.30036922401859
 30
0.0
 11
157.6526410942567
 21
97.30036922401859
 31
0.0
  0
LINE
  5
504
330
2
100
AcDbEntity
  8
LINEWORK
 62
    22
370
    30
100
AcDbLine
 10
157.022342258223
 20
97.30036922401859
 30
0.0
 11
157.0547881145491
 21
97.30036922401859
 31
0.0
  0
LINE
  5
505
330
2
100
AcDbEntity
  8
LINEWORK
 62
    22
370
    30
100
AcDbLine
 10
157.2680661855292
 20
97.30719319862794
 30
0.0
 11
157.4095793489916
 21
97.30719319862794
 31
0.0
  0
LINE
  5
506
330
2
100
AcDbEntity
  8
LINEWORK
 62
    22
370
    30
100
AcDbLine
 10
157.6195020836707
 20
97.30719319862794
 30
0.0
 11
157.6524590256426
 21
97.30719319862794
 31
0.0
  0
LINE
  5
507
330
2
100
AcDbEntity
  8
LINEWORK
 62
    22
370
    30
100
AcDbLine
 10
157.0226082675503
 20
97.30719319862794
 30
0.0
 11
157.0588846685402
 21
97.30719319862794
 31
0.0
  0
LINE
  5
508
330
2
100
AcDbEntity
  8
LINEWORK
 62
    22
370
    30
100
AcDbLine
 10
157.2619213672621
 20
97.31401717323729
 30
0.0
 11
157.4148004653568
 21
97.31401717323729
 31
0.0
  0
LINE
  5
509
330
2
100
AcDbEntity
  8
LINEWORK
 62
    22
370
    30
100
AcDbLine
 10
157.6156615702664
 20
97.31401717323729
 30
0.0
 11
157.6522769570287
 21
97.31401717323729
 31
0.0
  0
LINE
  5
50A
330
2
100
AcDbEntity
  8
LINEWORK
 62
    22
370
    30
100
AcDbLine
 10
157.0228742768774
 20
97.31401717323729
 30
0.0
 11
157.0629812225313
 21
97.31401717323729
 31
0.0
  0
LINE
  5
50B
330
2
100
AcDbEntity
  8
LINEWORK
 62
    22
370
    30
100
AcDbLine
 10
157.2557765489952
 20
97.32084114784663
 30
0.0
 11
157.420021581722
 21
97.32084114784663
 31
0.0
  0
LINE
  5
50C
330
2
100
AcDbEntity
  8
LINEWORK
 62
    22
370
    30
100
AcDbLine
 10
157.6109522992444
 20
97.32084114784663
 30
0.0
 11
157.6520948884146
 21
97.32084114784663
 31
0.0
  0
LINE
  5
50D
330
2
100
AcDbEntity
  8
LINEWORK
 62
    22
370
    30
100
AcDbLine
 10
157.0231402862048
 20
97.32084114784663
 30
0.0
 11
157.0677532873796
 21
97.32084114784663
 31
0.0
  0
LINE
  5
50E
330
2
100
AcDbEntity
  8
LINEWORK
 62
    22
370
    30
100
AcDbLine
 10
157.2496317307281
 20
97.32766512245611
 30
0.0
 11
157.4252426980874
 21
97.32766512245611
 31
0.0
  0
LINE
  5
50F
330
2
100
AcDbEntity
  8
LINEWORK
 62
    22
370
    30
100
AcDbLine
 10
157.6035995051076
 20
97.32766512245611
 30
0.0
 11
157.6519128198006
 21
97.32766512245611
 31
0.0
  0
LINE
  5
510
330
2
100
AcDbEntity
  8
LINEWORK
 62
    22
370
    30
100
AcDbLine
 10
157.0234062955319
 20
97.32766512245611
 30
0.0
 11
157.0745808490992
 21
97.32766512245611
 31
0.0
  0
LINE
  5
511
330
2
100
AcDbEntity
  8
LINEWORK
 62
    22
370
    30
100
AcDbLine
 10
157.2434869124611
 20
97.33448909706545
 30
0.0
 11
157.4304638144526
 21
97.33448909706545
 31
0.0
  0
LINE
  5
512
330
2
100
AcDbEntity
  8
LINEWORK
 62
    22
370
    30
100
AcDbLine
 10
157.5962467109709
 20
97.33448909706545
 30
0.0
 11
157.6517307511867
 21
97.33448909706545
 31
0.0
  0
LINE
  5
513
330
2
100
AcDbEntity
  8
LINEWORK
 62
    22
370
    30
100
AcDbLine
 10
157.0236723048592
 20
97.33448909706545
 30
0.0
 11
157.0814084108185
 21
97.33448909706545
 31
0.0
  0
LINE
  5
514
330
2
100
AcDbEntity
  8
LINEWORK
 62
    22
370
    30
100
AcDbLine
 10
157.2373420941942
 20
97.3413130716748
 30
0.0
 11
157.4399051539846
 21
97.3413130716748
 31
0.0
  0
LINE
  5
515
330
2
100
AcDbEntity
  8
LINEWORK
 62
    22
370
    30
100
AcDbLine
 10
157.5888939168339
 20
97.3413130716748
 30
0.0
 11
157.6515486825726
 21
97.3413130716748
 31
0.0
  0
LINE
  5
516
330
2
100
AcDbEntity
  8
LINEWORK
 62
    22
370
    30
100
AcDbLine
 10
157.0239383141863
 20
97.3413130716748
 30
0.0
 11
157.0912480724546
 21
97.3413130716748
 31
0.0
  0
LINE
  5
517
330
2
100
AcDbEntity
  8
LINEWORK
 62
    22
370
    30
100
AcDbLine
 10
157.2285694635922
 20
97.34813704628415
 30
0.0
 11
157.4528775672222
 21
97.34813704628415
 31
0.0
  0
LINE
  5
518
330
2
100
AcDbEntity
  8
LINEWORK
 62
    22
370
    30
100
AcDbLine
 10
157.5815411226972
 20
97.34813704628415
 30
0.0
 11
157.6513666139585
 21
97.34813704628415
 31
0.0
  0
LINE
  5
519
330
2
100
AcDbEntity
  8
LINEWORK
 62
    22
370
    30
100
AcDbLine
 10
157.0242043235136
 20
97.34813704628415
 30
0.0
 11
157.1014894916515
 21
97.34813704628415
 31
0.0
  0
LINE
  5
51A
330
2
100
AcDbEntity
  8
LINEWORK
 62
    22
370
    30
100
AcDbLine
 10
157.217474618335
 20
97.3549610208936
 30
0.0
 11
157.4658499804597
 21
97.3549610208936
 31
0.0
  0
LINE
  5
51B
330
2
100
AcDbEntity
  8
LINEWORK
 62
    22
370
    30
100
AcDbLine
 10
157.5644198791085
 20
97.3549610208936
 30
0.0
 11
157.6511845453446
 21
97.3549610208936
 31
0.0
  0
LINE
  5
51C
330
2
100
AcDbEntity
  8
LINEWORK
 62
    22
370
    30
100
AcDbLine
 10
157.0244703328407
 20
97.3549610208936
 30
0.0
 11
157.1134824110808
 21
97.3549610208936
 31
0.0
  0
LINE
  5
51D
330
2
100
AcDbEntity
  8
LINEWORK
 62
    22
370
    30
100
AcDbLine
 10
157.2063797730775
 20
97.36178499550295
 30
0.0
 11
157.485351821444
 21
97.36178499550295
 31
0.0
  0
LINE
  5
51E
330
2
100
AcDbEntity
  8
LINEWORK
 62
    22
370
    30
100
AcDbLine
 10
157.5456439297529
 20
97.36178499550295
 30
0.0
 11
157.6510024767305
 21
97.36178499550295
 31
0.0
  0
LINE
  5
51F
330
2
100
AcDbEntity
  8
LINEWORK
 62
    22
370
    30
100
AcDbLine
 10
157.0247363421681
 20
97.36178499550295
 30
0.0
 11
157.1282630686907
 21
97.36178499550295
 31
0.0
  0
LINE
  5
520
330
2
100
AcDbEntity
  8
LINEWORK
 62
    22
370
    30
100
AcDbLine
 10
157.0250023514952
 20
97.36860897011229
 30
0.0
 11
157.6508204081164
 21
97.36860897011229
 31
0.0
  0
LINE
  5
521
330
2
100
AcDbEntity
  8
LINEWORK
 62
    22
370
    30
100
AcDbLine
 10
157.0252683608225
 20
97.37543294472164
 30
0.0
 11
157.6506383395026
 21
97.37543294472164
 31
0.0
  0
LINE
  5
522
330
2
100
AcDbEntity
  8
LINEWORK
 62
    22
370
    30
100
AcDbLine
 10
157.0255343701496
 20
97.38225691933109
 30
0.0
 11
157.6504562708885
 21
97.38225691933109
 31
0.0
  0
LINE
  5
523
330
2
100
AcDbEntity
  8
LINEWORK
 62
    22
370
    30
100
AcDbLine
 10
157.0258003794769
 20
97.38908089394044
 30
0.0
 11
157.6502742022744
 21
97.38908089394044
 31
0.0
  0
LINE
  5
524
330
2
100
AcDbEntity
  8
LINEWORK
 62
    22
370
    30
100
AcDbLine
 10
157.0260663888041
 20
97.39590486854979
 30
0.0
 11
157.6500921336605
 21
97.39590486854979
 31
0.0
  0
LINE
  5
525
330
2
100
AcDbEntity
  8
LINEWORK
 62
    22
370
    30
100
AcDbLine
 10
157.0263323981314
 20
97.40272884315913
 30
0.0
 11
157.6499100650464
 21
97.40272884315913
 31
0.0
  0
LINE
  5
526
330
2
100
AcDbEntity
  8
LINEWORK
 62
    22
370
    30
100
AcDbLine
 10
157.0265984074585
 20
97.4095528177686
 30
0.0
 11
157.6497279964323
 21
97.4095528177686
 31
0.0
  0
LINE
  5
527
330
2
100
AcDbEntity
  8
LINEWORK
 62
    22
370
    30
100
AcDbLine
 10
156.8930560892543
 20
96.32545823155624
 30
0.0
 11
156.8930560892543
 21
97.51512561607228
 31
0.0
  0
LINE
  5
528
330
2
100
AcDbEntity
  8
LINEWORK
 62
    22
370
    30
100
AcDbLine
 10
157.7880861854512
 20
96.32545823155624
 30
0.0
 11
156.8930560892543
 21
96.32545823155624
 31
0.0
  0
LINE
  5
529
330
2
100
AcDbEntity
  8
LINEWORK
 62
    22
370
    30
100
AcDbLine
 10
157.7880861854512
 20
97.51512561607228
 30
0.0
 11
157.7880861854512
 21
96.32545823155624
 31
0.0
  0
LINE
  5
52A
330
2
100
AcDbEntity
  8
LINEWORK
 62
    22
370
    30
100
AcDbLine
 10
156.8930560892543
 20
97.51512561607228
 30
0.0
 11
157.7880861854512
 21
97.51512561607228
 31
0.0
  0
LINE
  5
52B
330
2
100
AcDbEntity
  8
LINEWORK
 62
    22
370
    30
100
AcDbLine
 10
157.6589066095575
 20
97.23615325511367
 30
0.0
 11
157.6335319557072
 21
97.23615325511367
 31
0.0
  0
LINE
  5
52C
330
2
100
AcDbEntity
  8
LINEWORK
 62
    22
370
    30
100
AcDbLine
 10
157.6542929090523
 20
97.4159866991788
 30
0.0
 11
157.6589066095575
 21
97.23615325511367
 31
0.0
  0
LINE
  5
52D
330
2
100
AcDbEntity
  8
LINEWORK
 62
    22
370
    30
100
AcDbLine
 10
157.0314627555235
 20
97.4159866991788
 30
0.0
 11
157.6542929090523
 21
97.4159866991788
 31
0.0
  0
ARC
  5
52E
330
2
100
AcDbEntity
  8
LINEWORK
 62
    22
370
    30
100
AcDbCircle
 10
157.1626165696638
 20
97.24537549769877
 30
0.0
 40
0.1199524855179639
100
AcDbArc
 50
359.6316189828548
 51
90.00081606717536
  0
LINE
  5
52F
330
2
100
AcDbEntity
  8
LINEWORK
 62
    22
370
    30
100
AcDbLine
 10
157.024542593059
 20
97.4159866991788
 30
0.0
 11
157.0199288925539
 21
97.23615325511367
 31
0.0
  0
ARC
  5
530
330
2
100
AcDbEntity
  8
LINEWORK
 62
    22
370
    30
100
AcDbCircle
 10
157.1655750594529
 20
97.24537549769877
 30
0.0
 40
0.1199524855179639
100
AcDbArc
 50
89.99918393282465
 51
180.3683810171452
  0
LINE
  5
531
330
2
100
AcDbEntity
  8
LINEWORK
 62
    22
370
    30
100
AcDbLine
 10
157.0456250532229
 20
97.24460427310669
 30
0.0
 11
157.0456250532229
 21
97.23609455423195
 31
0.0
  0
LINE
  5
532
330
2
100
AcDbEntity
  8
LINEWORK
 62
    22
370
    30
100
AcDbLine
 10
157.0199288925539
 20
97.23615325511367
 30
0.0
 11
157.0453035464042
 21
97.23615325511367
 31
0.0
  0
ARC
  5
533
330
2
100
AcDbEntity
  8
LINEWORK
 62
    22
370
    30
100
AcDbCircle
 10
157.5162189324476
 20
97.24537549769877
 30
0.0
 40
0.1199524855179639
100
AcDbArc
 50
89.99918393282465
 51
180.3683810171452
  0
ARC
  5
534
330
2
100
AcDbEntity
  8
LINEWORK
 62
    22
370
    30
100
AcDbCircle
 10
157.5132604426587
 20
97.24537549769877
 30
0.0
 40
0.1199524855179639
100
AcDbArc
 50
359.6316189828548
 51
90.00081606717536
  0
LINE
  5
535
330
2
100
AcDbEntity
  8
LINEWORK
 62
    22
370
    30
100
AcDbLine
 10
157.6332104488888
 20
97.24460427310669
 30
0.0
 11
157.6332104488888
 21
97.23609455423195
 31
0.0
  0
LINE
  5
536
330
2
100
AcDbEntity
  8
LINEWORK
 62
    22
370
    30
100
AcDbLine
 10
157.1744831222979
 20
96.65745839193107
 30
0.0
 11
157.5043523798137
 21
96.65745839193107
 31
0.0
  0
LINE
  5
537
330
2
100
AcDbEntity
  8
LINEWORK
 62
    22
370
    30
100
AcDbLine
 10
157.2825481420841
 20
96.74628886130642
 30
0.0
 11
157.2829017448464
 21
96.74737516168796
 31
0.0
  0
LINE
  5
538
330
2
100
AcDbEntity
  8
LINEWORK
 62
    22
370
    30
100
AcDbLine
 10
157.1744831222979
 20
96.68051399839407
 30
0.0
 11
157.2159385531824
 21
96.68051399839407
 31
0.0
  0
LINE
  5
539
330
2
100
AcDbEntity
  8
LINEWORK
 62
    22
370
    30
100
AcDbLine
 10
157.1744831222979
 20
96.65745839193107
 30
0.0
 11
157.1744831222979
 21
96.68051399839407
 31
0.0
  0
ARC
  5
53A
330
2
100
AcDbEntity
  8
LINEWORK
 62
    22
370
    30
100
AcDbCircle
 10
157.2156978113616
 20
96.74749237255412
 30
0.0
 40
0.0668611632939439
100
AcDbArc
 50
270.2063009286873
 51
358.9686114340258
  0
LINE
  5
53B
330
2
100
AcDbEntity
  8
LINEWORK
 62
    22
370
    30
100
AcDbLine
 10
157.5043523798137
 20
96.65745839193107
 30
0.0
 11
157.5043523798137
 21
96.68051399839407
 31
0.0
  0
LINE
  5
53C
330
2
100
AcDbEntity
  8
LINEWORK
 62
    22
370
    30
100
AcDbLine
 10
157.5043523798137
 20
96.68051399839407
 30
0.0
 11
157.4628969489292
 21
96.68051399839407
 31
0.0
  0
ARC
  5
53D
330
2
100
AcDbEntity
  8
LINEWORK
 62
    22
370
    30
100
AcDbCircle
 10
157.4631376907498
 20
96.74749237255412
 30
0.0
 40
0.0668611632939439
100
AcDbArc
 50
181.0313885659742
 51
269.7936990713126
  0
LINE
  5
53E
330
2
100
AcDbEntity
  8
LINEWORK
 62
    22
370
    30
100
AcDbLine
 10
157.3962873600275
 20
96.74628886130642
 30
0.0
 11
157.3959337572653
 21
96.74737516168796
 31
0.0
  0
ATTDEF
  5
53F
330
2
100
AcDbEntity
  8
LINEWORK
 62
    22
370
    30
100
AcDbText
 10
157.0735150814436
 20
96.36246797494903
 30
0.0
 40
0.148626166992184
  1

 72
     1
 11
157.3485419574299
 21
96.36246797494903
 31
0.0
100
AcDbAttributeDefinition
  3
ADD STONE MARKER
  2
0175
 70
     0
  0
LINE
  5
540
330
2
100
AcDbEntity
  8
LINEWORK
 62
    22
370
    30
100
AcDbLine
 10
156.8930560892543
 20
96.54909723245237
 30
0.0
 11
157.7880861854512
 21
96.54909723245237
 31
0.0
  0
LINE
  5
541
330
2
100
AcDbEntity
  8
LINEWORK
 62
    22
370
    30
100
AcDbLine
 10
157.2829017448464
 20
97.24460427310669
 30
0.0
 11
157.2829017448464
 21
96.74737516168796
 31
0.0
  0
LINE
  5
542
330
2
100
AcDbEntity
  8
LINEWORK
 62
    22
370
    30
100
AcDbLine
 10
157.3959337572653
 20
97.24460427310669
 30
0.0
 11
157.3959337572653
 21
96.74737516168796
 31
0.0
  0
LINE
  5
543
330
2
100
AcDbEntity
  8
LINEWORK
 62
     7
370
    30
100
AcDbLine
 10
158.192753365826
 20
95.22005635784671
 30
0.0
 11
157.6427533658261
 21
95.2200563578466
 31
0.0
  0
LINE
  5
544
330
2
100
AcDbEntity
  8
LINEWORK
 62
     7
370
    30
100
AcDbLine
 10
155.9743817771225
 20
98.52005635784657
 30
0.0
 11
162.1177533658267
 21
98.9700563578466
 31
0.0
  0
ARC
  5
545
330
2
100
AcDbEntity
  8
LINEWORK
370
    30
100
AcDbCircle
 10
157.7058593461913
 20
97.06789453990962
 30
0.0
 40
1.299371506374636
100
AcDbArc
 50
185.701547859386
 51
267.2162470626179
  0
LINE
  5
546
330
2
100
AcDbEntity
  8
LINEWORK
370
    30
100
AcDbLine
 10
157.6427533658261
 20
95.2200563578466
 30
0.0
 11
157.6427533658261
 21
95.77005635784656
 31
0.0
  0
ARC
  5
547
330
2
100
AcDbEntity
  8
LINEWORK
370
    30
100
AcDbCircle
 10
155.6224628619234
 20
96.8540794816846
 30
0.0
 40
0.7949809888151388
100
AcDbArc
 50
6.118045468726237
 51
62.23893912947279
  0
LINE
  5
548
330
2
100
AcDbEntity
  8
LINEWORK
370
    30
100
AcDbLine
 10
155.9927533658294
 20
97.55755635784646
 30
0.0
 11
155.992753365826
 21
98.52005635784657
 31
0.0
  0
ARC
  5
549
330
2
100
AcDbEntity
  8
LINEWORK
370
    30
100
AcDbCircle
 10
158.1927533658263
 20
94.67005635784643
 30
0.0
 40
0.5500000000002502
100
AcDbArc
 50
0.0000000000260551
 51
90.00000000002605
  0
LINE
  5
54A
330
2
100
AcDbEntity
  8
LINEWORK
  6
DASHED
 62
     7
 48
2.0
370
    30
100
AcDbLine
 10
161.8586297368435
 20
96.42305635784817
 30
0.0
 11
162.3586297368435
 21
96.42305635784817
 31
0.0
  0
ARC
  5
54B
330
2
100
AcDbEntity
  8
LINEWORK
 62
     7
370
    30
100
AcDbCircle
 10
191.3563157344401
 20
85.76899791433731
 30
0.0
 40
27.63462319024747
100
AcDbArc
 50
178.630117417344
 51
184.0977376458605
  0
ARC
  5
54C
330
2
100
AcDbEntity
  8
LINEWORK
 62
     7
370
    30
100
AcDbCircle
 10
191.3616955803361
 20
85.76912600590606
 30
0.0
 40
27.63999843750035
100
AcDbArc
 50
178.6306494746762
 51
184.0972055885288
  0
LINE
  5
54D
330
2
100
AcDbEntity
  8
LINEWORK
  6
DASHED
 62
     7
 48
2.0
370
    30
100
AcDbLine
 10
162.2206397606044
 20
92.42305635784816
 30
0.0
 11
161.8586297368435
 21
92.42305635784816
 31
0.0
  0
LINE
  5
54E
330
2
100
AcDbEntity
  8
LINEWORK
  6
DASHED
 62
     7
 48
2.0
370
    30
100
AcDbLine
 10
162.3586297368435
 20
92.42305635784816
 30
0.0
 11
161.8586297368435
 21
92.42305635784816
 31
0.0
  0
LINE
  5
54F
330
2
100
AcDbEntity
  8
LINEWORK
  6
DASHED
 62
     7
 48
2.0
370
    30
100
AcDbLine
 10
162.3586297368435
 20
92.42305635784816
 30
0.0
 11
161.8586297368435
 21
92.42305635784816
 31
0.0
  0
ARC
  5
550
330
2
100
AcDbEntity
  8
LINEWORK
 62
     7
370
    30
100
AcDbCircle
 10
159.4610416635634
 20
89.0650188578469
 30
0.0
 40
1.098070312499993
100
AcDbArc
 50
325.1500954209564
 51
34.84990457904352
  0
ARC
  5
551
330
2
100
AcDbEntity
  8
LINEWORK
 62
     7
370
    30
100
AcDbCircle
 10
160.8602129297328
 20
87.87282823284693
 30
0.0
 40
0.7529625000000308
100
AcDbArc
 50
131.4096221092697
 51
228.5903778907302
  0
LINE
  5
552
330
2
100
AcDbEntity
  8
LINEWORK
 62
     7
370
    30
100
AcDbLine
 10
160.3621750493434
 20
89.69248760784683
 30
0.0
 11
160.3621750493434
 21
90.31995635784699
 31
0.0
  0
LINE
  5
553
330
2
100
AcDbEntity
  8
LINEWORK
 62
     7
370
    30
100
AcDbLine
 10
160.3621750493434
 20
89.69248760784683
 30
0.0
 11
160.3621750493434
 21
90.31995635784699
 31
0.0
  0
LINE
  5
554
330
2
100
AcDbEntity
  8
LINEWORK
 62
     7
370
    30
100
AcDbLine
 10
159.2222734868435
 20
92.07686885784676
 30
0.0
 11
159.2954781743435
 21
91.95137510784695
 31
0.0
  0
LINE
  5
555
330
2
100
AcDbEntity
  8
LINEWORK
 62
     7
370
    30
100
AcDbLine
 10
159.2222734868435
 20
92.07686885784676
 30
0.0
 11
159.2954781743435
 21
91.95137510784695
 31
0.0
  0
LINE
  5
556
330
2
100
AcDbEntity
  8
LINEWORK
 62
     7
370
    30
100
AcDbLine
 10
162.1086297368433
 20
92.07686885784676
 30
0.0
 11
159.2222734868435
 21
92.07686885784676
 31
0.0
  0
LINE
  5
557
330
2
100
AcDbEntity
  8
LINEWORK
 62
     7
370
    30
100
AcDbLine
 10
162.1086297368433
 20
91.95137510784695
 30
0.0
 11
159.2954781743435
 21
91.95137510784695
 31
0.0
  0
LINE
  5
558
330
2
100
AcDbEntity
  8
LINEWORK
 62
     7
370
    30
100
AcDbLine
 10
162.1086297368433
 20
92.07686885784676
 30
0.0
 11
159.2222734868435
 21
92.07686885784676
 31
0.0
  0
LINE
  5
559
330
2
100
AcDbEntity
  8
LINEWORK
 62
     7
370
    30
100
AcDbLine
 10
162.1086297368433
 20
91.95137510784695
 30
0.0
 11
159.2954781743435
 21
91.95137510784695
 31
0.0
  0
ARC
  5
55A
330
2
100
AcDbEntity
  8
LINEWORK
 62
     7
370
    30
100
AcDbCircle
 10
160.9238454434798
 20
91.85163958430155
 30
0.0
 40
1.631418750000056
100
AcDbArc
 50
176.4950813054347
 51
249.8619420133486
  0
LINE
  5
55B
330
2
100
AcDbEntity
  8
LINEWORK
 62
     7
370
    30
100
AcDbLine
 10
160.3621750493434
 20
86.55514385784693
 30
0.0
 11
160.4876687993435
 21
86.4296501078469
 31
0.0
  0
LINE
  5
55C
330
2
100
AcDbEntity
  8
LINEWORK
 62
     7
370
    30
100
AcDbLine
 10
160.3621750493434
 20
86.55514385784693
 30
0.0
 11
160.4876687993435
 21
86.4296501078469
 31
0.0
  0
LINE
  5
55D
330
2
100
AcDbEntity
  8
LINEWORK
 62
     7
370
    30
100
AcDbLine
 10
162.1086297368433
 20
86.4296501078469
 30
0.0
 11
160.4876687993435
 21
86.4296501078469
 31
0.0
  0
LINE
  5
55E
330
2
100
AcDbEntity
  8
LINEWORK
 62
     7
370
    30
100
AcDbLine
 10
160.3621750493434
 20
86.55514385784693
 30
0.0
 11
162.1086297368433
 21
86.55514385784693
 31
0.0
  0
LINE
  5
55F
330
2
100
AcDbEntity
  8
LINEWORK
 62
     7
370
    30
100
AcDbLine
 10
162.1086297368433
 20
86.55514385784693
 30
0.0
 11
160.3621750493434
 21
86.55514385784693
 31
0.0
  0
LINE
  5
560
330
2
100
AcDbEntity
  8
LINEWORK
 62
     7
370
    30
100
AcDbLine
 10
160.4876687993435
 20
86.4296501078469
 30
0.0
 11
162.1086297368433
 21
86.4296501078469
 31
0.0
  0
ARC
  5
561
330
2
100
AcDbEntity
  8
LINEWORK
 62
     7
370
    30
100
AcDbCircle
 10
158.1974078618434
 20
83.81781143597198
 30
0.0
 40
2.22763833761492
100
AcDbArc
 50
332.532727661389
 51
359.3947854027546
  0
ARC
  5
562
330
2
100
AcDbEntity
  8
LINEWORK
 62
     7
370
    30
100
AcDbCircle
 10
158.1975318167437
 20
83.81778044724695
 30
0.0
 40
2.227514062500199
100
AcDbArc
 50
332.5319642964298
 51
359.3955487677153
  0
ARC
  5
563
330
2
100
AcDbEntity
  8
LINEWORK
 62
     7
370
    30
100
AcDbCircle
 10
132.8609437392467
 20
85.76899791433731
 30
0.0
 40
27.63462319024747
100
AcDbArc
 50
355.9022623541395
 51
1.369882582655912
  0
ARC
  5
564
330
2
100
AcDbEntity
  8
LINEWORK
 62
     7
370
    30
100
AcDbCircle
 10
132.8555638933508
 20
85.76912600590606
 30
0.0
 40
27.63999843750035
100
AcDbArc
 50
355.9027944114711
 51
1.369350525323726
  0
LINE
  5
565
330
2
100
AcDbEntity
  8
LINEWORK
 62
     7
370
    30
100
AcDbLine
 10
160.3621750493434
 20
86.55514385784693
 30
0.0
 11
160.3621750493434
 21
87.3081063578469
 31
0.0
  0
LINE
  5
566
330
2
100
AcDbEntity
  8
LINEWORK
 62
     7
370
    30
100
AcDbLine
 10
160.3621750493434
 20
86.55514385784693
 30
0.0
 11
160.3621750493434
 21
87.3081063578469
 31
0.0
  0
LINE
  5
567
330
2
100
AcDbEntity
  8
LINEWORK
 62
     7
370
    30
100
AcDbLine
 10
162.1086297368433
 20
86.4296501078469
 30
0.0
 11
163.7295906743434
 21
86.4296501078469
 31
0.0
  0
LINE
  5
568
330
2
100
AcDbEntity
  8
LINEWORK
 62
     7
370
    30
100
AcDbLine
 10
163.7295906743434
 20
86.4296501078469
 30
0.0
 11
162.1086297368433
 21
86.4296501078469
 31
0.0
  0
ARC
  5
569
330
2
100
AcDbEntity
  8
LINEWORK
 62
     7
370
    30
100
AcDbCircle
 10
164.5674447510355
 20
79.49581315117382
 30
0.0
 40
5.330037199451427
100
AcDbArc
 50
160.3928811039786
 51
182.3581264680186
  0
ARC
  5
56A
330
2
100
AcDbEntity
  8
LINEWORK
 62
     7
370
    30
100
AcDbCircle
 10
164.5709164905572
 20
79.49528658158271
 30
0.0
 40
5.333484374999923
100
AcDbArc
 50
160.4000676171826
 51
182.3509399547389
  0
ARC
  5
56B
330
2
100
AcDbEntity
  8
LINEWORK
 62
     7
370
    30
100
AcDbCircle
 10
173.8856496627506
 20
76.19343151894111
 30
0.0
 40
15.2161171874998
100
AcDbArc
 50
154.3071356404088
 51
160.4531344586555
  0
LINE
  5
56C
330
2
100
AcDbEntity
  8
LINEWORK
 62
     7
370
    30
100
AcDbLine
 10
159.2222734868435
 20
94.29505635784664
 30
0.0
 11
159.2222734868435
 21
92.07686885784676
 31
0.0
  0
LINE
  5
56D
330
2
100
AcDbEntity
  8
LINEWORK
  6
DASHED
 62
     7
 48
2.0
370
    30
100
AcDbLine
 10
162.3586297368435
 20
96.42305635784817
 30
0.0
 11
162.3586297368435
 21
92.42305635784816
 31
0.0
  0
LINE
  5
56E
330
2
100
AcDbEntity
  8
LINEWORK
  6
DASHED
 62
     7
 48
2.0
370
    30
100
AcDbLine
 10
161.8586297368435
 20
92.42305635784816
 30
0.0
 11
161.8586297368435
 21
96.42305635784817
 31
0.0
  0
ATTDEF
  5
56F
330
2
100
AcDbEntity
  8
leaders
 62
     1
370
    30
100
AcDbText
 10
137.5532661816137
 20
125.5279489895282
 30
0.0
 40
3.0
  1

100
AcDbAttributeDefinition
  3
ADD LINK NUMBER (WMF)
  2
TSB007
 70
     0
  0
LINE
  5
570
330
2
100
AcDbEntity
  8
LINEWORK
 62
     7
370
    30
100
AcDbLine
 10
166.5927533658273
 20
95.2200563578466
 30
0.0
 11
166.0427533658271
 21
95.22005635784671
 31
0.0
  0
LINE
  5
571
330
2
100
AcDbEntity
  8
LINEWORK
370
    30
100
AcDbLine
 10
168.2427533658237
 20
97.55755635784646
 30
0.0
 11
168.2427533658271
 21
98.52005635784657
 31
0.0
  0
LINE
  5
572
330
2
100
AcDbEntity
  8
LINEWORK
370
    30
100
AcDbLine
 10
166.5927533658273
 20
95.2200563578466
 30
0.0
 11
166.5927533658273
 21
95.77005635784656
 31
0.0
  0
ARC
  5
573
330
2
100
AcDbEntity
  8
LINEWORK
370
    30
100
AcDbCircle
 10
166.0427533658269
 20
94.67005635784643
 30
0.0
 40
0.5500000000002502
100
AcDbArc
 50
89.99999999997395
 51
179.9999999999739
  0
ARC
  5
574
330
2
100
AcDbEntity
  8
LINEWORK
370
    30
100
AcDbCircle
 10
166.5296473854619
 20
97.06789453990962
 30
0.0
 40
1.299371506374636
100
AcDbArc
 50
272.783752937382
 51
354.2984521406171
  0
ARC
  5
575
330
2
100
AcDbEntity
  8
LINEWORK
370
    30
100
AcDbCircle
 10
168.6130438697298
 20
96.8540794816846
 30
0.0
 40
0.7949809888151388
100
AcDbArc
 50
117.7610608705272
 51
173.8819545312737
  0
ARC
  5
576
330
2
100
AcDbEntity
  8
LINEWORK
 62
     7
370
    30
100
AcDbCircle
 10
163.293414030207
 20
91.85163958430155
 30
0.0
 40
1.631418750000088
100
AcDbArc
 50
290.1380579866513
 51
3.504918694565252
  0
ARC
  5
577
330
2
100
AcDbEntity
  8
LINEWORK
 62
     7
370
    30
100
AcDbCircle
 10
163.357046543954
 20
87.87282823284693
 30
0.0
 40
0.7529625000000308
100
AcDbArc
 50
311.4096221092697
 51
48.59037789073025
  0
LINE
  5
578
330
2
100
AcDbEntity
  8
LINEWORK
 62
     7
370
    30
100
AcDbLine
 10
163.8550844243434
 20
89.69248760784683
 30
0.0
 11
163.8550844243434
 21
90.31995635784699
 31
0.0
  0
LINE
  5
579
330
2
100
AcDbEntity
  8
LINEWORK
 62
     7
370
    30
100
AcDbLine
 10
163.8550844243434
 20
89.69248760784683
 30
0.0
 11
163.8550844243434
 21
90.31995635784699
 31
0.0
  0
LINE
  5
57A
330
2
100
AcDbEntity
  8
LINEWORK
 62
     7
370
    30
100
AcDbLine
 10
163.8550844243434
 20
86.55514385784693
 30
0.0
 11
163.8550844243434
 21
87.3081063578469
 31
0.0
  0
LINE
  5
57B
330
2
100
AcDbEntity
  8
LINEWORK
 62
     7
370
    30
100
AcDbLine
 10
163.8550844243434
 20
86.55514385784693
 30
0.0
 11
163.8550844243434
 21
87.3081063578469
 31
0.0
  0
ARC
  5
57C
330
2
100
AcDbEntity
  8
LINEWORK
 62
     7
370
    30
100
AcDbCircle
 10
159.6498147226514
 20
79.49581315117382
 30
0.0
 40
5.330037199451427
100
AcDbArc
 50
357.6418735319813
 51
19.60711889602133
  0
ARC
  5
57D
330
2
100
AcDbEntity
  8
LINEWORK
 62
     7
370
    30
100
AcDbCircle
 10
159.6463429831296
 20
79.49528658158271
 30
0.0
 40
5.333484374999923
100
AcDbArc
 50
357.649060045261
 51
19.59993238281736
  0
ARC
  5
57E
330
2
100
AcDbEntity
  8
LINEWORK
 62
     7
370
    30
100
AcDbCircle
 10
150.331609810936
 20
76.19343151894111
 30
0.0
 40
15.21611718749983
100
AcDbArc
 50
19.54686554134448
 51
25.6928643595911
  0
LINE
  5
57F
330
2
100
AcDbEntity
  8
LINEWORK
 62
     7
370
    30
100
AcDbLine
 10
164.9949859868434
 20
94.29505635784664
 30
0.0
 11
164.9949859868434
 21
92.07686885784676
 31
0.0
  0
ENDSEC
  0
SECTION
  2
OBJECTS
  0
DICTIONARY
  5
9
330
0
100
AcDbDictionary
281
     1
  3
ACAD_GROUP
350
23
  3
ACAD_LAYOUT
350
D
  3
ACAD_MLINESTYLE
350
24
  3
ACAD_PLOTSETTINGS
350
25
  3
ACAD_PLOTSTYLENAME
350
8
  0
DICTIONARY
  5
3
330
2
100
AcDbDictionary
280
     1
281
     1
  3
ACAD_LAYOUTSELFREF
360
713
  0
DICTIONARY
  5
F
330
E
100
AcDbDictionary
280
     1
281
     1
  3
ACAD_LAYOUTSELFREF
360
716
  0
DICTIONARY
  5
23
102
{ACAD_REACTORS
330
9
102
}
330
9
100
AcDbDictionary
281
     1
  0
DICTIONARY
  5
D
102
{ACAD_REACTORS
330
9
102
}
330
9
100
AcDbDictionary
281
     1
  3
Layout1
350
13
  3
Model
350
C
  0
DICTIONARY
  5
24
102
{ACAD_REACTORS
330
9
102
}
330
9
100
AcDbDictionary
281
     1
  3
STANDARD
350
27
  0
DICTIONARY
  5
25
102
{ACAD_REACTORS
330
9
102
}
330
9
100
AcDbDictionary
281
     1
  0
ACDBDICTIONARYWDFLT
  5
8
102
{ACAD_REACTORS
330
9
102
}
330
9
100
AcDbDictionary
281
     1
  3
Normal
350
7
100
AcDbDictionaryWithDefault
340
7
  0
XRECORD
  5
713
102
{ACAD_REACTORS
330
3
102
}
330
3
100
AcDbXrecord
280
     1
340
2
  0
XRECORD
  5
716
102
{ACAD_REACTORS
330
F
102
}
330
F
100
AcDbXrecord
280
     1
340
E
  0
LAYOUT
  5
13
102
{ACAD_REACTORS
330
D
102
}
330
D
100
AcDbPlotSettings
  1

  2
None
  4

  6

 40
0.0
 41
0.0
 42
0.0
 43
0.0
 44
0.0
 45
0.0
 46
0.0
 47
0.0
 48
0.0
 49
0.0
140
0.0
141
0.0
142
1.0
143
1.0
 70
   688
 72
     0
 73
     0
 74
     5
  7

 75
    16
147
1.0
148
0.0
149
0.0
100
AcDbLayout
  1
Layout1
 70
     1
 71
     1
 10
0.0
 20
0.0
 11
12.0
 21
9.0
 12
0.0
 22
0.0
 32
0.0
 14
1.000000000000000E+20
 24
1.000000000000000E+20
 34
1.000000000000000E+20
 15
-1.000000000000000E+20
 25
-1.000000000000000E+20
 35
-1.000000000000000E+20
146
0.0
 13
0.0
 23
0.0
 33
0.0
 16
1.0
 26
0.0
 36
0.0
 17
0.0
 27
1.0
 37
0.0
 76
     0
330
E
  0
LAYOUT
  5
C
102
{ACAD_REACTORS
330
D
102
}
330
D
100
AcDbPlotSettings
  1

  2
HP LaserJet 5
  4
Letter
  6

 40
7.143749713897705
 41
6.381738662719726
 42
7.14373779296875
 43
6.381744384765625
 44
215.8999938964843
 45
279.3999938964843
 46
0.0
 47
0.0
 48
942.1686496408074
 49
450.9169168486117
140
1139.546896377813
141
597.7470760066325
142
1.0
143
17.51673491367678
 70
 11952
 72
     0
 73
     1
 74
     1
  7

 75
     0
147
0.0570882647324426
148
-217.6605394452847
149
-125.972954748935
100
AcDbLayout
  1
Model
 70
     1
 71
     0
 10
0.0
 20
0.0
 11
12.0
 21
9.0
 12
0.0
 22
0.0
 32
0.0
 14
0.0
 24
0.0
 34
0.0
 15
0.0
 25
0.0
 35
0.0
146
0.0
 13
0.0
 23
0.0
 33
0.0
 16
1.0
 26
0.0
 36
0.0
 17
0.0
 27
1.0
 37
0.0
 76
     0
330
2
  0
MLINESTYLE
  5
27
102
{ACAD_REACTORS
330
24
102
}
330
24
100
AcDbMlineStyle
  2
STANDARD
 70
     0
  3

 62
   256
 51
90.0
 52
90.0
 71
     2
 49
0.5
 62
   256
  6
BYLAYER
 49
-0.5
 62
   256
  6
BYLAYER
  0
ACDBPLACEHOLDER
  5
7
102
{ACAD_REACTORS
330
8
102
}
330
8
  0
ENDSEC
  0
EOF
