  0
SECTION
  2
HEADER
  9
$ACADVER
  1
AC1015
  9
$ACADMAINTVER
 70
     6
  9
$DWGCODEPAGE
  3
ANSI_1252
  9
$INSBASE
 10
0.0
 20
0.0
 30
0.0
  9
$EXTMIN
 10
0.0
 20
0.0
 30
0.0
  9
$EXTMAX
 10
175.8098249172599
 20
130.7853575604096
 30
0.0
  9
$LIMMIN
 10
0.0
 20
0.0
  9
$LIMMAX
 10
12.0
 20
9.0
  9
$ORTHOMODE
 70
     1
  9
$REGENMODE
 70
     1
  9
$FILLMODE
 70
     1
  9
$QTEXTMODE
 70
     0
  9
$MIRRTEXT
 70
     0
  9
$LTSCALE
 40
1.0
  9
$ATTMODE
 70
     2
  9
$TEXTSIZE
 40
1.0
  9
$TRACEWID
 40
0.05
  9
$TEXTSTYLE
  7
STANDARD
  9
$CLAYER
  8
TEXT
  9
$CELTYPE
  6
BYLAYER
  9
$CECOLOR
 62
     7
  9
$CELTSCALE
 40
1.0
  9
$DISPSILH
 70
     0
  9
$DIMSCALE
 40
2.399999999999999
  9
$DIMASZ
 40
0.5
  9
$DIMEXO
 40
1.0
  9
$DIMDLI
 40
0.0625
  9
$DIMRND
 40
0.0
  9
$DIMDLE
 40
0.0
  9
$DIMEXE
 40
0.25
  9
$DIMTP
 40
0.0
  9
$DIMTM
 40
0.0
  9
$DIMTXT
 40
1.0
  9
$DIMCEN
 40
0.0
  9
$DIMTSZ
 40
0.0
  9
$DIMTOL
 70
     0
  9
$DIMLIM
 70
     0
  9
$DIMTIH
 70
     1
  9
$DIMTOH
 70
     1
  9
$DIMSE1
 70
     0
  9
$DIMSE2
 70
     0
  9
$DIMTAD
 70
     0
  9
$DIMZIN
 70
     0
  9
$DIMBLK
  1

  9
$DIMASO
 70
     1
  9
$DIMSHO
 70
     1
  9
$DIMPOST
  1
"
  9
$DIMAPOST
  1

  9
$DIMALT
 70
     0
  9
$DIMALTD
 70
     0
  9
$DIMALTF
 40
25.4
  9
$DIMLFAC
 40
1.0
  9
$DIMTOFL
 70
     0
  9
$DIMTVP
 40
0.0
  9
$DIMTIX
 70
     0
  9
$DIMSOXD
 70
     0
  9
$DIMSAH
 70
     0
  9
$DIMBLK1
  1

  9
$DIMBLK2
  1

  9
$DIMSTYLE
  2
STANDARD
  9
$DIMCLRD
 70
     0
  9
$DIMCLRE
 70
     0
  9
$DIMCLRT
 70
     0
  9
$DIMTFAC
 40
0.125
  9
$DIMGAP
 40
0.5
  9
$DIMJUST
 70
     0
  9
$DIMSD1
 70
     0
  9
$DIMSD2
 70
     0
  9
$DIMTOLJ
 70
     1
  9
$DIMTZIN
 70
     0
  9
$DIMALTZ
 70
     2
  9
$DIMALTTZ
 70
     2
  9
$DIMUPT
 70
     1
  9
$DIMDEC
 70
     4
  9
$DIMTDEC
 70
     4
  9
$DIMALTU
 70
     2
  9
$DIMALTTD
 70
     0
  9
$DIMTXSTY
  7
STANDARD
  9
$DIMAUNIT
 70
     0
  9
$DIMADEC
 70
     0
  9
$DIMALTRND
 40
0.0
  9
$DIMAZIN
 70
     0
  9
$DIMDSEP
 70
    46
  9
$DIMATFIT
 70
     1
  9
$DIMFRAC
 70
     2
  9
$DIMLDRBLK
  1

  9
$DIMLUNIT
 70
     5
  9
$DIMLWD
 70
    -2
  9
$DIMLWE
 70
    -2
  9
$DIMTMOVE
 70
     1
  9
$LUNITS
 70
     5
  9
$LUPREC
 70
     4
  9
$SKETCHINC
 40
0.1
  9
$FILLETRAD
 40
0.03125
  9
$AUNITS
 70
     0
  9
$AUPREC
 70
     1
  9
$MENU
  1
acad
  9
$ELEVATION
 40
0.0
  9
$PELEVATION
 40
0.0
  9
$THICKNESS
 40
0.0
  9
$LIMCHECK
 70
     0
  9
$CHAMFERA
 40
0.75
  9
$CHAMFERB
 40
0.75
  9
$CHAMFERC
 40
0.0
  9
$CHAMFERD
 40
0.0
  9
$SKPOLY
 70
     0
  9
$TDCREATE
 40
2451085.664838310
  9
$TDUCREATE
 40
2451085.831504977
  9
$TDUPDATE
 40
2451661.332177777
  9
$TDUUPDATE
 40
2451661.498844444
  9
$TDINDWG
 40
3.7810625000
  9
$TDUSRTIMER
 40
3.7810625000
  9
$USRTIMER
 70
     1
  9
$ANGBASE
 50
0.0
  9
$ANGDIR
 70
     0
  9
$PDMODE
 70
     0
  9
$PDSIZE
 40
0.0
  9
$PLINEWID
 40
0.12
  9
$SPLFRAME
 70
     0
  9
$SPLINETYPE
 70
     6
  9
$SPLINESEGS
 70
     8
  9
$HANDSEED
  5
577
  9
$SURFTAB1
 70
     6
  9
$SURFTAB2
 70
     6
  9
$SURFTYPE
 70
     6
  9
$SURFU
 70
     6
  9
$SURFV
 70
     6
  9
$UCSBASE
  2

  9
$UCSNAME
  2

  9
$UCSORG
 10
0.0
 20
0.0
 30
0.0
  9
$UCSXDIR
 10
1.0
 20
0.0
 30
0.0
  9
$UCSYDIR
 10
0.0
 20
1.0
 30
0.0
  9
$UCSORTHOREF
  2

  9
$UCSORTHOVIEW
 70
     0
  9
$UCSORGTOP
 10
0.0
 20
0.0
 30
0.0
  9
$UCSORGBOTTOM
 10
0.0
 20
0.0
 30
0.0
  9
$UCSORGLEFT
 10
0.0
 20
0.0
 30
0.0
  9
$UCSORGRIGHT
 10
0.0
 20
0.0
 30
0.0
  9
$UCSORGFRONT
 10
0.0
 20
0.0
 30
0.0
  9
$UCSORGBACK
 10
0.0
 20
0.0
 30
0.0
  9
$PUCSBASE
  2

  9
$PUCSNAME
  2

  9
$PUCSORG
 10
0.0
 20
0.0
 30
0.0
  9
$PUCSXDIR
 10
1.0
 20
0.0
 30
0.0
  9
$PUCSYDIR
 10
0.0
 20
1.0
 30
0.0
  9
$PUCSORTHOREF
  2

  9
$PUCSORTHOVIEW
 70
     0
  9
$PUCSORGTOP
 10
0.0
 20
0.0
 30
0.0
  9
$PUCSORGBOTTOM
 10
0.0
 20
0.0
 30
0.0
  9
$PUCSORGLEFT
 10
0.0
 20
0.0
 30
0.0
  9
$PUCSORGRIGHT
 10
0.0
 20
0.0
 30
0.0
  9
$PUCSORGFRONT
 10
0.0
 20
0.0
 30
0.0
  9
$PUCSORGBACK
 10
0.0
 20
0.0
 30
0.0
  9
$USERI1
 70
     0
  9
$USERI2
 70
     0
  9
$USERI3
 70
     0
  9
$USERI4
 70
     0
  9
$USERI5
 70
     0
  9
$USERR1
 40
0.0
  9
$USERR2
 40
0.0
  9
$USERR3
 40
0.0
  9
$USERR4
 40
0.0
  9
$USERR5
 40
0.0
  9
$WORLDVIEW
 70
     1
  9
$SHADEDGE
 70
     1
  9
$SHADEDIF
 70
    70
  9
$TILEMODE
 70
     1
  9
$MAXACTVP
 70
    16
  9
$PINSBASE
 10
0.0
 20
0.0
 30
0.0
  9
$PLIMCHECK
 70
     0
  9
$PEXTMIN
 10
1.000000000000000E+20
 20
1.000000000000000E+20
 30
1.000000000000000E+20
  9
$PEXTMAX
 10
-1.000000000000000E+20
 20
-1.000000000000000E+20
 30
-1.000000000000000E+20
  9
$PLIMMIN
 10
0.0
 20
0.0
  9
$PLIMMAX
 10
12.0
 20
9.0
  9
$UNITMODE
 70
     0
  9
$VISRETAIN
 70
     0
  9
$PLINEGEN
 70
     0
  9
$PSLTSCALE
 70
     1
  9
$TREEDEPTH
 70
  3020
  9
$CMLSTYLE
  2
STANDARD
  9
$CMLJUST
 70
     0
  9
$CMLSCALE
 40
1.0
  9
$PROXYGRAPHICS
 70
     1
  9
$MEASUREMENT
 70
     0
  9
$CELWEIGHT
370
    -1
  9
$ENDCAPS
280
     0
  9
$JOINSTYLE
280
     0
  9
$LWDISPLAY
290
     0
  9
$INSUNITS
 70
     0
  9
$HYPERLINKBASE
  1

  9
$STYLESHEET
  1

  9
$XEDIT
290
     1
  9
$CEPSNTYPE
380
     0
  9
$PSTYLEMODE
290
     1
  9
$FINGERPRINTGUID
  2
{A6232B84-9B2E-11D3-8DA4-00A0C981A35F}
  9
$VERSIONGUID
  2
{1C381AE7-176D-11D4-8DA4-00A0C981A35F}
  9
$EXTNAMES
290
     1
  9
$PSVPSCALE
 40
0.0
  9
$OLESTARTUP
290
     0
  0
ENDSEC
  0
SECTION
  2
CLASSES
  0
CLASS
  1
DICTIONARYVAR
  2
AcDbDictionaryVar
  3
AutoCAD 2000
 90
    32768
280
     0
281
     0
  0
CLASS
  1
LWPOLYLINE
  2
AcDbPolyline
  3
AutoCAD 2000
 90
    32768
280
     0
281
     1
  0
CLASS
  1
RASTERVARIABLES
  2
AcDbRasterVariables
  3
ISM
 90
    32768
280
     0
281
     0
  0
CLASS
  1
ACDBDICTIONARYWDFLT
  2
AcDbDictionaryWithDefault
  3
AutoCAD 2000
 90
        0
280
     0
281
     0
  0
CLASS
  1
ACDBPLACEHOLDER
  2
AcDbPlaceHolder
  3
AutoCAD 2000
 90
        0
280
     0
281
     0
  0
CLASS
  1
LAYOUT
  2
AcDbLayout
  3
AutoCAD 2000
 90
        0
280
     0
281
     0
  0
CLASS
  1
ACME_DOCUMENT
  2
AcMeDbDoc
  3
AcMeServices
 90
    32768
280
     1
281
     0
  0
CLASS
  1
ACMESCOPE
  2
AcMeScope
  3
AcMeServices
 90
    32768
280
     1
281
     0
  0
CLASS
  1
ACMECOMMANDHISTORY
  2
AcMeCommandHistory
  3
AcMeServices
 90
    32768
280
     1
281
     0
  0
CLASS
  1
ACIMSYSVARMAN
  2
AcImSysVarManager
  3
AcMeServices
 90
    32768
280
     1
281
     0
  0
CLASS
  1
ACIMREALSYSVAR
  2
AcImRealSysVar
  3
AcMeServices
 90
    32768
280
     1
281
     0
  0
CLASS
  1
ACIMINTSYSVAR
  2
AcImIntSysVar
  3
AcMeServices
 90
    32768
280
     1
281
     0
  0
CLASS
  1
ACMEDRAWINGMAN
  2
AcMeDrawingMan
  3
AcMeServices
 90
    32768
280
     1
281
     0
  0
CLASS
  1
ACMEVIEW
  2
AcMeView
  3
AcMeServices
 90
    32768
280
     1
281
     0
  0
CLASS
  1
ACDBENTITYCACHE
  2
AcMeEntityCache
  3
AcMeServices
 90
    32768
280
     1
281
     0
  0
CLASS
  1
GSMANAGER
  2
AcMeGSManager
  3
AcMeServices
 90
    32768
280
     1
281
     0
  0
CLASS
  1
AmdtInternalReactor
  2
AmdtInternalReactor
  3
AcMeServices
 90
    32768
280
     1
281
     0
  0
CLASS
  1
ACMESTATEMGR
  2
AcMeStateMgr
  3
AcMeServices
 90
    32768
280
     1
281
     0
  0
CLASS
  1
ACGREFMASTER
  2
AcGrefMaster
  3
AcAttribServices
 90
    32768
280
     1
281
     0
  0
CLASS
  1
AM_DRAWING_MGR
  2
AcDmDwgMgr
  3
AcMechDwgViewMgmt
 90
    32768
280
     1
281
     0
  0
CLASS
  1
AM_DWG_DOCUMENT
  2
AcDmDwgDocument
  3
AcMechDwgViewMgmt
 90
    32768
280
     1
281
     0
  0
CLASS
  1
AM_DWG_SHEET
  2
AcDmSheet
  3
AcMechDwgViewMgmt
 90
    32768
280
     1
281
     0
  0
CLASS
  1
AM_VIEWDIMPARMAP
  2
AcDmViewDimParMap
  3
AcMechDwgViewMgmt
 90
    32768
280
     1
281
     0
  0
CLASS
  1
AM_DWGMGR_NAME
  2
AcDmDwgMgrName
  3
AcMechDwgViewMgmt
 90
    32768
280
     1
281
     0
  0
CLASS
  1
ACME_DATABASE
  2
AcMeDbDatabase
  3
AcMeServices
 90
    32768
280
     1
281
     0
  0
CLASS
  1
ACRFINSADJUSTERMGR
  2
AcRfInsAdjusterMgr
  3
AcMeServices
 90
    32768
280
     1
281
     0
  0
CLASS
  1
ACGREFMASTER
  2
AcGrefacadMaster
  3
AcGrefServices
 90
    32768
280
     1
281
     0
  0
CLASS
  1
AMDTMENUSTATEMGR
  2
AmdtMenuStateMgr
  3
McadcomServices
 90
    32768
280
     1
281
     0
  0
CLASS
  1
AMDTMCOMMENUSTATE
  2
AmdtMcomMenuState
  3
McadcomServices
 90
    32768
280
     1
281
     0
  0
CLASS
  1
ASAPP
  2
AcAsAppObject
  3
AutoSurfServices
 90
    32768
280
     1
281
     0
  0
CLASS
  1
IM_STATIC_MAN
  2
AcImStaticVarManager
  3
AcMeServices
 90
    32768
280
     1
281
     0
  0
CLASS
  1
ACIMSTRSYSVAR
  2
AcImStrSysVar
  3
AcMeServices
 90
    32768
280
     1
281
     0
  0
CLASS
  1
ACIMDBLSTATICVAR
  2
AcImDblStaticVar
  3
AcMeServices
 90
    32768
280
     1
281
     0
  0
CLASS
  1
ACIMSTRSTATICVAR
  2
AcImStrStaticVar
  3
AcMeServices
 90
    32768
280
     1
281
     0
  0
CLASS
  1
ACIMINTSTATICVAR
  2
AcImIntStaticVar
  3
AcMeServices
 90
    32768
280
     1
281
     0
  0
CLASS
  1
ACADGREFMODULE
  2
AcAdGrefModule
  3
AdGrefServices
 90
    32768
280
     1
281
     0
  0
CLASS
  1
AMIMASTER
  2
AmiMaster
  3
AmiServices
 90
    32768
280
     1
281
     0
  0
CLASS
  1
ACASGREFMASTER
  2
AcAsGrefMaster
  3
AutoSurfResolverServices
 90
    32768
280
     1
281
     0
  0
CLASS
  1
MAPIAMMOUDLE
  2
MApiAmModule
  3
MApiAmServices
 90
    32768
280
     1
281
     0
  0
CLASS
  1
AMDTDMMENUSTATE
  2
AmdtDmMenuState
  3
AcMechDwgViewMgmt
 90
    32768
280
     1
281
     0
  0
CLASS
  1
AMDTADMENUSTATE
  2
AmdtAdMenuState
  3
DesignerServices
 90
    32768
280
     1
281
     0
  0
CLASS
  1
ADAPPL
  2
AcAdAppl
  3
DesignerServices
 90
    32768
280
     1
281
     0
  0
CLASS
  1
DEPMGR
  2
AcAdDepMgr
  3
DesignerServices
 90
    32768
280
     1
281
     0
  0
CLASS
  1
PARAMMGR
  2
AcAdParamMgr
  3
DesignerServices
 90
    32768
280
     1
281
     0
  0
CLASS
  1
PARAMSCOPE
  2
AcAdParamScope
  3
DesignerServices
 90
    32768
280
     1
281
     0
  0
CLASS
  1
NAMEDAPPL
  2
AcAdNamedAppl
  3
DesignerServices
 90
    32768
280
     1
281
     0
  0
CLASS
  1
ADHNTMPLT
  2
AdHoleNoteTemplateMgr
  3
DesignerServices
 90
    32768
280
     1
281
     0
  0
CLASS
  1
AM_HNTEMPLATE_MGR_NAME
  2
AdHoleNoteTemplateMgrName
  3
DesignerServices
 90
    32768
280
     1
281
     0
  0
CLASS
  1
AMDTAMMENUSTATE
  2
AmdtAmMenuState
  3
DesignerAssemblies
 90
    32768
280
     1
281
     0
  0
CLASS
  1
ACAMPROJECT
  2
AcAmProject
  3
DesignerAssemblies
 90
    32768
280
     1
281
     0
  0
CLASS
  1
ACAMGRCOMPDEF
  2
AcAmGrCompDef
  3
DesignerAssemblies
 90
    32768
280
     1
281
     0
  0
CLASS
  1
ACCMCONTEXT
  2
AcCmContext
  3
DesignerAssemblies
 90
    32768
280
     1
281
     0
  0
CLASS
  1
ACAMCOMPDEF
  2
AcAmCompDef
  3
DesignerAssemblies
 90
    32768
280
     1
281
     0
  0
CLASS
  1
ACAMCOMPDEFMGR
  2
AcAmCompDefMgr
  3
DesignerAssemblies
 90
    32768
280
     1
281
     0
  0
CLASS
  1
AMCONTEXTMGR
  2
AcAmContextMgr
  3
DesignerAssemblies
 90
    32768
280
     1
281
     0
  0
CLASS
  1
ACAMCONTEXTMODELER
  2
AcAmContextModeler
  3
DesignerAssemblies
 90
    32768
280
     1
281
     0
  0
CLASS
  1
MAPIADMODULE
  2
MApiAdModule
  3
MApiAdServices
 90
    32768
280
     1
281
     0
  0
CLASS
  1
ACMDATADICTIONARY
  2
AcmDataDictionary
  3
"AcmSymBB|Product Description: AutoCAD Mechanical 2000|Company: Autodesk"
 90
    32768
280
     1
281
     0
  0
CLASS
  1
ACMDATAENTRYBLOCK
  2
AcmDataEntryBlock
  3
"AcmSymBB|Product Description: AutoCAD Mechanical 2000|Company: Autodesk"
 90
    32768
280
     1
281
     0
  0
CLASS
  1
AMDTBROWSERDBTAB
  2
AmdtBrowserDbTab
  3
McadcomServices
 90
    32768
280
     1
281
     0
  0
CLASS
  1
CBROWSERAPPOBJECT
  2
CBrowserAppObject
  3
McadcomServices
 90
    32768
280
     1
281
     0
  0
CLASS
  1
DM_PLACEHOLDER
  2
AcDmSelsetPlaceholder
  3
AcMechDwgViewMgmt
 90
    32768
280
     1
281
     0
  0
CLASS
  1
CATALOGSTATE
  2
AcAmCatalogState
  3
DesignerAssemblies
 90
    32768
280
     1
281
     0
  0
CLASS
  1
ACAMGRCOMPDEFSET
  2
AcAmGrCompDefSet
  3
DesignerAssemblies
 90
    32768
280
     1
281
     0
  0
CLASS
  1
AMGOBJPROPCFG
  2
AmgObjPropCfg
  3
"AmgLay|Product Description: AutoCAD Mechanical 2000|Company: Autodesk"
 90
    32769
280
     1
281
     0
  0
CLASS
  1
LAYER_INDEX
  2
AcDbLayerIndex
  3
AutoCAD 2000
 90
    32768
280
     0
281
     0
  0
CLASS
  1
IDBUFFER
  2
AcDbIdBuffer
  3
AutoCAD 2000
 90
    32768
280
     0
281
     0
  0
CLASS
  1
ACRFATTGENMGR
  2
AcRfAttGeneralMgr
  3
AcAttribServices
 90
    32768
280
     1
281
     0
  0
CLASS
  1
PLOTSETTINGS
  2
AcDbPlotSettings
  3
AutoCAD 2000
 90
    32768
280
     0
281
     0
  0
CLASS
  1
VBA_PROJECT
  2
AcDbVbaProject
  3
acadvba
 90
    32768
280
     0
281
     0
  0
CLASS
  1
LONG_TRANSACTION
  2
AcDbLongTransaction
  3
AutoCAD 2000
 90
    32768
280
     0
281
     0
  0
CLASS
  1
LWPOLYLINE
  2
AcDbPolyline
  3
AutoCAD 2000
 90
    32768
280
     0
281
     1
  0
CLASS
  1
HATCH
  2
AcDbHatch
  3
AutoCAD 2000
 90
    32768
280
     0
281
     1
  0
CLASS
  1
XRECORD
  2
AcDbXrecord
  3
AutoCAD 2000
 90
    32768
280
     0
281
     0
  0
CLASS
  1
LONG_TRANSACTION
  2
AcDbLongTransaction
  3
AutoCAD 2000
 90
    32768
280
     0
281
     0
  0
CLASS
  1
LWPOLYLINE
  2
AcDbPolyline
  3
AutoCAD 2000
 90
    32768
280
     0
281
     1
  0
CLASS
  1
HATCH
  2
AcDbHatch
  3
AutoCAD 2000
 90
    32768
280
     0
281
     1
  0
CLASS
  1
XRECORD
  2
AcDbXrecord
  3
AutoCAD 2000
 90
    32768
280
     0
281
     0
  0
CLASS
  1
LONG_TRANSACTION
  2
AcDbLongTransaction
  3
AutoCAD 2000
 90
    32768
280
     0
281
     0
  0
CLASS
  1
LWPOLYLINE
  2
AcDbPolyline
  3
AutoCAD 2000
 90
    32768
280
     0
281
     1
  0
CLASS
  1
HATCH
  2
AcDbHatch
  3
AutoCAD 2000
 90
    32768
280
     0
281
     1
  0
CLASS
  1
XRECORD
  2
AcDbXrecord
  3
AutoCAD 2000
 90
    32768
280
     0
281
     0
  0
CLASS
  1
LONG_TRANSACTION
  2
AcDbLongTransaction
  3
AutoCAD 2000
 90
    32768
280
     0
281
     0
  0
CLASS
  1
LWPOLYLINE
  2
AcDbPolyline
  3
AutoCAD 2000
 90
    32768
280
     0
281
     1
  0
CLASS
  1
HATCH
  2
AcDbHatch
  3
AutoCAD 2000
 90
    32768
280
     0
281
     1
  0
CLASS
  1
XRECORD
  2
AcDbXrecord
  3
AutoCAD 2000
 90
    32768
280
     0
281
     0
  0
CLASS
  1
LONG_TRANSACTION
  2
AcDbLongTransaction
  3
AutoCAD 2000
 90
    32768
280
     0
281
     0
  0
CLASS
  1
LWPOLYLINE
  2
AcDbPolyline
  3
AutoCAD 2000
 90
    32768
280
     0
281
     1
  0
CLASS
  1
HATCH
  2
AcDbHatch
  3
AutoCAD 2000
 90
    32768
280
     0
281
     1
  0
CLASS
  1
XRECORD
  2
AcDbXrecord
  3
AutoCAD 2000
 90
    32768
280
     0
281
     0
  0
CLASS
  1
LONG_TRANSACTION
  2
AcDbLongTransaction
  3
AutoCAD 2000
 90
    32768
280
     0
281
     0
  0
CLASS
  1
LWPOLYLINE
  2
AcDbPolyline
  3
AutoCAD 2000
 90
    32768
280
     0
281
     1
  0
CLASS
  1
HATCH
  2
AcDbHatch
  3
AutoCAD 2000
 90
    32768
280
     0
281
     1
  0
CLASS
  1
XRECORD
  2
AcDbXrecord
  3
AutoCAD 2000
 90
    32768
280
     0
281
     0
  0
CLASS
  1
LONG_TRANSACTION
  2
AcDbLongTransaction
  3
AutoCAD 2000
 90
    32768
280
     0
281
     0
  0
CLASS
  1
LWPOLYLINE
  2
AcDbPolyline
  3
AutoCAD 2000
 90
    32768
280
     0
281
     1
  0
CLASS
  1
HATCH
  2
AcDbHatch
  3
AutoCAD 2000
 90
    32768
280
     0
281
     1
  0
CLASS
  1
XRECORD
  2
AcDbXrecord
  3
AutoCAD 2000
 90
    32768
280
     0
281
     0
  0
CLASS
  1
LONG_TRANSACTION
  2
AcDbLongTransaction
  3
AutoCAD 2000
 90
    32768
280
     0
281
     0
  0
CLASS
  1
LWPOLYLINE
  2
AcDbPolyline
  3
AutoCAD 2000
 90
    32768
280
     0
281
     1
  0
CLASS
  1
HATCH
  2
AcDbHatch
  3
AutoCAD 2000
 90
    32768
280
     0
281
     1
  0
CLASS
  1
XRECORD
  2
AcDbXrecord
  3
AutoCAD 2000
 90
    32768
280
     0
281
     0
  0
ENDSEC
  0
SECTION
  2
TABLES
  0
TABLE
  2
VPORT
  5
1E
330
0
100
AcDbSymbolTable
 70
     2
  0
VPORT
  5
576
330
1E
100
AcDbSymbolTableRecord
100
AcDbViewportTableRecord
  2
*Active
 70
     0
 10
0.0
 20
0.0
 11
1.0
 21
1.0
 12
155.8467859706834
 22
34.83124380107792
 13
0.0
 23
0.0
 14
1.0
 24
1.0
 15
0.0
 25
0.0
 16
0.0
 26
0.0
 36
1.0
 17
-64.46234487877643
 27
33.0238264231553
 37
6.148717398612387
 40
136.6398081082561
 41
1.413068844807467
 42
50.0
 43
-6.148717398612387
 44
-6.148717398612387
 50
0.0
 51
0.0
 71
     0
 72
 20000
 73
     1
 74
     1
 75
     0
 76
     0
 77
     0
 78
     2
281
     0
 65
     1
110
0.0
120
0.0
130
0.0
111
1.0
121
0.0
131
0.0
112
0.0
122
1.0
132
0.0
 79
     0
146
0.0
  0
ENDTAB
  0
TABLE
  2
LTYPE
  5
19
330
0
100
AcDbSymbolTable
 70
     3
  0
LTYPE
  5
1A
330
19
100
AcDbSymbolTableRecord
100
AcDbLinetypeTableRecord
  2
BYBLOCK
 70
     0
  3

 72
    65
 73
     0
 40
0.0
  0
LTYPE
  5
1B
330
19
100
AcDbSymbolTableRecord
100
AcDbLinetypeTableRecord
  2
BYLAYER
 70
     0
  3

 72
    65
 73
     0
 40
0.0
  0
LTYPE
  5
A
330
19
100
AcDbSymbolTableRecord
100
AcDbLinetypeTableRecord
  2
CONTINUOUS
 70
     0
  3
Solid line
 72
    65
 73
     0
 40
0.0
  0
LTYPE
  5
87
330
19
100
AcDbSymbolTableRecord
100
AcDbLinetypeTableRecord
  2
DASHED
 70
     0
  3
Dashed __ __ __ __ __ __ __ __ __ __ __ __ __ _
 72
    65
 73
     2
 40
0.75
 49
0.5
 74
     0
 49
-0.25
 74
     0
  0
LTYPE
  5
7D
330
19
100
AcDbSymbolTableRecord
100
AcDbLinetypeTableRecord
  2
PHANTOM
 70
     0
  3
Phantom ______  __  __  ______  __  __  ______
 72
    65
 73
     6
 40
2.5
 49
1.25
 74
     0
 49
-0.25
 74
     0
 49
0.25
 74
     0
 49
-0.25
 74
     0
 49
0.25
 74
     0
 49
-0.25
 74
     0
  0
ENDTAB
  0
TABLE
  2
LAYER
  5
14
330
0
100
AcDbSymbolTable
 70
     8
  0
LAYER
  5
6
330
14
100
AcDbSymbolTableRecord
100
AcDbLayerTableRecord
  2
0
 70
     0
 62
     7
  6
CONTINUOUS
370
    -3
390
7
  0
LAYER
  5
30
330
14
100
AcDbSymbolTableRecord
100
AcDbLayerTableRecord
  2
BALUSTERS
 70
     0
 62
     7
  6
CONTINUOUS
370
    -3
390
7
  0
LAYER
  5
37
330
14
100
AcDbSymbolTableRecord
100
AcDbLayerTableRecord
  2
LINEWORK
 70
     0
 62
     7
  6
CONTINUOUS
370
    -3
390
7
  0
LAYER
  5
B7
330
14
100
AcDbSymbolTableRecord
100
AcDbLayerTableRecord
  2
Defpoints
 70
     0
 62
     7
  6
CONTINUOUS
290
     0
370
    -3
390
7
  0
LAYER
  5
2A
330
14
100
AcDbSymbolTableRecord
100
AcDbLayerTableRecord
  2
leaders
 70
     0
 62
     1
  6
CONTINUOUS
370
    -3
390
7
  0
LAYER
  5
26
330
14
100
AcDbSymbolTableRecord
100
AcDbLayerTableRecord
  2
TEXT
 70
     0
 62
     7
  6
CONTINUOUS
370
    -3
390
7
  0
LAYER
  5
1B6
330
14
100
AcDbSymbolTableRecord
100
AcDbLayerTableRecord
  2
DIM
 70
     0
 62
     7
  6
CONTINUOUS
370
    -3
390
7
  0
LAYER
  5
6A
330
14
100
AcDbSymbolTableRecord
100
AcDbLayerTableRecord
  2
A1
 70
     0
 62
     7
  6
CONTINUOUS
370
    -3
390
7
  0
ENDTAB
  0
TABLE
  2
STYLE
  5
15
330
0
100
AcDbSymbolTable
 70
     3
  0
STYLE
  5
16
330
15
100
AcDbSymbolTableRecord
100
AcDbTextStyleTableRecord
  2
STANDARD
 70
     0
 40
0.0
 41
1.0
 50
0.0
 71
     0
 42
1.0
  3
unvr55w.ttf
  4

1001
ACAD
1000
Univers
1071
       34
  0
STYLE
  5
53
330
15
100
AcDbSymbolTableRecord
100
AcDbTextStyleTableRecord
  2
ROMANC
 70
     0
 40
0.0
 41
1.0
 50
0.0
 71
     0
 42
0.5
  3
TIMESBD.TTF
  4

1001
ACAD
1000
Times New Roman
1071
 33554450
  0
STYLE
  5
33
330
15
100
AcDbSymbolTableRecord
100
AcDbTextStyleTableRecord
  2
barcoder
 70
     0
 40
0.0
 41
1.0
 50
0.0
 71
     0
 42
4.5625
  3
cw_barcd.ttf
  4

1001
ACAD
1000
Barcoder
1071
 33554434
  0
ENDTAB
  0
TABLE
  2
VIEW
  5
1C
330
0
100
AcDbSymbolTable
 70
     0
  0
ENDTAB
  0
TABLE
  2
UCS
  5
1D
330
0
100
AcDbSymbolTable
 70
     0
  0
ENDTAB
  0
TABLE
  2
APPID
  5
20
330
0
100
AcDbSymbolTable
 70
     1
  0
APPID
  5
17
330
20
100
AcDbSymbolTableRecord
100
AcDbRegAppTableRecord
  2
ACAD
 70
     0
  0
ENDTAB
  0
TABLE
  2
DIMSTYLE
  5
21
330
0
100
AcDbSymbolTable
 70
     1
100
AcDbDimStyleTable
 71
     0
  0
DIMSTYLE
105
28
102
{ACAD_REACTORS
330
102
330
AD
330
1C6
330
1B5
330
1D4
330
210
102
}
330
21
100
AcDbSymbolTableRecord
100
AcDbDimStyleTableRecord
  2
STANDARD
 70
     0
  3
"
 41
0.5
 42
1.0
 43
0.0625
 44
0.25
 73
     0
 74
     0
 77
     3
140
1.0
141
0.0
146
0.125
147
0.125
171
     0
274
     0
276
     2
277
     5
285
     2
286
     2
289
     0
340
16
  0
ENDTAB
  0
TABLE
  2
BLOCK_RECORD
  5
1
330
0
100
AcDbSymbolTable
 70
     7
  0
BLOCK_RECORD
  5
2
102
{ACAD_XDICTIONARY
360
3
102
}
330
1
100
AcDbSymbolTableRecord
100
AcDbBlockTableRecord
  2
*MODEL_SPACE
340
C
  0
BLOCK_RECORD
  5
E
102
{ACAD_XDICTIONARY
360
F
102
}
330
1
100
AcDbSymbolTableRecord
100
AcDbBlockTableRecord
  2
*PAPER_SPACE
340
13
  0
BLOCK_RECORD
  5
38
330
1
100
AcDbSymbolTableRecord
100
AcDbBlockTableRecord
  2
TSFORMB
340
0
102
{BLKREFS
331
2E
102
}
  0
BLOCK_RECORD
  5
258
330
1
100
AcDbSymbolTableRecord
100
AcDbBlockTableRecord
  2
*D1
340
0
  0
BLOCK_RECORD
  5
265
330
1
100
AcDbSymbolTableRecord
100
AcDbBlockTableRecord
  2
*D2
340
0
  0
BLOCK_RECORD
  5
27C
330
1
100
AcDbSymbolTableRecord
100
AcDbBlockTableRecord
  2
*D3
340
0
  0
BLOCK_RECORD
  5
289
330
1
100
AcDbSymbolTableRecord
100
AcDbBlockTableRecord
  2
*D4
340
0
  0
BLOCK_RECORD
  5
296
330
1
100
AcDbSymbolTableRecord
100
AcDbBlockTableRecord
  2
*D5
340
0
  0
BLOCK_RECORD
  5
2AD
330
1
100
AcDbSymbolTableRecord
100
AcDbBlockTableRecord
  2
*D6
340
0
  0
ENDTAB
  0
ENDSEC
  0
SECTION
  2
BLOCKS
  0
BLOCK
  5
5
330
2
100
AcDbEntity
  8
0
100
AcDbBlockBegin
  2
*MODEL_SPACE
 70
     2
 10
0.0
 20
0.0
 30
0.0
  3
*MODEL_SPACE
  1

  0
ENDBLK
  5
B
330
2
100
AcDbEntity
  8
0
100
AcDbBlockEnd
  0
BLOCK
  5
11
330
E
100
AcDbEntity
 67
     1
  8
0
100
AcDbBlockBegin
  2
*PAPER_SPACE
 70
     0
 10
0.0
 20
0.0
 30
0.0
  3
*PAPER_SPACE
  1

  0
ENDBLK
  5
12
330
E
100
AcDbEntity
 67
     1
  8
0
100
AcDbBlockEnd
  0
BLOCK
  5
65
330
38
100
AcDbEntity
  8
0
 62
     7
100
AcDbBlockBegin
  2
TSFORMB
 70
     2
 10
0.0
 20
0.0
 30
0.0
  3
TSFORMB
  1

  0
LINE
  5
39
330
38
100
AcDbEntity
  8
0
100
AcDbLine
 10
105.9925392881563
 20
78.84810849484797
 30
0.0
 11
105.9925392881563
 21
70.31072004936999
 31
0.0
  0
LINE
  5
3A
330
38
100
AcDbEntity
  8
0
100
AcDbLine
 10
105.9925392881563
 20
0.0
 30
0.0
 11
105.9925392881563
 21
78.84810849484797
 31
0.0
  0
LINE
  5
3B
330
38
100
AcDbEntity
  8
0
100
AcDbLine
 10
0.0
 20
0.0
 30
0.0
 11
105.9925392881563
 21
0.0
 31
0.0
  0
LINE
  5
3C
330
38
100
AcDbEntity
  8
0
100
AcDbLine
 10
0.0
 20
78.84810849484797
 30
0.0
 11
0.0
 21
0.0
 31
0.0
  0
LINE
  5
3D
330
38
100
AcDbEntity
  8
0
100
AcDbLine
 10
56.87404547169354
 20
0.0
 30
0.0
 11
56.87404547169354
 21
12.46470592426129
 31
0.0
  0
TEXT
  5
3E
330
38
100
AcDbEntity
  8
0
 62
     7
100
AcDbText
 10
39.28098221173831
 20
10.97304845086642
 30
0.0
 40
0.8085000000000002
  1
LEGEND
100
AcDbText
  0
TEXT
  5
3F
330
38
100
AcDbEntity
  8
0
 62
     7
100
AcDbText
 10
38.18320344075362
 20
3.401999220949562
 30
0.0
 40
0.8400000000000002
  1
CATEGORY
 72
     1
 11
41.47652732452399
 21
3.401999220949562
 31
0.0
100
AcDbText
  0
LINE
  5
40
330
38
100
AcDbEntity
  8
0
 62
     7
100
AcDbLine
 10
26.78791925899645
 20
8.549200111339303
 30
0.0
 11
29.32320076794366
 21
8.549200111339303
 31
0.0
  0
TEXT
  5
41
330
38
100
AcDbEntity
  8
0
 62
     7
100
AcDbText
 10
30.56536100380196
 20
8.165961840384341
 30
0.0
 40
1.05
  1
- Unfinished Side
100
AcDbText
  0
LINE
  5
42
330
38
100
AcDbEntity
  8
0
100
AcDbLine
 10
25.9704997615305
 20
0.0
 30
0.0
 11
25.9704997615305
 21
12.46470592426129
 31
0.0
  0
ATTDEF
  5
43
330
38
100
AcDbEntity
  8
BALUSTERS
 62
     1
100
AcDbText
 10
41.26016333205519
 20
0.916484150045278
 30
0.0
 40
1.025589599999999
  1

 72
     1
 11
41.26016333205519
 21
0.916484150045278
 31
0.0
100
AcDbAttributeDefinition
  3
ADD CATEGORY NAMES
  2
XXXXXX
 70
     0
  0
ATTDEF
  5
44
330
38
100
AcDbEntity
  8
BALUSTERS
 62
     1
100
AcDbText
 10
21.55372231158242
 20
1.875018704105684
 30
0.0
 40
0.8400000000000002
  1

 72
     2
 11
21.55372231158242
 21
1.875018704105684
 31
0.0
100
AcDbAttributeDefinition
  3
ADD BARCODE TEXT
  2
XXXXXX
 70
     0
  0
LINE
  5
45
330
38
100
AcDbEntity
  8
0
 62
     7
100
AcDbLine
 10
25.9704997615305
 20
12.46470592426129
 30
0.0
 11
0.0
 21
12.46470592426129
 31
0.0
  0
ATTDEF
  5
46
330
38
100
AcDbEntity
  8
BALUSTERS
 62
     1
100
AcDbText
 10
12.85191920549937
 20
3.11796280247222
 30
0.0
 40
6.132000000000001
  1

  7
barcoder
 72
     1
 11
12.85191920549937
 21
3.11796280247222
 31
0.0
100
AcDbAttributeDefinition
  3
ADD BARCODE NUMBER
  2
BARCODE
 70
     0
  0
LINE
  5
47
330
38
100
AcDbEntity
  8
0
 62
     7
100
AcDbLine
 10
56.87404547169354
 20
10.31505184057846
 30
0.0
 11
25.9704997615305
 21
10.31505184057846
 31
0.0
  0
LINE
  5
48
330
38
100
AcDbEntity
  8
0
 62
     7
100
AcDbLine
 10
56.87404547169354
 20
2.864660228904256
 30
0.0
 11
25.9704997615305
 21
2.864660228904256
 31
0.0
  0
LINE
  5
49
330
38
100
AcDbEntity
  8
0
 62
     7
100
AcDbLine
 10
56.87404547169354
 20
4.753491724833224
 30
0.0
 11
25.9704997615305
 21
4.753491724833224
 31
0.0
  0
LINE
  5
4A
330
38
100
AcDbEntity
  8
0
100
AcDbLine
 10
92.45878286761296
 20
70.31072004936999
 30
0.0
 11
92.45878286761296
 21
78.84810849484797
 31
0.0
  0
ATTDEF
  5
4B
330
38
100
AcDbEntity
  8
BALUSTERS
 62
     1
100
AcDbText
 10
99.20289126219257
 20
73.40001633244828
 30
0.0
 40
2.079
  1

 72
     1
 11
99.20289126219257
 21
73.40001633244828
 31
0.0
100
AcDbAttributeDefinition
  3
ADD PAGE NUMBER
  2
TS00XX
 70
     0
  0
LINE
  5
4C
330
38
100
AcDbEntity
  8
0
100
AcDbLine
 10
105.9925392881563
 20
70.31072004936999
 30
0.0
 11
92.45878286761296
 21
70.31072004936999
 31
0.0
  0
LINE
  5
4D
330
38
100
AcDbEntity
  8
0
100
AcDbLine
 10
105.9925392881563
 20
78.84810849484797
 30
0.0
 11
0.0
 21
78.84810849484797
 31
0.0
  0
TEXT
  5
4E
330
38
100
AcDbEntity
  8
0
 62
     7
100
AcDbText
 10
101.0916707105178
 20
4.784832420392319
 30
0.0
 40
0.8459472656250001
  1
1:1
100
AcDbText
  0
ARC
  5
4F
330
38
100
AcDbEntity
  8
0
 62
     7
100
AcDbCircle
 10
92.02173719823599
 20
7.854684255185304
 30
0.0
 40
0.5838368232859321
100
AcDbArc
 50
297.5553548372056
 51
304.8408806463489
  0
LINE
  5
50
330
38
100
AcDbEntity
  8
0
 62
     7
100
AcDbLine
 10
96.44018670993672
 20
6.648784575743377
 30
0.0
 11
95.62662822118033
 21
6.648784575743377
 31
0.0
  0
ARC
  5
51
330
38
100
AcDbEntity
  8
0
 62
     7
100
AcDbCircle
 10
92.02173719823599
 20
7.854684255185304
 30
0.0
 40
0.5838368232859408
100
AcDbArc
 50
304.8408806463489
 51
297.5553548372056
  0
TEXT
  5
52
330
38
100
AcDbEntity
  8
0
 62
     7
100
AcDbText
 10
91.5997577365548
 20
7.487990433787842
 30
0.0
 40
0.7875000000000002
  1
R
  7
ROMANC
 72
     1
 11
92.02565639984959
 21
7.487990433787842
 31
0.0
100
AcDbText
  0
LINE
  5
54
330
38
100
AcDbEntity
  8
0
100
AcDbLine
 10
96.44018670993649
 20
0.0
 30
0.0
 11
96.44018670993695
 21
12.46470592426129
 31
0.0
  0
TEXT
  5
55
330
38
100
AcDbEntity
  8
0
100
AcDbText
 10
57.83820509574335
 20
4.931128255646488
 30
0.0
 40
1.111564440985976
  1
ARCHITECTURAL CONCRETE CO., INC.
 41
1.25
 72
     4
 11
76.69038922088157
 21
5.404193065577089
 31
0.0
100
AcDbText
  0
TEXT
  5
56
330
38
100
AcDbEntity
  8
0
100
AcDbText
 10
64.01730751652124
 20
0.6790765005606179
 30
0.0
 40
0.6552430415498756
  1
PHONE: 1-800-789-4841  FAX : 770-463-2635
 41
1.1875
 72
     4
 11
76.73327742292065
 21
1.005769257279496
 31
0.0
100
AcDbText
  0
TEXT
  5
57
330
38
100
AcDbEntity
  8
0
 62
     7
100
AcDbText
 10
61.23651428794109
 20
7.899354841769707
 30
0.0
 40
3.572100000000002
  1
TannerStone
  7
ROMANC
 72
     1
 11
75.92109734429948
 21
7.899354841769707
 31
0.0
100
AcDbText
  0
TEXT
  5
58
330
38
100
AcDbEntity
  8
0
100
AcDbText
 10
61.57240842020546
 20
1.964543484004154
 30
0.0
 40
0.6552430415498756
  1
http://TannerStone.com ~ Email:Sales@TannerStone.com 
 41
1.1875
 72
     4
 11
77.08342119362362
 21
2.259193880788984
 31
0.0
100
AcDbText
  0
TEXT
  5
59
330
38
100
AcDbEntity
  8
0
100
AcDbText
 10
59.98363509556096
 20
3.260563711198551
 30
0.0
 40
0.74899296216962
  1
101 JOHNSTON CIRCLE, PALMETTO, GEORGIA 30268
 41
1.1875
 72
     4
 11
76.85158629384147
 21
3.579323650094977
 31
0.0
100
AcDbText
  0
LINE
  5
5A
330
38
100
AcDbEntity
  8
0
100
AcDbLine
 10
56.87404547169354
 20
6.648784575743377
 30
0.0
 11
105.9925392881563
 21
6.648784575743377
 31
0.0
  0
LINE
  5
5B
330
38
100
AcDbEntity
  8
0
 62
     7
100
AcDbLine
 10
96.44018670993682
 20
9.556745250002336
 30
0.0
 11
105.9925392881563
 21
9.556745250002336
 31
0.0
  0
TEXT
  5
5C
330
38
100
AcDbEntity
  8
0
 62
     7
100
AcDbText
 10
96.66995560986686
 20
8.813345575893606
 30
0.0
 40
0.5414062500000001
  1
LBS/LINEAR FEET:
100
AcDbText
  0
LINE
  5
5D
330
38
100
AcDbEntity
  8
LINEWORK
 62
     7
100
AcDbLine
 10
96.40991550469017
 20
3.757904136908962
 30
0.0
 11
105.9622680829099
 21
3.757904136909189
 31
0.0
  0
TEXT
  5
5E
330
38
100
AcDbEntity
  8
0
 62
     7
100
AcDbText
 10
98.85330873086445
 20
1.524519923848686
 30
0.0
 40
0.8459472656250001
  1
1-1-2000
100
AcDbText
  0
TEXT
  5
5F
330
38
100
AcDbEntity
  8
0
 62
     7
100
AcDbText
 10
96.68542089784603
 20
5.927566558083469
 30
0.0
 40
0.5414062500000001
  1
SCALE:
100
AcDbText
  0
TEXT
  5
60
330
38
100
AcDbEntity
  8
0
 62
     7
100
AcDbText
 10
96.74158717246577
 20
2.97910930546476
 30
0.0
 40
0.5414062500000001
  1
DATE:
100
AcDbText
  0
TEXT
  5
61
330
38
100
AcDbEntity
  8
0
 62
     7
100
AcDbText
 10
96.70022651293084
 20
11.66518473255649
 30
0.0
 40
0.5414062500000001
  1
PROFILE AREA:
100
AcDbText
  0
ATTDEF
  5
62
330
38
100
AcDbEntity
  8
BALUSTERS
 62
     1
100
AcDbText
 10
101.1759733039033
 20
10.07900441527107
 30
0.0
 40
0.9450000000000002
  1

 72
     1
 11
101.1759733039033
 21
10.07900441527107
 31
0.0
100
AcDbAttributeDefinition
  3
ADD PROFILE AREA
  2
XXXXX
 70
     0
  0
ATTDEF
  5
63
330
38
100
AcDbEntity
  8
BALUSTERS
 62
     1
100
AcDbText
 10
101.1418062311347
 20
7.21953861551384
 30
0.0
 40
0.9450000000000002
  1

 72
     1
 11
101.1418062311347
 21
7.21953861551384
 31
0.0
100
AcDbAttributeDefinition
  3
ADD #/LF
  2
XXXXX
 70
     0
  0
LINE
  5
64
330
38
100
AcDbEntity
  8
0
100
AcDbLine
 10
25.9704997615305
 20
12.46470592426129
 30
0.0
 11
105.9925392881563
 21
12.46470592426129
 31
0.0
  0
ENDBLK
  5
66
330
38
100
AcDbEntity
  8
0
 62
     7
100
AcDbBlockEnd
  0
BLOCK
  5
263
330
258
100
AcDbEntity
  8
0
 62
     7
100
AcDbBlockBegin
  2
*D1
 70
     1
 10
0.0
 20
0.0
 30
0.0
  3
*D1
  1

  0
LINE
  5
535
330
258
100
AcDbEntity
  8
DIM
 62
     0
100
AcDbLine
 10
69.55177419827624
 20
42.58726740030019
 30
0.0
 11
69.55177419827624
 21
33.47978118344942
 31
0.0
  0
LINE
  5
536
330
258
100
AcDbEntity
  8
DIM
 62
     0
100
AcDbLine
 10
105.5517741982762
 20
42.58726740030019
 30
0.0
 11
105.5517741982762
 21
33.47978118344942
 31
0.0
  0
LINE
  5
537
330
258
100
AcDbEntity
  8
DIM
 62
     0
100
AcDbLine
 10
70.75177419827624
 20
34.07978118344942
 30
0.0
 11
83.7184034791589
 21
34.07978118344942
 31
0.0
  0
LINE
  5
538
330
258
100
AcDbEntity
  8
DIM
 62
     0
100
AcDbLine
 10
104.3517741982762
 20
34.07978118344942
 30
0.0
 11
92.60911928355294
 21
34.07978118344942
 31
0.0
  0
MTEXT
  5
539
330
258
100
AcDbEntity
  8
DIM
 62
     0
100
AcDbMText
 10
88.16376138135593
 20
34.07978118344942
 30
0.0
 40
2.399999999999999
 41
0.0
 71
     5
 72
     1
  1
\A1;36"
 73
     1
 44
1.0
  0
SOLID
  5
53A
330
258
100
AcDbEntity
  8
DIM
 62
     0
100
AcDbTrace
 10
70.75177419827624
 20
34.27978118344943
 30
0.0
 11
70.75177419827624
 21
33.87978118344942
 31
0.0
 12
69.55177419827624
 22
34.07978118344942
 32
0.0
 13
69.55177419827624
 23
34.07978118344942
 33
0.0
  0
SOLID
  5
53B
330
258
100
AcDbEntity
  8
DIM
 62
     0
100
AcDbTrace
 10
104.3517741982762
 20
34.27978118344943
 30
0.0
 11
104.3517741982762
 21
33.87978118344942
 31
0.0
 12
105.5517741982762
 22
34.07978118344942
 32
0.0
 13
105.5517741982762
 23
34.07978118344942
 33
0.0
  0
POINT
  5
53C
330
258
100
AcDbEntity
  8
Defpoints
 62
     0
100
AcDbPoint
 10
69.55177419827624
 20
44.98726740030019
 30
0.0
  0
POINT
  5
53D
330
258
100
AcDbEntity
  8
Defpoints
 62
     0
100
AcDbPoint
 10
105.5517741982762
 20
44.98726740030019
 30
0.0
  0
POINT
  5
53E
330
258
100
AcDbEntity
  8
Defpoints
 62
     0
100
AcDbPoint
 10
105.5517741982762
 20
34.07978118344942
 30
0.0
  0
ENDBLK
  5
264
330
258
100
AcDbEntity
  8
0
 62
     7
100
AcDbBlockEnd
  0
BLOCK
  5
270
330
265
100
AcDbEntity
  8
0
 62
     7
100
AcDbBlockBegin
  2
*D2
 70
     1
 10
0.0
 20
0.0
 30
0.0
  3
*D2
  1

  0
LINE
  5
53F
330
265
100
AcDbEntity
  8
DIM
 62
     0
100
AcDbLine
 10
86.78652377363414
 20
44.63975046436892
 30
0.0
 11
86.78652377363414
 21
38.54790803626408
 31
0.0
  0
LINE
  5
540
330
265
100
AcDbEntity
  8
DIM
 62
     0
100
AcDbLine
 10
98.78652377363415
 20
44.63975046436892
 30
0.0
 11
98.78652377363415
 21
38.54790803626408
 31
0.0
  0
LINE
  5
541
330
265
100
AcDbEntity
  8
DIM
 62
     0
100
AcDbLine
 10
87.98652377363415
 20
39.14790803626408
 30
0.0
 11
88.86880381064653
 21
39.14790803626408
 31
0.0
  0
LINE
  5
542
330
265
100
AcDbEntity
  8
DIM
 62
     0
100
AcDbLine
 10
97.58652377363414
 20
39.14790803626408
 30
0.0
 11
97.28156072063944
 21
39.14790803626408
 31
0.0
  0
MTEXT
  5
543
330
265
100
AcDbEntity
  8
DIM
 62
     0
100
AcDbMText
 10
93.07518226564297
 20
39.14790803626408
 30
0.0
 40
2.399999999999999
 41
0.0
 71
     5
 72
     1
  1
\A1;12"
 73
     1
 44
1.0
  0
SOLID
  5
544
330
265
100
AcDbEntity
  8
DIM
 62
     0
100
AcDbTrace
 10
87.98652377363415
 20
39.34790803626409
 30
0.0
 11
87.98652377363415
 21
38.94790803626408
 31
0.0
 12
86.78652377363414
 22
39.14790803626408
 32
0.0
 13
86.78652377363414
 23
39.14790803626408
 33
0.0
  0
SOLID
  5
545
330
265
100
AcDbEntity
  8
DIM
 62
     0
100
AcDbTrace
 10
97.58652377363414
 20
39.34790803626409
 30
0.0
 11
97.58652377363414
 21
38.94790803626408
 31
0.0
 12
98.78652377363415
 22
39.14790803626408
 32
0.0
 13
98.78652377363415
 23
39.14790803626408
 33
0.0
  0
POINT
  5
546
330
265
100
AcDbEntity
  8
Defpoints
 62
     0
100
AcDbPoint
 10
86.78652377363414
 20
47.03975046436892
 30
0.0
  0
POINT
  5
547
330
265
100
AcDbEntity
  8
Defpoints
 62
     0
100
AcDbPoint
 10
98.78652377363415
 20
47.03975046436892
 30
0.0
  0
POINT
  5
548
330
265
100
AcDbEntity
  8
Defpoints
 62
     0
100
AcDbPoint
 10
98.78652377363415
 20
39.14790803626408
 30
0.0
  0
ENDBLK
  5
271
330
265
100
AcDbEntity
  8
0
 62
     7
100
AcDbBlockEnd
  0
BLOCK
  5
287
330
27C
100
AcDbEntity
  8
0
 62
     7
100
AcDbBlockBegin
  2
*D3
 70
     1
 10
0.0
 20
0.0
 30
0.0
  3
*D3
  1

  0
LINE
  5
553
330
27C
100
AcDbEntity
  8
DIM
 62
     0
100
AcDbLine
 10
128.889274198276
 20
49.36226740030031
 30
0.0
 11
138.2130211993126
 21
49.36226740030031
 31
0.0
  0
LINE
  5
554
330
27C
100
AcDbEntity
  8
DIM
 62
     0
100
AcDbLine
 10
128.8262741982761
 20
81.23726740030031
 30
0.0
 11
138.2130211993126
 21
81.23726740030031
 31
0.0
  0
LINE
  5
555
330
27C
100
AcDbEntity
  8
DIM
 62
     0
100
AcDbLine
 10
137.6130211993126
 20
50.56226740030031
 30
0.0
 11
137.6130211993126
 21
62.33263082155848
 31
0.0
  0
LINE
  5
556
330
27C
100
AcDbEntity
  8
DIM
 62
     0
100
AcDbLine
 10
137.6130211993126
 20
80.0372674003003
 30
0.0
 11
137.6130211993126
 21
67.34864783077181
 31
0.0
  0
MTEXT
  5
557
330
27C
100
AcDbEntity
  8
DIM
 62
     0
100
AcDbMText
 10
137.6130211993126
 20
64.84063932616516
 30
0.0
 40
2.399999999999999
 41
0.0
 71
     5
 72
     1
  1
\A1;31 7/8"
 73
     1
 44
1.0
  0
SOLID
  5
558
330
27C
100
AcDbEntity
  8
DIM
 62
     0
100
AcDbTrace
 10
137.4130211993126
 20
50.56226740030031
 30
0.0
 11
137.8130211993126
 21
50.56226740030031
 31
0.0
 12
137.6130211993126
 22
49.36226740030031
 32
0.0
 13
137.6130211993126
 23
49.36226740030031
 33
0.0
  0
SOLID
  5
559
330
27C
100
AcDbEntity
  8
DIM
 62
     0
100
AcDbTrace
 10
137.4130211993127
 20
80.0372674003003
 30
0.0
 11
137.8130211993126
 21
80.0372674003003
 31
0.0
 12
137.6130211993126
 22
81.23726740030031
 32
0.0
 13
137.6130211993126
 23
81.23726740030031
 33
0.0
  0
POINT
  5
55A
330
27C
100
AcDbEntity
  8
Defpoints
 62
     0
100
AcDbPoint
 10
126.4892741982761
 20
49.36226740030031
 30
0.0
  0
POINT
  5
55B
330
27C
100
AcDbEntity
  8
Defpoints
 62
     0
100
AcDbPoint
 10
126.4262741982761
 20
81.23726740030031
 30
0.0
  0
POINT
  5
55C
330
27C
100
AcDbEntity
  8
Defpoints
 62
     0
100
AcDbPoint
 10
137.6130211993126
 20
81.23726740030031
 30
0.0
  0
ENDBLK
  5
288
330
27C
100
AcDbEntity
  8
0
 62
     7
100
AcDbBlockEnd
  0
BLOCK
  5
294
330
289
100
AcDbEntity
  8
0
 62
     7
100
AcDbBlockBegin
  2
*D4
 70
     1
 10
0.0
 20
0.0
 30
0.0
  3
*D4
  1

  0
LINE
  5
549
330
289
100
AcDbEntity
  8
DIM
 62
     0
100
AcDbLine
 10
129.5757741982762
 20
44.61226740030042
 30
0.0
 11
153.0930031148083
 21
44.61226740030041
 31
0.0
  0
LINE
  5
54A
330
289
100
AcDbEntity
  8
DIM
 62
     0
100
AcDbLine
 10
131.1032357485516
 20
86.34976740030049
 30
0.0
 11
153.0930031148083
 21
86.34976740030049
 31
0.0
  0
LINE
  5
54B
330
289
100
AcDbEntity
  8
DIM
 62
     0
100
AcDbLine
 10
152.4930031148083
 20
45.81226740030042
 30
0.0
 11
152.4930031148083
 21
62.17438688266211
 31
0.0
  0
LINE
  5
54C
330
289
100
AcDbEntity
  8
DIM
 62
     0
100
AcDbLine
 10
152.4930031148084
 20
85.14976740030048
 30
0.0
 11
152.4930031148084
 21
67.19040389187544
 31
0.0
  0
MTEXT
  5
54D
330
289
100
AcDbEntity
  8
DIM
 62
     0
100
AcDbMText
 10
152.4930031148084
 20
64.6823953872688
 30
0.0
 40
2.399999999999999
 41
0.0
 71
     5
 72
     1
  1
\A1;41 3/4"
 73
     1
 44
1.0
  0
SOLID
  5
54E
330
289
100
AcDbEntity
  8
DIM
 62
     0
100
AcDbTrace
 10
152.2930031148083
 20
45.81226740030042
 30
0.0
 11
152.6930031148083
 21
45.81226740030042
 31
0.0
 12
152.4930031148083
 22
44.61226740030041
 32
0.0
 13
152.4930031148083
 23
44.61226740030041
 33
0.0
  0
SOLID
  5
54F
330
289
100
AcDbEntity
  8
DIM
 62
     0
100
AcDbTrace
 10
152.2930031148084
 20
85.14976740030048
 30
0.0
 11
152.6930031148084
 21
85.14976740030048
 31
0.0
 12
152.4930031148084
 22
86.34976740030049
 32
0.0
 13
152.4930031148084
 23
86.34976740030049
 33
0.0
  0
POINT
  5
550
330
289
100
AcDbEntity
  8
Defpoints
 62
     0
100
AcDbPoint
 10
127.1757741982762
 20
44.61226740030042
 30
0.0
  0
POINT
  5
551
330
289
100
AcDbEntity
  8
Defpoints
 62
     0
100
AcDbPoint
 10
128.7032357485516
 20
86.34976740030049
 30
0.0
  0
POINT
  5
552
330
289
100
AcDbEntity
  8
Defpoints
 62
     0
100
AcDbPoint
 10
152.4930031148084
 20
86.34976740030049
 30
0.0
  0
ENDBLK
  5
295
330
289
100
AcDbEntity
  8
0
 62
     7
100
AcDbBlockEnd
  0
BLOCK
  5
2A1
330
296
100
AcDbEntity
  8
0
 62
     7
100
AcDbBlockBegin
  2
*D5
 70
     1
 10
0.0
 20
0.0
 30
0.0
  3
*D5
  1

  0
LINE
  5
55D
330
296
100
AcDbEntity
  8
DIM
 62
     0
100
AcDbLine
 10
119.5517741982762
 20
42.58726740030019
 30
0.0
 11
119.5517741982762
 21
35.07973971527271
 31
0.0
  0
LINE
  5
55E
330
296
100
AcDbEntity
  8
DIM
 62
     0
100
AcDbLine
 10
127.1757741982762
 20
42.58726740030042
 30
0.0
 11
127.1757741982762
 21
35.07973971527271
 31
0.0
  0
LINE
  5
55F
330
296
100
AcDbEntity
  8
DIM
 62
     0
100
AcDbLine
 10
120.7517741982762
 20
35.67973971527271
 30
0.0
 11
125.9757741982762
 21
35.67973971527271
 31
0.0
  0
LINE
  5
560
330
296
100
AcDbEntity
  8
DIM
 62
     0
100
AcDbLine
 10
131.590927643486
 20
35.67973971527271
 30
0.0
 11
127.1757741982762
 21
35.67973971527271
 31
0.0
  0
MTEXT
  5
561
330
296
100
AcDbEntity
  8
DIM
 62
     0
100
AcDbMText
 10
138.2474832777879
 20
35.67973971527271
 30
0.0
 40
2.399999999999999
 41
0.0
 71
     5
 72
     1
  1
\A1;7 5/8"
 73
     1
 44
1.0
  0
SOLID
  5
562
330
296
100
AcDbEntity
  8
DIM
 62
     0
100
AcDbTrace
 10
120.7517741982762
 20
35.87973971527272
 30
0.0
 11
120.7517741982762
 21
35.47973971527271
 31
0.0
 12
119.5517741982762
 22
35.67973971527271
 32
0.0
 13
119.5517741982762
 23
35.67973971527271
 33
0.0
  0
SOLID
  5
563
330
296
100
AcDbEntity
  8
DIM
 62
     0
100
AcDbTrace
 10
125.9757741982762
 20
35.87973971527272
 30
0.0
 11
125.9757741982762
 21
35.47973971527271
 31
0.0
 12
127.1757741982762
 22
35.67973971527271
 32
0.0
 13
127.1757741982762
 23
35.67973971527271
 33
0.0
  0
POINT
  5
564
330
296
100
AcDbEntity
  8
Defpoints
 62
     0
100
AcDbPoint
 10
119.5517741982762
 20
44.98726740030019
 30
0.0
  0
POINT
  5
565
330
296
100
AcDbEntity
  8
Defpoints
 62
     0
100
AcDbPoint
 10
127.1757741982762
 20
44.98726740030043
 30
0.0
  0
POINT
  5
566
330
296
100
AcDbEntity
  8
Defpoints
 62
     0
100
AcDbPoint
 10
127.1757741982762
 20
35.67973971527271
 30
0.0
  0
ENDBLK
  5
2A2
330
296
100
AcDbEntity
  8
0
 62
     7
100
AcDbBlockEnd
  0
BLOCK
  5
2B8
330
2AD
100
AcDbEntity
  8
0
 62
     7
100
AcDbBlockBegin
  2
*D6
 70
     1
 10
0.0
 20
0.0
 30
0.0
  3
*D6
  1

  0
LINE
  5
567
330
2AD
100
AcDbEntity
  8
DIM
 62
     0
100
AcDbLine
 10
128.7392741982762
 20
87.92173359222445
 30
0.0
 11
128.7392741982762
 21
95.61192365133965
 31
0.0
  0
LINE
  5
568
330
2AD
100
AcDbEntity
  8
DIM
 62
     0
100
AcDbLine
 10
117.9892741982762
 20
87.92283895100425
 30
0.0
 11
117.9892741982762
 21
95.61192365133965
 31
0.0
  0
LINE
  5
569
330
2AD
100
AcDbEntity
  8
DIM
 62
     0
100
AcDbLine
 10
127.5392741982762
 20
95.01192365133965
 30
0.0
 11
119.1892741982762
 21
95.01192365133965
 31
0.0
  0
LINE
  5
56A
330
2AD
100
AcDbEntity
  8
DIM
 62
     0
100
AcDbLine
 10
133.7634487148009
 20
95.01192365133965
 30
0.0
 11
128.7392741982762
 21
95.01192365133965
 31
0.0
  0
MTEXT
  5
56B
330
2AD
100
AcDbEntity
  8
DIM
 62
     0
100
AcDbMText
 10
141.3104366666082
 20
95.01192365133965
 30
0.0
 40
2.399999999999999
 41
0.0
 71
     5
 72
     1
  1
\A1;10 3/4"
 73
     1
 44
1.0
  0
SOLID
  5
56C
330
2AD
100
AcDbEntity
  8
DIM
 62
     0
100
AcDbTrace
 10
127.5392741982762
 20
95.21192365133966
 30
0.0
 11
127.5392741982762
 21
94.81192365133965
 31
0.0
 12
128.7392741982762
 22
95.01192365133965
 32
0.0
 13
128.7392741982762
 23
95.01192365133965
 33
0.0
  0
SOLID
  5
56D
330
2AD
100
AcDbEntity
  8
DIM
 62
     0
100
AcDbTrace
 10
119.1892741982762
 20
95.21192365133966
 30
0.0
 11
119.1892741982762
 21
94.81192365133965
 31
0.0
 12
117.9892741982762
 22
95.01192365133965
 32
0.0
 13
117.9892741982762
 23
95.01192365133965
 33
0.0
  0
POINT
  5
56E
330
2AD
100
AcDbEntity
  8
Defpoints
 62
     0
100
AcDbPoint
 10
128.7392741982762
 20
85.52173359222445
 30
0.0
  0
POINT
  5
56F
330
2AD
100
AcDbEntity
  8
Defpoints
 62
     0
100
AcDbPoint
 10
117.9892741982762
 20
85.52283895100424
 30
0.0
  0
POINT
  5
570
330
2AD
100
AcDbEntity
  8
Defpoints
 62
     0
100
AcDbPoint
 10
117.9892741982762
 20
95.01192365133965
 30
0.0
  0
ENDBLK
  5
2B9
330
2AD
100
AcDbEntity
  8
0
 62
     7
100
AcDbBlockEnd
  0
ENDSEC
  0
SECTION
  2
ENTITIES
  0
ATTDEF
  5
29
330
2
100
AcDbEntity
  8
leaders
 62
     1
370
    30
100
AcDbText
 10
23.66725943240169
 20
97.17929055345633
 30
0.0
 40
2.879999999999999
  1

100
AcDbAttributeDefinition
  3
ADD LINK NUMBER (WMF)
  2
TS0997
 70
     0
  0
ATTDEF
  5
2B
330
2
100
AcDbEntity
  8
leaders
 62
     1
370
    30
100
AcDbText
 10
23.66725943240169
 20
104.2899299665268
 30
0.0
 40
2.879999999999999
  1

100
AcDbAttributeDefinition
  3
ADD LINK NUMBER (WMF)
  2
TS0243
 70
     0
  0
ATTDEF
  5
2C
330
2
100
AcDbEntity
  8
leaders
 62
     1
370
    30
100
AcDbText
 10
22.97294645152476
 20
61.20939184001827
 30
0.0
 40
2.879999999999999
  1

100
AcDbAttributeDefinition
  3
ADD LINK NUMBER (WMF)
  2
TS054M
 70
     0
  0
ATTDEF
  5
2D
330
2
100
AcDbEntity
  8
leaders
 62
     1
370
    30
100
AcDbText
 10
23.67347519887016
 20
75.43862430321201
 30
0.0
 40
2.879999999999999
  1

100
AcDbAttributeDefinition
  3
ADD LINK NUMBER (WMF)
  2
TS1618
 70
     0
  0
INSERT
  5
2E
330
2
100
AcDbEntity
  8
LINEWORK
 62
     7
370
    30
100
AcDbBlockReference
 66
     1
  2
TSFORMB
 10
0.0
 20
0.0
 30
0.0
 41
1.658699999999953
 42
1.658700000000067
 43
1.658699999999999
  0
ATTRIB
  5
2F
330
2E
100
AcDbEntity
  8
BALUSTERS
 62
     1
100
AcDbText
 10
60.37919189052667
 20
1.520172259679952
 30
0.0
 40
1.701145469519999
  1
BALUSTRADE
 72
     1
 11
68.43823291887992
 21
1.520172259679952
 31
0.0
100
AcDbAttribute
  2
XXXXXX
 70
     0
  0
ATTRIB
  5
31
330
2E
100
AcDbEntity
  8
BALUSTERS
 62
     1
100
AcDbText
 10
27.99267517554289
 20
3.11009352450003
 30
0.0
 40
1.393308
  1
TSB013
 72
     2
 11
35.75115919822184
 21
3.11009352450003
 31
0.0
100
AcDbAttribute
  2
XXXXXX
 70
     0
  0
ATTRIB
  5
32
330
2E
100
AcDbEntity
  8
BALUSTERS
 62
     1
100
AcDbText
 10
11.27346934116189
 20
5.17176490046063
 30
0.0
 40
10.1711484
  1
TSB013
  7
barcoder
 72
     1
 11
21.31747838616189
 21
5.17176490046063
 31
0.0
100
AcDbAttribute
  2
BARCODE
 70
     0
  0
ATTRIB
  5
34
330
2E
100
AcDbEntity
  8
BALUSTERS
 62
     1
100
AcDbText
 10
154.9467117585335
 20
121.7486070906318
 30
0.0
 40
3.448437300000001
  1
TSB013
 72
     1
 11
164.5478357365987
 21
121.7486070906318
 31
0.0
100
AcDbAttribute
  2
TS00XX
 70
     0
  0
ATTRIB
  5
35
330
2E
100
AcDbEntity
  8
BALUSTERS
 62
     1
100
AcDbText
 10
167.8205869191844
 20
16.71804462361012
 30
0.0
 40
1.5674715
  1

 72
     1
 11
167.8205869191844
 21
16.71804462361012
 31
0.0
100
AcDbAttribute
  2
XXXXX
 70
     0
  0
ATTRIB
  5
36
330
2E
100
AcDbEntity
  8
BALUSTERS
 62
     1
100
AcDbText
 10
167.7639139955832
 20
11.97504870155285
 30
0.0
 40
1.5674715
  1

 72
     1
 11
167.7639139955832
 21
11.97504870155285
 31
0.0
100
AcDbAttribute
  2
XXXXX
 70
     0
  0
SEQEND
  5
67
330
2E
100
AcDbEntity
  8
LINEWORK
 62
     7
  0
LINE
  5
68
330
2
100
AcDbEntity
  8
leaders
 62
     1
370
    30
100
AcDbLine
 10
128.395185677606
 20
102.9109281002273
 30
0.0
 11
128.395185677606
 21
117.1359128989549
 31
0.0
  0
ATTDEF
  5
69
330
2
100
AcDbEntity
  8
leaders
 62
     1
370
    30
100
AcDbText
 10
129.9157092520715
 20
113.4382003088417
 30
0.0
 40
3.123313033679999
  1

100
AcDbAttributeDefinition
  3
ADD LINK NUMBER (WMF)
  2
TSB013
 70
     0
  0
LINE
  5
6B
330
2
100
AcDbEntity
  8
leaders
 62
     1
370
    30
100
AcDbLine
 10
99.59449966985983
 20
87.85309860205449
 30
0.0
 11
110.211075865264
 21
112.2426926694247
 31
0.0
  0
LINE
  5
6C
330
2
100
AcDbEntity
  8
LINEWORK
 62
     7
370
    30
100
AcDbLine
 10
55.30177419827487
 20
85.95906926434395
 30
0.0
 11
105.5517741982762
 21
85.95906926434395
 31
0.0
  0
LINE
  5
6D
330
2
100
AcDbEntity
  8
LINEWORK
 62
     7
370
    30
100
AcDbLine
 10
57.55177419827544
 20
48.98726740029997
 30
0.0
 11
69.55177419827624
 21
48.9872674003002
 31
0.0
  0
LINE
  5
6E
330
2
100
AcDbEntity
  8
LINEWORK
 62
     7
370
    30
100
AcDbLine
 10
57.55177419827532
 20
44.98726740030019
 30
0.0
 11
69.55177419827624
 21
44.98726740030019
 31
0.0
  0
ARC
  5
6F
330
2
100
AcDbEntity
  8
LINEWORK
370
    30
100
AcDbCircle
 10
67.05177419827544
 20
77.10906926434415
 30
0.0
 40
1.25
100
AcDbArc
 50
180.0
 51
270.0
  0
LINE
  5
70
330
2
100
AcDbEntity
  8
LINEWORK
370
    30
100
AcDbLine
 10
61.3017741982751
 20
77.10906926434415
 30
0.0
 11
65.80177419827544
 21
77.10906926434415
 31
0.0
  0
LINE
  5
71
330
2
100
AcDbEntity
  8
LINEWORK
 62
     7
370
    30
100
AcDbLine
 10
70.15177419827591
 20
83.20906926434417
 30
0.0
 11
56.95177419827508
 21
83.20906926434417
 31
0.0
  0
LINE
  5
72
330
2
100
AcDbEntity
  8
LINEWORK
 62
     7
370
    30
100
AcDbLine
 10
56.95177419827496
 20
82.65906926434423
 30
0.0
 11
70.15177419827591
 21
82.65906926434423
 31
0.0
  0
LINE
  5
73
330
2
100
AcDbEntity
  8
LINEWORK
 62
     7
370
    30
100
AcDbLine
 10
57.60839958639315
 20
86.78406926434423
 30
0.0
 11
69.49514881015772
 21
86.78406926434423
 31
0.0
  0
LINE
  5
74
330
2
100
AcDbEntity
  8
LINEWORK
 62
     7
370
    30
100
AcDbLine
 10
58.05177419827543
 20
82.10906926434404
 30
0.0
 11
69.05177419827544
 21
82.10906926434404
 31
0.0
  0
LINE
  5
75
330
2
100
AcDbEntity
  8
LINEWORK
 62
     7
370
    30
100
AcDbLine
 10
55.3017741982784
 20
84.99656926434409
 30
0.0
 11
105.5517741982762
 21
84.99656926434409
 31
0.0
  0
LINE
  5
76
330
2
100
AcDbEntity
  8
LINEWORK
 62
     7
370
    30
100
AcDbLine
 10
55.3017741982784
 20
84.99656926434409
 30
0.0
 11
105.5517741982762
 21
84.99656926434409
 31
0.0
  0
LINE
  5
77
330
2
100
AcDbEntity
  8
LINEWORK
 62
     7
370
    30
100
AcDbLine
 10
58.05177419827543
 20
81.6772674002998
 30
0.0
 11
69.05177419827544
 21
81.6772674002998
 31
0.0
  0
ARC
  5
78
330
2
100
AcDbEntity
  8
LINEWORK
370
    30
100
AcDbCircle
 10
67.05177419827544
 20
54.48406926434415
 30
0.0
 40
1.25
100
AcDbArc
 50
89.99999999999349
 51
179.9999999999934
  0
LINE
  5
79
330
2
100
AcDbEntity
  8
LINEWORK
370
    30
100
AcDbLine
 10
61.30177419827544
 20
54.48406926434415
 30
0.0
 11
65.80177419827612
 21
54.48406926434415
 31
0.0
  0
LINE
  5
7A
330
2
100
AcDbEntity
  8
LINEWORK
 62
     7
370
    30
100
AcDbLine
 10
58.05177419827543
 20
49.86226740029997
 30
0.0
 11
69.05177419827544
 21
49.86226740029997
 31
0.0
  0
LINE
  5
7B
330
2
100
AcDbEntity
  8
LINEWORK
 62
     7
370
    30
100
AcDbLine
 10
58.05177419827543
 20
49.48726740029997
 30
0.0
 11
105.5517741982762
 21
49.48726740030008
 31
0.0
  0
LINE
  5
7C
330
2
100
AcDbEntity
  8
LINEWORK
  6
PHANTOM
 62
     7
 48
6.0
370
    30
100
AcDbLine
 10
105.6092162929941
 20
44.6122674003002
 30
0.0
 11
57.55177419827532
 21
44.6122674003002
 31
0.0
  0
LINE
  5
7E
330
2
100
AcDbEntity
  8
leaders
 62
     1
370
    30
100
AcDbLine
 10
41.18598494118066
 20
105.72368492718
 30
0.0
 11
73.7329368849488
 21
105.72368492718
 31
0.0
  0
LINE
  5
7F
330
2
100
AcDbEntity
  8
leaders
 62
     1
370
    30
100
AcDbLine
 10
72.38996150975663
 20
80.80929233474421
 30
0.0
 11
58.95949867633809
 21
98.61304551410956
 31
0.0
  0
LINE
  5
80
330
2
100
AcDbEntity
  8
LINEWORK
370
    30
100
AcDbLine
 10
58.05177419827543
 20
81.6772674002998
 30
0.0
 11
58.05177419827543
 21
49.86226740029997
 31
0.0
  0
LINE
  5
81
330
2
100
AcDbEntity
  8
LINEWORK
370
    30
100
AcDbLine
 10
60.05177419827544
 20
55.73406926434507
 30
0.0
 11
60.05177419827544
 21
75.85906926434461
 31
0.0
  0
LINE
  5
82
330
2
100
AcDbEntity
  8
leaders
 62
     1
370
    30
100
AcDbLine
 10
57.19566790699719
 20
64.85339600035297
 30
0.0
 11
48.17960143008088
 21
76.87237926386524
 31
0.0
  0
LINE
  5
83
330
2
100
AcDbEntity
  8
leaders
 62
     1
370
    30
100
AcDbLine
 10
41.02755193012524
 20
62.6431468006715
 30
0.0
 11
47.48226887508645
 21
62.6431468006715
 31
0.0
  0
LINE
  5
84
330
2
100
AcDbEntity
  8
leaders
 62
     1
370
    30
100
AcDbLine
 10
41.02755193012524
 20
60.38713305675901
 30
0.0
 11
41.02755193012524
 21
64.89916054458422
 31
0.0
  0
LINE
  5
85
330
2
100
AcDbEntity
  8
LINEWORK
 62
     7
370
    30
100
AcDbLine
 10
57.55177419827544
 20
48.98726740029997
 30
0.0
 11
57.55177419827544
 21
44.98726740030019
 31
0.0
  0
LINE
  5
86
330
2
100
AcDbEntity
  8
LINEWORK
  6
DASHED
 62
     7
 48
2.0
370
    30
100
AcDbLine
 10
63.30177419827544
 20
51.73526740030002
 30
0.0
 11
63.30177419827544
 21
47.92226740029991
 31
0.0
  0
LINE
  5
88
330
2
100
AcDbEntity
  8
LINEWORK
  6
DASHED
 62
     7
 48
2.0
370
    30
100
AcDbLine
 10
63.80177419827544
 20
47.92226740029991
 30
0.0
 11
63.80177419827544
 21
51.73526740030002
 31
0.0
  0
LINE
  5
89
330
2
100
AcDbEntity
  8
LINEWORK
  6
DASHED
 62
     7
 48
2.0
370
    30
100
AcDbLine
 10
63.30177419827544
 20
47.67226740029991
 30
0.0
 11
63.80177419827544
 21
47.67226740029991
 31
0.0
  0
LINE
  5
8A
330
2
100
AcDbEntity
  8
leaders
 62
     1
370
    30
100
AcDbLine
 10
57.55177419827544
 20
48.98726740029997
 30
0.0
 11
47.48226887508656
 21
62.6431468006715
 31
0.0
  0
LINE
  5
8B
330
2
100
AcDbEntity
  8
LINEWORK
  6
DASHED
 62
     7
 48
2.0
370
    30
100
AcDbLine
 10
63.80177419827544
 20
51.73526740030002
 30
0.0
 11
63.30177419827544
 21
51.73526740030002
 31
0.0
  0
ARC
  5
8C
330
2
100
AcDbEntity
  8
LINEWORK
370
    30
100
AcDbCircle
 10
60.05177419827544
 20
54.48406926434507
 30
0.0
 40
1.25
100
AcDbArc
 50
359.9999999999934
 51
89.99999999999349
  0
LINE
  5
8D
330
2
100
AcDbEntity
  8
LINEWORK
 62
     7
370
    30
100
AcDbLine
 10
58.05177419827543
 20
49.48726740029997
 30
0.0
 11
57.55177419827544
 21
48.98726740029997
 31
0.0
  0
SOLID
  5
8E
330
2
100
AcDbEntity
  8
leaders
 62
     1
370
    30
100
AcDbTrace
 10
57.35565621979333
 20
64.97341158171071
 30
0.0
 11
57.03567959420104
 21
64.73338041899523
 31
0.0
 12
57.91576139514382
 22
63.8934661235761
 32
0.0
 13
57.91576139514382
 23
63.8934661235761
 33
0.0
  0
SOLID
  5
8F
330
2
100
AcDbEntity
  8
leaders
 62
     1
370
    30
100
AcDbTrace
 10
57.02188955239489
 20
50.08235747059552
 30
0.0
 11
56.69536761856284
 21
49.85130893299674
 31
0.0
 12
57.55177419827544
 22
48.98726740029997
 32
0.0
 13
57.55177419827544
 23
48.98726740029997
 33
0.0
  0
LINE
  5
90
330
2
100
AcDbEntity
  8
leaders
 62
     1
370
    30
100
AcDbLine
 10
41.16325872961623
 20
91.35660084419898
 30
0.0
 11
53.15842386933127
 21
91.35660084419896
 31
0.0
  0
LINE
  5
91
330
2
100
AcDbEntity
  8
leaders
 62
     1
370
    30
100
AcDbLine
 10
41.02755193012524
 20
76.87237926386524
 30
0.0
 11
48.17960143008088
 21
76.87237926386524
 31
0.0
  0
LINE
  5
92
330
2
100
AcDbEntity
  8
leaders
 62
     1
370
    30
100
AcDbLine
 10
41.18598494118066
 20
98.61304551410956
 30
0.0
 11
58.95949867633806
 21
98.61304551410958
 31
0.0
  0
LINE
  5
93
330
2
100
AcDbEntity
  8
leaders
 62
     1
370
    30
100
AcDbLine
 10
41.16325872961624
 20
89.10058710028648
 30
0.0
 11
41.16325872961624
 21
93.61261458811169
 31
0.0
  0
ATTDEF
  5
94
330
2
100
AcDbEntity
  8
leaders
 62
     1
370
    30
100
AcDbText
 10
23.80918199836116
 20
89.92284588354573
 30
0.0
 40
2.879999999999999
  1

100
AcDbAttributeDefinition
  3
ADD LINK NUMBER (WMF)
  2
TS1157
 70
     0
  0
LINE
  5
95
330
2
100
AcDbEntity
  8
leaders
 62
     1
370
    30
100
AcDbLine
 10
41.02755193012524
 20
74.61636551995252
 30
0.0
 11
41.02755193012524
 21
79.12839300777796
 31
0.0
  0
LINE
  5
96
330
2
100
AcDbEntity
  8
leaders
 62
     1
370
    30
100
AcDbLine
 10
41.18598494118066
 20
103.4676711832673
 30
0.0
 11
41.18598494118066
 21
107.9796986710927
 31
0.0
  0
LINE
  5
97
330
2
100
AcDbEntity
  8
leaders
 62
     1
370
    30
100
AcDbLine
 10
41.18598494118066
 20
96.35703177019685
 30
0.0
 11
41.18598494118066
 21
100.8690592580222
 31
0.0
  0
LINE
  5
98
330
2
100
AcDbEntity
  8
leaders
 62
     1
370
    30
100
AcDbLine
 10
57.91927084449378
 20
86.74930603463668
 30
0.0
 11
53.15842386933127
 21
91.35660084419896
 31
0.0
  0
LINE
  5
99
330
2
100
AcDbEntity
  8
LINEWORK
  6
DASHED
 62
     7
 48
2.0
370
    30
100
AcDbLine
 10
63.30177419827544
 20
83.92406926434546
 30
0.0
 11
63.80177419827544
 21
83.92406926434546
 31
0.0
  0
ARC
  5
9A
330
2
100
AcDbEntity
  8
LINEWORK
 62
     7
370
    30
100
AcDbCircle
 10
54.93148369437233
 20
84.29309238818223
 30
0.0
 40
0.7949809888151388
100
AcDbArc
 50
6.11804546872265
 51
62.23893912947144
  0
LINE
  5
9B
330
2
100
AcDbEntity
  8
LINEWORK
370
    30
100
AcDbLine
 10
55.3017741982784
 20
84.99656926434409
 30
0.0
 11
55.30177419827487
 21
85.95906926434395
 31
0.0
  0
LINE
  5
9C
330
2
100
AcDbEntity
  8
LINEWORK
 62
     7
370
    30
100
AcDbLine
 10
55.28340260957145
 20
85.95906926434395
 30
0.0
 11
57.60839958639315
 21
86.78406926434423
 31
0.0
  0
LINE
  5
9D
330
2
100
AcDbEntity
  8
LINEWORK
  6
DASHED
 62
     7
 48
2.0
370
    30
100
AcDbLine
 10
63.80177419827544
 20
79.86726740030121
 30
0.0
 11
63.30177419827544
 21
79.86726740030121
 31
0.0
  0
ARC
  5
9E
330
2
100
AcDbEntity
  8
LINEWORK
370
    30
100
AcDbCircle
 10
57.50177419827526
 20
82.10906926434381
 30
0.0
 40
0.5500000000002502
100
AcDbArc
 50
0.0000000000260551
 51
90.00000000002605
  0
ARC
  5
9F
330
2
100
AcDbEntity
  8
LINEWORK
370
    30
100
AcDbCircle
 10
60.05177419827544
 20
77.10906926434415
 30
0.0
 40
1.25
100
AcDbArc
 50
270.0
 51
0.0
  0
LINE
  5
A0
330
2
100
AcDbEntity
  8
LINEWORK
370
    30
100
AcDbLine
 10
56.95177419827496
 20
82.65906926434423
 30
0.0
 11
56.95177419827496
 21
83.20906926434417
 31
0.0
  0
ARC
  5
A1
330
2
100
AcDbEntity
  8
LINEWORK
370
    30
100
AcDbCircle
 10
57.01488017864028
 20
84.506907446407
 30
0.0
 40
1.299371506374636
100
AcDbArc
 50
185.7015478593857
 51
267.2162470626178
  0
LINE
  5
A2
330
2
100
AcDbEntity
  8
LINEWORK
  6
DASHED
 62
     7
 48
2.0
370
    30
100
AcDbLine
 10
63.30177419827544
 20
79.86726740030121
 30
0.0
 11
63.30177419827544
 21
83.86726740030121
 31
0.0
  0
LINE
  5
A3
330
2
100
AcDbEntity
  8
LINEWORK
  6
DASHED
 62
     7
 48
2.0
370
    30
100
AcDbLine
 10
63.80177419827544
 20
83.86726740030121
 30
0.0
 11
63.80177419827544
 21
79.86726740030121
 31
0.0
  0
SOLID
  5
A4
330
2
100
AcDbEntity
  8
leaders
 62
     1
370
    30
100
AcDbTrace
 10
57.19603505791088
 20
87.72753402289186
 30
0.0
 11
56.91786575288666
 21
87.44009387652681
 31
0.0
 12
57.91927084449378
 22
86.74930603463668
 32
0.0
 13
57.91927084449378
 23
86.74930603463668
 33
0.0
  0
ARC
  5
A5
330
2
100
AcDbEntity
  8
LINEWORK
 62
     7
370
    30
100
AcDbCircle
 10
71.77688327567989
 20
71.03048174901471
 30
0.0
 40
25.59086073989587
100
AcDbArc
 50
341.450729722635
 51
4.799939153219741
  0
ARC
  5
A6
330
2
100
AcDbEntity
  8
LINEWORK
 62
     7
370
    30
100
AcDbCircle
 10
125.8361957107484
 20
71.03048174901471
 30
0.0
 40
25.59086073989587
100
AcDbArc
 50
175.2000608467735
 51
198.5492702773649
  0
ARC
  5
A7
330
2
100
AcDbEntity
  8
LINEWORK
 62
     7
370
    30
100
AcDbCircle
 10
59.77688327567989
 20
71.03048174901471
 30
0.0
 40
25.59086073989587
100
AcDbArc
 50
341.450729722635
 51
4.799939153219741
  0
ARC
  5
A8
330
2
100
AcDbEntity
  8
LINEWORK
 62
     7
370
    30
100
AcDbCircle
 10
113.8361957107484
 20
71.03048174901471
 30
0.0
 40
25.59086073989587
100
AcDbArc
 50
175.2000608467735
 51
198.5492702773649
  0
LINE
  5
A9
330
2
100
AcDbEntity
  8
LINEWORK
370
    30
100
AcDbLine
 10
69.05177419827544
 20
49.86226740029997
 30
0.0
 11
69.05177419827544
 21
81.6772674002998
 31
0.0
  0
LINE
  5
AA
330
2
100
AcDbEntity
  8
LINEWORK
370
    30
100
AcDbLine
 10
67.05177419827544
 20
55.73406926434415
 30
0.0
 11
67.05177419827544
 21
75.85906926434393
 31
0.0
  0
ARC
  5
AB
330
2
100
AcDbEntity
  8
LINEWORK
 62
     7
370
    30
100
AcDbCircle
 10
47.77688327567989
 20
71.03048174901471
 30
0.0
 40
25.59086073989587
100
AcDbArc
 50
341.450729722635
 51
4.799939153219741
  0
ARC
  5
AC
330
2
100
AcDbEntity
  8
LINEWORK
 62
     7
370
    30
100
AcDbCircle
 10
101.8361957107484
 20
71.03048174901471
 30
0.0
 40
25.59086073989587
100
AcDbArc
 50
175.2000608467735
 51
198.5492702773649
  0
DIMENSION
  5
AD
330
2
100
AcDbEntity
  8
DIM
 62
     7
370
    30
100
AcDbDimension
  2
*D1
 10
105.5517741982762
 20
34.07978118344942
 30
0.0
 11
88.16376138135593
 21
34.07978118344942
 31
0.0
 70
   160
 71
     5
 42
-1.0
  3
STANDARD
100
AcDbAlignedDimension
 13
69.55177419827624
 23
44.98726740030019
 33
0.0
 14
105.5517741982762
 24
44.98726740030019
 34
0.0
100
AcDbRotatedDimension
1001
ACAD
1000
DSTYLE
1002
{
1070
   287
1070
     4
1070
   287
1070
     4
1070
   287
1070
     4
1070
   287
1070
     4
1070
    40
1040
2.399999999999999
1070
    73
1070
     1
1070
    74
1070
     1
1070
    77
1070
     0
1070
   147
1040
0.5
1070
   279
1070
     1
1070
   288
1070
     1
1070
   289
1070
     3
1002
}
  0
LINE
  5
BC
330
2
100
AcDbEntity
  8
LINEWORK
 62
     7
370
    30
100
AcDbLine
 10
87.03652377363415
 20
47.03975046436892
 30
0.0
 11
86.53652377363414
 21
47.03975046436892
 31
0.0
  0
LINE
  5
BD
330
2
100
AcDbEntity
  8
LINEWORK
 62
     7
370
    30
100
AcDbLine
 10
87.03652377363415
 20
51.28975046436892
 30
0.0
 11
86.53652377363414
 21
51.28975046436892
 31
0.0
  0
LINE
  5
BE
330
2
100
AcDbEntity
  8
LINEWORK
 62
     7
370
    30
100
AcDbLine
 10
88.2696249941315
 20
57.73899116310406
 30
0.0
 11
85.34345399229687
 21
57.73899116310406
 31
0.0
  0
LINE
  5
BF
330
2
100
AcDbEntity
  8
LINEWORK
 62
     7
370
    30
100
AcDbLine
 10
88.29997696153418
 20
58.84753594677966
 30
0.0
 11
85.3131020248942
 21
58.84753594677966
 31
0.0
  0
LINE
  5
C0
330
2
100
AcDbEntity
  8
LINEWORK
 62
     7
370
    30
100
AcDbLine
 10
88.29997696153407
 20
58.48923505798291
 30
0.0
 11
85.3131020248942
 21
58.48570989726408
 31
0.0
  0
LINE
  5
C1
330
2
100
AcDbEntity
  8
LINEWORK
 62
     7
370
    30
100
AcDbLine
 10
89.93153949321413
 20
49.85906926434404
 30
0.0
 11
83.68153949321424
 21
49.85906926434404
 31
0.0
  0
LINE
  5
C2
330
2
100
AcDbEntity
  8
LINEWORK
 62
     7
370
    30
100
AcDbLine
 10
89.0466956956941
 20
56.49445993950405
 30
0.0
 11
84.56638329073427
 21
56.49445993950405
 31
0.0
  0
LINE
  5
C3
330
2
100
AcDbEntity
  8
LINEWORK
 62
     7
370
    30
100
AcDbLine
 10
89.0466956956941
 20
56.00666913386419
 30
0.0
 11
84.56638329073427
 21
56.00666913386419
 31
0.0
  0
LINE
  5
C4
330
2
100
AcDbEntity
  8
LINEWORK
 62
     7
370
    30
100
AcDbLine
 10
89.0466956956941
 20
54.99100078738286
 30
0.0
 11
84.56638329073427
 21
54.99100078738286
 31
0.0
  0
LINE
  5
C5
330
2
100
AcDbEntity
  8
LINEWORK
 62
     7
370
    30
100
AcDbLine
 10
89.0466956956941
 20
54.62766310410405
 30
0.0
 11
84.56638329073427
 21
54.62766310410405
 31
0.0
  0
LWPOLYLINE
  5
C6
330
2
100
AcDbEntity
  8
LINEWORK
 62
     7
370
    30
100
AcDbPolyline
 90
        3
 70
     0
 43
0.0
 10
89.93153949321424
 20
54.00266310410427
 42
0.0760702451112629
 10
86.8540526707385
 20
54.48814011534534
 42
0.0783908625805552
 10
83.68153949321424
 20
54.00266310410427
  0
LINE
  5
C7
330
2
100
AcDbEntity
  8
LINEWORK
 62
     7
370
    30
100
AcDbLine
 10
69.55177419827624
 20
48.9872674003002
 30
0.0
 11
105.5517741982762
 21
48.98726740030031
 31
0.0
  0
LINE
  5
C8
330
2
100
AcDbEntity
  8
LINEWORK
 62
     7
370
    30
100
AcDbLine
 10
69.55177419827624
 20
44.98726740030019
 30
0.0
 11
105.5517741982762
 21
44.98726740030019
 31
0.0
  0
LINE
  5
C9
330
2
100
AcDbEntity
  8
LINEWORK
  6
DASHED
 62
     7
 48
2.0
370
    30
100
AcDbLine
 10
86.53652377363414
 20
47.28975046436892
 30
0.0
 11
86.53652377363414
 21
51.28975046436892
 31
0.0
  0
LINE
  5
CA
330
2
100
AcDbEntity
  8
LINEWORK
  6
DASHED
 62
     7
 48
2.0
370
    30
100
AcDbLine
 10
75.03652377363414
 20
51.28975046436892
 30
0.0
 11
75.03652377363414
 21
47.28975046436892
 31
0.0
  0
LINE
  5
CB
330
2
100
AcDbEntity
  8
LINEWORK
  6
DASHED
 62
     7
 48
2.0
370
    30
100
AcDbLine
 10
74.53652377363415
 20
47.28975046436892
 30
0.0
 11
74.53652377363415
 21
51.28975046436892
 31
0.0
  0
LINE
  5
CC
330
2
100
AcDbEntity
  8
LINEWORK
 62
     7
370
    30
100
AcDbLine
 10
69.55177419827624
 20
48.9872674003002
 30
0.0
 11
69.55177419827634
 21
44.98726740030019
 31
0.0
  0
LINE
  5
CD
330
2
100
AcDbEntity
  8
LINEWORK
 62
     7
370
    30
100
AcDbLine
 10
75.03652377363414
 20
47.03975046436892
 30
0.0
 11
74.53652377363415
 21
47.03975046436892
 31
0.0
  0
LINE
  5
CE
330
2
100
AcDbEntity
  8
LINEWORK
 62
     7
370
    30
100
AcDbLine
 10
76.29997696153407
 20
58.48923505798291
 30
0.0
 11
73.31310202489419
 21
58.48570989726408
 31
0.0
  0
LINE
  5
CF
330
2
100
AcDbEntity
  8
LINEWORK
 62
     7
370
    30
100
AcDbLine
 10
76.29997696153418
 20
58.84753594677966
 30
0.0
 11
73.31310202489419
 21
58.84753594677966
 31
0.0
  0
LINE
  5
D0
330
2
100
AcDbEntity
  8
LINEWORK
 62
     7
370
    30
100
AcDbLine
 10
76.2696249941315
 20
57.73899116310406
 30
0.0
 11
73.34345399229687
 21
57.73899116310406
 31
0.0
  0
LWPOLYLINE
  5
D1
330
2
100
AcDbEntity
  8
LINEWORK
 62
     7
370
    30
100
AcDbPolyline
 90
        3
 70
     0
 43
0.0
 10
77.93153949321425
 20
54.00266310410427
 42
0.0760702451112629
 10
74.8540526707385
 20
54.48814011534534
 42
0.0783908625805552
 10
71.68153949321425
 20
54.00266310410427
  0
LINE
  5
D2
330
2
100
AcDbEntity
  8
LINEWORK
 62
     7
370
    30
100
AcDbLine
 10
77.0466956956941
 20
54.62766310410405
 30
0.0
 11
72.56638329073428
 21
54.62766310410405
 31
0.0
  0
LINE
  5
D3
330
2
100
AcDbEntity
  8
LINEWORK
 62
     7
370
    30
100
AcDbLine
 10
77.0466956956941
 20
54.99100078738286
 30
0.0
 11
72.56638329073428
 21
54.99100078738286
 31
0.0
  0
LINE
  5
D4
330
2
100
AcDbEntity
  8
LINEWORK
 62
     7
370
    30
100
AcDbLine
 10
77.0466956956941
 20
56.00666913386419
 30
0.0
 11
72.56638329073428
 21
56.00666913386419
 31
0.0
  0
LINE
  5
D5
330
2
100
AcDbEntity
  8
LINEWORK
 62
     7
370
    30
100
AcDbLine
 10
77.0466956956941
 20
56.49445993950405
 30
0.0
 11
72.56638329073428
 21
56.49445993950405
 31
0.0
  0
LINE
  5
D6
330
2
100
AcDbEntity
  8
LINEWORK
 62
     7
370
    30
100
AcDbLine
 10
77.93153949321413
 20
49.85906926434404
 30
0.0
 11
71.68153949321425
 21
49.85906926434404
 31
0.0
  0
LINE
  5
D7
330
2
100
AcDbEntity
  8
LINEWORK
 62
     7
370
    30
100
AcDbLine
 10
71.97413168767548
 20
62.6719395415812
 30
0.0
 11
72.03831019499784
 21
62.88951637337664
 31
0.0
  0
LINE
  5
D8
330
2
100
AcDbEntity
  8
LINEWORK
 62
     7
370
    30
100
AcDbLine
 10
73.31310202489419
 20
58.48570989726408
 30
0.0
 11
73.31310202489419
 21
58.85906926434405
 31
0.0
  0
LINE
  5
D9
330
2
100
AcDbEntity
  8
LINEWORK
 62
     7
370
    30
100
AcDbLine
 10
73.31310202489419
 20
58.48923505798291
 30
0.0
 11
73.31310202489419
 21
58.84753594677966
 31
0.0
  0
ARC
  5
DA
330
2
100
AcDbEntity
  8
LINEWORK
 62
     7
370
    30
100
AcDbCircle
 10
71.73175958174363
 20
57.88045172440104
 30
0.0
 40
1.617890590679968
100
AcDbArc
 50
328.1048848338843
 51
354.983927846311
  0
ARC
  5
DB
330
2
100
AcDbEntity
  8
LINEWORK
 62
     7
370
    30
100
AcDbCircle
 10
73.54897824346426
 20
58.12304178877764
 30
0.0
 40
0.4355859282600071
100
AcDbArc
 50
122.786816205778
 51
241.8465885129536
  0
LINE
  5
DC
330
2
100
AcDbEntity
  8
LINEWORK
 62
     7
370
    30
100
AcDbLine
 10
72.56638329073428
 20
54.62766310410405
 30
0.0
 11
72.56638329073428
 21
54.99100078738286
 31
0.0
  0
LINE
  5
DD
330
2
100
AcDbEntity
  8
LINEWORK
 62
     7
370
    30
100
AcDbLine
 10
72.56638329073428
 20
56.00666913386419
 30
0.0
 11
72.56638329073428
 21
56.49445993950405
 31
0.0
  0
LINE
  5
DE
330
2
100
AcDbEntity
  8
LINEWORK
 62
     7
370
    30
100
AcDbLine
 10
72.56638329073428
 20
56.00666913386419
 30
0.0
 11
72.56638329073428
 21
56.49445993950405
 31
0.0
  0
ARC
  5
DF
330
2
100
AcDbEntity
  8
LINEWORK
 62
     7
370
    30
100
AcDbCircle
 10
72.56638329073428
 20
55.49883496062341
 30
0.0
 40
0.5078341732406493
100
AcDbArc
 50
90.0
 51
270.0
  0
LINE
  5
E0
330
2
100
AcDbEntity
  8
LINEWORK
 62
     7
370
    30
100
AcDbLine
 10
71.68153949321425
 20
54.00266310410427
 30
0.0
 11
72.56638329073428
 21
54.62766310410405
 31
0.0
  0
ARC
  5
E1
330
2
100
AcDbEntity
  8
LINEWORK
 62
     7
370
    30
100
AcDbCircle
 10
71.73175958174351
 20
57.88045172440092
 30
0.0
 40
1.617890590680006
100
AcDbArc
 50
301.0557276764
 51
328.1048848338933
  0
ARC
  5
E2
330
2
100
AcDbEntity
  8
LINEWORK
 62
     7
370
    30
100
AcDbCircle
 10
74.80801926606955
 20
61.5175214227769
 30
0.0
 40
3.059999999999993
100
AcDbArc
 50
157.8358853901736
 51
240.7556601907219
  0
LINE
  5
E3
330
2
100
AcDbEntity
  8
LINEWORK
 62
     7
370
    30
100
AcDbLine
 10
75.03652377363414
 20
51.28975046436892
 30
0.0
 11
74.53652377363415
 21
51.28975046436892
 31
0.0
  0
LINE
  5
E4
330
2
100
AcDbEntity
  8
LINEWORK
 62
     7
370
    30
100
AcDbLine
 10
69.05177419827623
 20
49.4872674003002
 30
0.0
 11
69.55177419827624
 21
48.9872674003002
 31
0.0
  0
LINE
  5
E5
330
2
100
AcDbEntity
  8
LINEWORK
 62
     7
370
    30
100
AcDbLine
 10
71.68153949321425
 20
49.85906926434404
 30
0.0
 11
71.68153949321425
 21
54.00266310410427
 31
0.0
  0
LINE
  5
E6
330
2
100
AcDbEntity
  8
LINEWORK
 62
     7
370
    30
100
AcDbLine
 10
83.97413168767547
 20
62.6719395415812
 30
0.0
 11
84.03831019499785
 21
62.88951637337664
 31
0.0
  0
LINE
  5
E7
330
2
100
AcDbEntity
  8
LINEWORK
 62
     7
370
    30
100
AcDbLine
 10
83.68153949321424
 20
49.85906926434404
 30
0.0
 11
83.68153949321424
 21
54.00266310410427
 31
0.0
  0
ARC
  5
E8
330
2
100
AcDbEntity
  8
LINEWORK
 62
     7
370
    30
100
AcDbCircle
 10
83.73175958174352
 20
57.88045172440092
 30
0.0
 40
1.617890590680006
100
AcDbArc
 50
301.0557276764
 51
328.1048848338933
  0
LINE
  5
E9
330
2
100
AcDbEntity
  8
LINEWORK
 62
     7
370
    30
100
AcDbLine
 10
83.68153949321424
 20
54.00266310410427
 30
0.0
 11
84.56638329073427
 21
54.62766310410405
 31
0.0
  0
ARC
  5
EA
330
2
100
AcDbEntity
  8
LINEWORK
 62
     7
370
    30
100
AcDbCircle
 10
84.56638329073427
 20
55.49883496062341
 30
0.0
 40
0.5078341732406493
100
AcDbArc
 50
90.0
 51
270.0
  0
LINE
  5
EB
330
2
100
AcDbEntity
  8
LINEWORK
 62
     7
370
    30
100
AcDbLine
 10
84.56638329073427
 20
56.00666913386419
 30
0.0
 11
84.56638329073427
 21
56.49445993950405
 31
0.0
  0
LINE
  5
EC
330
2
100
AcDbEntity
  8
LINEWORK
 62
     7
370
    30
100
AcDbLine
 10
84.56638329073427
 20
56.00666913386419
 30
0.0
 11
84.56638329073427
 21
56.49445993950405
 31
0.0
  0
LINE
  5
ED
330
2
100
AcDbEntity
  8
LINEWORK
 62
     7
370
    30
100
AcDbLine
 10
84.56638329073427
 20
54.62766310410405
 30
0.0
 11
84.56638329073427
 21
54.99100078738286
 31
0.0
  0
ARC
  5
EE
330
2
100
AcDbEntity
  8
LINEWORK
 62
     7
370
    30
100
AcDbCircle
 10
85.54897824346426
 20
58.12304178877764
 30
0.0
 40
0.4355859282600071
100
AcDbArc
 50
122.786816205778
 51
241.8465885129536
  0
ARC
  5
EF
330
2
100
AcDbEntity
  8
LINEWORK
 62
     7
370
    30
100
AcDbCircle
 10
83.73175958174362
 20
57.88045172440104
 30
0.0
 40
1.617890590679968
100
AcDbArc
 50
328.1048848338843
 51
354.983927846311
  0
LINE
  5
F0
330
2
100
AcDbEntity
  8
LINEWORK
 62
     7
370
    30
100
AcDbLine
 10
85.3131020248942
 20
58.48923505798291
 30
0.0
 11
85.3131020248942
 21
58.84753594677966
 31
0.0
  0
LINE
  5
F1
330
2
100
AcDbEntity
  8
LINEWORK
 62
     7
370
    30
100
AcDbLine
 10
85.3131020248942
 20
58.48570989726408
 30
0.0
 11
85.3131020248942
 21
58.85906926434405
 31
0.0
  0
ARC
  5
F2
330
2
100
AcDbEntity
  8
LINEWORK
 62
     7
370
    30
100
AcDbCircle
 10
86.80801926606955
 20
61.5175214227769
 30
0.0
 40
3.059999999999993
100
AcDbArc
 50
157.8358853901736
 51
240.7556601907219
  0
LINE
  5
F3
330
2
100
AcDbEntity
  8
LINEWORK
 62
     7
370
    30
100
AcDbLine
 10
77.57476879143053
 20
62.88951637337664
 30
0.0
 11
77.63894729875289
 21
62.6719395415812
 31
0.0
  0
ARC
  5
F4
330
2
100
AcDbEntity
  8
LINEWORK
 62
     7
370
    30
100
AcDbCircle
 10
77.88131940468474
 20
57.88045172440104
 30
0.0
 40
1.61789059067997
100
AcDbArc
 50
185.0160721536892
 51
211.8951151661139
  0
LINE
  5
F5
330
2
100
AcDbEntity
  8
LINEWORK
 62
     7
370
    30
100
AcDbLine
 10
76.29997696153418
 20
58.84753594677966
 30
0.0
 11
76.29997696153407
 21
58.48923505798291
 31
0.0
  0
ARC
  5
F6
330
2
100
AcDbEntity
  8
LINEWORK
 62
     7
370
    30
100
AcDbCircle
 10
76.06410074296412
 20
58.12304178877764
 30
0.0
 40
0.4355859282600063
100
AcDbArc
 50
298.1534114870492
 51
57.21318379421927
  0
LINE
  5
F7
330
2
100
AcDbEntity
  8
LINEWORK
 62
     7
370
    30
100
AcDbLine
 10
77.0466956956941
 20
54.99100078738286
 30
0.0
 11
77.0466956956941
 21
54.62766310410405
 31
0.0
  0
LINE
  5
F8
330
2
100
AcDbEntity
  8
LINEWORK
 62
     7
370
    30
100
AcDbLine
 10
77.0466956956941
 20
56.49445993950405
 30
0.0
 11
77.0466956956941
 21
56.00666913386419
 31
0.0
  0
ARC
  5
F9
330
2
100
AcDbEntity
  8
LINEWORK
 62
     7
370
    30
100
AcDbCircle
 10
77.0466956956941
 20
55.49883496062341
 30
0.0
 40
0.5078341732406493
100
AcDbArc
 50
270.0
 51
90.0
  0
LINE
  5
FA
330
2
100
AcDbEntity
  8
LINEWORK
 62
     7
370
    30
100
AcDbLine
 10
77.0466956956941
 20
54.62766310410405
 30
0.0
 11
77.93153949321413
 21
54.00266310410427
 31
0.0
  0
ARC
  5
FB
330
2
100
AcDbEntity
  8
LINEWORK
 62
     7
370
    30
100
AcDbCircle
 10
77.88131940468486
 20
57.88045172440092
 30
0.0
 40
1.617890590680006
100
AcDbArc
 50
211.8951151661083
 51
238.9442723235971
  0
ARC
  5
FC
330
2
100
AcDbEntity
  8
LINEWORK
 62
     7
370
    30
100
AcDbCircle
 10
74.80505972035882
 20
61.5175214227769
 30
0.0
 40
3.059999999999995
100
AcDbArc
 50
299.2443398092751
 51
22.16411460982637
  0
LINE
  5
FD
330
2
100
AcDbEntity
  8
LINEWORK
 62
     7
370
    30
100
AcDbLine
 10
77.93153949321413
 20
54.00266310410427
 30
0.0
 11
77.93153949321413
 21
49.85906926434404
 31
0.0
  0
LINE
  5
FE
330
2
100
AcDbEntity
  8
LINEWORK
  6
DASHED
 62
     7
 48
2.0
370
    30
100
AcDbLine
 10
98.53652377363415
 20
47.28975046436892
 30
0.0
 11
98.53652377363415
 21
51.28975046436892
 31
0.0
  0
LINE
  5
FF
330
2
100
AcDbEntity
  8
LINEWORK
  6
DASHED
 62
     7
 48
2.0
370
    30
100
AcDbLine
 10
99.03652377363414
 20
51.28975046436892
 30
0.0
 11
99.03652377363414
 21
47.28975046436892
 31
0.0
  0
LINE
  5
100
330
2
100
AcDbEntity
  8
LINEWORK
  6
DASHED
 62
     7
 48
2.0
370
    30
100
AcDbLine
 10
87.03652377363415
 20
51.28975046436892
 30
0.0
 11
87.03652377363415
 21
47.28975046436892
 31
0.0
  0
LINE
  5
101
330
2
100
AcDbEntity
  8
LINEWORK
 62
     7
370
    30
100
AcDbLine
 10
105.5517741982762
 20
44.98726740030019
 30
0.0
 11
105.5517741982762
 21
49.48726740030008
 31
0.0
  0
DIMENSION
  5
102
330
2
100
AcDbEntity
  8
DIM
 62
     7
370
    30
100
AcDbDimension
  2
*D2
 10
98.78652377363415
 20
39.14790803626408
 30
0.0
 11
93.07518226564297
 21
39.14790803626408
 31
0.0
 70
   160
 71
     5
 42
-1.0
  3
STANDARD
100
AcDbAlignedDimension
 13
86.78652377363414
 23
47.03975046436892
 33
0.0
 14
98.78652377363415
 24
47.03975046436892
 34
0.0
100
AcDbRotatedDimension
1001
ACAD
1000
DSTYLE
1002
{
1070
   287
1070
     4
1070
   287
1070
     4
1070
   287
1070
     4
1070
   287
1070
     4
1070
    40
1040
2.399999999999999
1070
    73
1070
     1
1070
    74
1070
     1
1070
    77
1070
     0
1070
   147
1040
0.5
1070
   279
1070
     1
1070
   288
1070
     1
1070
   289
1070
     3
1002
}
  0
LINE
  5
110
330
2
100
AcDbEntity
  8
LINEWORK
 62
     7
370
    30
100
AcDbLine
 10
99.03652377363414
 20
47.03975046436892
 30
0.0
 11
98.53652377363415
 21
47.03975046436892
 31
0.0
  0
ARC
  5
111
330
2
100
AcDbEntity
  8
LINEWORK
 62
     7
370
    30
100
AcDbCircle
 10
97.54897824346427
 20
58.12304178877764
 30
0.0
 40
0.4355859282600071
100
AcDbArc
 50
122.786816205778
 51
241.8465885129536
  0
ARC
  5
112
330
2
100
AcDbEntity
  8
LINEWORK
 62
     7
370
    30
100
AcDbCircle
 10
95.73175958174363
 20
57.88045172440104
 30
0.0
 40
1.617890590679968
100
AcDbArc
 50
328.1048848338843
 51
354.983927846311
  0
LINE
  5
113
330
2
100
AcDbEntity
  8
LINEWORK
 62
     7
370
    30
100
AcDbLine
 10
101.9315394932141
 20
49.85906926434404
 30
0.0
 11
95.68153949321425
 21
49.85906926434404
 31
0.0
  0
LINE
  5
114
330
2
100
AcDbEntity
  8
LINEWORK
 62
     7
370
    30
100
AcDbLine
 10
101.046695695694
 20
56.49445993950405
 30
0.0
 11
96.56638329073429
 21
56.49445993950405
 31
0.0
  0
LINE
  5
115
330
2
100
AcDbEntity
  8
LINEWORK
 62
     7
370
    30
100
AcDbLine
 10
101.046695695694
 20
56.00666913386419
 30
0.0
 11
96.56638329073429
 21
56.00666913386419
 31
0.0
  0
LINE
  5
116
330
2
100
AcDbEntity
  8
LINEWORK
 62
     7
370
    30
100
AcDbLine
 10
101.046695695694
 20
54.99100078738286
 30
0.0
 11
96.56638329073429
 21
54.99100078738286
 31
0.0
  0
LINE
  5
117
330
2
100
AcDbEntity
  8
LINEWORK
 62
     7
370
    30
100
AcDbLine
 10
101.046695695694
 20
54.62766310410405
 30
0.0
 11
96.56638329073429
 21
54.62766310410405
 31
0.0
  0
LWPOLYLINE
  5
118
330
2
100
AcDbEntity
  8
LINEWORK
 62
     7
370
    30
100
AcDbPolyline
 90
        3
 70
     0
 43
0.0
 10
101.9315394932142
 20
54.00266310410427
 42
0.0760702451112629
 10
98.85405267073849
 20
54.48814011534534
 42
0.0783908625805552
 10
95.68153949321425
 20
54.00266310410427
  0
ARC
  5
119
330
2
100
AcDbEntity
  8
LINEWORK
 62
     7
370
    30
100
AcDbCircle
 10
98.80801926606956
 20
61.5175214227769
 30
0.0
 40
3.059999999999993
100
AcDbArc
 50
157.8358853901736
 51
240.7556601907219
  0
LINE
  5
11A
330
2
100
AcDbEntity
  8
LINEWORK
 62
     7
370
    30
100
AcDbLine
 10
95.97413168767548
 20
62.6719395415812
 30
0.0
 11
96.03831019499786
 21
62.88951637337664
 31
0.0
  0
LINE
  5
11B
330
2
100
AcDbEntity
  8
LINEWORK
 62
     7
370
    30
100
AcDbLine
 10
95.68153949321425
 20
49.85906926434404
 30
0.0
 11
95.68153949321425
 21
54.00266310410427
 31
0.0
  0
ARC
  5
11C
330
2
100
AcDbEntity
  8
LINEWORK
 62
     7
370
    30
100
AcDbCircle
 10
95.73175958174351
 20
57.88045172440092
 30
0.0
 40
1.617890590680006
100
AcDbArc
 50
301.0557276764
 51
328.1048848338933
  0
LINE
  5
11D
330
2
100
AcDbEntity
  8
LINEWORK
 62
     7
370
    30
100
AcDbLine
 10
95.68153949321425
 20
54.00266310410427
 30
0.0
 11
96.56638329073429
 21
54.62766310410405
 31
0.0
  0
ARC
  5
11E
330
2
100
AcDbEntity
  8
LINEWORK
 62
     7
370
    30
100
AcDbCircle
 10
96.56638329073429
 20
55.49883496062341
 30
0.0
 40
0.5078341732406493
100
AcDbArc
 50
90.0
 51
270.0
  0
LINE
  5
11F
330
2
100
AcDbEntity
  8
LINEWORK
 62
     7
370
    30
100
AcDbLine
 10
96.56638329073429
 20
56.00666913386419
 30
0.0
 11
96.56638329073429
 21
56.49445993950405
 31
0.0
  0
LINE
  5
120
330
2
100
AcDbEntity
  8
LINEWORK
 62
     7
370
    30
100
AcDbLine
 10
96.56638329073429
 20
56.00666913386419
 30
0.0
 11
96.56638329073429
 21
56.49445993950405
 31
0.0
  0
LINE
  5
121
330
2
100
AcDbEntity
  8
LINEWORK
 62
     7
370
    30
100
AcDbLine
 10
96.56638329073429
 20
54.62766310410405
 30
0.0
 11
96.56638329073429
 21
54.99100078738286
 31
0.0
  0
LINE
  5
122
330
2
100
AcDbEntity
  8
LINEWORK
 62
     7
370
    30
100
AcDbLine
 10
89.57476879143053
 20
62.88951637337664
 30
0.0
 11
89.6389472987529
 21
62.6719395415812
 31
0.0
  0
LINE
  5
123
330
2
100
AcDbEntity
  8
LINEWORK
 62
     7
370
    30
100
AcDbLine
 10
89.93153949321413
 20
54.00266310410427
 30
0.0
 11
89.93153949321413
 21
49.85906926434404
 31
0.0
  0
LINE
  5
124
330
2
100
AcDbEntity
  8
LINEWORK
 62
     7
370
    30
100
AcDbLine
 10
89.0466956956941
 20
54.62766310410405
 30
0.0
 11
89.93153949321413
 21
54.00266310410427
 31
0.0
  0
ARC
  5
125
330
2
100
AcDbEntity
  8
LINEWORK
 62
     7
370
    30
100
AcDbCircle
 10
89.0466956956941
 20
55.49883496062341
 30
0.0
 40
0.5078341732406493
100
AcDbArc
 50
270.0
 51
90.0
  0
LINE
  5
126
330
2
100
AcDbEntity
  8
LINEWORK
 62
     7
370
    30
100
AcDbLine
 10
89.0466956956941
 20
56.49445993950405
 30
0.0
 11
89.0466956956941
 21
56.00666913386419
 31
0.0
  0
LINE
  5
127
330
2
100
AcDbEntity
  8
LINEWORK
 62
     7
370
    30
100
AcDbLine
 10
89.0466956956941
 20
54.99100078738286
 30
0.0
 11
89.0466956956941
 21
54.62766310410405
 31
0.0
  0
ARC
  5
128
330
2
100
AcDbEntity
  8
LINEWORK
 62
     7
370
    30
100
AcDbCircle
 10
88.06410074296412
 20
58.12304178877764
 30
0.0
 40
0.4355859282600063
100
AcDbArc
 50
298.1534114870492
 51
57.21318379421927
  0
LINE
  5
129
330
2
100
AcDbEntity
  8
LINEWORK
 62
     7
370
    30
100
AcDbLine
 10
88.29997696153418
 20
58.84753594677966
 30
0.0
 11
88.29997696153407
 21
58.48923505798291
 31
0.0
  0
ARC
  5
12A
330
2
100
AcDbEntity
  8
LINEWORK
 62
     7
370
    30
100
AcDbCircle
 10
89.88131940468475
 20
57.88045172440104
 30
0.0
 40
1.61789059067997
100
AcDbArc
 50
185.0160721536892
 51
211.8951151661139
  0
ARC
  5
12B
330
2
100
AcDbEntity
  8
LINEWORK
 62
     7
370
    30
100
AcDbCircle
 10
89.88131940468486
 20
57.88045172440092
 30
0.0
 40
1.617890590680006
100
AcDbArc
 50
211.8951151661083
 51
238.9442723235971
  0
ARC
  5
12C
330
2
100
AcDbEntity
  8
LINEWORK
 62
     7
370
    30
100
AcDbCircle
 10
86.80505972035883
 20
61.5175214227769
 30
0.0
 40
3.059999999999995
100
AcDbArc
 50
299.2443398092751
 51
22.16411460982637
  0
LINE
  5
12D
330
2
100
AcDbEntity
  8
LINEWORK
 62
     7
370
    30
100
AcDbLine
 10
101.5747687914305
 20
62.88951637337664
 30
0.0
 11
101.6389472987528
 21
62.6719395415812
 31
0.0
  0
LINE
  5
12E
330
2
100
AcDbEntity
  8
LINEWORK
 62
     7
370
    30
100
AcDbLine
 10
101.9315394932141
 20
54.00266310410427
 30
0.0
 11
101.9315394932141
 21
49.85906926434404
 31
0.0
  0
LINE
  5
12F
330
2
100
AcDbEntity
  8
LINEWORK
 62
     7
370
    30
100
AcDbLine
 10
101.046695695694
 20
54.62766310410405
 30
0.0
 11
101.9315394932141
 21
54.00266310410427
 31
0.0
  0
ARC
  5
130
330
2
100
AcDbEntity
  8
LINEWORK
 62
     7
370
    30
100
AcDbCircle
 10
101.046695695694
 20
55.49883496062341
 30
0.0
 40
0.5078341732406493
100
AcDbArc
 50
270.0
 51
90.0
  0
LINE
  5
131
330
2
100
AcDbEntity
  8
LINEWORK
 62
     7
370
    30
100
AcDbLine
 10
101.046695695694
 20
56.49445993950405
 30
0.0
 11
101.046695695694
 21
56.00666913386419
 31
0.0
  0
LINE
  5
132
330
2
100
AcDbEntity
  8
LINEWORK
 62
     7
370
    30
100
AcDbLine
 10
101.046695695694
 20
54.99100078738286
 30
0.0
 11
101.046695695694
 21
54.62766310410405
 31
0.0
  0
LINE
  5
133
330
2
100
AcDbEntity
  8
LINEWORK
 62
     7
370
    30
100
AcDbLine
 10
99.03652377363414
 20
51.28975046436892
 30
0.0
 11
98.53652377363415
 21
51.28975046436892
 31
0.0
  0
LINE
  5
134
330
2
100
AcDbEntity
  8
LINEWORK
 62
     7
370
    30
100
AcDbLine
 10
100.2696249941315
 20
57.73899116310406
 30
0.0
 11
97.34345399229688
 21
57.73899116310406
 31
0.0
  0
LINE
  5
135
330
2
100
AcDbEntity
  8
LINEWORK
 62
     7
370
    30
100
AcDbLine
 10
100.2999769615341
 20
58.84753594677966
 30
0.0
 11
97.31310202489419
 21
58.84753594677966
 31
0.0
  0
LINE
  5
136
330
2
100
AcDbEntity
  8
LINEWORK
 62
     7
370
    30
100
AcDbLine
 10
100.299976961534
 20
58.48923505798291
 30
0.0
 11
97.31310202489419
 21
58.48570989726408
 31
0.0
  0
LINE
  5
137
330
2
100
AcDbEntity
  8
LINEWORK
 62
     7
370
    30
100
AcDbLine
 10
97.31310202489419
 20
58.48923505798291
 30
0.0
 11
97.31310202489419
 21
58.84753594677966
 31
0.0
  0
LINE
  5
138
330
2
100
AcDbEntity
  8
LINEWORK
 62
     7
370
    30
100
AcDbLine
 10
97.31310202489419
 20
58.48570989726408
 30
0.0
 11
97.31310202489419
 21
58.85906926434405
 31
0.0
  0
ARC
  5
139
330
2
100
AcDbEntity
  8
LINEWORK
 62
     7
370
    30
100
AcDbCircle
 10
100.0641007429641
 20
58.12304178877764
 30
0.0
 40
0.4355859282600063
100
AcDbArc
 50
298.1534114870492
 51
57.21318379421927
  0
LINE
  5
13A
330
2
100
AcDbEntity
  8
LINEWORK
 62
     7
370
    30
100
AcDbLine
 10
100.2999769615341
 20
58.84753594677966
 30
0.0
 11
100.299976961534
 21
58.48923505798291
 31
0.0
  0
ARC
  5
13B
330
2
100
AcDbEntity
  8
LINEWORK
 62
     7
370
    30
100
AcDbCircle
 10
101.8813194046847
 20
57.88045172440104
 30
0.0
 40
1.61789059067997
100
AcDbArc
 50
185.0160721536892
 51
211.8951151661139
  0
ARC
  5
13C
330
2
100
AcDbEntity
  8
LINEWORK
 62
     7
370
    30
100
AcDbCircle
 10
101.8813194046848
 20
57.88045172440092
 30
0.0
 40
1.617890590680006
100
AcDbArc
 50
211.8951151661083
 51
238.9442723235971
  0
ARC
  5
13D
330
2
100
AcDbEntity
  8
LINEWORK
 62
     7
370
    30
100
AcDbCircle
 10
98.80505972035884
 20
61.5175214227769
 30
0.0
 40
3.059999999999995
100
AcDbArc
 50
299.2443398092751
 51
22.16411460982637
  0
LINE
  5
13E
330
2
100
AcDbEntity
  8
leaders
 62
     1
370
    30
100
AcDbLine
 10
89.70726015777552
 20
84.520158593548
 30
0.0
 11
73.73293688494881
 21
105.72368492718
 31
0.0
  0
LINE
  5
13F
330
2
100
AcDbEntity
  8
LINEWORK
 62
     7
370
    30
100
AcDbLine
 10
69.49514881015772
 20
86.75281926434422
 30
0.0
 11
105.5517741982762
 21
86.75281926434422
 31
0.0
  0
LINE
  5
140
330
2
100
AcDbEntity
  8
LINEWORK
 62
     7
370
    30
100
AcDbLine
 10
88.04602868526524
 20
76.218037167705
 30
0.0
 11
85.56705030116324
 21
76.218037167705
 31
0.0
  0
LINE
  5
141
330
2
100
AcDbEntity
  8
LINEWORK
 62
     7
370
    30
100
AcDbLine
 10
88.04602868526513
 20
75.72013116323558
 30
0.0
 11
85.56705030116324
 21
75.72313171154405
 31
0.0
  0
LINE
  5
142
330
2
100
AcDbEntity
  8
LINEWORK
 62
     7
370
    30
100
AcDbLine
 10
87.05703949321422
 20
80.16121837429546
 30
0.0
 11
86.55703949321424
 21
80.16121837429546
 31
0.0
  0
LINE
  5
143
330
2
100
AcDbEntity
  8
LINEWORK
  6
DASHED
 62
     7
 48
2.0
370
    30
100
AcDbLine
 10
86.55703949321424
 20
83.96412818786734
 30
0.0
 11
87.05703949321422
 21
83.96412818786734
 31
0.0
  0
LWPOLYLINE
  5
144
330
2
100
AcDbEntity
  8
LINEWORK
 62
     7
370
    30
100
AcDbPolyline
 90
        3
 70
     0
 43
0.0
 10
83.74453949321424
 20
78.21547542458404
 42
0.0986293308078618
 10
86.84030001071539
 20
77.61226104157924
 42
0.0965182816833348
 10
89.86853949321414
 20
78.21547542458404
 42
0.0965182816833348
  0
LINE
  5
145
330
2
100
AcDbEntity
  8
LINEWORK
 62
     7
370
    30
100
AcDbLine
 10
84.31333560168821
 20
77.46547542458404
 30
0.0
 11
89.29974338474016
 21
77.46547542458404
 31
0.0
  0
LINE
  5
146
330
2
100
AcDbEntity
  8
LINEWORK
 62
     7
370
    30
100
AcDbLine
 10
83.74453949321424
 20
81.73406926434404
 30
0.0
 11
89.86853949321414
 21
81.73406926434404
 31
0.0
  0
LINE
  5
147
330
2
100
AcDbEntity
  8
LINEWORK
 62
     7
370
    30
100
AcDbLine
 10
88.48251520041731
 20
73.72494900472805
 30
0.0
 11
85.13056378601106
 21
73.72494900472805
 31
0.0
  0
LINE
  5
148
330
2
100
AcDbEntity
  8
LINEWORK
 62
     7
370
    30
100
AcDbLine
 10
88.48251520074825
 20
73.23406926434405
 30
0.0
 11
85.13056378568013
 21
73.23406926434405
 31
0.0
  0
LINE
  5
149
330
2
100
AcDbEntity
  8
LINEWORK
 62
     7
370
    30
100
AcDbLine
 10
69.52677419827591
 20
83.20906926434417
 30
0.0
 11
105.5517741982762
 21
83.2090692643443
 31
0.0
  0
LINE
  5
14A
330
2
100
AcDbEntity
  8
LINEWORK
 62
     7
370
    30
100
AcDbLine
 10
69.52677419827591
 20
82.65906926434423
 30
0.0
 11
105.5517741982761
 21
82.65906926434411
 31
0.0
  0
LINE
  5
14B
330
2
100
AcDbEntity
  8
LINEWORK
 62
     7
370
    30
100
AcDbLine
 10
68.42677419827544
 20
82.10906926434404
 30
0.0
 11
105.5517741982762
 21
82.10906926434404
 31
0.0
  0
LINE
  5
14C
330
2
100
AcDbEntity
  8
LINEWORK
 62
     7
370
    30
100
AcDbLine
 10
71.74453949321423
 20
81.73406926434404
 30
0.0
 11
77.86853949321415
 21
81.73406926434404
 31
0.0
  0
ARC
  5
14D
330
2
100
AcDbEntity
  8
LINEWORK
 62
     7
370
    30
100
AcDbCircle
 10
75.97866059375758
 20
77.42845165010192
 30
0.0
 40
1.212287787181591
100
AcDbArc
 50
273.1856270267325
 51
355.8642780160781
  0
LINE
  5
14E
330
2
100
AcDbEntity
  8
LINEWORK
 62
     7
370
    30
100
AcDbLine
 10
76.15129237638484
 20
74.90443316932362
 30
0.0
 11
76.39718890089682
 21
74.77308474563859
 31
0.0
  0
LINE
  5
14F
330
2
100
AcDbEntity
  8
LINEWORK
 62
     7
370
    30
100
AcDbLine
 10
76.48251520074826
 20
73.23406926434405
 30
0.0
 11
73.13056378568012
 21
73.23406926434405
 31
0.0
  0
LINE
  5
150
330
2
100
AcDbEntity
  8
LINEWORK
 62
     7
370
    30
100
AcDbLine
 10
76.48251520041731
 20
73.72494900472805
 30
0.0
 11
73.13056378601107
 21
73.72494900472805
 31
0.0
  0
LINE
  5
151
330
2
100
AcDbEntity
  8
LINEWORK
 62
     7
370
    30
100
AcDbLine
 10
72.3133356016882
 20
77.46547542458404
 30
0.0
 11
77.29974338474017
 21
77.46547542458404
 31
0.0
  0
LWPOLYLINE
  5
152
330
2
100
AcDbEntity
  8
LINEWORK
 62
     7
370
    30
100
AcDbPolyline
 90
        3
 70
     0
 43
0.0
 10
71.74453949321423
 20
78.21547542458404
 42
0.0986293308078618
 10
74.84030001071539
 20
77.61226104157924
 42
0.0965182816833348
 10
77.86853949321415
 20
78.21547542458404
 42
0.0965182816833348
  0
LINE
  5
153
330
2
100
AcDbEntity
  8
LINEWORK
 62
     7
370
    30
100
AcDbLine
 10
68.80547146657296
 20
72.4914341228141
 30
0.0
 11
68.86964997389532
 21
72.70901095460954
 31
0.0
  0
LINE
  5
154
330
2
100
AcDbEntity
  8
LINEWORK
 62
     7
370
    30
100
AcDbLine
 10
71.801774198276
 20
85.95906926434395
 30
0.0
 11
69.49514881015772
 21
86.78406926434423
 31
0.0
  0
LINE
  5
155
330
2
100
AcDbEntity
  8
LINEWORK
 62
     7
370
    30
100
AcDbLine
 10
71.80177419827225
 20
84.99656926434397
 30
0.0
 11
71.801774198276
 21
85.95906926434395
 31
0.0
  0
LINE
  5
156
330
2
100
AcDbEntity
  8
LINEWORK
 62
     7
370
    30
100
AcDbLine
 10
69.49514881015772
 20
86.78406926434423
 30
0.0
 11
69.49514881015772
 21
86.75281926434422
 31
0.0
  0
LINE
  5
157
330
2
100
AcDbEntity
  8
LINEWORK
 62
     7
370
    30
100
AcDbLine
 10
71.80177419827237
 20
84.99656926434409
 30
0.0
 11
71.82014578697942
 21
84.99656926434409
 31
0.0
  0
LINE
  5
158
330
2
100
AcDbEntity
  8
LINEWORK
  6
DASHED
 62
     7
 48
2.0
370
    30
100
AcDbLine
 10
74.55703949321423
 20
83.96412818786734
 30
0.0
 11
75.05703949321423
 21
83.96412818786734
 31
0.0
  0
ARC
  5
159
330
2
100
AcDbEntity
  8
LINEWORK
370
    30
100
AcDbCircle
 10
72.17206470217854
 20
84.29309238818223
 30
0.0
 40
0.7949809888151388
100
AcDbArc
 50
117.7610608705285
 51
173.8819545312773
  0
LINE
  5
15A
330
2
100
AcDbEntity
  8
LINEWORK
 62
     7
370
    30
100
AcDbLine
 10
71.74453949321423
 20
78.21547542458404
 30
0.0
 11
71.74453949321423
 21
81.73406926434404
 31
0.0
  0
LINE
  5
15B
330
2
100
AcDbEntity
  8
LINEWORK
 62
     7
370
    30
100
AcDbLine
 10
75.05703949321423
 20
80.16121837429546
 30
0.0
 11
74.55703949321423
 21
80.16121837429546
 31
0.0
  0
LINE
  5
15C
330
2
100
AcDbEntity
  8
LINEWORK
 62
     7
370
    30
100
AcDbLine
 10
76.04602868526524
 20
76.218037167705
 30
0.0
 11
76.04602868526512
 21
75.72013116323558
 31
0.0
  0
ARC
  5
15D
330
2
100
AcDbEntity
  8
LINEWORK
 62
     7
370
    30
100
AcDbCircle
 10
76.38917535897815
 20
75.34977234446398
 30
0.0
 40
0.5048913688330881
100
AcDbArc
 50
132.8158741798777
 51
241.8905892994634
  0
LINE
  5
15E
330
2
100
AcDbEntity
  8
LINEWORK
 62
     7
370
    30
100
AcDbLine
 10
73.56705030116325
 20
76.218037167705
 30
0.0
 11
73.56705030116325
 21
75.72313171154405
 31
0.0
  0
LINE
  5
15F
330
2
100
AcDbEntity
  8
LINEWORK
 62
     7
370
    30
100
AcDbLine
 10
73.56705030116325
 20
75.72013116323558
 30
0.0
 11
73.56705030116325
 21
76.218037167705
 31
0.0
  0
LINE
  5
160
330
2
100
AcDbEntity
  8
LINEWORK
 62
     7
370
    30
100
AcDbLine
 10
72.42528738732892
 20
77.34102230222402
 30
0.0
 11
72.3133356016882
 21
77.46547542458404
 31
0.0
  0
ARC
  5
161
330
2
100
AcDbEntity
  8
LINEWORK
 62
     7
370
    30
100
AcDbCircle
 10
73.63441839267079
 20
77.42845165010192
 30
0.0
 40
1.212287787181588
100
AcDbArc
 50
184.1357219839217
 51
266.8143729732673
  0
LINE
  5
162
330
2
100
AcDbEntity
  8
LINEWORK
 62
     7
370
    30
100
AcDbLine
 10
73.21589008553155
 20
74.77308474563859
 30
0.0
 11
73.46178661004353
 21
74.90443316932362
 31
0.0
  0
LINE
  5
163
330
2
100
AcDbEntity
  8
LINEWORK
 62
     7
370
    30
100
AcDbLine
 10
73.27799553912427
 20
73.17184270316352
 30
0.0
 11
73.13056378568012
 21
73.23406926434405
 31
0.0
  0
LINE
  5
164
330
2
100
AcDbEntity
  8
LINEWORK
 62
     7
370
    30
100
AcDbLine
 10
73.13056378568012
 20
73.23406926434405
 30
0.0
 11
73.13056378601107
 21
73.72494900472805
 31
0.0
  0
ARC
  5
165
330
2
100
AcDbEntity
  8
LINEWORK
 62
     7
370
    30
100
AcDbCircle
 10
73.4105833109902
 20
74.229694243224
 30
0.0
 40
0.5772163287311272
100
AcDbArc
 50
109.7122663506804
 51
240.9796266717856
  0
ARC
  5
166
330
2
100
AcDbEntity
  8
LINEWORK
 62
     7
370
    30
100
AcDbCircle
 10
73.22390362745022
 20
75.34977234446398
 30
0.0
 40
0.5048913688330902
100
AcDbArc
 50
298.1094107005395
 51
47.18412582012463
  0
LINE
  5
167
330
2
100
AcDbEntity
  8
LINEWORK
 62
     7
370
    30
100
AcDbLine
 10
76.04602868526512
 20
75.72013116323558
 30
0.0
 11
73.56705030116325
 21
75.72313171154405
 31
0.0
  0
LINE
  5
168
330
2
100
AcDbEntity
  8
LINEWORK
 62
     7
370
    30
100
AcDbLine
 10
76.04602868526524
 20
76.218037167705
 30
0.0
 11
73.56705030116325
 21
76.218037167705
 31
0.0
  0
LINE
  5
169
330
2
100
AcDbEntity
  8
LINEWORK
 62
     7
370
    30
100
AcDbLine
 10
72.3133356016882
 20
77.46547542458404
 30
0.0
 11
71.74453949321423
 21
78.09047542458404
 31
0.0
  0
LINE
  5
16A
330
2
100
AcDbEntity
  8
LINEWORK
370
    30
100
AcDbLine
 10
70.15177419827591
 20
82.65906926434423
 30
0.0
 11
70.15177419827591
 21
83.20906926434417
 31
0.0
  0
ARC
  5
16B
330
2
100
AcDbEntity
  8
LINEWORK
370
    30
100
AcDbCircle
 10
69.60177419827562
 20
82.10906926434381
 30
0.0
 40
0.5500000000002502
100
AcDbArc
 50
89.99999999997395
 51
179.9999999999739
  0
ARC
  5
16C
330
2
100
AcDbEntity
  8
LINEWORK
370
    30
100
AcDbCircle
 10
70.08866821791059
 20
84.506907446407
 30
0.0
 40
1.299371506374636
100
AcDbArc
 50
272.7837529373822
 51
354.2984521406142
  0
LINE
  5
16D
330
2
100
AcDbEntity
  8
LINEWORK
  6
DASHED
 62
     7
 48
2.0
370
    30
100
AcDbLine
 10
74.55703949321423
 20
80.16121837429546
 30
0.0
 11
74.55703949321423
 21
83.90732632382309
 31
0.0
  0
LINE
  5
16E
330
2
100
AcDbEntity
  8
LINEWORK
  6
DASHED
 62
     7
 48
2.0
370
    30
100
AcDbLine
 10
75.05703949321423
 20
83.90732632382309
 30
0.0
 11
75.05703949321423
 21
80.16121837429546
 31
0.0
  0
TEXT
  5
16F
330
2
100
AcDbEntity
  8
leaders
 62
     1
370
    30
100
AcDbText
 10
73.52763146056645
 20
81.2021520723805
 30
0.0
 40
1.799999999999999
  1
~
 50
228.3920175752057
100
AcDbText
  0
SOLID
  5
170
330
2
100
AcDbEntity
  8
leaders
 62
     1
370
    30
100
AcDbTrace
 10
72.54962664036543
 20
80.92973753418267
 30
0.0
 11
72.23029637914783
 21
80.68884713530655
 31
0.0
 12
73.11263270638483
 22
79.85130155109198
 32
0.0
 13
73.11263270638483
 23
79.85130155109198
 33
0.0
  0
LINE
  5
171
330
2
100
AcDbEntity
  8
LINEWORK
  6
DASHED
 62
     7
 48
2.0
370
    30
100
AcDbLine
 10
86.55703949321424
 20
80.16121837429546
 30
0.0
 11
86.55703949321424
 21
83.90732632382309
 31
0.0
  0
LINE
  5
172
330
2
100
AcDbEntity
  8
LINEWORK
 62
     7
370
    30
100
AcDbLine
 10
84.31333560168821
 20
77.46547542458404
 30
0.0
 11
83.74453949321424
 21
78.09047542458404
 31
0.0
  0
ARC
  5
173
330
2
100
AcDbEntity
  8
LINEWORK
 62
     7
370
    30
100
AcDbCircle
 10
85.22390362745023
 20
75.34977234446398
 30
0.0
 40
0.5048913688330902
100
AcDbArc
 50
298.1094107005395
 51
47.18412582012463
  0
LINE
  5
174
330
2
100
AcDbEntity
  8
LINEWORK
 62
     7
370
    30
100
AcDbLine
 10
85.21589008553155
 20
74.77308474563859
 30
0.0
 11
85.46178661004352
 21
74.90443316932362
 31
0.0
  0
ARC
  5
175
330
2
100
AcDbEntity
  8
LINEWORK
 62
     7
370
    30
100
AcDbCircle
 10
85.63441839267079
 20
77.42845165010192
 30
0.0
 40
1.212287787181588
100
AcDbArc
 50
184.1357219839217
 51
266.8143729732673
  0
LINE
  5
176
330
2
100
AcDbEntity
  8
LINEWORK
 62
     7
370
    30
100
AcDbLine
 10
84.42528738732892
 20
77.34102230222402
 30
0.0
 11
84.31333560168821
 21
77.46547542458404
 31
0.0
  0
LINE
  5
177
330
2
100
AcDbEntity
  8
LINEWORK
 62
     7
370
    30
100
AcDbLine
 10
85.56705030116324
 20
75.72013116323558
 30
0.0
 11
85.56705030116324
 21
76.218037167705
 31
0.0
  0
LINE
  5
178
330
2
100
AcDbEntity
  8
LINEWORK
 62
     7
370
    30
100
AcDbLine
 10
85.56705030116324
 20
76.218037167705
 30
0.0
 11
85.56705030116324
 21
75.72313171154405
 31
0.0
  0
LINE
  5
179
330
2
100
AcDbEntity
  8
LINEWORK
 62
     7
370
    30
100
AcDbLine
 10
83.74453949321424
 20
78.21547542458404
 30
0.0
 11
83.74453949321424
 21
81.73406926434404
 31
0.0
  0
LINE
  5
17A
330
2
100
AcDbEntity
  8
LINEWORK
 62
     7
370
    30
100
AcDbLine
 10
85.13056378568013
 20
73.23406926434405
 30
0.0
 11
85.13056378601106
 21
73.72494900472805
 31
0.0
  0
LINE
  5
17B
330
2
100
AcDbEntity
  8
LINEWORK
 62
     7
370
    30
100
AcDbLine
 10
85.27799553912428
 20
73.17184270316352
 30
0.0
 11
85.13056378568013
 21
73.23406926434405
 31
0.0
  0
ARC
  5
17C
330
2
100
AcDbEntity
  8
LINEWORK
 62
     7
370
    30
100
AcDbCircle
 10
85.41058331099021
 20
74.229694243224
 30
0.0
 40
0.5772163287311272
100
AcDbArc
 50
109.7122663506804
 51
240.9796266717856
  0
LINE
  5
17D
330
2
100
AcDbEntity
  8
LINEWORK
 62
     7
370
    30
100
AcDbLine
 10
77.86853949321415
 20
78.21547542458404
 30
0.0
 11
77.86853949321415
 21
81.73406926434404
 31
0.0
  0
LINE
  5
17E
330
2
100
AcDbEntity
  8
LINEWORK
 62
     7
370
    30
100
AcDbLine
 10
77.29974338474017
 20
77.46547542458404
 30
0.0
 11
77.18779159909956
 21
77.34102230222402
 31
0.0
  0
LINE
  5
17F
330
2
100
AcDbEntity
  8
LINEWORK
 62
     7
370
    30
100
AcDbLine
 10
76.48251520041731
 20
73.72494900472805
 30
0.0
 11
76.48251520074826
 21
73.23406926434405
 31
0.0
  0
LINE
  5
180
330
2
100
AcDbEntity
  8
LINEWORK
 62
     7
370
    30
100
AcDbLine
 10
76.48251520074826
 20
73.23406926434405
 30
0.0
 11
76.3350834473041
 21
73.17184270316352
 31
0.0
  0
ARC
  5
181
330
2
100
AcDbEntity
  8
LINEWORK
 62
     7
370
    30
100
AcDbCircle
 10
76.20249567543817
 20
74.229694243224
 30
0.0
 40
0.5772163287311272
100
AcDbArc
 50
299.0203733282115
 51
70.28773364931645
  0
LINE
  5
182
330
2
100
AcDbEntity
  8
LINEWORK
 62
     7
370
    30
100
AcDbLine
 10
77.86853949321415
 20
78.09047542458404
 30
0.0
 11
77.29974338474017
 21
77.46547542458404
 31
0.0
  0
ARC
  5
183
330
2
100
AcDbEntity
  8
LINEWORK
 62
     7
370
    30
100
AcDbCircle
 10
97.6344183926708
 20
77.42845165010192
 30
0.0
 40
1.212287787181588
100
AcDbArc
 50
184.1357219839217
 51
266.8143729732673
  0
LWPOLYLINE
  5
184
330
2
100
AcDbEntity
  8
LINEWORK
 62
     7
370
    30
100
AcDbPolyline
 90
        3
 70
     0
 43
0.0
 10
95.74453949321423
 20
78.21547542458404
 42
0.0986293308078618
 10
98.8403000107154
 20
77.61226104157924
 42
0.0965182816833348
 10
101.8685394932141
 20
78.21547542458404
 42
0.0965182816833348
  0
LINE
  5
185
330
2
100
AcDbEntity
  8
LINEWORK
 62
     7
370
    30
100
AcDbLine
 10
96.31333560168821
 20
77.46547542458404
 30
0.0
 11
101.2997433847401
 21
77.46547542458404
 31
0.0
  0
LINE
  5
186
330
2
100
AcDbEntity
  8
LINEWORK
 62
     7
370
    30
100
AcDbLine
 10
95.74453949321423
 20
81.73406926434404
 30
0.0
 11
101.8685394932141
 21
81.73406926434404
 31
0.0
  0
LINE
  5
187
330
2
100
AcDbEntity
  8
LINEWORK
 62
     7
370
    30
100
AcDbLine
 10
100.4825152004173
 20
73.72494900472805
 30
0.0
 11
97.13056378601107
 21
73.72494900472805
 31
0.0
  0
LINE
  5
188
330
2
100
AcDbEntity
  8
LINEWORK
 62
     7
370
    30
100
AcDbLine
 10
100.4825152007482
 20
73.23406926434405
 30
0.0
 11
97.13056378568012
 21
73.23406926434405
 31
0.0
  0
LINE
  5
189
330
2
100
AcDbEntity
  8
LINEWORK
 62
     7
370
    30
100
AcDbLine
 10
97.27799553912428
 20
73.17184270316352
 30
0.0
 11
97.13056378568012
 21
73.23406926434405
 31
0.0
  0
ARC
  5
18A
330
2
100
AcDbEntity
  8
LINEWORK
 62
     7
370
    30
100
AcDbCircle
 10
97.4105833109902
 20
74.229694243224
 30
0.0
 40
0.5772163287311272
100
AcDbArc
 50
109.7122663506804
 51
240.9796266717856
  0
SOLID
  5
18B
330
2
100
AcDbEntity
  8
leaders
 62
     1
370
    30
100
AcDbTrace
 10
89.13190637451306
 20
85.59205785377992
 30
0.0
 11
88.81536357569542
 21
85.34751612622278
 31
0.0
 12
89.70726015777552
 22
84.520158593548
 32
0.0
 13
89.70726015777552
 23
84.520158593548
 33
0.0
  0
TEXT
  5
18C
330
2
100
AcDbEntity
  8
leaders
 62
     1
370
    30
100
AcDbText
 10
90.10671827082717
 20
85.87568591262163
 30
0.0
 40
1.799999999999999
  1
~
 50
229.050021308462
100
AcDbText
  0
LINE
  5
18D
330
2
100
AcDbEntity
  8
LINEWORK
 62
     7
370
    30
100
AcDbLine
 10
96.31333560168821
 20
77.46547542458404
 30
0.0
 11
95.74453949321423
 21
78.09047542458404
 31
0.0
  0
LINE
  5
18E
330
2
100
AcDbEntity
  8
LINEWORK
 62
     7
370
    30
100
AcDbLine
 10
96.42528738732892
 20
77.34102230222402
 30
0.0
 11
96.31333560168821
 21
77.46547542458404
 31
0.0
  0
LINE
  5
18F
330
2
100
AcDbEntity
  8
LINEWORK
 62
     7
370
    30
100
AcDbLine
 10
95.74453949321423
 20
78.21547542458404
 30
0.0
 11
95.74453949321423
 21
81.73406926434404
 31
0.0
  0
LINE
  5
190
330
2
100
AcDbEntity
  8
LINEWORK
 62
     7
370
    30
100
AcDbLine
 10
97.13056378568012
 20
73.23406926434405
 30
0.0
 11
97.13056378601107
 21
73.72494900472805
 31
0.0
  0
LINE
  5
191
330
2
100
AcDbEntity
  8
LINEWORK
 62
     7
370
    30
100
AcDbLine
 10
89.86853949321414
 20
78.09047542458404
 30
0.0
 11
89.29974338474016
 21
77.46547542458404
 31
0.0
  0
LINE
  5
192
330
2
100
AcDbEntity
  8
LINEWORK
 62
     7
370
    30
100
AcDbLine
 10
89.29974338474016
 20
77.46547542458404
 30
0.0
 11
89.18779159909957
 21
77.34102230222402
 31
0.0
  0
LINE
  5
193
330
2
100
AcDbEntity
  8
LINEWORK
 62
     7
370
    30
100
AcDbLine
 10
89.86853949321414
 20
78.21547542458404
 30
0.0
 11
89.86853949321414
 21
81.73406926434404
 31
0.0
  0
LINE
  5
194
330
2
100
AcDbEntity
  8
LINEWORK
  6
DASHED
 62
     7
 48
2.0
370
    30
100
AcDbLine
 10
87.05703949321422
 20
83.90732632382309
 30
0.0
 11
87.05703949321422
 21
80.16121837429546
 31
0.0
  0
ARC
  5
195
330
2
100
AcDbEntity
  8
LINEWORK
 62
     7
370
    30
100
AcDbCircle
 10
88.38917535897815
 20
75.34977234446398
 30
0.0
 40
0.5048913688330881
100
AcDbArc
 50
132.8158741798777
 51
241.8905892994634
  0
LINE
  5
196
330
2
100
AcDbEntity
  8
LINEWORK
 62
     7
370
    30
100
AcDbLine
 10
88.15129237638485
 20
74.90443316932362
 30
0.0
 11
88.39718890089683
 21
74.77308474563859
 31
0.0
  0
LINE
  5
197
330
2
100
AcDbEntity
  8
LINEWORK
 62
     7
370
    30
100
AcDbLine
 10
88.04602868526524
 20
76.218037167705
 30
0.0
 11
88.04602868526513
 21
75.72013116323558
 31
0.0
  0
ARC
  5
198
330
2
100
AcDbEntity
  8
LINEWORK
 62
     7
370
    30
100
AcDbCircle
 10
87.97866059375758
 20
77.42845165010192
 30
0.0
 40
1.212287787181591
100
AcDbArc
 50
273.1856270267325
 51
355.8642780160781
  0
LINE
  5
199
330
2
100
AcDbEntity
  8
LINEWORK
 62
     7
370
    30
100
AcDbLine
 10
88.48251520074825
 20
73.23406926434405
 30
0.0
 11
88.33508344730409
 21
73.17184270316352
 31
0.0
  0
LINE
  5
19A
330
2
100
AcDbEntity
  8
LINEWORK
 62
     7
370
    30
100
AcDbLine
 10
88.48251520041731
 20
73.72494900472805
 30
0.0
 11
88.48251520074825
 21
73.23406926434405
 31
0.0
  0
ARC
  5
19B
330
2
100
AcDbEntity
  8
LINEWORK
 62
     7
370
    30
100
AcDbCircle
 10
88.20249567543816
 20
74.229694243224
 30
0.0
 40
0.5772163287311272
100
AcDbArc
 50
299.0203733282115
 51
70.28773364931645
  0
SOLID
  5
19C
330
2
100
AcDbEntity
  8
leaders
 62
     1
370
    30
100
AcDbTrace
 10
99.77787955947816
 20
87.7732749458895
 30
0.0
 11
99.41111978024139
 21
87.93292225821948
 31
0.0
 12
99.11555773286966
 22
86.75281926434422
 32
0.0
 13
99.11555773286966
 23
86.75281926434422
 33
0.0
  0
LINE
  5
19D
330
2
100
AcDbEntity
  8
LINEWORK
 62
     7
370
    30
100
AcDbLine
 10
105.5517741982762
 20
82.10906926434404
 30
0.0
 11
105.5517741982762
 21
86.75281926434422
 31
0.0
  0
LINE
  5
19E
330
2
100
AcDbEntity
  8
LINEWORK
 62
     7
370
    30
100
AcDbLine
 10
101.8685394932141
 20
78.09047542458404
 30
0.0
 11
101.2997433847401
 21
77.46547542458404
 31
0.0
  0
LINE
  5
19F
330
2
100
AcDbEntity
  8
LINEWORK
 62
     7
370
    30
100
AcDbLine
 10
101.2997433847401
 20
77.46547542458404
 30
0.0
 11
101.1877915990995
 21
77.34102230222402
 31
0.0
  0
LINE
  5
1A0
330
2
100
AcDbEntity
  8
LINEWORK
 62
     7
370
    30
100
AcDbLine
 10
101.8685394932141
 20
78.21547542458404
 30
0.0
 11
101.8685394932141
 21
81.73406926434404
 31
0.0
  0
LINE
  5
1A1
330
2
100
AcDbEntity
  8
LINEWORK
  6
DASHED
 62
     7
 48
2.0
370
    30
100
AcDbLine
 10
99.05703949321424
 20
83.90732632382309
 30
0.0
 11
99.05703949321424
 21
80.16121837429546
 31
0.0
  0
LINE
  5
1A2
330
2
100
AcDbEntity
  8
LINEWORK
  6
DASHED
 62
     7
 48
2.0
370
    30
100
AcDbLine
 10
98.55703949321423
 20
80.16121837429546
 30
0.0
 11
98.55703949321423
 21
83.90732632382309
 31
0.0
  0
LINE
  5
1A3
330
2
100
AcDbEntity
  8
LINEWORK
 62
     7
370
    30
100
AcDbLine
 10
100.0460286852652
 20
76.218037167705
 30
0.0
 11
97.56705030116325
 21
76.218037167705
 31
0.0
  0
LINE
  5
1A4
330
2
100
AcDbEntity
  8
LINEWORK
 62
     7
370
    30
100
AcDbLine
 10
100.0460286852651
 20
75.72013116323558
 30
0.0
 11
97.56705030116325
 21
75.72313171154405
 31
0.0
  0
ARC
  5
1A5
330
2
100
AcDbEntity
  8
LINEWORK
 62
     7
370
    30
100
AcDbCircle
 10
97.22390362745024
 20
75.34977234446398
 30
0.0
 40
0.5048913688330902
100
AcDbArc
 50
298.1094107005395
 51
47.18412582012463
  0
LINE
  5
1A6
330
2
100
AcDbEntity
  8
LINEWORK
 62
     7
370
    30
100
AcDbLine
 10
97.21589008553156
 20
74.77308474563859
 30
0.0
 11
97.46178661004353
 21
74.90443316932362
 31
0.0
  0
LINE
  5
1A7
330
2
100
AcDbEntity
  8
LINEWORK
 62
     7
370
    30
100
AcDbLine
 10
97.56705030116325
 20
75.72013116323558
 30
0.0
 11
97.56705030116325
 21
76.218037167705
 31
0.0
  0
LINE
  5
1A8
330
2
100
AcDbEntity
  8
LINEWORK
 62
     7
370
    30
100
AcDbLine
 10
97.56705030116325
 20
76.218037167705
 30
0.0
 11
97.56705030116325
 21
75.72313171154405
 31
0.0
  0
ARC
  5
1A9
330
2
100
AcDbEntity
  8
LINEWORK
 62
     7
370
    30
100
AcDbCircle
 10
100.3891753589781
 20
75.34977234446398
 30
0.0
 40
0.5048913688330881
100
AcDbArc
 50
132.8158741798777
 51
241.8905892994634
  0
LINE
  5
1AA
330
2
100
AcDbEntity
  8
LINEWORK
 62
     7
370
    30
100
AcDbLine
 10
100.1512923763848
 20
74.90443316932362
 30
0.0
 11
100.3971889008968
 21
74.77308474563859
 31
0.0
  0
LINE
  5
1AB
330
2
100
AcDbEntity
  8
LINEWORK
 62
     7
370
    30
100
AcDbLine
 10
100.0460286852652
 20
76.218037167705
 30
0.0
 11
100.0460286852651
 21
75.72013116323558
 31
0.0
  0
LINE
  5
1AC
330
2
100
AcDbEntity
  8
LINEWORK
 62
     7
370
    30
100
AcDbLine
 10
99.05703949321424
 20
80.16121837429546
 30
0.0
 11
98.55703949321423
 21
80.16121837429546
 31
0.0
  0
LINE
  5
1AD
330
2
100
AcDbEntity
  8
LINEWORK
  6
DASHED
 62
     7
 48
2.0
370
    30
100
AcDbLine
 10
98.55703949321423
 20
83.96412818786734
 30
0.0
 11
99.05703949321424
 21
83.96412818786734
 31
0.0
  0
ARC
  5
1AE
330
2
100
AcDbEntity
  8
LINEWORK
 62
     7
370
    30
100
AcDbCircle
 10
99.97866059375759
 20
77.42845165010192
 30
0.0
 40
1.212287787181591
100
AcDbArc
 50
273.1856270267325
 51
355.8642780160781
  0
LINE
  5
1AF
330
2
100
AcDbEntity
  8
LINEWORK
 62
     7
370
    30
100
AcDbLine
 10
100.4825152007482
 20
73.23406926434405
 30
0.0
 11
100.3350834473041
 21
73.17184270316352
 31
0.0
  0
LINE
  5
1B0
330
2
100
AcDbEntity
  8
LINEWORK
 62
     7
370
    30
100
AcDbLine
 10
100.4825152004173
 20
73.72494900472805
 30
0.0
 11
100.4825152007482
 21
73.23406926434405
 31
0.0
  0
ARC
  5
1B1
330
2
100
AcDbEntity
  8
LINEWORK
 62
     7
370
    30
100
AcDbCircle
 10
100.2024956754381
 20
74.229694243224
 30
0.0
 40
0.5772163287311272
100
AcDbArc
 50
299.0203733282115
 51
70.28773364931645
  0
LINE
  5
1B2
330
2
100
AcDbEntity
  8
leaders
 62
     1
370
    30
100
AcDbLine
 10
110.211075865264
 20
112.2426926694247
 30
0.0
 11
156.8404429317607
 21
112.2426926694247
 31
0.0
  0
MTEXT
  5
1B3
330
2
100
AcDbEntity
  8
leaders
 62
     1
370
    30
100
AcDbMText
 10
130.2798092763375
 20
106.3656600572746
 30
0.0
 40
2.307113255153573
 41
0.0
 71
     1
 72
     1
  1
1-800-789-4841
 73
     1
 44
1.0
1001
ACAD
1000
MTEXTBEGIN
1070
    73
1070
     1
1070
    44
1040
1.0
1070
    74
1070
     0
1000
MTEXTEND
1000
MTEXTBEGIN
1070
    73
1070
     1
1070
    44
1040
1.0
1070
    74
1070
     0
1000
MTEXTEND
1000
MTEXTBEGIN
1070
    73
1070
     1
1070
    44
1040
1.0
1070
    74
1070
     0
1000
MTEXTEND
1000
MTEXTBEGIN
1070
    73
1070
     1
1070
    44
1040
1.0
1070
    74
1070
     0
1000
MTEXTEND
1000
MTEXTBEGIN
1070
    73
1070
     1
1070
    44
1040
1.0
1070
    74
1070
     0
1000
MTEXTEND
  0
MTEXT
  5
1B4
330
2
100
AcDbEntity
  8
leaders
 62
     1
370
    30
100
AcDbMText
 10
130.0369954021966
 20
111.1042258666151
 30
0.0
 40
3.123313033679999
 41
0.0
 71
     1
 72
     1
  1
TannerStone
 73
     1
 44
1.0
1001
ACAD
1000
MTEXTBEGIN
1070
    73
1070
     1
1070
    44
1040
1.0
1070
    74
1070
     0
1000
MTEXTEND
1000
MTEXTBEGIN
1070
    73
1070
     1
1070
    44
1040
1.0
1070
    74
1070
     0
1000
MTEXTEND
1000
MTEXTBEGIN
1070
    73
1070
     1
1070
    44
1040
1.0
1070
    74
1070
     0
1000
MTEXTEND
1000
MTEXTBEGIN
1070
    73
1070
     1
1070
    44
1040
1.0
1070
    74
1070
     0
1000
MTEXTEND
1000
MTEXTBEGIN
1070
    73
1070
     1
1070
    44
1040
1.0
1070
    74
1070
     0
1000
MTEXTEND
  0
DIMENSION
  5
1B5
330
2
100
AcDbEntity
  8
DIM
 62
     7
370
    30
100
AcDbDimension
  2
*D4
 10
152.4930031148084
 20
86.34976740030049
 30
0.0
 11
152.4930031148084
 21
64.6823953872688
 31
0.0
 70
   160
 71
     5
 42
-1.0
  3
STANDARD
100
AcDbAlignedDimension
 13
127.1757741982762
 23
44.61226740030042
 33
0.0
 14
128.7032357485516
 24
86.34976740030049
 34
0.0
 50
90.0
100
AcDbRotatedDimension
1001
ACAD
1000
DSTYLE
1002
{
1070
   287
1070
     4
1070
   287
1070
     4
1070
   287
1070
     4
1070
   287
1070
     4
1070
   287
1070
     4
1070
   287
1070
     4
1070
    40
1040
2.399999999999999
1070
    73
1070
     1
1070
    74
1070
     1
1070
    77
1070
     0
1070
   147
1040
0.5
1070
   279
1070
     1
1070
   288
1070
     1
1070
   289
1070
     3
1002
}
  0
ARC
  5
1C4
330
2
100
AcDbEntity
  8
LINEWORK
 62
     7
370
    30
100
AcDbCircle
 10
150.3939304158104
 20
70.53367988497098
 30
0.0
 40
25.59086073989587
100
AcDbArc
 50
175.2000608467735
 51
198.5492702773649
  0
ARC
  5
1C5
330
2
100
AcDbEntity
  8
LINEWORK
 62
     7
370
    30
100
AcDbCircle
 10
96.33461798074188
 20
70.53367988497098
 30
0.0
 40
25.59086073989587
100
AcDbArc
 50
341.450729722635
 51
4.799939153219741
  0
DIMENSION
  5
1C6
330
2
100
AcDbEntity
  8
DIM
 62
     7
370
    30
100
AcDbDimension
  2
*D3
 10
137.6130211993126
 20
81.23726740030031
 30
0.0
 11
137.6130211993126
 21
64.84063932616516
 31
0.0
 70
   160
 71
     5
 42
-1.0
  3
STANDARD
100
AcDbAlignedDimension
 13
126.4892741982761
 23
49.36226740030031
 33
0.0
 14
126.4262741982761
 24
81.23726740030031
 34
0.0
 50
90.0
100
AcDbRotatedDimension
1001
ACAD
1000
DSTYLE
1002
{
1070
   287
1070
     4
1070
   287
1070
     4
1070
   287
1070
     4
1070
   287
1070
     4
1070
   287
1070
     4
1070
   287
1070
     4
1070
    40
1040
2.399999999999999
1070
    73
1070
     1
1070
    74
1070
     1
1070
    77
1070
     0
1070
   147
1040
0.5
1070
   279
1070
     1
1070
   288
1070
     1
1070
   289
1070
     3
1002
}
  0
DIMENSION
  5
1D4
330
2
100
AcDbEntity
  8
DIM
 62
     7
370
    30
100
AcDbDimension
  2
*D5
 10
127.1757741982762
 20
35.67973971527271
 30
0.0
 11
138.2474832777879
 21
35.67973971527271
 31
0.0
 70
   160
 71
     5
 42
-1.0
  3
STANDARD
100
AcDbAlignedDimension
 13
119.5517741982762
 23
44.98726740030019
 33
0.0
 14
127.1757741982762
 24
44.98726740030043
 34
0.0
100
AcDbRotatedDimension
1001
ACAD
1000
DSTYLE
1002
{
1070
   287
1070
     4
1070
   287
1070
     4
1070
   287
1070
     4
1070
   287
1070
     4
1070
   287
1070
     4
1070
   287
1070
     4
1070
    40
1040
2.399999999999999
1070
    73
1070
     1
1070
    74
1070
     1
1070
    77
1070
     0
1070
   147
1040
0.5
1070
   279
1070
     1
1070
   288
1070
     1
1070
   289
1070
     3
1002
}
  0
LINE
  5
1E2
330
2
100
AcDbEntity
  8
LINEWORK
 62
     7
370
    30
100
AcDbLine
 10
127.175774198276
 20
48.48726740030042
 30
0.0
 11
127.1757741982762
 21
44.98726740030043
 31
0.0
  0
LINE
  5
1E3
330
2
100
AcDbEntity
  8
LINEWORK
  6
DASHED
 62
     7
 48
2.0
370
    30
100
AcDbLine
 10
123.5942584786961
 20
50.79294860032518
 30
0.0
 11
123.5942584786961
 21
46.79294860032519
 31
0.0
  0
LINE
  5
1E4
330
2
100
AcDbEntity
  8
LINEWORK
  6
DASHED
 62
     7
 48
2.0
370
    30
100
AcDbLine
 10
123.0942584786961
 20
46.79294860032519
 30
0.0
 11
123.0942584786961
 21
50.79294860032518
 31
0.0
  0
LINE
  5
1E5
330
2
100
AcDbEntity
  8
LINEWORK
 62
     7
370
    30
100
AcDbLine
 10
119.5517741982762
 20
48.4872674003002
 30
0.0
 11
119.5517741982762
 21
44.98726740030019
 31
0.0
  0
LINE
  5
1E6
330
2
100
AcDbEntity
  8
LINEWORK
 62
     7
370
    30
100
AcDbLine
 10
123.5942584786961
 20
46.79294860032519
 30
0.0
 11
123.0942584786961
 21
46.79294860032519
 31
0.0
  0
LINE
  5
1E7
330
2
100
AcDbEntity
  8
LINEWORK
  6
PHANTOM
 62
     7
 48
3.0
370
    30
100
AcDbLine
 10
127.1757741982762
 20
44.61226740030042
 30
0.0
 11
119.5517741982762
 21
44.6122674003002
 31
0.0
  0
LINE
  5
1E8
330
2
100
AcDbEntity
  8
LINEWORK
 62
     7
370
    30
100
AcDbLine
 10
127.1757741982762
 20
44.98726740030043
 30
0.0
 11
119.5517741982762
 21
44.98726740030019
 31
0.0
  0
LINE
  5
1E9
330
2
100
AcDbEntity
  8
LINEWORK
 62
     7
370
    30
100
AcDbLine
 10
126.1325034964925
 20
62.39271450933291
 30
0.0
 11
126.1966820038148
 21
62.17513767753747
 31
0.0
  0
ARC
  5
1EA
330
2
100
AcDbEntity
  8
LINEWORK
 62
     7
370
    30
100
AcDbCircle
 10
126.4390541097467
 20
57.38364986035731
 30
0.0
 40
1.61789059067997
100
AcDbArc
 50
185.0160721536892
 51
211.8951151661139
  0
ARC
  5
1EB
330
2
100
AcDbEntity
  8
LINEWORK
 62
     7
370
    30
100
AcDbCircle
 10
126.4390541097468
 20
57.38364986035719
 30
0.0
 40
1.617890590680006
100
AcDbArc
 50
211.8951151661083
 51
238.9442723235971
  0
ARC
  5
1EC
330
2
100
AcDbEntity
  8
LINEWORK
 62
     7
370
    30
100
AcDbCircle
 10
124.621835448026
 20
57.62623992473391
 30
0.0
 40
0.4355859282600063
100
AcDbArc
 50
298.1534114870492
 51
57.21318379421927
  0
LINE
  5
1ED
330
2
100
AcDbEntity
  8
LINEWORK
 62
     7
370
    30
100
AcDbLine
 10
124.8577116665961
 20
58.35073408273593
 30
0.0
 11
124.857711666596
 21
57.99243319393918
 31
0.0
  0
LINE
  5
1EE
330
2
100
AcDbEntity
  8
LINEWORK
 62
     7
370
    30
100
AcDbLine
 10
125.604430400756
 20
54.49419892333913
 30
0.0
 11
125.604430400756
 21
54.13086124006031
 31
0.0
  0
LINE
  5
1EF
330
2
100
AcDbEntity
  8
LINEWORK
 62
     7
370
    30
100
AcDbLine
 10
125.604430400756
 20
54.13086124006031
 30
0.0
 11
126.4892741982761
 21
53.50586124006054
 31
0.0
  0
ARC
  5
1F0
330
2
100
AcDbEntity
  8
LINEWORK
 62
     7
370
    30
100
AcDbCircle
 10
125.604430400756
 20
55.0020330965798
 30
0.0
 40
0.5078341732406493
100
AcDbArc
 50
270.0
 51
90.0
  0
LINE
  5
1F1
330
2
100
AcDbEntity
  8
LINEWORK
 62
     7
370
    30
100
AcDbLine
 10
125.604430400756
 20
55.99765807546032
 30
0.0
 11
125.604430400756
 21
55.50986726982046
 31
0.0
  0
ARC
  5
1F2
330
2
100
AcDbEntity
  8
LINEWORK
 62
     7
370
    30
100
AcDbCircle
 10
123.3627944254208
 20
61.02071955873327
 30
0.0
 40
3.059999999999995
100
AcDbArc
 50
299.2443398092751
 51
22.16411460982637
  0
LINE
  5
1F3
330
2
100
AcDbEntity
  8
LINEWORK
 62
     7
370
    30
100
AcDbLine
 10
120.5318663927374
 20
62.17513767753747
 30
0.0
 11
120.5960449000598
 21
62.39271450933291
 31
0.0
  0
ARC
  5
1F4
330
2
100
AcDbEntity
  8
LINEWORK
 62
     7
370
    30
100
AcDbCircle
 10
120.2894942868056
 20
57.38364986035731
 30
0.0
 40
1.617890590679968
100
AcDbArc
 50
328.1048848338843
 51
354.983927846311
  0
LINE
  5
1F5
330
2
100
AcDbEntity
  8
LINEWORK
 62
     7
370
    30
100
AcDbLine
 10
121.8708367299561
 20
57.99243319393918
 30
0.0
 11
121.8708367299561
 21
58.35073408273593
 31
0.0
  0
ARC
  5
1F6
330
2
100
AcDbEntity
  8
LINEWORK
 62
     7
370
    30
100
AcDbCircle
 10
122.1067129485262
 20
57.62623992473391
 30
0.0
 40
0.4355859282600071
100
AcDbArc
 50
122.786816205778
 51
241.8465885129536
  0
LINE
  5
1F7
330
2
100
AcDbEntity
  8
LINEWORK
 62
     7
370
    30
100
AcDbLine
 10
121.8708367299561
 20
57.98890803322035
 30
0.0
 11
121.8708367299561
 21
58.36226740030031
 31
0.0
  0
LINE
  5
1F8
330
2
100
AcDbEntity
  8
LINEWORK
 62
     7
370
    30
100
AcDbLine
 10
121.1241179957962
 20
54.13086124006031
 30
0.0
 11
121.1241179957962
 21
54.49419892333913
 31
0.0
  0
LINE
  5
1F9
330
2
100
AcDbEntity
  8
LINEWORK
 62
     7
370
    30
100
AcDbLine
 10
120.2392741982762
 20
53.50586124006054
 30
0.0
 11
121.1241179957962
 21
54.13086124006031
 31
0.0
  0
ARC
  5
1FA
330
2
100
AcDbEntity
  8
LINEWORK
 62
     7
370
    30
100
AcDbCircle
 10
121.1241179957962
 20
55.0020330965798
 30
0.0
 40
0.5078341732406493
100
AcDbArc
 50
90.0
 51
270.0
  0
LINE
  5
1FB
330
2
100
AcDbEntity
  8
LINEWORK
 62
     7
370
    30
100
AcDbLine
 10
121.1241179957962
 20
55.50986726982046
 30
0.0
 11
121.1241179957962
 21
55.99765807546032
 31
0.0
  0
LINE
  5
1FC
330
2
100
AcDbEntity
  8
LINEWORK
 62
     7
370
    30
100
AcDbLine
 10
121.1241179957962
 20
55.50986726982046
 30
0.0
 11
121.1241179957962
 21
55.99765807546032
 31
0.0
  0
ARC
  5
1FD
330
2
100
AcDbEntity
  8
LINEWORK
 62
     7
370
    30
100
AcDbCircle
 10
120.2894942868055
 20
57.38364986035719
 30
0.0
 40
1.617890590680006
100
AcDbArc
 50
301.0557276764
 51
328.1048848338933
  0
ARC
  5
1FE
330
2
100
AcDbEntity
  8
LINEWORK
 62
     7
370
    30
100
AcDbCircle
 10
123.3657539711315
 20
61.02071955873327
 30
0.0
 40
3.059999999999993
100
AcDbArc
 50
157.8358853901736
 51
240.7556601907219
  0
LINE
  5
1FF
330
2
100
AcDbEntity
  8
LINEWORK
 62
     7
370
    30
100
AcDbLine
 10
125.604430400756
 20
54.13086124006031
 30
0.0
 11
121.1241179957962
 21
54.13086124006031
 31
0.0
  0
LWPOLYLINE
  5
200
330
2
100
AcDbEntity
  8
LINEWORK
 62
     7
370
    30
100
AcDbPolyline
 90
        3
 70
     0
 43
0.0
 10
126.4892741982762
 20
53.50586124006054
 42
0.0760702451112629
 10
123.4117873758004
 20
53.99133825130161
 42
0.0783908625805552
 10
120.2392741982762
 20
53.50586124006054
  0
LINE
  5
201
330
2
100
AcDbEntity
  8
LINEWORK
 62
     7
370
    30
100
AcDbLine
 10
124.8577116665961
 20
58.35073408273593
 30
0.0
 11
121.8708367299561
 21
58.35073408273593
 31
0.0
  0
LINE
  5
202
330
2
100
AcDbEntity
  8
LINEWORK
 62
     7
370
    30
100
AcDbLine
 10
124.857711666596
 20
57.99243319393918
 30
0.0
 11
121.8708367299561
 21
57.98890803322035
 31
0.0
  0
LINE
  5
203
330
2
100
AcDbEntity
  8
LINEWORK
 62
     7
370
    30
100
AcDbLine
 10
124.8273596991934
 20
57.24218929906033
 30
0.0
 11
121.9011886973588
 21
57.24218929906033
 31
0.0
  0
LINE
  5
204
330
2
100
AcDbEntity
  8
LINEWORK
 62
     7
370
    30
100
AcDbLine
 10
125.604430400756
 20
55.99765807546032
 30
0.0
 11
121.1241179957962
 21
55.99765807546032
 31
0.0
  0
LINE
  5
205
330
2
100
AcDbEntity
  8
LINEWORK
 62
     7
370
    30
100
AcDbLine
 10
125.604430400756
 20
55.50986726982046
 30
0.0
 11
121.1241179957962
 21
55.50986726982046
 31
0.0
  0
LINE
  5
206
330
2
100
AcDbEntity
  8
LINEWORK
 62
     7
370
    30
100
AcDbLine
 10
125.604430400756
 20
54.49419892333913
 30
0.0
 11
121.1241179957962
 21
54.49419892333913
 31
0.0
  0
LINE
  5
207
330
2
100
AcDbEntity
  8
LINEWORK
 62
     7
370
    30
100
AcDbLine
 10
126.675774198276
 20
48.98726740030042
 30
0.0
 11
127.175774198276
 21
48.48726740030042
 31
0.0
  0
LINE
  5
208
330
2
100
AcDbEntity
  8
LINEWORK
 62
     7
370
    30
100
AcDbLine
 10
123.5942584786961
 20
50.79294860032518
 30
0.0
 11
123.0942584786961
 21
50.79294860032518
 31
0.0
  0
LINE
  5
209
330
2
100
AcDbEntity
  8
LINEWORK
 62
     7
370
    30
100
AcDbLine
 10
120.0517741982762
 20
48.9872674003002
 30
0.0
 11
119.5517741982762
 21
48.4872674003002
 31
0.0
  0
LINE
  5
20A
330
2
100
AcDbEntity
  8
LINEWORK
 62
     7
370
    30
100
AcDbLine
 10
126.4892741982761
 20
49.36226740030031
 30
0.0
 11
120.2392741982762
 21
49.36226740030031
 31
0.0
  0
LINE
  5
20B
330
2
100
AcDbEntity
  8
LINEWORK
 62
     7
370
    30
100
AcDbLine
 10
126.675774198276
 20
48.98726740030042
 30
0.0
 11
120.0517741982762
 21
48.9872674003002
 31
0.0
  0
LINE
  5
20C
330
2
100
AcDbEntity
  8
LINEWORK
 62
     7
370
    30
100
AcDbLine
 10
120.2392741982762
 20
49.36226740030031
 30
0.0
 11
120.2392741982762
 21
53.50586124006054
 31
0.0
  0
LINE
  5
20D
330
2
100
AcDbEntity
  8
LINEWORK
 62
     7
370
    30
100
AcDbLine
 10
126.4892741982761
 20
53.50586124006054
 30
0.0
 11
126.4892741982761
 21
49.36226740030031
 31
0.0
  0
LINE
  5
20E
330
2
100
AcDbEntity
  8
LINEWORK
 62
     7
370
    30
100
AcDbLine
 10
123.3577089482965
 20
85.9747674003005
 30
0.0
 11
128.7392741982762
 21
85.52173359222445
 31
0.0
  0
ARC
  5
20F
330
2
100
AcDbEntity
  8
LINEWORK
 62
     7
370
    30
100
AcDbCircle
 10
128.6491475611866
 20
84.10250165862931
 30
0.0
 40
0.5176716353966801
100
AcDbArc
 50
79.97371146311322
 51
176.3114573261023
  0
DIMENSION
  5
210
330
2
100
AcDbEntity
  8
DIM
 62
     7
370
    30
100
AcDbDimension
  2
*D6
 10
117.9892741982762
 20
95.01192365133965
 30
0.0
 11
141.3104366666082
 21
95.01192365133965
 31
0.0
 70
   160
 71
     5
 42
-1.0
  3
STANDARD
100
AcDbAlignedDimension
 13
128.7392741982762
 23
85.52173359222445
 33
0.0
 14
117.9892741982762
 24
85.52283895100424
 34
0.0
100
AcDbRotatedDimension
1001
ACAD
1000
DSTYLE
1002
{
1070
   287
1070
     4
1070
   287
1070
     4
1070
   287
1070
     4
1070
   287
1070
     4
1070
   287
1070
     4
1070
   287
1070
     4
1070
    40
1040
2.399999999999999
1070
    73
1070
     1
1070
    74
1070
     1
1070
    77
1070
     0
1070
   147
1040
0.5
1070
   279
1070
     1
1070
   288
1070
     1
1070
   289
1070
     3
1002
}
  0
LINE
  5
21E
330
2
100
AcDbEntity
  8
LINEWORK
 62
     7
370
    30
100
AcDbLine
 10
117.9892741982762
 20
85.52283895100424
 30
0.0
 11
123.3577089482965
 21
85.9747674003005
 31
0.0
  0
LINE
  5
21F
330
2
100
AcDbEntity
  8
LINEWORK
  6
PHANTOM
 62
     7
 48
3.0
370
    30
100
AcDbLine
 10
118.0121821480416
 20
86.34976740030049
 30
0.0
 11
128.7032357485516
 21
86.34976740030049
 31
0.0
  0
ARC
  5
220
330
2
100
AcDbEntity
  8
LINEWORK
 62
     7
370
    30
100
AcDbCircle
 10
118.0794008353657
 20
84.10250165862931
 30
0.0
 40
0.5176716353966801
100
AcDbArc
 50
3.688542673897452
 51
100.0262885368899
  0
LINE
  5
221
330
2
100
AcDbEntity
  8
LINEWORK
 62
     7
370
    30
100
AcDbLine
 10
117.9892741982762
 20
85.52283895100424
 30
0.0
 11
117.9892741982762
 21
84.61226740030019
 31
0.0
  0
POINT
  5
222
330
2
100
AcDbEntity
  8
LINEWORK
 62
     7
370
    30
100
AcDbPoint
 10
123.3642741982762
 20
85.6122674003002
 30
0.0
  0
ARC
  5
223
330
2
100
AcDbEntity
  8
LINEWORK
 62
     7
370
    30
100
AcDbCircle
 10
127.0342193506245
 20
83.61953612714149
 30
0.0
 40
1.017306331771015
100
AcDbArc
 50
278.0553524368364
 51
358.5932663003875
  0
LINE
  5
224
330
2
100
AcDbEntity
  8
LINEWORK
 62
     7
370
    30
100
AcDbLine
 10
128.0512190779455
 20
83.59456159430965
 30
0.0
 11
128.1325482811741
 21
84.1358049014873
 31
0.0
  0
LINE
  5
225
330
2
100
AcDbEntity
  8
LINEWORK
 62
     7
370
    30
100
AcDbLine
 10
127.1767741982762
 20
82.6122674003002
 30
0.0
 11
127.1767741982762
 21
82.11226740030019
 31
0.0
  0
ARC
  5
226
330
2
100
AcDbEntity
  8
LINEWORK
 62
     7
370
    30
100
AcDbCircle
 10
127.1865607880981
 20
81.66229788420606
 30
0.0
 40
0.4500759299877941
100
AcDbArc
 50
91.2459552968915
 51
186.3821943716878
  0
LINE
  5
227
330
2
100
AcDbEntity
  8
LINEWORK
 62
     7
370
    30
100
AcDbLine
 10
126.4262741982761
 20
77.59367356054031
 30
0.0
 11
125.8574780898021
 21
76.96867356054031
 31
0.0
  0
LINE
  5
228
330
2
100
AcDbEntity
  8
LINEWORK
 62
     7
370
    30
100
AcDbLine
 10
125.8574780898021
 20
76.96867356054031
 30
0.0
 11
125.7455263041615
 21
76.84422043818028
 31
0.0
  0
LINE
  5
229
330
2
100
AcDbEntity
  8
LINEWORK
 62
     7
370
    30
100
AcDbLine
 10
126.4262741982761
 20
77.71867356054031
 30
0.0
 11
126.4262741982761
 21
81.23726740030031
 31
0.0
  0
LINE
  5
22A
330
2
100
AcDbEntity
  8
LINEWORK
  6
DASHED
 62
     7
 48
2.0
370
    30
100
AcDbLine
 10
123.1147741982762
 20
83.41052445977936
 30
0.0
 11
123.6147741982762
 21
83.41052445977936
 31
0.0
  0
LINE
  5
22B
330
2
100
AcDbEntity
  8
LINEWORK
 62
     7
370
    30
100
AcDbLine
 10
123.6147741982762
 20
79.66441651025172
 30
0.0
 11
123.1147741982762
 21
79.66441651025172
 31
0.0
  0
LINE
  5
22C
330
2
100
AcDbEntity
  8
LINEWORK
 62
     7
370
    30
100
AcDbLine
 10
123.3642741982762
 20
81.23726740030031
 30
0.0
 11
123.3642741982762
 21
81.61226740030031
 31
0.0
  0
LINE
  5
22D
330
2
100
AcDbEntity
  8
LINEWORK
  6
DASHED
 62
     7
 48
2.0
370
    30
100
AcDbLine
 10
123.1147741982762
 20
79.66441651025172
 30
0.0
 11
123.1147741982762
 21
83.41052445977936
 31
0.0
  0
LINE
  5
22E
330
2
100
AcDbEntity
  8
LINEWORK
  6
DASHED
 62
     7
 48
2.0
370
    30
100
AcDbLine
 10
123.6147741982762
 20
83.41052445977936
 30
0.0
 11
123.6147741982762
 21
79.66441651025172
 31
0.0
  0
LINE
  5
22F
330
2
100
AcDbEntity
  8
LINEWORK
 62
     7
370
    30
100
AcDbLine
 10
118.6773293186067
 20
83.59456159430965
 30
0.0
 11
118.5960001153781
 21
84.1358049014873
 31
0.0
  0
ARC
  5
230
330
2
100
AcDbEntity
  8
LINEWORK
 62
     7
370
    30
100
AcDbCircle
 10
119.6943290459279
 20
83.61953612714149
 30
0.0
 40
1.017306331771015
100
AcDbArc
 50
181.4067336996125
 51
261.9446475631635
  0
POINT
  5
231
330
2
100
AcDbEntity
  8
LINEWORK
 62
     7
370
    30
100
AcDbPoint
 10
119.9892741982762
 20
81.6122674003002
 30
0.0
  0
LINE
  5
232
330
2
100
AcDbEntity
  8
LINEWORK
 62
     7
370
    30
100
AcDbLine
 10
119.5517741982762
 20
82.6122674003002
 30
0.0
 11
119.5517741982762
 21
82.11226740030019
 31
0.0
  0
ARC
  5
233
330
2
100
AcDbEntity
  8
LINEWORK
 62
     7
370
    30
100
AcDbCircle
 10
119.5419876084542
 20
81.66229788420606
 30
0.0
 40
0.4500759299877941
100
AcDbArc
 50
353.6178056283117
 51
88.75404470310851
  0
LINE
  5
234
330
2
100
AcDbEntity
  8
LINEWORK
 62
     7
370
    30
100
AcDbLine
 10
124.6037633903272
 20
75.72123530366127
 30
0.0
 11
124.6037633903271
 21
75.22332929919184
 31
0.0
  0
ARC
  5
235
330
2
100
AcDbEntity
  8
LINEWORK
 62
     7
370
    30
100
AcDbCircle
 10
124.9469100640401
 20
74.85297048042025
 30
0.0
 40
0.5048913688330881
100
AcDbArc
 50
132.8158741798777
 51
241.8905892994634
  0
LINE
  5
236
330
2
100
AcDbEntity
  8
LINEWORK
 62
     7
370
    30
100
AcDbLine
 10
122.1247850062252
 20
75.22332929919184
 30
0.0
 11
122.1247850062252
 21
75.72123530366127
 31
0.0
  0
LINE
  5
237
330
2
100
AcDbEntity
  8
LINEWORK
 62
     7
370
    30
100
AcDbLine
 10
122.1247850062252
 20
75.72123530366127
 30
0.0
 11
122.1247850062252
 21
75.22632984750032
 31
0.0
  0
ARC
  5
238
330
2
100
AcDbEntity
  8
LINEWORK
 62
     7
370
    30
100
AcDbCircle
 10
121.7816383325122
 20
74.85297048042025
 30
0.0
 40
0.5048913688330902
100
AcDbArc
 50
298.1094107005395
 51
47.18412582012463
  0
LINE
  5
239
330
2
100
AcDbEntity
  8
LINEWORK
 62
     7
370
    30
100
AcDbLine
 10
124.6037633903271
 20
75.22332929919184
 30
0.0
 11
122.1247850062252
 21
75.22632984750032
 31
0.0
  0
LINE
  5
23A
330
2
100
AcDbEntity
  8
LINEWORK
 62
     7
370
    30
100
AcDbLine
 10
124.6037633903272
 20
75.72123530366127
 30
0.0
 11
122.1247850062252
 21
75.72123530366127
 31
0.0
  0
LINE
  5
23B
330
2
100
AcDbEntity
  8
LINEWORK
 62
     7
370
    30
100
AcDbLine
 10
120.8710703067501
 20
76.96867356054031
 30
0.0
 11
120.3022741982762
 21
77.59367356054031
 31
0.0
  0
LINE
  5
23C
330
2
100
AcDbEntity
  8
LINEWORK
 62
     7
370
    30
100
AcDbLine
 10
120.9830220923909
 20
76.84422043818028
 30
0.0
 11
120.8710703067501
 21
76.96867356054031
 31
0.0
  0
ARC
  5
23D
330
2
100
AcDbEntity
  8
LINEWORK
 62
     7
370
    30
100
AcDbCircle
 10
122.1921530977327
 20
76.93164978605818
 30
0.0
 40
1.212287787181588
100
AcDbArc
 50
184.1357219839217
 51
266.8143729732673
  0
LINE
  5
23E
330
2
100
AcDbEntity
  8
LINEWORK
 62
     7
370
    30
100
AcDbLine
 10
120.3022741982762
 20
77.71867356054031
 30
0.0
 11
120.3022741982762
 21
81.23726740030031
 31
0.0
  0
ARC
  5
23F
330
2
100
AcDbEntity
  8
LINEWORK
 62
     7
370
    30
100
AcDbCircle
 10
124.5363952988195
 20
76.93164978605818
 30
0.0
 40
1.212287787181591
100
AcDbArc
 50
273.1856270267325
 51
355.8642780160781
  0
LINE
  5
240
330
2
100
AcDbEntity
  8
LINEWORK
 62
     7
370
    30
100
AcDbLine
 10
126.4262741982761
 20
81.23726740030031
 30
0.0
 11
120.3022741982762
 21
81.23726740030031
 31
0.0
  0
LINE
  5
241
330
2
100
AcDbEntity
  8
LINEWORK
 62
     7
370
    30
100
AcDbLine
 10
120.8710703067501
 20
76.96867356054031
 30
0.0
 11
125.8574780898021
 21
76.96867356054031
 31
0.0
  0
LWPOLYLINE
  5
242
330
2
100
AcDbEntity
  8
LINEWORK
 62
     7
370
    30
100
AcDbPolyline
 90
        3
 70
     0
 43
0.0
 10
120.3022741982762
 20
77.71867356054031
 42
0.0986293308078618
 10
123.3980347157773
 20
77.11545917753551
 42
0.0965182816833348
 10
126.4262741982761
 20
77.71867356054031
 42
0.0965182816833348
  0
LINE
  5
243
330
2
100
AcDbEntity
  8
LINEWORK
 62
     7
370
    30
100
AcDbLine
 10
119.9892741982762
 20
81.61226740030031
 30
0.0
 11
126.7392741982762
 21
81.61226740030031
 31
0.0
  0
LINE
  5
244
330
2
100
AcDbEntity
  8
LINEWORK
 62
     7
370
    30
100
AcDbLine
 10
125.0402499054793
 20
73.22814714068432
 30
0.0
 11
125.0402499058102
 21
72.73726740030031
 31
0.0
  0
LINE
  5
245
330
2
100
AcDbEntity
  8
LINEWORK
 62
     7
370
    30
100
AcDbLine
 10
125.0402499058102
 20
72.73726740030031
 30
0.0
 11
124.8928181523661
 21
72.67504083911979
 31
0.0
  0
LINE
  5
246
330
2
100
AcDbEntity
  8
LINEWORK
 62
     7
370
    30
100
AcDbLine
 10
121.6882984907421
 20
72.73726740030031
 30
0.0
 11
121.688298491073
 21
73.22814714068432
 31
0.0
  0
LINE
  5
247
330
2
100
AcDbEntity
  8
LINEWORK
 62
     7
370
    30
100
AcDbLine
 10
121.8357302441862
 20
72.67504083911979
 30
0.0
 11
121.6882984907421
 21
72.73726740030031
 31
0.0
  0
LINE
  5
248
330
2
100
AcDbEntity
  8
LINEWORK
 62
     7
370
    30
100
AcDbLine
 10
125.0402499054793
 20
73.22814714068432
 30
0.0
 11
121.688298491073
 21
73.22814714068432
 31
0.0
  0
LINE
  5
249
330
2
100
AcDbEntity
  8
LINEWORK
 62
     7
370
    30
100
AcDbLine
 10
125.0402499058102
 20
72.73726740030031
 30
0.0
 11
121.6882984907421
 21
72.73726740030031
 31
0.0
  0
LINE
  5
24A
330
2
100
AcDbEntity
  8
LINEWORK
 62
     7
370
    30
100
AcDbLine
 10
124.7090270814468
 20
74.40763130527989
 30
0.0
 11
124.9549236059588
 21
74.27628288159485
 31
0.0
  0
LINE
  5
24B
330
2
100
AcDbEntity
  8
LINEWORK
 62
     7
370
    30
100
AcDbLine
 10
121.7736247905935
 20
74.27628288159485
 30
0.0
 11
122.0195213151055
 21
74.40763130527989
 31
0.0
  0
ARC
  5
24C
330
2
100
AcDbEntity
  8
LINEWORK
 62
     7
370
    30
100
AcDbCircle
 10
121.9683180160521
 20
73.73289237918027
 30
0.0
 40
0.5772163287311272
100
AcDbArc
 50
109.7122663506804
 51
240.9796266717856
  0
ARC
  5
24D
330
2
100
AcDbEntity
  8
LINEWORK
 62
     7
370
    30
100
AcDbCircle
 10
124.7602303805001
 20
73.73289237918027
 30
0.0
 40
0.5772163287311272
100
AcDbArc
 50
299.0203733282115
 51
70.28773364931645
  0
POINT
  5
24E
330
2
100
AcDbEntity
  8
LINEWORK
 62
     7
370
    30
100
AcDbPoint
 10
128.7392741982762
 20
85.2997674003002
 30
0.0
  0
LINE
  5
24F
330
2
100
AcDbEntity
  8
LINEWORK
 62
     7
370
    30
100
AcDbLine
 10
128.7392741982762
 20
85.52173359222434
 30
0.0
 11
128.7392741982762
 21
84.61226740030019
 31
0.0
  0
ENDSEC
  0
SECTION
  2
OBJECTS
  0
DICTIONARY
  5
9
330
0
100
AcDbDictionary
281
     1
  3
ACAD_GROUP
350
23
  3
ACAD_LAYOUT
350
D
  3
ACAD_MLINESTYLE
350
24
  3
ACAD_PLOTSETTINGS
350
25
  3
ACAD_PLOTSTYLENAME
350
8
  0
DICTIONARY
  5
3
330
2
100
AcDbDictionary
280
     1
281
     1
  3
ACAD_LAYOUTSELFREF
360
52F
  0
DICTIONARY
  5
F
330
E
100
AcDbDictionary
280
     1
281
     1
  3
ACAD_LAYOUTSELFREF
360
532
  0
DICTIONARY
  5
23
102
{ACAD_REACTORS
330
9
102
}
330
9
100
AcDbDictionary
281
     1
  0
DICTIONARY
  5
D
102
{ACAD_REACTORS
330
9
102
}
330
9
100
AcDbDictionary
281
     1
  3
Layout1
350
13
  3
Model
350
C
  0
DICTIONARY
  5
24
102
{ACAD_REACTORS
330
9
102
}
330
9
100
AcDbDictionary
281
     1
  3
STANDARD
350
27
  0
DICTIONARY
  5
25
102
{ACAD_REACTORS
330
9
102
}
330
9
100
AcDbDictionary
281
     1
  0
ACDBDICTIONARYWDFLT
  5
8
102
{ACAD_REACTORS
330
9
102
}
330
9
100
AcDbDictionary
281
     1
  3
Normal
350
7
100
AcDbDictionaryWithDefault
340
7
  0
XRECORD
  5
52F
102
{ACAD_REACTORS
330
3
102
}
330
3
100
AcDbXrecord
280
     1
340
2
  0
XRECORD
  5
532
102
{ACAD_REACTORS
330
F
102
}
330
F
100
AcDbXrecord
280
     1
340
E
  0
LAYOUT
  5
13
102
{ACAD_REACTORS
330
D
102
}
330
D
100
AcDbPlotSettings
  1

  2
None
  4

  6

 40
0.0
 41
0.0
 42
0.0
 43
0.0
 44
0.0
 45
0.0
 46
0.0
 47
0.0
 48
0.0
 49
0.0
140
0.0
141
0.0
142
1.0
143
1.0
 70
   688
 72
     0
 73
     0
 74
     5
  7

 75
    16
147
1.0
148
0.0
149
0.0
100
AcDbLayout
  1
Layout1
 70
     1
 71
     1
 10
0.0
 20
0.0
 11
12.0
 21
9.0
 12
0.0
 22
0.0
 32
0.0
 14
1.000000000000000E+20
 24
1.000000000000000E+20
 34
1.000000000000000E+20
 15
-1.000000000000000E+20
 25
-1.000000000000000E+20
 35
-1.000000000000000E+20
146
0.0
 13
0.0
 23
0.0
 33
0.0
 16
1.0
 26
0.0
 36
0.0
 17
0.0
 27
1.0
 37
0.0
 76
     0
330
E
  0
LAYOUT
  5
C
102
{ACAD_REACTORS
330
D
102
}
330
D
100
AcDbPlotSettings
  1

  2
HP LaserJet 5
  4
Letter
  6

 40
7.143749713897705
 41
6.381738662719726
 42
7.14373779296875
 43
6.381744384765625
 44
215.8999938964843
 45
279.3999938964843
 46
0.0
 47
0.0
 48
768.9230197229257
 49
905.839725940649
140
1017.076999867801
141
1090.442077024031
142
1.0
143
16.74829071147973
 70
 11952
 72
     0
 73
     1
 74
     1
  7

 75
     0
147
0.0597075855218212
148
0.068091354081264
149
0.050653324377015
100
AcDbLayout
  1
Model
 70
     1
 71
     0
 10
0.0
 20
0.0
 11
12.0
 21
9.0
 12
0.0
 22
0.0
 32
0.0
 14
0.0
 24
0.0
 34
0.0
 15
0.0
 25
0.0
 35
0.0
146
0.0
 13
0.0
 23
0.0
 33
0.0
 16
1.0
 26
0.0
 36
0.0
 17
0.0
 27
1.0
 37
0.0
 76
     0
330
2
  0
MLINESTYLE
  5
27
102
{ACAD_REACTORS
330
24
102
}
330
24
100
AcDbMlineStyle
  2
STANDARD
 70
     0
  3

 62
   256
 51
90.0
 52
90.0
 71
     2
 49
0.5
 62
   256
  6
BYLAYER
 49
-0.5
 62
   256
  6
BYLAYER
  0
ACDBPLACEHOLDER
  5
7
102
{ACAD_REACTORS
330
8
102
}
330
8
  0
ENDSEC
  0
EOF
