  0
SECTION
  2
HEADER
  9
$ACADVER
  1
AC1015
  9
$ACADMAINTVER
 70
     6
  9
$DWGCODEPAGE
  3
ANSI_1252
  9
$INSBASE
 10
0.0
 20
0.0
 30
0.0
  9
$EXTMIN
 10
-2.978233999078476
 20
-46.64712836032246
 30
0.0
  9
$EXTMAX
 10
62.60464968546822
 20
2.140138770864737
 30
0.0
  9
$LIMMIN
 10
0.0
 20
0.0
  9
$LIMMAX
 10
12.0
 20
9.0
  9
$ORTHOMODE
 70
     0
  9
$REGENMODE
 70
     1
  9
$FILLMODE
 70
     1
  9
$QTEXTMODE
 70
     0
  9
$MIRRTEXT
 70
     0
  9
$LTSCALE
 40
1.0
  9
$ATTMODE
 70
     2
  9
$TEXTSIZE
 40
4.0
  9
$TRACEWID
 40
0.05
  9
$TEXTSTYLE
  7
STANDARD
  9
$CLAYER
  8
A1
  9
$CELTYPE
  6
BYLAYER
  9
$CECOLOR
 62
     7
  9
$CELTSCALE
 40
1.0
  9
$DISPSILH
 70
     0
  9
$DIMSCALE
 40
1.0
  9
$DIMASZ
 40
0.5
  9
$DIMEXO
 40
1.0
  9
$DIMDLI
 40
0.0625
  9
$DIMRND
 40
0.0
  9
$DIMDLE
 40
0.0
  9
$DIMEXE
 40
0.25
  9
$DIMTP
 40
0.0
  9
$DIMTM
 40
0.0
  9
$DIMTXT
 40
1.0
  9
$DIMCEN
 40
0.0
  9
$DIMTSZ
 40
0.0
  9
$DIMTOL
 70
     0
  9
$DIMLIM
 70
     0
  9
$DIMTIH
 70
     1
  9
$DIMTOH
 70
     1
  9
$DIMSE1
 70
     0
  9
$DIMSE2
 70
     0
  9
$DIMTAD
 70
     0
  9
$DIMZIN
 70
     0
  9
$DIMBLK
  1

  9
$DIMASO
 70
     1
  9
$DIMSHO
 70
     1
  9
$DIMPOST
  1
"
  9
$DIMAPOST
  1

  9
$DIMALT
 70
     0
  9
$DIMALTD
 70
     0
  9
$DIMALTF
 40
25.4
  9
$DIMLFAC
 40
1.0
  9
$DIMTOFL
 70
     0
  9
$DIMTVP
 40
0.0
  9
$DIMTIX
 70
     0
  9
$DIMSOXD
 70
     0
  9
$DIMSAH
 70
     0
  9
$DIMBLK1
  1

  9
$DIMBLK2
  1

  9
$DIMSTYLE
  2
STANDARD
  9
$DIMCLRD
 70
     0
  9
$DIMCLRE
 70
     0
  9
$DIMCLRT
 70
     0
  9
$DIMTFAC
 40
0.125
  9
$DIMGAP
 40
0.5
  9
$DIMJUST
 70
     0
  9
$DIMSD1
 70
     0
  9
$DIMSD2
 70
     0
  9
$DIMTOLJ
 70
     1
  9
$DIMTZIN
 70
     0
  9
$DIMALTZ
 70
     2
  9
$DIMALTTZ
 70
     2
  9
$DIMUPT
 70
     1
  9
$DIMDEC
 70
     4
  9
$DIMTDEC
 70
     4
  9
$DIMALTU
 70
     2
  9
$DIMALTTD
 70
     0
  9
$DIMTXSTY
  7
STANDARD
  9
$DIMAUNIT
 70
     0
  9
$DIMADEC
 70
     0
  9
$DIMALTRND
 40
0.0
  9
$DIMAZIN
 70
     0
  9
$DIMDSEP
 70
    46
  9
$DIMATFIT
 70
     1
  9
$DIMFRAC
 70
     2
  9
$DIMLDRBLK
  1

  9
$DIMLUNIT
 70
     5
  9
$DIMLWD
 70
    -2
  9
$DIMLWE
 70
    -2
  9
$DIMTMOVE
 70
     1
  9
$LUNITS
 70
     5
  9
$LUPREC
 70
     4
  9
$SKETCHINC
 40
0.1
  9
$FILLETRAD
 40
0.0
  9
$AUNITS
 70
     0
  9
$AUPREC
 70
     1
  9
$MENU
  1
acad
  9
$ELEVATION
 40
0.0
  9
$PELEVATION
 40
0.0
  9
$THICKNESS
 40
0.0
  9
$LIMCHECK
 70
     0
  9
$CHAMFERA
 40
0.75
  9
$CHAMFERB
 40
0.75
  9
$CHAMFERC
 40
0.0
  9
$CHAMFERD
 40
0.0
  9
$SKPOLY
 70
     0
  9
$TDCREATE
 40
2451085.664838310
  9
$TDUCREATE
 40
2451085.831504977
  9
$TDUPDATE
 40
2451660.600328009
  9
$TDUUPDATE
 40
2451660.766994676
  9
$TDINDWG
 40
2.5533207176
  9
$TDUSRTIMER
 40
2.5533207176
  9
$USRTIMER
 70
     1
  9
$ANGBASE
 50
0.0
  9
$ANGDIR
 70
     0
  9
$PDMODE
 70
     0
  9
$PDSIZE
 40
0.0
  9
$PLINEWID
 40
0.0
  9
$SPLFRAME
 70
     0
  9
$SPLINETYPE
 70
     6
  9
$SPLINESEGS
 70
     8
  9
$HANDSEED
  5
19BA7
  9
$SURFTAB1
 70
     6
  9
$SURFTAB2
 70
     6
  9
$SURFTYPE
 70
     6
  9
$SURFU
 70
     6
  9
$SURFV
 70
     6
  9
$UCSBASE
  2

  9
$UCSNAME
  2

  9
$UCSORG
 10
0.0
 20
0.0
 30
0.0
  9
$UCSXDIR
 10
1.0
 20
0.0
 30
0.0
  9
$UCSYDIR
 10
0.0
 20
1.0
 30
0.0
  9
$UCSORTHOREF
  2

  9
$UCSORTHOVIEW
 70
     0
  9
$UCSORGTOP
 10
0.0
 20
0.0
 30
0.0
  9
$UCSORGBOTTOM
 10
0.0
 20
0.0
 30
0.0
  9
$UCSORGLEFT
 10
0.0
 20
0.0
 30
0.0
  9
$UCSORGRIGHT
 10
0.0
 20
0.0
 30
0.0
  9
$UCSORGFRONT
 10
0.0
 20
0.0
 30
0.0
  9
$UCSORGBACK
 10
0.0
 20
0.0
 30
0.0
  9
$PUCSBASE
  2

  9
$PUCSNAME
  2

  9
$PUCSORG
 10
0.0
 20
0.0
 30
0.0
  9
$PUCSXDIR
 10
1.0
 20
0.0
 30
0.0
  9
$PUCSYDIR
 10
0.0
 20
1.0
 30
0.0
  9
$PUCSORTHOREF
  2

  9
$PUCSORTHOVIEW
 70
     0
  9
$PUCSORGTOP
 10
0.0
 20
0.0
 30
0.0
  9
$PUCSORGBOTTOM
 10
0.0
 20
0.0
 30
0.0
  9
$PUCSORGLEFT
 10
0.0
 20
0.0
 30
0.0
  9
$PUCSORGRIGHT
 10
0.0
 20
0.0
 30
0.0
  9
$PUCSORGFRONT
 10
0.0
 20
0.0
 30
0.0
  9
$PUCSORGBACK
 10
0.0
 20
0.0
 30
0.0
  9
$USERI1
 70
     0
  9
$USERI2
 70
     0
  9
$USERI3
 70
     0
  9
$USERI4
 70
     0
  9
$USERI5
 70
     0
  9
$USERR1
 40
0.0
  9
$USERR2
 40
0.0
  9
$USERR3
 40
0.0
  9
$USERR4
 40
0.0
  9
$USERR5
 40
0.0
  9
$WORLDVIEW
 70
     1
  9
$SHADEDGE
 70
     1
  9
$SHADEDIF
 70
    70
  9
$TILEMODE
 70
     1
  9
$MAXACTVP
 70
    16
  9
$PINSBASE
 10
0.0
 20
0.0
 30
0.0
  9
$PLIMCHECK
 70
     0
  9
$PEXTMIN
 10
1.000000000000000E+20
 20
1.000000000000000E+20
 30
1.000000000000000E+20
  9
$PEXTMAX
 10
-1.000000000000000E+20
 20
-1.000000000000000E+20
 30
-1.000000000000000E+20
  9
$PLIMMIN
 10
0.0
 20
0.0
  9
$PLIMMAX
 10
12.0
 20
9.0
  9
$UNITMODE
 70
     0
  9
$VISRETAIN
 70
     0
  9
$PLINEGEN
 70
     0
  9
$PSLTSCALE
 70
     1
  9
$TREEDEPTH
 70
  3020
  9
$CMLSTYLE
  2
STANDARD
  9
$CMLJUST
 70
     0
  9
$CMLSCALE
 40
1.0
  9
$PROXYGRAPHICS
 70
     1
  9
$MEASUREMENT
 70
     0
  9
$CELWEIGHT
370
    -1
  9
$ENDCAPS
280
     0
  9
$JOINSTYLE
280
     0
  9
$LWDISPLAY
290
     0
  9
$INSUNITS
 70
     0
  9
$HYPERLINKBASE
  1

  9
$STYLESHEET
  1

  9
$XEDIT
290
     1
  9
$CEPSNTYPE
380
     0
  9
$PSTYLEMODE
290
     1
  9
$FINGERPRINTGUID
  2
{A6232B84-9B2E-11D3-8DA4-00A0C981A35F}
  9
$VERSIONGUID
  2
{8868A56E-19C8-11D4-8DA4-00A0C981A35F}
  9
$EXTNAMES
290
     1
  9
$PSVPSCALE
 40
0.0
  9
$OLESTARTUP
290
     0
  0
ENDSEC
  0
SECTION
  2
CLASSES
  0
CLASS
  1
DICTIONARYVAR
  2
AcDbDictionaryVar
  3
AutoCAD 2000
 90
    32768
280
     0
281
     0
  0
CLASS
  1
LWPOLYLINE
  2
AcDbPolyline
  3
AutoCAD 2000
 90
    32768
280
     0
281
     1
  0
CLASS
  1
RASTERVARIABLES
  2
AcDbRasterVariables
  3
ISM
 90
    32768
280
     0
281
     0
  0
CLASS
  1
ACDBDICTIONARYWDFLT
  2
AcDbDictionaryWithDefault
  3
AutoCAD 2000
 90
        0
280
     0
281
     0
  0
CLASS
  1
ACDBPLACEHOLDER
  2
AcDbPlaceHolder
  3
AutoCAD 2000
 90
        0
280
     0
281
     0
  0
CLASS
  1
LAYOUT
  2
AcDbLayout
  3
AutoCAD 2000
 90
        0
280
     0
281
     0
  0
CLASS
  1
ACME_DOCUMENT
  2
AcMeDbDoc
  3
AcMeServices
 90
    32768
280
     1
281
     0
  0
CLASS
  1
ACMESCOPE
  2
AcMeScope
  3
AcMeServices
 90
    32768
280
     1
281
     0
  0
CLASS
  1
ACMECOMMANDHISTORY
  2
AcMeCommandHistory
  3
AcMeServices
 90
    32768
280
     1
281
     0
  0
CLASS
  1
ACIMSYSVARMAN
  2
AcImSysVarManager
  3
AcMeServices
 90
    32768
280
     1
281
     0
  0
CLASS
  1
ACIMREALSYSVAR
  2
AcImRealSysVar
  3
AcMeServices
 90
    32768
280
     1
281
     0
  0
CLASS
  1
ACIMINTSYSVAR
  2
AcImIntSysVar
  3
AcMeServices
 90
    32768
280
     1
281
     0
  0
CLASS
  1
ACMEDRAWINGMAN
  2
AcMeDrawingMan
  3
AcMeServices
 90
    32768
280
     1
281
     0
  0
CLASS
  1
ACMEVIEW
  2
AcMeView
  3
AcMeServices
 90
    32768
280
     1
281
     0
  0
CLASS
  1
ACDBENTITYCACHE
  2
AcMeEntityCache
  3
AcMeServices
 90
    32768
280
     1
281
     0
  0
CLASS
  1
GSMANAGER
  2
AcMeGSManager
  3
AcMeServices
 90
    32768
280
     1
281
     0
  0
CLASS
  1
AmdtInternalReactor
  2
AmdtInternalReactor
  3
AcMeServices
 90
    32768
280
     1
281
     0
  0
CLASS
  1
ACMESTATEMGR
  2
AcMeStateMgr
  3
AcMeServices
 90
    32768
280
     1
281
     0
  0
CLASS
  1
ACGREFMASTER
  2
AcGrefMaster
  3
AcAttribServices
 90
    32768
280
     1
281
     0
  0
CLASS
  1
AM_DRAWING_MGR
  2
AcDmDwgMgr
  3
AcMechDwgViewMgmt
 90
    32768
280
     1
281
     0
  0
CLASS
  1
AM_DWG_DOCUMENT
  2
AcDmDwgDocument
  3
AcMechDwgViewMgmt
 90
    32768
280
     1
281
     0
  0
CLASS
  1
AM_DWG_SHEET
  2
AcDmSheet
  3
AcMechDwgViewMgmt
 90
    32768
280
     1
281
     0
  0
CLASS
  1
AM_VIEWDIMPARMAP
  2
AcDmViewDimParMap
  3
AcMechDwgViewMgmt
 90
    32768
280
     1
281
     0
  0
CLASS
  1
AM_DWGMGR_NAME
  2
AcDmDwgMgrName
  3
AcMechDwgViewMgmt
 90
    32768
280
     1
281
     0
  0
CLASS
  1
ACME_DATABASE
  2
AcMeDbDatabase
  3
AcMeServices
 90
    32768
280
     1
281
     0
  0
CLASS
  1
ACRFINSADJUSTERMGR
  2
AcRfInsAdjusterMgr
  3
AcMeServices
 90
    32768
280
     1
281
     0
  0
CLASS
  1
ACGREFMASTER
  2
AcGrefacadMaster
  3
AcGrefServices
 90
    32768
280
     1
281
     0
  0
CLASS
  1
AMDTMENUSTATEMGR
  2
AmdtMenuStateMgr
  3
McadcomServices
 90
    32768
280
     1
281
     0
  0
CLASS
  1
AMDTMCOMMENUSTATE
  2
AmdtMcomMenuState
  3
McadcomServices
 90
    32768
280
     1
281
     0
  0
CLASS
  1
ASAPP
  2
AcAsAppObject
  3
AutoSurfServices
 90
    32768
280
     1
281
     0
  0
CLASS
  1
IM_STATIC_MAN
  2
AcImStaticVarManager
  3
AcMeServices
 90
    32768
280
     1
281
     0
  0
CLASS
  1
ACIMSTRSYSVAR
  2
AcImStrSysVar
  3
AcMeServices
 90
    32768
280
     1
281
     0
  0
CLASS
  1
ACIMDBLSTATICVAR
  2
AcImDblStaticVar
  3
AcMeServices
 90
    32768
280
     1
281
     0
  0
CLASS
  1
ACIMSTRSTATICVAR
  2
AcImStrStaticVar
  3
AcMeServices
 90
    32768
280
     1
281
     0
  0
CLASS
  1
ACIMINTSTATICVAR
  2
AcImIntStaticVar
  3
AcMeServices
 90
    32768
280
     1
281
     0
  0
CLASS
  1
ACADGREFMODULE
  2
AcAdGrefModule
  3
AdGrefServices
 90
    32768
280
     1
281
     0
  0
CLASS
  1
AMIMASTER
  2
AmiMaster
  3
AmiServices
 90
    32768
280
     1
281
     0
  0
CLASS
  1
ACASGREFMASTER
  2
AcAsGrefMaster
  3
AutoSurfResolverServices
 90
    32768
280
     1
281
     0
  0
CLASS
  1
MAPIAMMOUDLE
  2
MApiAmModule
  3
MApiAmServices
 90
    32768
280
     1
281
     0
  0
CLASS
  1
AMDTDMMENUSTATE
  2
AmdtDmMenuState
  3
AcMechDwgViewMgmt
 90
    32768
280
     1
281
     0
  0
CLASS
  1
AMDTADMENUSTATE
  2
AmdtAdMenuState
  3
DesignerServices
 90
    32768
280
     1
281
     0
  0
CLASS
  1
ADAPPL
  2
AcAdAppl
  3
DesignerServices
 90
    32768
280
     1
281
     0
  0
CLASS
  1
DEPMGR
  2
AcAdDepMgr
  3
DesignerServices
 90
    32768
280
     1
281
     0
  0
CLASS
  1
PARAMMGR
  2
AcAdParamMgr
  3
DesignerServices
 90
    32768
280
     1
281
     0
  0
CLASS
  1
PARAMSCOPE
  2
AcAdParamScope
  3
DesignerServices
 90
    32768
280
     1
281
     0
  0
CLASS
  1
NAMEDAPPL
  2
AcAdNamedAppl
  3
DesignerServices
 90
    32768
280
     1
281
     0
  0
CLASS
  1
ADHNTMPLT
  2
AdHoleNoteTemplateMgr
  3
DesignerServices
 90
    32768
280
     1
281
     0
  0
CLASS
  1
AM_HNTEMPLATE_MGR_NAME
  2
AdHoleNoteTemplateMgrName
  3
DesignerServices
 90
    32768
280
     1
281
     0
  0
CLASS
  1
AMDTAMMENUSTATE
  2
AmdtAmMenuState
  3
DesignerAssemblies
 90
    32768
280
     1
281
     0
  0
CLASS
  1
ACAMPROJECT
  2
AcAmProject
  3
DesignerAssemblies
 90
    32768
280
     1
281
     0
  0
CLASS
  1
ACAMGRCOMPDEF
  2
AcAmGrCompDef
  3
DesignerAssemblies
 90
    32768
280
     1
281
     0
  0
CLASS
  1
ACCMCONTEXT
  2
AcCmContext
  3
DesignerAssemblies
 90
    32768
280
     1
281
     0
  0
CLASS
  1
ACAMCOMPDEF
  2
AcAmCompDef
  3
DesignerAssemblies
 90
    32768
280
     1
281
     0
  0
CLASS
  1
ACAMCOMPDEFMGR
  2
AcAmCompDefMgr
  3
DesignerAssemblies
 90
    32768
280
     1
281
     0
  0
CLASS
  1
AMCONTEXTMGR
  2
AcAmContextMgr
  3
DesignerAssemblies
 90
    32768
280
     1
281
     0
  0
CLASS
  1
ACAMCONTEXTMODELER
  2
AcAmContextModeler
  3
DesignerAssemblies
 90
    32768
280
     1
281
     0
  0
CLASS
  1
MAPIADMODULE
  2
MApiAdModule
  3
MApiAdServices
 90
    32768
280
     1
281
     0
  0
CLASS
  1
ACMDATADICTIONARY
  2
AcmDataDictionary
  3
"AcmSymBB|Product Description: AutoCAD Mechanical 2000|Company: Autodesk"
 90
    32768
280
     1
281
     0
  0
CLASS
  1
ACMDATAENTRYBLOCK
  2
AcmDataEntryBlock
  3
"AcmSymBB|Product Description: AutoCAD Mechanical 2000|Company: Autodesk"
 90
    32768
280
     1
281
     0
  0
CLASS
  1
AMDTBROWSERDBTAB
  2
AmdtBrowserDbTab
  3
McadcomServices
 90
    32768
280
     1
281
     0
  0
CLASS
  1
CBROWSERAPPOBJECT
  2
CBrowserAppObject
  3
McadcomServices
 90
    32768
280
     1
281
     0
  0
CLASS
  1
DM_PLACEHOLDER
  2
AcDmSelsetPlaceholder
  3
AcMechDwgViewMgmt
 90
    32768
280
     1
281
     0
  0
CLASS
  1
CATALOGSTATE
  2
AcAmCatalogState
  3
DesignerAssemblies
 90
    32768
280
     1
281
     0
  0
CLASS
  1
ACAMGRCOMPDEFSET
  2
AcAmGrCompDefSet
  3
DesignerAssemblies
 90
    32768
280
     1
281
     0
  0
CLASS
  1
AMGOBJPROPCFG
  2
AmgObjPropCfg
  3
"AmgLay|Product Description: AutoCAD Mechanical 2000|Company: Autodesk"
 90
    32769
280
     1
281
     0
  0
CLASS
  1
LAYER_INDEX
  2
AcDbLayerIndex
  3
AutoCAD 2000
 90
    32768
280
     0
281
     0
  0
CLASS
  1
IDBUFFER
  2
AcDbIdBuffer
  3
AutoCAD 2000
 90
    32768
280
     0
281
     0
  0
CLASS
  1
ACRFATTGENMGR
  2
AcRfAttGeneralMgr
  3
AcAttribServices
 90
    32768
280
     1
281
     0
  0
CLASS
  1
PLOTSETTINGS
  2
AcDbPlotSettings
  3
AutoCAD 2000
 90
    32768
280
     0
281
     0
  0
CLASS
  1
LONG_TRANSACTION
  2
AcDbLongTransaction
  3
AutoCAD 2000
 90
    32768
280
     0
281
     0
  0
CLASS
  1
LWPOLYLINE
  2
AcDbPolyline
  3
AutoCAD 2000
 90
    32768
280
     0
281
     1
  0
CLASS
  1
HATCH
  2
AcDbHatch
  3
AutoCAD 2000
 90
    32768
280
     0
281
     1
  0
CLASS
  1
XRECORD
  2
AcDbXrecord
  3
AutoCAD 2000
 90
    32768
280
     0
281
     0
  0
CLASS
  1
LONG_TRANSACTION
  2
AcDbLongTransaction
  3
AutoCAD 2000
 90
    32768
280
     0
281
     0
  0
CLASS
  1
LWPOLYLINE
  2
AcDbPolyline
  3
AutoCAD 2000
 90
    32768
280
     0
281
     1
  0
CLASS
  1
HATCH
  2
AcDbHatch
  3
AutoCAD 2000
 90
    32768
280
     0
281
     1
  0
CLASS
  1
XRECORD
  2
AcDbXrecord
  3
AutoCAD 2000
 90
    32768
280
     0
281
     0
  0
ENDSEC
  0
SECTION
  2
TABLES
  0
TABLE
  2
VPORT
  5
1B
330
0
100
AcDbSymbolTable
 70
     2
  0
VPORT
  5
19BA6
330
1B
100
AcDbSymbolTableRecord
100
AcDbViewportTableRecord
  2
*Active
 70
     0
 10
0.0
 20
0.0
 11
1.0
 21
1.0
 12
94.27555287466836
 22
-54.66060348706166
 13
0.0
 23
0.0
 14
1.0
 24
1.0
 15
0.0
 25
0.0
 16
0.0
 26
0.0
 36
1.0
 17
-64.46234487877643
 27
33.0238264231553
 37
6.148717398612387
 40
50.38485190754254
 41
1.413068844807467
 42
50.0
 43
-6.148717398612387
 44
-6.148717398612387
 50
0.0
 51
0.0
 71
     0
 72
 20000
 73
     1
 74
     1
 75
     0
 76
     0
 77
     0
 78
     2
281
     0
 65
     1
110
0.0
120
0.0
130
0.0
111
1.0
121
0.0
131
0.0
112
0.0
122
1.0
132
0.0
 79
     0
146
0.0
  0
ENDTAB
  0
TABLE
  2
LTYPE
  5
16
330
0
100
AcDbSymbolTable
 70
     1
  0
LTYPE
  5
17
330
16
100
AcDbSymbolTableRecord
100
AcDbLinetypeTableRecord
  2
BYBLOCK
 70
     0
  3

 72
    65
 73
     0
 40
0.0
  0
LTYPE
  5
18
330
16
100
AcDbSymbolTableRecord
100
AcDbLinetypeTableRecord
  2
BYLAYER
 70
     0
  3

 72
    65
 73
     0
 40
0.0
  0
LTYPE
  5
9
330
16
100
AcDbSymbolTableRecord
100
AcDbLinetypeTableRecord
  2
CONTINUOUS
 70
     0
  3
Solid line
 72
    65
 73
     0
 40
0.0
  0
ENDTAB
  0
TABLE
  2
LAYER
  5
11
330
0
100
AcDbSymbolTable
 70
     4
  0
LAYER
  5
5
330
11
100
AcDbSymbolTableRecord
100
AcDbLayerTableRecord
  2
0
 70
     0
 62
     7
  6
CONTINUOUS
370
    -3
390
6
  0
LAYER
  5
24
330
11
100
AcDbSymbolTableRecord
100
AcDbLayerTableRecord
  2
A1
 70
     0
 62
     7
  6
CONTINUOUS
370
    -3
390
6
  0
LAYER
  5
51
330
11
100
AcDbSymbolTableRecord
100
AcDbLayerTableRecord
  2
LINEWORK
 70
     0
 62
    41
  6
CONTINUOUS
370
    -3
390
6
  0
LAYER
  5
A6
330
11
100
AcDbSymbolTableRecord
100
AcDbLayerTableRecord
  2
Defpoints
 70
     0
 62
     7
  6
CONTINUOUS
290
     0
370
    -3
390
6
  0
ENDTAB
  0
TABLE
  2
STYLE
  5
12
330
0
100
AcDbSymbolTable
 70
     3
  0
STYLE
  5
13
330
12
100
AcDbSymbolTableRecord
100
AcDbTextStyleTableRecord
  2
STANDARD
 70
     0
 40
0.0
 41
1.0
 50
0.0
 71
     0
 42
4.0
  3
unvr55w.ttf
  4

1001
ACAD
1000
Univers
1071
       34
  0
STYLE
  5
52
330
12
100
AcDbSymbolTableRecord
100
AcDbTextStyleTableRecord
  2
ROMANC
 70
     0
 40
0.0
 41
1.0
 50
0.0
 71
     0
 42
0.5
  3
TIMESBD.TTF
  4

1001
ACAD
1000
Times New Roman
1071
 33554450
  0
STYLE
  5
53
330
12
100
AcDbSymbolTableRecord
100
AcDbTextStyleTableRecord
  2
barcoder
 70
     0
 40
0.0
 41
1.0
 50
0.0
 71
     0
 42
4.5625
  3
cw_barcd.ttf
  4

1001
ACAD
1000
Barcoder
1071
 33554434
  0
ENDTAB
  0
TABLE
  2
VIEW
  5
19
330
0
100
AcDbSymbolTable
 70
     0
  0
ENDTAB
  0
TABLE
  2
UCS
  5
1A
330
0
100
AcDbSymbolTable
 70
     0
  0
ENDTAB
  0
TABLE
  2
APPID
  5
1D
330
0
100
AcDbSymbolTable
 70
     2
  0
APPID
  5
14
330
1D
100
AcDbSymbolTableRecord
100
AcDbRegAppTableRecord
  2
ACAD
 70
     0
  0
APPID
  5
54
330
1D
100
AcDbSymbolTableRecord
100
AcDbRegAppTableRecord
  2
DCO15
 70
     0
  0
ENDTAB
  0
TABLE
  2
DIMSTYLE
  5
1E
330
0
100
AcDbSymbolTable
 70
     1
100
AcDbDimStyleTable
 71
     0
  0
DIMSTYLE
105
1F
102
{ACAD_REACTORS
330
CF8C
330
CFB7
330
CFC5
330
1993E
330
199CF
330
19A21
102
}
330
1E
100
AcDbSymbolTableRecord
100
AcDbDimStyleTableRecord
  2
STANDARD
 70
     0
  3
"
 41
0.5
 42
1.0
 43
0.0625
 44
0.25
 73
     0
 74
     0
 77
     3
140
1.0
141
0.0
146
0.125
147
0.125
171
     0
274
     0
276
     2
277
     5
285
     2
286
     2
289
     0
340
13
  0
ENDTAB
  0
TABLE
  2
BLOCK_RECORD
  5
1
330
0
100
AcDbSymbolTable
 70
     8
  0
BLOCK_RECORD
  5
2
102
{ACAD_XDICTIONARY
360
3
102
}
330
1
100
AcDbSymbolTableRecord
100
AcDbBlockTableRecord
  2
*MODEL_SPACE
340
B
  0
BLOCK_RECORD
  5
D
102
{ACAD_XDICTIONARY
360
19AE5
102
}
330
1
100
AcDbSymbolTableRecord
100
AcDbBlockTableRecord
  2
*PAPER_SPACE
340
10
  0
BLOCK_RECORD
  5
CF36
330
1
100
AcDbSymbolTableRecord
100
AcDbBlockTableRecord
  2
PROFILE LOGO
340
0
102
{BLKREFS
331
CF76
331
CF7B
102
}
  0
BLOCK_RECORD
  5
CF8D
330
1
100
AcDbSymbolTableRecord
100
AcDbBlockTableRecord
  2
*D1
340
0
  0
BLOCK_RECORD
  5
CFB8
330
1
100
AcDbSymbolTableRecord
100
AcDbBlockTableRecord
  2
*D2
340
0
  0
BLOCK_RECORD
  5
CFC6
330
1
100
AcDbSymbolTableRecord
100
AcDbBlockTableRecord
  2
*D3
340
0
  0
BLOCK_RECORD
  5
1993F
330
1
100
AcDbSymbolTableRecord
100
AcDbBlockTableRecord
  2
*D4
340
0
  0
BLOCK_RECORD
  5
199D0
330
1
100
AcDbSymbolTableRecord
100
AcDbBlockTableRecord
  2
*D5
340
0
  0
BLOCK_RECORD
  5
199DD
330
1
100
AcDbSymbolTableRecord
100
AcDbBlockTableRecord
  2
TSFORMB
340
0
102
{BLKREFS
331
19A15
102
}
  0
BLOCK_RECORD
  5
19A22
330
1
100
AcDbSymbolTableRecord
100
AcDbBlockTableRecord
  2
*D7
340
0
  0
ENDTAB
  0
ENDSEC
  0
SECTION
  2
BLOCKS
  0
BLOCK
  5
4
330
2
100
AcDbEntity
  8
0
100
AcDbBlockBegin
  2
*MODEL_SPACE
 70
     2
 10
0.0
 20
0.0
 30
0.0
  3
*MODEL_SPACE
  1

  0
ENDBLK
  5
A
330
2
100
AcDbEntity
  8
0
100
AcDbBlockEnd
  0
BLOCK
  5
E
330
D
100
AcDbEntity
 67
     1
  8
0
100
AcDbBlockBegin
  2
*PAPER_SPACE
 70
     0
 10
0.0
 20
0.0
 30
0.0
  3
*PAPER_SPACE
  1

  0
ENDBLK
  5
F
330
D
100
AcDbEntity
 67
     1
  8
0
100
AcDbBlockEnd
  0
BLOCK
  5
CF4F
330
CF36
100
AcDbEntity
  8
0
 62
     7
100
AcDbBlockBegin
  2
PROFILE LOGO
 70
     2
 10
0.0
 20
0.0
 30
0.0
  3
PROFILE LOGO
  1

  0
LINE
  5
CF37
330
CF36
100
AcDbEntity
  8
0
 62
    22
100
AcDbLine
 10
0.7459516636765642
 20
-0.415894330395318
 30
0.0
 11
0.74595166367655
 21
-1.12746688439163
 31
0.0
  0
LINE
  5
CF38
330
CF36
100
AcDbEntity
  8
0
 62
    22
100
AcDbLine
 10
0.5841942848079072
 20
-0.415894330395318
 30
0.0
 11
0.5841942848079072
 21
-1.12746688439163
 31
0.0
  0
HATCH
  5
CF39
330
CF36
100
AcDbEntity
  8
0
 62
    22
100
AcDbHatch
 10
0.0
 20
0.0
 30
0.0
210
0.0
220
0.0
230
1.0
  2
LINE
 70
     0
 71
     0
 91
        1
 92
       33
 93
       38
 72
     1
 10
1.115683196411978
 20
-0.1706330859717084
 11
0.2177636962628071
 21
-0.1706330859717084
 72
     1
 10
0.2177636962628213
 20
-0.1706330859717084
 11
0.2078601968792952
 21
-0.4246889457533243
 72
     1
 10
0.2078601968792952
 20
-0.4246889457533243
 11
0.2375709173007294
 21
-0.4246889457533243
 72
     1
 10
0.2375709173007294
 20
-0.4246889457533243
 11
0.2441732502230991
 21
-0.3817964654080939
 72
     1
 10
0.2441732502230991
 20
-0.3817964654080939
 11
0.254076749606611
 21
-0.3422032805409501
 72
     1
 10
0.2540767496066252
 20
-0.3422032805409501
 11
0.2738837483736916
 21
-0.3092090964125091
 72
     1
 10
0.2738837483736916
 20
-0.3092090964125091
 11
0.2969919136019428
 21
-0.2861130719066693
 72
     1
 10
0.296991913601957
 20
-0.2861130719066764
 11
0.3267026340234338
 21
-0.2663164794731259
 72
     1
 10
0.3267026340234196
 20
-0.2663164794731259
 11
0.356413132174012
 21
-0.2498193191118219
 72
     1
 10
0.356413132174012
 20
-0.2498193191118148
 11
0.3828224638634481
 21
-0.243220591561446
 72
     1
 10
0.3828224638634623
 20
-0.243220591561446
 11
0.4092320178237401
 21
-0.243220591561446
 72
     1
 10
0.4092320178237401
 20
-0.243220591561446
 11
0.4719541805861525
 21
-0.2465198870395469
 72
     1
 10
0.4719541805861525
 20
-0.2465198870395469
 11
0.514869566852326
 21
-0.2729153436176332
 72
     1
 10
0.514869566852326
 20
-0.2729153436176332
 11
0.5742905631535394
 21
-0.3389038484686964
 72
     1
 10
0.5742905631535394
 20
-0.3389038484687106
 11
0.5907966177302626
 21
-0.3916947616248691
 72
     1
 10
0.5907966177302768
 20
-0.3916947616248691
 11
0.5907966177302768
 21
-1.157161773041991
 72
     1
 10
0.5907966177302768
 20
-1.157161773041984
 11
0.5643870637699991
 21
-1.203353685459461
 72
     1
 10
0.5643870637699849
 20
-1.203353685459468
 11
0.4983637345463876
 21
-1.226449709965308
 72
     1
 10
0.4983637345464019
 20
-1.226449709965301
 11
0.4389425159743326
 21
-1.226449709965301
 72
     1
 10
0.4389425159743326
 20
-1.226449709965301
 11
0.4323401830519913
 21
-1.249545734471119
 72
     1
 10
0.4323401830520055
 20
-1.249545734471134
 11
0.8945045989712809
 21
-1.249545734471134
 72
     1
 10
0.8945045989712667
 20
-1.249545734471134
 11
0.8945045989712667
 21
-1.226449709965315
 72
     1
 10
0.8945045989712667
 20
-1.226449709965301
 11
0.8152763816321311
 21
-1.226449709965301
 72
     1
 10
0.8152763816321311
 20
-1.226449709965301
 11
0.7525539965988913
 21
-1.186856661692324
 72
     1
 10
0.7525539965988913
 20
-1.186856661692324
 11
0.7426504972153794
 21
-1.140664612680659
 72
     1
 10
0.7426504972153652
 20
-1.140664612680673
 11
0.7393493307541803
 21
-0.394994193697137
 72
     1
 10
0.7393493307541803
 20
-0.394994193697137
 11
0.7558551630600619
 21
-0.3389038484687106
 72
     1
 10
0.7558551630600761
 20
-0.3389038484687106
 11
0.7987705493262496
 21
-0.2828136398344298
 72
     1
 10
0.7987705493262496
 20
-0.2828136398344227
 11
0.8614929343594894
 21
-0.2498193191118148
 72
     1
 10
0.8614929343594894
 20
-0.2498193191118148
 11
0.9374197629665985
 21
-0.2399211594891923
 72
     1
 10
0.9374197629665985
 20
-0.2399211594891923
 11
1.010045647383407
 21
-0.2663164794731117
 72
     1
 10
1.010045647383407
 20
-0.2663164794731259
 11
1.056262200110722
 21
-0.3092090964125234
 72
     1
 10
1.056262200110722
 20
-0.3092090964125091
 11
1.085972698261343
 21
-0.361999872974522
 72
     1
 10
1.085972698261358
 20
-0.3619998729745291
 11
1.092575031183727
 21
-0.4246889457533243
 72
     1
 10
1.092575031183727
 20
-0.4246889457533243
 11
1.115683196411993
 21
-0.4246889457533243
 72
     1
 10
1.115683196411978
 20
-0.4246889457533243
 11
1.109080863489609
 21
-0.17723195011623
 72
     1
 10
1.109080863489609
 20
-0.17723195011623
 11
1.109080863489609
 21
-0.1739325180439621
 72
     1
 10
1.109080863489609
 20
-0.1739325180439621
 11
1.105779697028424
 21
-0.1739325180439621
 97
        0
 75
     0
 76
     1
 52
0.0
 41
0.078125
 77
     0
 78
     1
 53
0.0
 43
-28.182772630023
 44
-32.9923404580304
 45
0.0
 46
0.009765625
 79
     0
 98
        1
 10
-28.182772630023
 20
-32.9923404580304
  0
LWPOLYLINE
  5
CF3A
330
CF36
100
AcDbEntity
  8
0
 62
    22
100
AcDbPolyline
 90
        4
 70
     1
 43
0.0
 10
0.0262955969727301
 20
-0.0287577800528069
 10
1.307151517972869
 20
-0.0287577800528069
 10
1.307151517972869
 20
-1.731261997456265
 10
0.0262955969727301
 20
-1.731261997456265
  0
LINE
  5
CF3B
330
CF36
100
AcDbEntity
  8
0
 62
    22
100
AcDbLine
 10
0.0262955969727443
 20
-1.4112176328236
 30
0.0
 11
1.307151517972869
 21
-1.4112176328236
 31
0.0
  0
ATTDEF
  5
CF3C
330
CF36
100
AcDbEntity
  8
A1
 62
    22
100
AcDbText
 10
0.6781304052809105
 20
-1.678298248906529
 30
0.0
 40
0.2126953125
  1

 72
     1
 11
0.6781304052809105
 21
-1.678298248906529
 31
0.0
100
AcDbAttributeDefinition
  3
ADD STONE MARKER
  2
XXXX
 70
     0
  0
LINE
  5
CF3D
330
CF36
100
AcDbEntity
  8
0
 62
    22
100
AcDbLine
 10
0.7464576960363587
 20
-1.129021462591367
 30
0.0
 11
0.74595166367655
 21
-1.12746688439163
 31
0.0
  0
ARC
  5
CF3E
330
CF36
100
AcDbEntity
  8
0
 62
    22
100
AcDbCircle
 10
0.8421255873066684
 20
-1.127299146756172
 30
0.0
 40
0.0956833935014068
100
AcDbArc
 50
181.0313885659746
 51
269.7936990713142
  0
LINE
  5
CF3F
330
CF36
100
AcDbEntity
  8
0
 62
    22
100
AcDbLine
 10
0.9011069318936506
 20
-1.22315027789304
 30
0.0
 11
0.841781067510368
 21
-1.22315027789304
 31
0.0
  0
LINE
  5
CF40
330
CF36
100
AcDbEntity
  8
0
 62
    22
100
AcDbLine
 10
0.9011069318936506
 20
-1.256144598615648
 30
0.0
 11
0.9011069318936506
 21
-1.22315027789304
 31
0.0
  0
ARC
  5
CF41
330
CF36
100
AcDbEntity
  8
0
 62
    22
100
AcDbCircle
 10
0.4880203611777887
 20
-1.127299146756172
 30
0.0
 40
0.0956833935014068
100
AcDbArc
 50
270.2063009286848
 51
358.9686114340253
  0
LINE
  5
CF42
330
CF36
100
AcDbEntity
  8
0
 62
    22
100
AcDbLine
 10
0.4290390165908207
 20
-1.256144598615648
 30
0.0
 11
0.4290390165908207
 21
-1.22315027789304
 31
0.0
  0
LINE
  5
CF43
330
CF36
100
AcDbEntity
  8
0
 62
    22
100
AcDbLine
 10
0.4290390165908207
 20
-1.22315027789304
 30
0.0
 11
0.4883648809740891
 21
-1.22315027789304
 31
0.0
  0
LINE
  5
CF44
330
CF36
100
AcDbEntity
  8
0
 62
    22
100
AcDbLine
 10
0.5836882524480984
 20
-1.129021462591367
 30
0.0
 11
0.5841942848079072
 21
-1.12746688439163
 31
0.0
  0
LINE
  5
CF45
330
CF36
100
AcDbEntity
  8
0
 62
    22
100
AcDbLine
 10
0.4290390165908207
 20
-1.256144598615648
 30
0.0
 11
0.9011069318936506
 21
-1.256144598615648
 31
0.0
  0
LINE
  5
CF46
330
CF36
100
AcDbEntity
  8
0
 62
    22
100
AcDbLine
 10
1.085512597630156
 20
-0.415894330395318
 30
0.0
 11
1.085512597630156
 21
-0.4280723832374847
 31
0.0
  0
ARC
  5
CF47
330
CF36
100
AcDbEntity
  8
0
 62
    22
100
AcDbCircle
 10
0.9138550451562537
 20
-0.4147906495365632
 30
0.0
 40
0.1716611005230106
100
AcDbArc
 50
359.6316189828552
 51
90.00081606717127
  0
ARC
  5
CF48
330
CF36
100
AcDbEntity
  8
0
 62
    22
100
AcDbCircle
 10
0.9180888683309831
 20
-0.4147906495365632
 30
0.0
 40
0.1716611005230106
100
AcDbArc
 50
89.99918393282873
 51
180.3683810171443
  0
LINE
  5
CF49
330
CF36
100
AcDbEntity
  8
0
 62
    22
100
AcDbLine
 10
0.2078601968792952
 20
-0.427988377825578
 30
0.0
 11
0.2441732502230991
 21
-0.427988377825578
 31
0.0
  0
LINE
  5
CF4A
330
CF36
100
AcDbEntity
  8
0
 62
    22
100
AcDbLine
 10
0.2446333508543006
 20
-0.415894330395318
 30
0.0
 11
0.2446333508543006
 21
-0.4280723832374847
 31
0.0
  0
ARC
  5
CF4B
330
CF36
100
AcDbEntity
  8
0
 62
    22
100
AcDbCircle
 10
0.4162909033282176
 20
-0.4147906495365632
 30
0.0
 40
0.1716611005230106
100
AcDbArc
 50
89.99918393282873
 51
180.3683810171443
  0
LINE
  5
CF4C
330
CF36
100
AcDbEntity
  8
0
 62
    22
100
AcDbLine
 10
0.2144627520724782
 20
-0.1706330859717156
 30
0.0
 11
0.2078601968792952
 21
-0.427988377825578
 31
0.0
  0
ARC
  5
CF4D
330
CF36
100
AcDbEntity
  8
0
 62
    22
100
AcDbCircle
 10
0.4120570801534882
 20
-0.4147906495365632
 30
0.0
 40
0.1716611005230106
100
AcDbArc
 50
359.6316189828552
 51
90.00081606717127
  0
LWPOLYLINE
  5
CF4E
330
CF36
100
AcDbEntity
  8
0
 62
    22
100
AcDbPolyline
 90
        4
 70
     0
 43
0.0
 10
0.224366029185191
 20
-0.1706330859717084
 10
1.115683196411978
 20
-0.1706330859717084
 10
1.122285751605161
 20
-0.427988377825578
 10
1.085972698261358
 20
-0.427988377825578
  0
ENDBLK
  5
CF50
330
CF36
100
AcDbEntity
  8
0
 62
     7
100
AcDbBlockEnd
  0
BLOCK
  5
CF98
330
CF8D
100
AcDbEntity
  8
0
 62
     7
100
AcDbBlockBegin
  2
*D1
 70
     1
 10
0.0
 20
0.0
 30
0.0
  3
*D1
  1

  0
LINE
  5
19B65
330
CF8D
100
AcDbEntity
  8
A1
 62
     0
100
AcDbLine
 10
20.80820142776943
 20
-29.86281881845281
 30
0.0
 11
14.15826578370888
 21
-29.86281881845281
 31
0.0
  0
LINE
  5
19B66
330
CF8D
100
AcDbEntity
  8
A1
 62
     0
100
AcDbLine
 10
22.99570142776932
 20
-20.8628188184528
 30
0.0
 11
14.15826578370888
 21
-20.8628188184528
 31
0.0
  0
LINE
  5
19B67
330
CF8D
100
AcDbEntity
  8
A1
 62
     0
100
AcDbLine
 10
14.40826578370888
 20
-29.3628188184528
 30
0.0
 11
14.40826578370888
 21
-26.22341440731157
 31
0.0
  0
LINE
  5
19B68
330
CF8D
100
AcDbEntity
  8
A1
 62
     0
100
AcDbLine
 10
14.40826578370888
 20
-21.36281881845281
 30
0.0
 11
14.40826578370888
 21
-24.18585239455467
 31
0.0
  0
MTEXT
  5
19B69
330
CF8D
100
AcDbEntity
  8
A1
 62
     0
100
AcDbMText
 10
14.40826578370888
 20
-25.20463340093312
 30
0.0
 40
1.0
 41
0.0
 71
     5
 72
     1
  1
\A1;9"
 73
     1
 44
1.0
  0
SOLID
  5
19B6A
330
CF8D
100
AcDbEntity
  8
A1
 62
     0
100
AcDbTrace
 10
14.32493245037554
 20
-29.3628188184528
 30
0.0
 11
14.49159911704221
 21
-29.3628188184528
 31
0.0
 12
14.40826578370888
 22
-29.86281881845281
 32
0.0
 13
14.40826578370888
 23
-29.86281881845281
 33
0.0
  0
SOLID
  5
19B6B
330
CF8D
100
AcDbEntity
  8
A1
 62
     0
100
AcDbTrace
 10
14.32493245037555
 20
-21.36281881845281
 30
0.0
 11
14.49159911704222
 21
-21.36281881845281
 31
0.0
 12
14.40826578370888
 22
-20.8628188184528
 32
0.0
 13
14.40826578370888
 23
-20.8628188184528
 33
0.0
  0
POINT
  5
19B6C
330
CF8D
100
AcDbEntity
  8
Defpoints
 62
     0
100
AcDbPoint
 10
21.80820142776943
 20
-29.86281881845281
 30
0.0
  0
POINT
  5
19B6D
330
CF8D
100
AcDbEntity
  8
Defpoints
 62
     0
100
AcDbPoint
 10
23.99570142776931
 20
-20.8628188184528
 30
0.0
  0
POINT
  5
19B6E
330
CF8D
100
AcDbEntity
  8
Defpoints
 62
     0
100
AcDbPoint
 10
14.40826578370888
 20
-20.8628188184528
 30
0.0
  0
ENDBLK
  5
CF99
330
CF8D
100
AcDbEntity
  8
0
 62
     7
100
AcDbBlockEnd
  0
BLOCK
  5
CFC3
330
CFB8
100
AcDbEntity
  8
0
 62
     7
100
AcDbBlockBegin
  2
*D2
 70
     1
 10
0.0
 20
0.0
 30
0.0
  3
*D2
  1

  0
LINE
  5
19B6F
330
CFB8
100
AcDbEntity
  8
A1
 62
     0
100
AcDbLine
 10
21.80820142776944
 20
-30.8628188184528
 30
0.0
 11
21.80820142776944
 21
-33.20731182301625
 31
0.0
  0
LINE
  5
19B70
330
CFB8
100
AcDbEntity
  8
A1
 62
     0
100
AcDbLine
 10
32.30820142776921
 20
-30.8628188184528
 30
0.0
 11
32.30820142776921
 21
-33.20731182301625
 31
0.0
  0
LINE
  5
19B71
330
CFB8
100
AcDbEntity
  8
A1
 62
     0
100
AcDbLine
 10
22.30820142776944
 20
-32.95731182301625
 30
0.0
 11
23.36595453170891
 21
-32.95731182301625
 31
0.0
  0
LINE
  5
19B72
330
CFB8
100
AcDbEntity
  8
A1
 62
     0
100
AcDbLine
 10
31.80820142776921
 20
-32.95731182301625
 30
0.0
 11
30.78693256147504
 21
-32.95731182301625
 31
0.0
  0
MTEXT
  5
19B73
330
CFB8
100
AcDbEntity
  8
A1
 62
     0
100
AcDbMText
 10
27.07644354659198
 20
-32.95731182301625
 30
0.0
 40
1.0
 41
0.0
 71
     5
 72
     1
  1
\A1;%%C10 1/2"
 73
     1
 44
1.0
  0
SOLID
  5
19B74
330
CFB8
100
AcDbEntity
  8
A1
 62
     0
100
AcDbTrace
 10
22.30820142776944
 20
-32.87397848968292
 30
0.0
 11
22.30820142776944
 21
-33.04064515634959
 31
0.0
 12
21.80820142776944
 22
-32.95731182301625
 32
0.0
 13
21.80820142776944
 23
-32.95731182301625
 33
0.0
  0
SOLID
  5
19B75
330
CFB8
100
AcDbEntity
  8
A1
 62
     0
100
AcDbTrace
 10
31.80820142776921
 20
-32.87397848968292
 30
0.0
 11
31.80820142776921
 21
-33.04064515634959
 31
0.0
 12
32.30820142776921
 22
-32.95731182301625
 32
0.0
 13
32.30820142776921
 23
-32.95731182301625
 33
0.0
  0
POINT
  5
19B76
330
CFB8
100
AcDbEntity
  8
Defpoints
 62
     0
100
AcDbPoint
 10
21.80820142776944
 20
-29.86281881845281
 30
0.0
  0
POINT
  5
19B77
330
CFB8
100
AcDbEntity
  8
Defpoints
 62
     0
100
AcDbPoint
 10
32.30820142776921
 20
-29.86281881845281
 30
0.0
  0
POINT
  5
19B78
330
CFB8
100
AcDbEntity
  8
Defpoints
 62
     0
100
AcDbPoint
 10
32.30820142776921
 20
-32.95731182301625
 30
0.0
  0
ENDBLK
  5
CFC4
330
CFB8
100
AcDbEntity
  8
0
 62
     7
100
AcDbBlockEnd
  0
BLOCK
  5
CFD1
330
CFC6
100
AcDbEntity
  8
0
 62
     7
100
AcDbBlockBegin
  2
*D3
 70
     1
 10
0.0
 20
0.0
 30
0.0
  3
*D3
  1

  0
LINE
  5
19B79
330
CFC6
100
AcDbEntity
  8
A1
 62
     0
100
AcDbLine
 10
21.05902608411348
 20
-29.89797993985105
 30
0.0
 11
21.05902608411348
 21
-35.57003271352374
 31
0.0
  0
LINE
  5
19B7A
330
CFC6
100
AcDbEntity
  8
A1
 62
     0
100
AcDbLine
 10
33.05758225011377
 20
-29.89328819820027
 30
0.0
 11
33.05758225011377
 21
-35.57003271352374
 31
0.0
  0
LINE
  5
19B7B
330
CFC6
100
AcDbEntity
  8
A1
 62
     0
100
AcDbLine
 10
21.55902608411348
 20
-35.32003271352374
 30
0.0
 11
24.83174409450674
 21
-35.32003271352374
 31
0.0
  0
LINE
  5
19B7C
330
CFC6
100
AcDbEntity
  8
A1
 62
     0
100
AcDbLine
 10
32.55758225011376
 20
-35.32003271352374
 30
0.0
 11
29.46888087693055
 21
-35.32003271352374
 31
0.0
  0
MTEXT
  5
19B7D
330
CFC6
100
AcDbEntity
  8
A1
 62
     0
100
AcDbMText
 10
27.15031248571865
 20
-35.32003271352374
 30
0.0
 40
1.0
 41
0.0
 71
     5
 72
     1
  1
\A1;%%C12"
 73
     1
 44
1.0
  0
SOLID
  5
19B7E
330
CFC6
100
AcDbEntity
  8
A1
 62
     0
100
AcDbTrace
 10
21.55902608411348
 20
-35.23669938019041
 30
0.0
 11
21.55902608411348
 21
-35.40336604685708
 31
0.0
 12
21.05902608411348
 22
-35.32003271352374
 32
0.0
 13
21.05902608411348
 23
-35.32003271352374
 33
0.0
  0
SOLID
  5
19B7F
330
CFC6
100
AcDbEntity
  8
A1
 62
     0
100
AcDbTrace
 10
32.55758225011376
 20
-35.23669938019041
 30
0.0
 11
32.55758225011376
 21
-35.40336604685708
 31
0.0
 12
33.05758225011377
 22
-35.32003271352374
 32
0.0
 13
33.05758225011377
 23
-35.32003271352374
 33
0.0
  0
POINT
  5
19B80
330
CFC6
100
AcDbEntity
  8
Defpoints
 62
     0
100
AcDbPoint
 10
21.05902608411348
 20
-28.89797993985105
 30
0.0
  0
POINT
  5
19B81
330
CFC6
100
AcDbEntity
  8
Defpoints
 62
     0
100
AcDbPoint
 10
33.05758225011377
 20
-28.89328819820027
 30
0.0
  0
POINT
  5
19B82
330
CFC6
100
AcDbEntity
  8
Defpoints
 62
     0
100
AcDbPoint
 10
33.05758225011377
 20
-35.32003271352374
 30
0.0
  0
ENDBLK
  5
CFD2
330
CFC6
100
AcDbEntity
  8
0
 62
     7
100
AcDbBlockEnd
  0
BLOCK
  5
1994A
330
1993F
100
AcDbEntity
  8
0
 62
     7
100
AcDbBlockBegin
  2
*D4
 70
     1
 10
0.0
 20
0.0
 30
0.0
  3
*D4
  1

  0
LINE
  5
19B83
330
1993F
100
AcDbEntity
  8
A1
 62
     0
100
AcDbLine
 10
23.55820142776932
 20
-20.48781881845278
 30
0.0
 11
14.1668164408777
 21
-20.48781881845278
 31
0.0
  0
LINE
  5
19B84
330
1993F
100
AcDbEntity
  8
A1
 62
     0
100
AcDbLine
 10
26.00840554489326
 20
-11.1579397686746
 30
0.0
 11
14.1668164408777
 21
-11.1579397686746
 31
0.0
  0
LINE
  5
19B85
330
1993F
100
AcDbEntity
  8
A1
 62
     0
100
AcDbLine
 10
14.4168164408777
 20
-19.98781881845279
 30
0.0
 11
14.4168164408777
 21
-17.0903985791558
 31
0.0
  0
LINE
  5
19B86
330
1993F
100
AcDbEntity
  8
A1
 62
     0
100
AcDbLine
 10
14.4168164408777
 20
-11.6579397686746
 30
0.0
 11
14.4168164408777
 21
-15.00039149198359
 31
0.0
  0
MTEXT
  5
19B87
330
1993F
100
AcDbEntity
  8
A1
 62
     0
100
AcDbMText
 10
14.41681644087771
 20
-16.04539503556969
 30
0.0
 40
1.0
 41
0.0
 71
     5
 72
     1
  1
\A1;9 5/16"
 73
     1
 44
1.0
  0
SOLID
  5
19B88
330
1993F
100
AcDbEntity
  8
A1
 62
     0
100
AcDbTrace
 10
14.33348310754436
 20
-19.98781881845279
 30
0.0
 11
14.50014977421103
 21
-19.98781881845279
 31
0.0
 12
14.41681644087769
 22
-20.48781881845278
 32
0.0
 13
14.41681644087769
 23
-20.48781881845278
 33
0.0
  0
SOLID
  5
19B89
330
1993F
100
AcDbEntity
  8
A1
 62
     0
100
AcDbTrace
 10
14.33348310754436
 20
-11.6579397686746
 30
0.0
 11
14.50014977421103
 21
-11.6579397686746
 31
0.0
 12
14.4168164408777
 22
-11.1579397686746
 32
0.0
 13
14.4168164408777
 23
-11.1579397686746
 33
0.0
  0
POINT
  5
19B8A
330
1993F
100
AcDbEntity
  8
Defpoints
 62
     0
100
AcDbPoint
 10
24.55820142776932
 20
-20.48781881845279
 30
0.0
  0
POINT
  5
19B8B
330
1993F
100
AcDbEntity
  8
Defpoints
 62
     0
100
AcDbPoint
 10
27.00840554489326
 20
-11.1579397686746
 30
0.0
  0
POINT
  5
19B8C
330
1993F
100
AcDbEntity
  8
Defpoints
 62
     0
100
AcDbPoint
 10
14.4168164408777
 20
-11.1579397686746
 30
0.0
  0
ENDBLK
  5
1994B
330
1993F
100
AcDbEntity
  8
0
 62
     7
100
AcDbBlockEnd
  0
BLOCK
  5
199DB
330
199D0
100
AcDbEntity
  8
0
 62
     7
100
AcDbBlockBegin
  2
*D5
 70
     1
 10
0.0
 20
0.0
 30
0.0
  3
*D5
  1

  0
LINE
  5
19B8D
330
199D0
100
AcDbEntity
  8
A1
 62
     0
100
AcDbLine
 10
22.05822109222686
 20
-15.14366881166407
 30
0.0
 11
22.05822109222686
 21
-5.073364402655215
 31
0.0
  0
LINE
  5
19B8E
330
199D0
100
AcDbEntity
  8
A1
 62
     0
100
AcDbLine
 10
32.05818097437554
 20
-15.14339027795145
 30
0.0
 11
32.05818097437554
 21
-5.073364402655215
 31
0.0
  0
LINE
  5
19B8F
330
199D0
100
AcDbEntity
  8
A1
 62
     0
100
AcDbLine
 10
22.55822109222686
 20
-5.323364402655215
 30
0.0
 11
24.79154864124493
 21
-5.323364402655215
 31
0.0
  0
LINE
  5
19B90
330
199D0
100
AcDbEntity
  8
A1
 62
     0
100
AcDbLine
 10
31.55818097437554
 20
-5.323364402655215
 30
0.0
 11
29.42868542366873
 21
-5.323364402655215
 31
0.0
  0
MTEXT
  5
19B91
330
199D0
100
AcDbEntity
  8
A1
 62
     0
100
AcDbMText
 10
27.11011703245683
 20
-5.323364402655215
 30
0.0
 40
1.0
 41
0.0
 71
     5
 72
     1
  1
\A1;%%C10"
 73
     1
 44
1.0
  0
SOLID
  5
19B92
330
199D0
100
AcDbEntity
  8
A1
 62
     0
100
AcDbTrace
 10
22.55822109222686
 20
-5.240031069321882
 30
0.0
 11
22.55822109222686
 21
-5.406697735988548
 31
0.0
 12
22.05822109222686
 22
-5.323364402655215
 32
0.0
 13
22.05822109222686
 23
-5.323364402655215
 33
0.0
  0
SOLID
  5
19B93
330
199D0
100
AcDbEntity
  8
A1
 62
     0
100
AcDbTrace
 10
31.55818097437554
 20
-5.240031069321882
 30
0.0
 11
31.55818097437554
 21
-5.406697735988548
 31
0.0
 12
32.05818097437554
 22
-5.323364402655215
 32
0.0
 13
32.05818097437554
 23
-5.323364402655215
 33
0.0
  0
POINT
  5
19B94
330
199D0
100
AcDbEntity
  8
Defpoints
 62
     0
100
AcDbPoint
 10
22.05822109222686
 20
-16.14366881166407
 30
0.0
  0
POINT
  5
19B95
330
199D0
100
AcDbEntity
  8
Defpoints
 62
     0
100
AcDbPoint
 10
32.05818097437554
 20
-16.14339027795145
 30
0.0
  0
POINT
  5
19B96
330
199D0
100
AcDbEntity
  8
Defpoints
 62
     0
100
AcDbPoint
 10
32.05818097437554
 20
-5.323364402655215
 30
0.0
  0
ENDBLK
  5
199DC
330
199D0
100
AcDbEntity
  8
0
 62
     7
100
AcDbBlockEnd
  0
BLOCK
  5
19A0E
330
199DD
100
AcDbEntity
  8
0
 62
     7
100
AcDbBlockBegin
  2
TSFORMB
 70
     2
 10
0.0
 20
0.0
 30
0.0
  3
TSFORMB
  1

  0
LINE
  5
199DE
330
199DD
100
AcDbEntity
  8
0
100
AcDbLine
 10
25.97049976153047
 20
12.46470592426126
 30
0.0
 11
105.9925392881562
 21
12.46470592426126
 31
0.0
  0
ATTDEF
  5
199DF
330
199DD
100
AcDbEntity
  8
A1
 62
     1
100
AcDbText
 10
101.1418062311347
 20
7.219538615513812
 30
0.0
 40
0.9450000000000002
  1

 72
     1
 11
101.1418062311347
 21
7.219538615513812
 31
0.0
100
AcDbAttributeDefinition
  3
ADD #/LF
  2
XXXXX
 70
     0
  0
ATTDEF
  5
199E0
330
199DD
100
AcDbEntity
  8
A1
 62
     1
100
AcDbText
 10
101.1759733039033
 20
10.0790044152711
 30
0.0
 40
0.9450000000000002
  1

 72
     1
 11
101.1759733039033
 21
10.0790044152711
 31
0.0
100
AcDbAttributeDefinition
  3
ADD PROFILE AREA
  2
XXXXX
 70
     0
  0
TEXT
  5
199E1
330
199DD
100
AcDbEntity
  8
0
 62
     7
100
AcDbText
 10
96.70022651293081
 20
11.66518473255652
 30
0.0
 40
0.5414062500000001
  1
PROFILE AREA:
100
AcDbText
  0
TEXT
  5
199E2
330
199DD
100
AcDbEntity
  8
0
 62
     7
100
AcDbText
 10
96.74158717246573
 20
2.97910930546476
 30
0.0
 40
0.5414062500000001
  1
DATE:
100
AcDbText
  0
TEXT
  5
199E3
330
199DD
100
AcDbEntity
  8
0
 62
     7
100
AcDbText
 10
96.68542089784601
 20
5.927566558083469
 30
0.0
 40
0.5414062500000001
  1
SCALE:
100
AcDbText
  0
TEXT
  5
199E4
330
199DD
100
AcDbEntity
  8
0
 62
     7
100
AcDbText
 10
98.85330873086449
 20
1.524519923848657
 30
0.0
 40
0.8459472656250001
  1
1-1-2000
100
AcDbText
  0
LINE
  5
199E5
330
199DD
100
AcDbEntity
  8
LINEWORK
 62
     7
100
AcDbLine
 10
96.40991550469019
 20
3.757904136908933
 30
0.0
 11
105.9622680829099
 21
3.757904136909161
 31
0.0
  0
TEXT
  5
199E6
330
199DD
100
AcDbEntity
  8
0
 62
     7
100
AcDbText
 10
96.66995560986684
 20
8.813345575893578
 30
0.0
 40
0.5414062500000001
  1
LBS/LINEAR FEET:
100
AcDbText
  0
LINE
  5
199E7
330
199DD
100
AcDbEntity
  8
0
 62
     7
100
AcDbLine
 10
96.44018670993686
 20
9.556745250002336
 30
0.0
 11
105.9925392881562
 21
9.556745250002336
 31
0.0
  0
LINE
  5
199E8
330
199DD
100
AcDbEntity
  8
0
100
AcDbLine
 10
56.87404547169356
 20
6.648784575743377
 30
0.0
 11
105.9925392881562
 21
6.648784575743377
 31
0.0
  0
TEXT
  5
199E9
330
199DD
100
AcDbEntity
  8
0
100
AcDbText
 10
59.98363509556093
 20
3.260563711198523
 30
0.0
 40
0.74899296216962
  1
101 JOHNSTON CIRCLE, PALMETTO, GEORGIA 30268
 41
1.1875
 72
     4
 11
76.85158629384145
 21
3.579323650094949
 31
0.0
100
AcDbText
  0
TEXT
  5
199EA
330
199DD
100
AcDbEntity
  8
0
100
AcDbText
 10
61.57240842020549
 20
1.964543484004154
 30
0.0
 40
0.6552430415498756
  1
http://TannerStone.com ~ Email:Sales@TannerStone.com 
 41
1.1875
 72
     4
 11
77.08342119362365
 21
2.259193880788984
 31
0.0
100
AcDbText
  0
TEXT
  5
199EB
330
199DD
100
AcDbEntity
  8
0
 62
     7
100
AcDbText
 10
61.23651428794111
 20
7.899354841769707
 30
0.0
 40
3.572100000000002
  1
TannerStone
  7
ROMANC
 72
     1
 11
75.92109734429951
 21
7.899354841769707
 31
0.0
100
AcDbText
  0
TEXT
  5
199EC
330
199DD
100
AcDbEntity
  8
0
100
AcDbText
 10
64.01730751652127
 20
0.6790765005605895
 30
0.0
 40
0.6552430415498756
  1
PHONE: 1-800-789-4841  FAX : 770-463-2635
 41
1.1875
 72
     4
 11
76.73327742292068
 21
1.005769257279467
 31
0.0
100
AcDbText
  0
TEXT
  5
199ED
330
199DD
100
AcDbEntity
  8
0
100
AcDbText
 10
57.83820509574332
 20
4.931128255646459
 30
0.0
 40
1.111564440985976
  1
ARCHITECTURAL CONCRETE CO., INC.
 41
1.25
 72
     4
 11
76.69038922088154
 21
5.404193065577061
 31
0.0
100
AcDbText
  0
LINE
  5
199EE
330
199DD
100
AcDbEntity
  8
0
100
AcDbLine
 10
96.44018670993652
 20
0.0
 30
0.0
 11
96.44018670993691
 21
12.46470592426126
 31
0.0
  0
TEXT
  5
199EF
330
199DD
100
AcDbEntity
  8
0
 62
     7
100
AcDbText
 10
91.59975773655476
 20
7.487990433787814
 30
0.0
 40
0.7875000000000002
  1
R
  7
ROMANC
 72
     1
 11
92.02565639984957
 21
7.487990433787814
 31
0.0
100
AcDbText
  0
ARC
  5
199F0
330
199DD
100
AcDbEntity
  8
0
 62
     7
100
AcDbCircle
 10
92.02173719823603
 20
7.854684255185276
 30
0.0
 40
0.5838368232859408
100
AcDbArc
 50
304.8408806463489
 51
297.555354837207
  0
LINE
  5
199F1
330
199DD
100
AcDbEntity
  8
0
 62
     7
100
AcDbLine
 10
96.44018670993673
 20
6.648784575743377
 30
0.0
 11
95.62662822118031
 21
6.648784575743377
 31
0.0
  0
ARC
  5
199F2
330
199DD
100
AcDbEntity
  8
0
 62
     7
100
AcDbCircle
 10
92.02173719823603
 20
7.854684255185276
 30
0.0
 40
0.5838368232859321
100
AcDbArc
 50
297.555354837207
 51
304.8408806463489
  0
TEXT
  5
199F3
330
199DD
100
AcDbEntity
  8
0
 62
     7
100
AcDbText
 10
101.0916707105179
 20
4.784832420392348
 30
0.0
 40
0.8459472656250001
  1
1:1
100
AcDbText
  0
LINE
  5
199F4
330
199DD
100
AcDbEntity
  8
0
100
AcDbLine
 10
105.9925392881562
 20
78.84810849484799
 30
0.0
 11
0.0
 21
78.84810849484799
 31
0.0
  0
LINE
  5
199F5
330
199DD
100
AcDbEntity
  8
0
100
AcDbLine
 10
105.9925392881562
 20
70.31072004937001
 30
0.0
 11
92.45878286761294
 21
70.31072004937001
 31
0.0
  0
ATTDEF
  5
199F6
330
199DD
100
AcDbEntity
  8
A1
 62
     1
100
AcDbText
 10
99.20289126219254
 20
73.4000163324483
 30
0.0
 40
2.079
  1

 72
     1
 11
99.20289126219254
 21
73.4000163324483
 31
0.0
100
AcDbAttributeDefinition
  3
ADD PAGE NUMBER
  2
TS00XX
 70
     0
  0
LINE
  5
199F7
330
199DD
100
AcDbEntity
  8
0
100
AcDbLine
 10
92.45878286761294
 20
70.31072004937001
 30
0.0
 11
92.45878286761294
 21
78.84810849484799
 31
0.0
  0
LINE
  5
199F8
330
199DD
100
AcDbEntity
  8
0
 62
     7
100
AcDbLine
 10
56.87404547169354
 20
4.753491724833224
 30
0.0
 11
25.97049976153047
 21
4.753491724833224
 31
0.0
  0
LINE
  5
199F9
330
199DD
100
AcDbEntity
  8
0
 62
     7
100
AcDbLine
 10
56.87404547169354
 20
2.864660228904284
 30
0.0
 11
25.97049976153047
 21
2.864660228904284
 31
0.0
  0
LINE
  5
199FA
330
199DD
100
AcDbEntity
  8
0
 62
     7
100
AcDbLine
 10
56.87404547169354
 20
10.31505184057846
 30
0.0
 11
25.97049976153047
 21
10.31505184057846
 31
0.0
  0
ATTDEF
  5
199FB
330
199DD
100
AcDbEntity
  8
A1
 62
     1
100
AcDbText
 10
12.85191920549937
 20
3.11796280247222
 30
0.0
 40
6.132000000000001
  1

  7
barcoder
 72
     1
 11
12.85191920549937
 21
3.11796280247222
 31
0.0
100
AcDbAttributeDefinition
  3
ADD BARCODE NUMBER
  2
BARCODE
 70
     0
  0
LINE
  5
199FC
330
199DD
100
AcDbEntity
  8
0
 62
     7
100
AcDbLine
 10
25.97049976153047
 20
12.46470592426126
 30
0.0
 11
0.0
 21
12.46470592426126
 31
0.0
  0
ATTDEF
  5
199FD
330
199DD
100
AcDbEntity
  8
A1
 62
     1
100
AcDbText
 10
21.55372231158239
 20
1.875018704105684
 30
0.0
 40
0.8400000000000002
  1

 72
     2
 11
21.55372231158239
 21
1.875018704105684
 31
0.0
100
AcDbAttributeDefinition
  3
ADD BARCODE TEXT
  2
XXXXXX
 70
     0
  0
ATTDEF
  5
199FE
330
199DD
100
AcDbEntity
  8
A1
 62
     1
100
AcDbText
 10
41.26016333205515
 20
0.916484150045278
 30
0.0
 40
1.025589599999999
  1

 72
     1
 11
41.26016333205515
 21
0.916484150045278
 31
0.0
100
AcDbAttributeDefinition
  3
ADD CATEGORY NAMES
  2
XXXXXX
 70
     0
  0
LINE
  5
199FF
330
199DD
100
AcDbEntity
  8
0
100
AcDbLine
 10
25.97049976153047
 20
0.0
 30
0.0
 11
25.97049976153047
 21
12.46470592426126
 31
0.0
  0
TEXT
  5
19A00
330
199DD
100
AcDbEntity
  8
0
 62
     7
100
AcDbText
 10
30.57643893100979
 20
5.886467718828555
 30
0.0
 40
1.05
  1
- Unfinished Side
100
AcDbText
  0
TEXT
  5
19A01
330
199DD
100
AcDbEntity
  8
0
 62
     7
100
AcDbText
 10
30.56536100380199
 20
8.165961840384312
 30
0.0
 40
1.05
  1
- Finished Side
100
AcDbText
  0
TEXT
  5
19A02
330
199DD
100
AcDbEntity
  8
0
 62
     7
100
AcDbText
 10
28.62975879980742
 20
6.155120421568796
 30
0.0
 40
0.0065625
  1
TANNERSTONE 0001 TANNERSTONE 0001 TANNERSTONE 0001 TANNERSTONE 0001 TANNERSTONE 0001 TANNERSTONE 0001 TANNERSTONE 0001
 72
     1
 11
28.97869915682372
 21
6.155120421568796
 31
0.0
100
AcDbText
  0
TEXT
  5
19A03
330
199DD
100
AcDbEntity
  8
0
 62
     7
100
AcDbText
 10
26.78569629980744
 20
6.155120421568796
 30
0.0
 40
0.0065625
  1
TANNERSTONE 0001 TANNERSTONE 0001 TANNERSTONE 0001 TANNERSTONE 0001 TANNERSTONE 0001 TANNERSTONE 0001 TANNERSTONE 0001
 72
     1
 11
27.13463665682374
 21
6.155120421568796
 31
0.0
100
AcDbText
  0
LINE
  5
19A04
330
199DD
100
AcDbEntity
  8
0
 62
     7
100
AcDbLine
 10
26.78791925899645
 20
6.408946491460881
 30
0.0
 11
29.32320076794366
 21
6.408946491460881
 31
0.0
  0
TEXT
  5
19A05
330
199DD
100
AcDbEntity
  8
0
 62
     7
100
AcDbText
 10
27.6921018725396
 20
6.155120421568796
 30
0.0
 40
0.0065625
  1
TANNERSTONE 0001 TANNERSTONE 0001 TANNERSTONE 0001 TANNERSTONE 0001 TANNERSTONE 0001 TANNERSTONE 0001 TANNERSTONE 0001
 72
     1
 11
28.0410422295559
 21
6.155120421568796
 31
0.0
100
AcDbText
  0
LINE
  5
19A06
330
199DD
100
AcDbEntity
  8
0
 62
     7
100
AcDbLine
 10
26.78791925899645
 20
8.549200111339274
 30
0.0
 11
29.32320076794366
 21
8.549200111339274
 31
0.0
  0
TEXT
  5
19A07
330
199DD
100
AcDbEntity
  8
0
 62
     7
100
AcDbText
 10
38.18320344075359
 20
3.401999220949534
 30
0.0
 40
0.8400000000000002
  1
CATEGORY
 72
     1
 11
41.47652732452397
 21
3.401999220949534
 31
0.0
100
AcDbText
  0
TEXT
  5
19A08
330
199DD
100
AcDbEntity
  8
0
 62
     7
100
AcDbText
 10
39.28098221173835
 20
10.97304845086645
 30
0.0
 40
0.8085000000000002
  1
LEGEND
100
AcDbText
  0
LINE
  5
19A09
330
199DD
100
AcDbEntity
  8
0
100
AcDbLine
 10
56.87404547169356
 20
0.0
 30
0.0
 11
56.87404547169356
 21
12.46470592426126
 31
0.0
  0
LINE
  5
19A0A
330
199DD
100
AcDbEntity
  8
0
100
AcDbLine
 10
0.0
 20
78.84810849484799
 30
0.0
 11
0.0
 21
0.0
 31
0.0
  0
LINE
  5
19A0B
330
199DD
100
AcDbEntity
  8
0
100
AcDbLine
 10
0.0
 20
0.0
 30
0.0
 11
105.9925392881562
 21
0.0
 31
0.0
  0
LINE
  5
19A0C
330
199DD
100
AcDbEntity
  8
0
100
AcDbLine
 10
105.9925392881562
 20
0.0
 30
0.0
 11
105.9925392881562
 21
78.84810849484799
 31
0.0
  0
LINE
  5
19A0D
330
199DD
100
AcDbEntity
  8
0
100
AcDbLine
 10
105.9925392881562
 20
78.84810849484799
 30
0.0
 11
105.9925392881562
 21
70.31072004937001
 31
0.0
  0
ENDBLK
  5
19A0F
330
199DD
100
AcDbEntity
  8
0
 62
     7
100
AcDbBlockEnd
  0
BLOCK
  5
19A2D
330
19A22
100
AcDbEntity
  8
0
 62
     7
100
AcDbBlockBegin
  2
*D7
 70
     1
 10
0.0
 20
0.0
 30
0.0
  3
*D7
  1

  0
LINE
  5
19B97
330
19A22
100
AcDbEntity
  8
A1
 62
     0
100
AcDbLine
 10
33.30820142776921
 20
-29.86281881845281
 30
0.0
 11
40.57761826183762
 21
-29.86281881845281
 31
0.0
  0
LINE
  5
19B98
330
19A22
100
AcDbEntity
  8
A1
 62
     0
100
AcDbLine
 10
28.09239714263335
 20
-11.1578087355895
 30
0.0
 11
40.57761826183763
 21
-11.1578087355895
 31
0.0
  0
LINE
  5
19B99
330
19A22
100
AcDbEntity
  8
A1
 62
     0
100
AcDbLine
 10
40.32761826183762
 20
-29.36281881845281
 30
0.0
 11
40.32761826183762
 21
-21.48331019751776
 31
0.0
  0
LINE
  5
19B9A
330
19A22
100
AcDbEntity
  8
A1
 62
     0
100
AcDbLine
 10
40.32761826183762
 20
-11.6578087355895
 30
0.0
 11
40.32761826183762
 21
-19.39330311034554
 31
0.0
  0
MTEXT
  5
19B9B
330
19A22
100
AcDbEntity
  8
A1
 62
     0
100
AcDbMText
 10
40.32761826183762
 20
-20.43830665393164
 30
0.0
 40
1.0
 41
0.0
 71
     5
 72
     1
  1
\A1;18 11/16"
 73
     1
 44
1.0
  0
SOLID
  5
19B9C
330
19A22
100
AcDbEntity
  8
A1
 62
     0
100
AcDbTrace
 10
40.24428492850428
 20
-29.36281881845281
 30
0.0
 11
40.41095159517095
 21
-29.36281881845281
 31
0.0
 12
40.32761826183762
 22
-29.86281881845281
 32
0.0
 13
40.32761826183762
 23
-29.86281881845281
 33
0.0
  0
SOLID
  5
19B9D
330
19A22
100
AcDbEntity
  8
A1
 62
     0
100
AcDbTrace
 10
40.24428492850429
 20
-11.6578087355895
 30
0.0
 11
40.41095159517096
 21
-11.6578087355895
 31
0.0
 12
40.32761826183762
 22
-11.1578087355895
 32
0.0
 13
40.32761826183762
 23
-11.1578087355895
 33
0.0
  0
POINT
  5
19B9E
330
19A22
100
AcDbEntity
  8
Defpoints
 62
     0
100
AcDbPoint
 10
32.30820142776921
 20
-29.86281881845281
 30
0.0
  0
POINT
  5
19B9F
330
19A22
100
AcDbEntity
  8
Defpoints
 62
     0
100
AcDbPoint
 10
27.09239714263335
 20
-11.1578087355895
 30
0.0
  0
POINT
  5
19BA0
330
19A22
100
AcDbEntity
  8
Defpoints
 62
     0
100
AcDbPoint
 10
40.32761826183762
 20
-11.1578087355895
 30
0.0
  0
ENDBLK
  5
19A2E
330
19A22
100
AcDbEntity
  8
0
 62
     7
100
AcDbBlockEnd
  0
ENDSEC
  0
SECTION
  2
ENTITIES
  0
LWPOLYLINE
  5
CF6E
330
2
100
AcDbEntity
  8
0
100
AcDbPolyline
 90
       12
 70
     1
 43
0.12
 10
27.05820142776932
 20
-29.86281881845281
 10
21.80820142776944
 20
-29.86281881845281
 10
21.80820142776944
 20
-29.6128188184528
 42
-0.9999999999999998
 10
21.80820142776944
 20
-28.1128188184528
 10
21.80820142776932
 20
-27.73781881845303
 42
0.2575117340842984
 10
23.99570142776932
 20
-20.8628188184528
 10
27.05820142776921
 20
-20.8628188184528
 10
30.12070142776932
 20
-20.8628188184528
 42
0.2575117340842984
 10
32.30820142776932
 20
-27.73781881845303
 10
32.30820142776921
 20
-28.1128188184528
 42
-0.9999999999999998
 10
32.30820142776921
 20
-29.6128188184528
 10
32.30820142776921
 20
-29.86281881845281
  0
LWPOLYLINE
  5
CF6F
330
2
100
AcDbEntity
  8
0
100
AcDbPolyline
 90
        2
 70
     0
 43
0.12
 10
32.30820142776921
 20
-29.6128188184528
 10
27.05820142776921
 20
-29.6128188184528
  0
LWPOLYLINE
  5
CF70
330
2
100
AcDbEntity
  8
0
100
AcDbPolyline
 90
        2
 70
     0
 43
0.12
 10
21.80820142776944
 20
-29.6128188184528
 10
27.05820142776944
 20
-29.6128188184528
  0
LWPOLYLINE
  5
CF72
330
2
100
AcDbEntity
  8
0
100
AcDbPolyline
 90
        2
 70
     0
 43
0.12
 10
27.05820142776921
 20
-27.7378188184528
 10
32.30820142776921
 20
-27.7378188184528
  0
LWPOLYLINE
  5
CF73
330
2
100
AcDbEntity
  8
0
100
AcDbPolyline
 90
        2
 70
     0
 43
0.12
 10
27.05820142776921
 20
-28.1128188184528
 10
32.30820142776921
 20
-28.1128188184528
  0
LWPOLYLINE
  5
CF74
330
2
100
AcDbEntity
  8
0
100
AcDbPolyline
 90
        2
 70
     0
 43
0.12
 10
27.05820142776944
 20
-28.1128188184528
 10
21.80820142776944
 20
-28.1128188184528
  0
LWPOLYLINE
  5
CF75
330
2
100
AcDbEntity
  8
0
100
AcDbPolyline
 90
        2
 70
     0
 43
0.12
 10
27.05820142776944
 20
-27.7378188184528
 10
21.80820142776944
 20
-27.7378188184528
  0
INSERT
  5
CF76
330
2
100
AcDbEntity
  8
A1
 62
     7
100
AcDbBlockReference
 66
     1
  2
PROFILE LOGO
 10
24.4972446586194
 20
-21.29411005892512
 30
0.0
 41
1.5
 42
1.5
 43
1.5
  0
ATTRIB
  5
CF77
330
CF76
100
AcDbEntity
  8
A1
 62
    22
100
AcDbText
 10
24.92304630143404
 20
-23.81155743228493
 30
0.0
 40
0.31904296875
  1
1577
 72
     1
 11
25.51444026654079
 21
-23.81155743228493
 31
0.0
100
AcDbAttribute
  2
XXXX
 70
     0
  0
SEQEND
  5
CF78
330
CF76
100
AcDbEntity
  8
A1
 62
     7
  0
INSERT
  5
CF7B
330
2
100
AcDbEntity
  8
A1
 62
     7
100
AcDbBlockReference
 66
     1
  2
PROFILE LOGO
 10
22.74904242809661
 20
-14.87184509970214
 30
0.0
 41
1.5
 42
1.5
 43
1.5
  0
ATTRIB
  5
CF7C
330
CF7B
100
AcDbEntity
  8
A1
 62
    22
100
AcDbText
 10
23.18162740830494
 20
-17.38929247306194
 30
0.0
 40
0.31904296875
  1
1531
 72
     1
 11
23.766238036018
 21
-17.38929247306194
 31
0.0
100
AcDbAttribute
  2
XXXX
 70
     0
  0
SEQEND
  5
CF7D
330
CF7B
100
AcDbEntity
  8
A1
 62
     7
  0
DIMENSION
  5
CF8C
330
2
100
AcDbEntity
  8
A1
 62
     7
100
AcDbDimension
  2
*D1
 10
14.40826578370888
 20
-20.8628188184528
 30
0.0
 11
14.40826578370888
 21
-25.20463340093312
 31
0.0
 70
   160
 71
     5
 42
-1.0
  3
STANDARD
100
AcDbAlignedDimension
 13
21.80820142776943
 23
-29.86281881845281
 33
0.0
 14
23.99570142776931
 24
-20.8628188184528
 34
0.0
 50
90.0
100
AcDbRotatedDimension
1001
ACAD
1000
DSTYLE
1002
{
1070
   287
1070
     4
1070
    73
1070
     1
1070
    74
1070
     1
1070
    77
1070
     0
1070
   147
1040
0.5
1070
   279
1070
     1
1070
   288
1070
     1
1070
   289
1070
     3
1002
}
  0
DIMENSION
  5
CFB7
330
2
100
AcDbEntity
  8
A1
 62
     7
100
AcDbDimension
  2
*D2
 10
32.30820142776921
 20
-32.95731182301625
 30
0.0
 11
27.07644354659198
 21
-32.95731182301625
 31
0.0
 70
   161
  1
%%C<>
 71
     5
 42
-1.0
  3
STANDARD
100
AcDbAlignedDimension
 13
21.80820142776944
 23
-29.86281881845281
 33
0.0
 14
32.30820142776921
 24
-29.86281881845281
 34
0.0
1001
ACAD
1000
DSTYLE
1002
{
1070
   287
1070
     4
1070
    73
1070
     1
1070
    74
1070
     1
1070
    77
1070
     0
1070
   147
1040
0.5
1070
   279
1070
     1
1070
   288
1070
     1
1070
   289
1070
     3
1002
}
  0
DIMENSION
  5
CFC5
330
2
100
AcDbEntity
  8
A1
 62
     7
100
AcDbDimension
  2
*D3
 10
33.05758225011377
 20
-35.32003271352374
 30
0.0
 11
27.15031248571865
 21
-35.32003271352374
 31
0.0
 70
   160
  1
%%C<>
 71
     5
 42
-1.0
  3
STANDARD
100
AcDbAlignedDimension
 13
21.05902608411348
 23
-28.89797993985105
 33
0.0
 14
33.05758225011377
 24
-28.89328819820027
 34
0.0
100
AcDbRotatedDimension
1001
ACAD
1000
DSTYLE
1002
{
1070
   287
1070
     4
1070
    73
1070
     1
1070
    74
1070
     1
1070
    77
1070
     0
1070
   147
1040
0.5
1070
   279
1070
     1
1070
   288
1070
     1
1070
   289
1070
     3
1002
}
  0
SOLID
  5
CFE4
330
2
100
AcDbEntity
  8
A1
 62
     1
100
AcDbTrace
 10
27.63291482031463
 20
-10.88448460821103
 30
0.0
 11
27.5134928779936
 21
-10.76822551192153
 31
0.0
 12
27.22442656028563
 22
-11.18462088702937
 32
0.0
 13
27.22442656028563
 23
-11.18462088702937
 33
0.0
  0
LINE
  5
CFE5
330
2
100
AcDbEntity
  8
A1
 62
     1
100
AcDbLine
 10
27.57320384915411
 20
-10.82635506006628
 30
0.0
 11
31.62381637268891
 21
-6.665545019483559
 31
0.0
  0
ATTDEF
  5
CFE6
330
2
100
AcDbEntity
  8
A1
 62
     1
100
AcDbText
 10
44.57371940468592
 20
-4.163772478668882
 30
0.0
 40
1.0
  1

100
AcDbAttributeDefinition
  3
ADD LINK NUMBER (WMF)
  2
TSD016
 70
     0
  0
MTEXT
  5
CFE7
330
2
100
AcDbEntity
  8
0
 62
     1
100
AcDbMText
 10
44.61255193566095
 20
-4.911047701183676
 30
0.0
 40
1.0
 41
0.0
 71
     1
 72
     1
  1
TannerStone
 73
     1
 44
1.0
1001
ACAD
1000
MTEXTBEGIN
1070
    73
1070
     1
1070
    44
1040
1.0
1070
    74
1070
     0
1000
MTEXTEND
1000
MTEXTBEGIN
1070
    73
1070
     1
1070
    44
1040
1.0
1070
    74
1070
     0
1000
MTEXTEND
  0
MTEXT
  5
CFE8
330
2
100
AcDbEntity
  8
0
 62
     1
100
AcDbMText
 10
44.69029434300934
 20
-6.428207767511494
 30
0.0
 40
0.7386749999999999
 41
0.0
 71
     1
 72
     1
  1
1-800-789-4841
 73
     1
 44
1.0
1001
ACAD
1000
MTEXTBEGIN
1070
    73
1070
     1
1070
    44
1040
1.0
1070
    74
1070
     0
1000
MTEXTEND
1000
MTEXTBEGIN
1070
    73
1070
     1
1070
    44
1040
1.0
1070
    74
1070
     0
1000
MTEXTEND
  0
LINE
  5
CFE9
330
2
100
AcDbEntity
  8
0
 62
     1
100
AcDbLine
 10
33.68669881484967
 20
-4.546541553214204
 30
0.0
 11
53.07319897932421
 21
-4.546541553214204
 31
0.0
  0
LINE
  5
CFEA
330
2
100
AcDbEntity
  8
0
 62
     1
100
AcDbLine
 10
44.08688905560818
 20
-7.534319104989847
 30
0.0
 11
44.08688905560818
 21
-2.979865342163741
 31
0.0
  0
SOLID
  5
CFEB
330
2
100
AcDbEntity
  8
A1
 62
     1
100
AcDbTrace
 10
33.45681556244491
 20
-29.27218965662654
 30
0.0
 11
33.53322455437273
 21
-29.12406996269507
 31
0.0
 12
33.0506609766144
 22
-28.96890283387736
 32
0.0
 13
33.0506609766144
 23
-28.96890283387736
 33
0.0
  0
LINE
  5
CFEC
330
2
100
AcDbEntity
  8
A1
 62
     1
100
AcDbLine
 10
33.49502005840881
 20
-29.1981298096608
 30
0.0
 11
34.24826729367794
 21
-29.58669975867755
 31
0.0
  0
ATTDEF
  5
CFED
330
2
100
AcDbEntity
  8
A1
 62
     1
100
AcDbText
 10
44.45263056708103
 20
-32.65370680899844
 30
0.0
 40
1.0
  1

100
AcDbAttributeDefinition
  3
ADD LINK NUMBER (WMF)
  2
TS1577
 70
     0
  0
LINE
  5
CFF0
330
2
100
AcDbEntity
  8
0
 62
     1
100
AcDbLine
 10
39.4171875129783
 20
-32.25313777801852
 30
0.0
 11
43.96580021800328
 21
-32.25313777801853
 31
0.0
  0
LINE
  5
CFF1
330
2
100
AcDbEntity
  8
0
 62
     1
100
AcDbLine
 10
43.96580021800328
 20
-33.03647588354375
 30
0.0
 11
43.96580021800328
 21
-31.4697996724933
 31
0.0
  0
LINE
  5
CFF4
330
2
100
AcDbEntity
  8
A1
 62
     1
100
AcDbLine
 10
35.31228347216297
 20
-30.13558290469955
 30
0.0
 11
39.4171875129783
 21
-32.25313777801852
 31
0.0
  0
LINE
  5
1981F
330
2
100
AcDbEntity
  8
A1
 62
     7
100
AcDbLine
 10
30.12070142776932
 20
-20.8628188184528
 30
0.0
 11
23.99570142776932
 21
-20.8628188184528
 31
0.0
  0
LINE
  5
19900
330
2
100
AcDbEntity
  8
0
100
AcDbLine
 10
23.99570142776932
 20
-20.8628188184528
 30
0.0
 11
30.12070142776932
 21
-20.8628188184528
 31
0.0
  0
LWPOLYLINE
  5
1993D
330
2
100
AcDbEntity
  8
0
100
AcDbPolyline
 90
        2
 70
     1
 43
0.12
 10
29.55820142776932
 20
-20.48781881845279
 42
3.732050807568884
 10
24.55820142776932
 20
-20.48781881845278
  0
DIMENSION
  5
1993E
330
2
100
AcDbEntity
  8
A1
 62
     7
100
AcDbDimension
  2
*D4
 10
14.4168164408777
 20
-11.1579397686746
 30
0.0
 11
14.41681644087771
 21
-16.04539503556969
 31
0.0
 70
   160
 71
     5
 42
-1.0
  3
STANDARD
100
AcDbAlignedDimension
 13
24.55820142776932
 23
-20.48781881845279
 33
0.0
 14
27.00840554489326
 24
-11.1579397686746
 34
0.0
 50
90.0
100
AcDbRotatedDimension
1001
ACAD
1000
DSTYLE
1002
{
1070
   287
1070
     4
1070
    73
1070
     1
1070
    74
1070
     1
1070
    77
1070
     0
1070
   147
1040
0.5
1070
   279
1070
     1
1070
   288
1070
     1
1070
   289
1070
     3
1002
}
  0
DIMENSION
  5
199CF
330
2
100
AcDbEntity
  8
A1
 62
     7
100
AcDbDimension
  2
*D5
 10
32.05818097437554
 20
-5.323364402655215
 30
0.0
 11
27.11011703245683
 21
-5.323364402655215
 31
0.0
 70
   160
  1
%%C10"
 71
     5
 42
-1.0
  3
STANDARD
100
AcDbAlignedDimension
 13
22.05822109222686
 23
-16.14366881166407
 33
0.0
 14
32.05818097437554
 24
-16.14339027795145
 34
0.0
100
AcDbRotatedDimension
1001
ACAD
1000
DSTYLE
1002
{
1070
   287
1070
     4
1070
    73
1070
     1
1070
    74
1070
     1
1070
    77
1070
     0
1070
   147
1040
0.5
1070
   279
1070
     1
1070
   288
1070
     1
1070
   289
1070
     3
1002
}
  0
INSERT
  5
19A15
330
2
100
AcDbEntity
  8
A1
 62
     7
100
AcDbBlockReference
 66
     1
  2
TSFORMB
 10
-2.978233999078476
 20
-46.64712836032246
 30
0.0
 41
0.61875
 42
0.61875
 43
0.61875
  0
ATTRIB
  5
19A16
330
19A15
100
AcDbEntity
  8
A1
 62
     1
100
AcDbText
 10
58.10830971159209
 20
-42.18003884197329
 30
0.0
 40
0.5847187500000003
  1
133.99
 72
     1
 11
59.60325860643617
 21
-42.18003884197329
 31
0.0
100
AcDbAttribute
  2
XXXXX
 70
     0
  0
ATTRIB
  5
19A17
330
19A15
100
AcDbEntity
  8
A1
 62
     1
100
AcDbText
 10
57.93468247128363
 20
-40.41074437837346
 30
0.0
 40
0.5847187500000003
  1
148.43"
 72
     1
 11
59.6243994827117
 21
-40.41074437837346
 31
0.0
100
AcDbAttribute
  2
XXXXX
 70
     0
  0
ATTRIB
  5
19A18
330
19A15
100
AcDbEntity
  8
A1
 62
     1
100
AcDbText
 10
54.78828576538119
 20
-1.230868254620069
 30
0.0
 40
1.28638125
  1
TSD016
 72
     1
 11
58.40355496940316
 21
-1.230868254620069
 31
0.0
100
AcDbAttribute
  2
TS00XX
 70
     0
  0
ATTRIB
  5
19A19
330
19A15
100
AcDbEntity
  8
A1
 62
     1
100
AcDbText
 10
1.22714319682426
 20
-44.71788887629277
 30
0.0
 40
3.794175000000001
  1
TSD016
  7
barcoder
 72
     1
 11
4.973891009324262
 21
-44.71788887629277
 31
0.0
100
AcDbAttribute
  2
BARCODE
 70
     0
  0
ATTRIB
  5
19A1A
330
19A15
100
AcDbEntity
  8
A1
 62
     1
100
AcDbText
 10
7.436702021397396
 20
-45.48696053715707
 30
0.0
 40
0.5197500000000002
  1
TSD016
 72
     2
 11
10.35813168121313
 21
-45.48696053715707
 31
0.0
100
AcDbAttribute
  2
XXXXXX
 70
     0
  0
ATTRIB
  5
19A1B
330
19A15
100
AcDbEntity
  8
A1
 62
     1
100
AcDbText
 10
17.83821370600415
 20
-46.08005379248194
 30
0.0
 40
0.634583565
  1
BALL AND PEDESTAL
 72
     1
 11
22.55149206263066
 21
-46.08005379248194
 31
0.0
100
AcDbAttribute
  2
XXXXXX
 70
     0
  0
SEQEND
  5
19A1C
330
19A15
100
AcDbEntity
  8
A1
 62
     7
  0
LINE
  5
19A1F
330
2
100
AcDbEntity
  8
A1
 62
     1
100
AcDbLine
 10
32.48047587158822
 20
-5.785579971315898
 30
0.0
 11
33.68669881484967
 21
-4.546541553214204
 31
0.0
  0
DIMENSION
  5
19A21
330
2
100
AcDbEntity
  8
A1
 62
     7
100
AcDbDimension
  2
*D7
 10
40.32761826183762
 20
-11.1578087355895
 30
0.0
 11
40.32761826183762
 21
-20.43830665393164
 31
0.0
 70
   160
 71
     5
 42
-1.0
  3
STANDARD
100
AcDbAlignedDimension
 13
32.30820142776921
 23
-29.86281881845281
 33
0.0
 14
27.09239714263335
 24
-11.1578087355895
 34
0.0
 50
90.0
100
AcDbRotatedDimension
1001
ACAD
1000
DSTYLE
1002
{
1070
   287
1070
     4
1070
    73
1070
     1
1070
    74
1070
     1
1070
    77
1070
     0
1070
   147
1040
0.5
1070
   279
1070
     1
1070
   288
1070
     1
1070
   289
1070
     3
1002
}
  0
LINE
  5
19B2A
330
2
100
AcDbEntity
  8
0
 62
     1
100
AcDbLine
 10
37.41884471797356
 20
-14.46837230097423
 30
0.0
 11
39.6517554471131
 21
-14.46837230097422
 31
0.0
  0
ATTDEF
  5
19B2D
330
2
100
AcDbEntity
  8
A1
 62
     1
100
AcDbText
 10
44.57371940468592
 20
-14.86894133195413
 30
0.0
 40
1.0
  1

100
AcDbAttributeDefinition
  3
ADD LINK NUMBER (WMF)
  2
TS1531
 70
     0
  0
LINE
  5
19B2E
330
2
100
AcDbEntity
  8
0
 62
     1
100
AcDbLine
 10
44.08688905560818
 20
-15.25171040649945
 30
0.0
 11
44.08688905560818
 21
-13.68503419544899
 31
0.0
  0
SOLID
  5
19B2F
330
2
100
AcDbEntity
  8
A1
 62
     1
100
AcDbTrace
 10
32.44743718769017
 20
-16.99095711659657
 30
0.0
 11
32.37425094863149
 21
-16.84121883762214
 31
0.0
 12
31.96162923123754
 22
-17.13564669428538
 32
0.0
 13
31.96162923123754
 23
-17.13564669428538
 33
0.0
  0
LINE
  5
19B30
330
2
100
AcDbEntity
  8
A1
 62
     1
100
AcDbLine
 10
32.41084406816083
 20
-16.91608797710935
 30
0.0
 11
37.41884471797357
 21
-14.46837230097423
 31
0.0
  0
LINE
  5
19B33
330
2
100
AcDbEntity
  8
0
 62
     1
100
AcDbLine
 10
40.93445601265139
 20
-14.46837230097423
 30
0.0
 11
44.08688905560818
 21
-14.46837230097423
 31
0.0
  0
ENDSEC
  0
SECTION
  2
OBJECTS
  0
DICTIONARY
  5
8
330
0
100
AcDbDictionary
281
     1
  3
ACAD_GROUP
350
21
  3
ACAD_LAYOUT
350
C
  3
ACAD_MLINESTYLE
350
22
  3
ACAD_PLOTSETTINGS
350
23
  3
ACAD_PLOTSTYLENAME
350
7
  3
DWGPROPS
350
19AB7
  0
DICTIONARY
  5
3
330
2
100
AcDbDictionary
280
     1
281
     1
  3
ACAD_LAYOUTSELFREF
360
19B5F
  0
DICTIONARY
  5
19AE5
330
D
100
AcDbDictionary
280
     1
281
     1
  3
ACAD_LAYOUTSELFREF
360
19B62
  0
DICTIONARY
  5
21
102
{ACAD_REACTORS
330
8
102
}
330
8
100
AcDbDictionary
281
     1
  0
DICTIONARY
  5
C
102
{ACAD_REACTORS
330
8
102
}
330
8
100
AcDbDictionary
281
     1
  3
Layout1
350
10
  3
Model
350
B
  0
DICTIONARY
  5
22
102
{ACAD_REACTORS
330
8
102
}
330
8
100
AcDbDictionary
281
     1
  3
STANDARD
350
25
  0
DICTIONARY
  5
23
102
{ACAD_REACTORS
330
8
102
}
330
8
100
AcDbDictionary
281
     1
  0
ACDBDICTIONARYWDFLT
  5
7
102
{ACAD_REACTORS
330
8
102
}
330
8
100
AcDbDictionary
281
     1
  3
Normal
350
6
100
AcDbDictionaryWithDefault
340
6
  0
XRECORD
  5
19AB7
102
{ACAD_REACTORS
330
8
102
}
330
8
100
AcDbXrecord
280
     1
  1
DWGPROPS COOKIE
  2

  3

  4

  6

  7

  8
catalog
  9

300
=
301
=
302
=
303
=
304
=
305
=
306
=
307
=
308
=
309
=
 40
2.538380208333333
 41
2451085.66483831
 42
2451642.667929514
  1

 90
        0
  0
XRECORD
  5
19B5F
102
{ACAD_REACTORS
330
3
102
}
330
3
100
AcDbXrecord
280
     1
340
2
  0
XRECORD
  5
19B62
102
{ACAD_REACTORS
330
19AE5
102
}
330
19AE5
100
AcDbXrecord
280
     1
340
D
  0
LAYOUT
  5
10
102
{ACAD_REACTORS
330
C
102
}
330
C
100
AcDbPlotSettings
  1

  2
None
  4

  6

 40
0.0
 41
0.0
 42
0.0
 43
0.0
 44
0.0
 45
0.0
 46
0.0
 47
0.0
 48
0.0
 49
0.0
140
0.0
141
0.0
142
1.0
143
1.0
 70
   688
 72
     0
 73
     0
 74
     5
  7

 75
    16
147
1.0
148
0.0
149
0.0
100
AcDbLayout
  1
Layout1
 70
     1
 71
     1
 10
0.0
 20
0.0
 11
12.0
 21
9.0
 12
0.0
 22
0.0
 32
0.0
 14
1.000000000000000E+20
 24
1.000000000000000E+20
 34
1.000000000000000E+20
 15
-1.000000000000000E+20
 25
-1.000000000000000E+20
 35
-1.000000000000000E+20
146
0.0
 13
0.0
 23
0.0
 33
0.0
 16
1.0
 26
0.0
 36
0.0
 17
0.0
 27
1.0
 37
0.0
 76
     0
330
D
  0
LAYOUT
  5
B
102
{ACAD_REACTORS
330
C
102
}
330
C
100
AcDbPlotSettings
  1

  2
HP LaserJet 5.pc3
  4
Letter
  6

 40
7.143749713897705
 41
6.381738662719726
 42
7.14373779296875
 43
6.381744384765625
 44
215.8999938964843
 45
279.3999938964843
 46
0.0
 47
0.0
 48
108.9658431831381
 49
-40.85242694025071
140
184.6747998175354
141
15.46765055606925
142
1.0
143
8.263325873405422
 70
 11952
 72
     0
 73
     0
 74
     1
  7

 75
     0
147
0.1210166481777497
148
75.70714238489667
149
1184.941221905573
100
AcDbLayout
  1
Model
 70
     1
 71
     0
 10
0.0
 20
0.0
 11
12.0
 21
9.0
 12
0.0
 22
0.0
 32
0.0
 14
0.0
 24
0.0
 34
0.0
 15
0.0
 25
0.0
 35
0.0
146
0.0
 13
0.0
 23
0.0
 33
0.0
 16
1.0
 26
0.0
 36
0.0
 17
0.0
 27
1.0
 37
0.0
 76
     0
330
2
  0
MLINESTYLE
  5
25
102
{ACAD_REACTORS
330
22
102
}
330
22
100
AcDbMlineStyle
  2
STANDARD
 70
     0
  3

 62
   256
 51
90.0
 52
90.0
 71
     2
 49
0.5
 62
   256
  6
BYLAYER
 49
-0.5
 62
   256
  6
BYLAYER
  0
ACDBPLACEHOLDER
  5
6
102
{ACAD_REACTORS
330
7
102
}
330
7
  0
ENDSEC
  0
EOF
