  0
SECTION
  2
HEADER
  9
$ACADVER
  1
AC1015
  9
$ACADMAINTVER
 70
     6
  9
$DWGCODEPAGE
  3
ANSI_1252
  9
$INSBASE
 10
0.0
 20
0.0
 30
0.0
  9
$EXTMIN
 10
-24.89058483473435
 20
-15.02914511834036
 30
0.0
  9
$EXTMAX
 10
33.5378024478618
 20
28.43587468944457
 30
0.0
  9
$LIMMIN
 10
0.0
 20
0.0
  9
$LIMMAX
 10
12.0
 20
9.0
  9
$ORTHOMODE
 70
     0
  9
$REGENMODE
 70
     1
  9
$FILLMODE
 70
     1
  9
$QTEXTMODE
 70
     0
  9
$MIRRTEXT
 70
     0
  9
$LTSCALE
 40
1.0
  9
$ATTMODE
 70
     2
  9
$TEXTSIZE
 40
4.0
  9
$TRACEWID
 40
0.05
  9
$TEXTSTYLE
  7
STANDARD
  9
$CLAYER
  8
A1
  9
$CELTYPE
  6
BYLAYER
  9
$CECOLOR
 62
     7
  9
$CELTSCALE
 40
1.0
  9
$DISPSILH
 70
     0
  9
$DIMSCALE
 40
1.0
  9
$DIMASZ
 40
0.5
  9
$DIMEXO
 40
1.0
  9
$DIMDLI
 40
0.0625
  9
$DIMRND
 40
0.0
  9
$DIMDLE
 40
0.0
  9
$DIMEXE
 40
0.25
  9
$DIMTP
 40
0.0
  9
$DIMTM
 40
0.0
  9
$DIMTXT
 40
1.0
  9
$DIMCEN
 40
0.0
  9
$DIMTSZ
 40
0.0
  9
$DIMTOL
 70
     0
  9
$DIMLIM
 70
     0
  9
$DIMTIH
 70
     1
  9
$DIMTOH
 70
     1
  9
$DIMSE1
 70
     0
  9
$DIMSE2
 70
     0
  9
$DIMTAD
 70
     0
  9
$DIMZIN
 70
     0
  9
$DIMBLK
  1

  9
$DIMASO
 70
     1
  9
$DIMSHO
 70
     1
  9
$DIMPOST
  1
"
  9
$DIMAPOST
  1

  9
$DIMALT
 70
     0
  9
$DIMALTD
 70
     0
  9
$DIMALTF
 40
25.4
  9
$DIMLFAC
 40
1.0
  9
$DIMTOFL
 70
     0
  9
$DIMTVP
 40
0.0
  9
$DIMTIX
 70
     0
  9
$DIMSOXD
 70
     0
  9
$DIMSAH
 70
     0
  9
$DIMBLK1
  1

  9
$DIMBLK2
  1

  9
$DIMSTYLE
  2
STANDARD
  9
$DIMCLRD
 70
     0
  9
$DIMCLRE
 70
     0
  9
$DIMCLRT
 70
     0
  9
$DIMTFAC
 40
0.125
  9
$DIMGAP
 40
0.5
  9
$DIMJUST
 70
     0
  9
$DIMSD1
 70
     0
  9
$DIMSD2
 70
     0
  9
$DIMTOLJ
 70
     1
  9
$DIMTZIN
 70
     0
  9
$DIMALTZ
 70
     2
  9
$DIMALTTZ
 70
     2
  9
$DIMUPT
 70
     1
  9
$DIMDEC
 70
     4
  9
$DIMTDEC
 70
     4
  9
$DIMALTU
 70
     2
  9
$DIMALTTD
 70
     0
  9
$DIMTXSTY
  7
STANDARD
  9
$DIMAUNIT
 70
     0
  9
$DIMADEC
 70
     0
  9
$DIMALTRND
 40
0.0
  9
$DIMAZIN
 70
     0
  9
$DIMDSEP
 70
    46
  9
$DIMATFIT
 70
     1
  9
$DIMFRAC
 70
     2
  9
$DIMLDRBLK
  1

  9
$DIMLUNIT
 70
     5
  9
$DIMLWD
 70
    -2
  9
$DIMLWE
 70
    -2
  9
$DIMTMOVE
 70
     1
  9
$LUNITS
 70
     5
  9
$LUPREC
 70
     4
  9
$SKETCHINC
 40
0.1
  9
$FILLETRAD
 40
0.0
  9
$AUNITS
 70
     0
  9
$AUPREC
 70
     1
  9
$MENU
  1
acad
  9
$ELEVATION
 40
0.0
  9
$PELEVATION
 40
0.0
  9
$THICKNESS
 40
0.0
  9
$LIMCHECK
 70
     0
  9
$CHAMFERA
 40
0.75
  9
$CHAMFERB
 40
0.75
  9
$CHAMFERC
 40
0.0
  9
$CHAMFERD
 40
0.0
  9
$SKPOLY
 70
     0
  9
$TDCREATE
 40
2451085.664838310
  9
$TDUCREATE
 40
2451085.831504977
  9
$TDUPDATE
 40
2451660.600104861
  9
$TDUUPDATE
 40
2451660.766771527
  9
$TDINDWG
 40
2.4658969907
  9
$TDUSRTIMER
 40
2.4658969907
  9
$USRTIMER
 70
     1
  9
$ANGBASE
 50
0.0
  9
$ANGDIR
 70
     0
  9
$PDMODE
 70
     0
  9
$PDSIZE
 40
0.0
  9
$PLINEWID
 40
0.0
  9
$SPLFRAME
 70
     0
  9
$SPLINETYPE
 70
     6
  9
$SPLINESEGS
 70
     8
  9
$HANDSEED
  5
522
  9
$SURFTAB1
 70
     6
  9
$SURFTAB2
 70
     6
  9
$SURFTYPE
 70
     6
  9
$SURFU
 70
     6
  9
$SURFV
 70
     6
  9
$UCSBASE
  2

  9
$UCSNAME
  2

  9
$UCSORG
 10
0.0
 20
0.0
 30
0.0
  9
$UCSXDIR
 10
1.0
 20
0.0
 30
0.0
  9
$UCSYDIR
 10
0.0
 20
1.0
 30
0.0
  9
$UCSORTHOREF
  2

  9
$UCSORTHOVIEW
 70
     0
  9
$UCSORGTOP
 10
0.0
 20
0.0
 30
0.0
  9
$UCSORGBOTTOM
 10
0.0
 20
0.0
 30
0.0
  9
$UCSORGLEFT
 10
0.0
 20
0.0
 30
0.0
  9
$UCSORGRIGHT
 10
0.0
 20
0.0
 30
0.0
  9
$UCSORGFRONT
 10
0.0
 20
0.0
 30
0.0
  9
$UCSORGBACK
 10
0.0
 20
0.0
 30
0.0
  9
$PUCSBASE
  2

  9
$PUCSNAME
  2

  9
$PUCSORG
 10
0.0
 20
0.0
 30
0.0
  9
$PUCSXDIR
 10
1.0
 20
0.0
 30
0.0
  9
$PUCSYDIR
 10
0.0
 20
1.0
 30
0.0
  9
$PUCSORTHOREF
  2

  9
$PUCSORTHOVIEW
 70
     0
  9
$PUCSORGTOP
 10
0.0
 20
0.0
 30
0.0
  9
$PUCSORGBOTTOM
 10
0.0
 20
0.0
 30
0.0
  9
$PUCSORGLEFT
 10
0.0
 20
0.0
 30
0.0
  9
$PUCSORGRIGHT
 10
0.0
 20
0.0
 30
0.0
  9
$PUCSORGFRONT
 10
0.0
 20
0.0
 30
0.0
  9
$PUCSORGBACK
 10
0.0
 20
0.0
 30
0.0
  9
$USERI1
 70
     0
  9
$USERI2
 70
     0
  9
$USERI3
 70
     0
  9
$USERI4
 70
     0
  9
$USERI5
 70
     0
  9
$USERR1
 40
0.0
  9
$USERR2
 40
0.0
  9
$USERR3
 40
0.0
  9
$USERR4
 40
0.0
  9
$USERR5
 40
0.0
  9
$WORLDVIEW
 70
     1
  9
$SHADEDGE
 70
     1
  9
$SHADEDIF
 70
    70
  9
$TILEMODE
 70
     1
  9
$MAXACTVP
 70
    16
  9
$PINSBASE
 10
0.0
 20
0.0
 30
0.0
  9
$PLIMCHECK
 70
     0
  9
$PEXTMIN
 10
1.000000000000000E+20
 20
1.000000000000000E+20
 30
1.000000000000000E+20
  9
$PEXTMAX
 10
-1.000000000000000E+20
 20
-1.000000000000000E+20
 30
-1.000000000000000E+20
  9
$PLIMMIN
 10
0.0
 20
0.0
  9
$PLIMMAX
 10
12.0
 20
9.0
  9
$UNITMODE
 70
     0
  9
$VISRETAIN
 70
     0
  9
$PLINEGEN
 70
     0
  9
$PSLTSCALE
 70
     1
  9
$TREEDEPTH
 70
  3020
  9
$CMLSTYLE
  2
STANDARD
  9
$CMLJUST
 70
     0
  9
$CMLSCALE
 40
1.0
  9
$PROXYGRAPHICS
 70
     1
  9
$MEASUREMENT
 70
     0
  9
$CELWEIGHT
370
    -1
  9
$ENDCAPS
280
     0
  9
$JOINSTYLE
280
     0
  9
$LWDISPLAY
290
     0
  9
$INSUNITS
 70
     0
  9
$HYPERLINKBASE
  1

  9
$STYLESHEET
  1

  9
$XEDIT
290
     1
  9
$CEPSNTYPE
380
     0
  9
$PSTYLEMODE
290
     1
  9
$FINGERPRINTGUID
  2
{A6232B84-9B2E-11D3-8DA4-00A0C981A35F}
  9
$VERSIONGUID
  2
{8868A56D-19C8-11D4-8DA4-00A0C981A35F}
  9
$EXTNAMES
290
     1
  9
$PSVPSCALE
 40
0.0
  9
$OLESTARTUP
290
     0
  0
ENDSEC
  0
SECTION
  2
CLASSES
  0
CLASS
  1
DICTIONARYVAR
  2
AcDbDictionaryVar
  3
AutoCAD 2000
 90
    32768
280
     0
281
     0
  0
CLASS
  1
LWPOLYLINE
  2
AcDbPolyline
  3
AutoCAD 2000
 90
    32768
280
     0
281
     1
  0
CLASS
  1
RASTERVARIABLES
  2
AcDbRasterVariables
  3
ISM
 90
    32768
280
     0
281
     0
  0
CLASS
  1
ACDBDICTIONARYWDFLT
  2
AcDbDictionaryWithDefault
  3
AutoCAD 2000
 90
        0
280
     0
281
     0
  0
CLASS
  1
ACDBPLACEHOLDER
  2
AcDbPlaceHolder
  3
AutoCAD 2000
 90
        0
280
     0
281
     0
  0
CLASS
  1
LAYOUT
  2
AcDbLayout
  3
AutoCAD 2000
 90
        0
280
     0
281
     0
  0
CLASS
  1
ACME_DOCUMENT
  2
AcMeDbDoc
  3
AcMeServices
 90
    32768
280
     1
281
     0
  0
CLASS
  1
ACMESCOPE
  2
AcMeScope
  3
AcMeServices
 90
    32768
280
     1
281
     0
  0
CLASS
  1
ACMECOMMANDHISTORY
  2
AcMeCommandHistory
  3
AcMeServices
 90
    32768
280
     1
281
     0
  0
CLASS
  1
ACIMSYSVARMAN
  2
AcImSysVarManager
  3
AcMeServices
 90
    32768
280
     1
281
     0
  0
CLASS
  1
ACIMREALSYSVAR
  2
AcImRealSysVar
  3
AcMeServices
 90
    32768
280
     1
281
     0
  0
CLASS
  1
ACIMINTSYSVAR
  2
AcImIntSysVar
  3
AcMeServices
 90
    32768
280
     1
281
     0
  0
CLASS
  1
ACMEDRAWINGMAN
  2
AcMeDrawingMan
  3
AcMeServices
 90
    32768
280
     1
281
     0
  0
CLASS
  1
ACMEVIEW
  2
AcMeView
  3
AcMeServices
 90
    32768
280
     1
281
     0
  0
CLASS
  1
ACDBENTITYCACHE
  2
AcMeEntityCache
  3
AcMeServices
 90
    32768
280
     1
281
     0
  0
CLASS
  1
GSMANAGER
  2
AcMeGSManager
  3
AcMeServices
 90
    32768
280
     1
281
     0
  0
CLASS
  1
AmdtInternalReactor
  2
AmdtInternalReactor
  3
AcMeServices
 90
    32768
280
     1
281
     0
  0
CLASS
  1
ACMESTATEMGR
  2
AcMeStateMgr
  3
AcMeServices
 90
    32768
280
     1
281
     0
  0
CLASS
  1
ACGREFMASTER
  2
AcGrefMaster
  3
AcAttribServices
 90
    32768
280
     1
281
     0
  0
CLASS
  1
AM_DRAWING_MGR
  2
AcDmDwgMgr
  3
AcMechDwgViewMgmt
 90
    32768
280
     1
281
     0
  0
CLASS
  1
AM_DWG_DOCUMENT
  2
AcDmDwgDocument
  3
AcMechDwgViewMgmt
 90
    32768
280
     1
281
     0
  0
CLASS
  1
AM_DWG_SHEET
  2
AcDmSheet
  3
AcMechDwgViewMgmt
 90
    32768
280
     1
281
     0
  0
CLASS
  1
AM_VIEWDIMPARMAP
  2
AcDmViewDimParMap
  3
AcMechDwgViewMgmt
 90
    32768
280
     1
281
     0
  0
CLASS
  1
AM_DWGMGR_NAME
  2
AcDmDwgMgrName
  3
AcMechDwgViewMgmt
 90
    32768
280
     1
281
     0
  0
CLASS
  1
ACME_DATABASE
  2
AcMeDbDatabase
  3
AcMeServices
 90
    32768
280
     1
281
     0
  0
CLASS
  1
ACRFINSADJUSTERMGR
  2
AcRfInsAdjusterMgr
  3
AcMeServices
 90
    32768
280
     1
281
     0
  0
CLASS
  1
ACGREFMASTER
  2
AcGrefacadMaster
  3
AcGrefServices
 90
    32768
280
     1
281
     0
  0
CLASS
  1
AMDTMENUSTATEMGR
  2
AmdtMenuStateMgr
  3
McadcomServices
 90
    32768
280
     1
281
     0
  0
CLASS
  1
AMDTMCOMMENUSTATE
  2
AmdtMcomMenuState
  3
McadcomServices
 90
    32768
280
     1
281
     0
  0
CLASS
  1
ASAPP
  2
AcAsAppObject
  3
AutoSurfServices
 90
    32768
280
     1
281
     0
  0
CLASS
  1
IM_STATIC_MAN
  2
AcImStaticVarManager
  3
AcMeServices
 90
    32768
280
     1
281
     0
  0
CLASS
  1
ACIMSTRSYSVAR
  2
AcImStrSysVar
  3
AcMeServices
 90
    32768
280
     1
281
     0
  0
CLASS
  1
ACIMDBLSTATICVAR
  2
AcImDblStaticVar
  3
AcMeServices
 90
    32768
280
     1
281
     0
  0
CLASS
  1
ACIMSTRSTATICVAR
  2
AcImStrStaticVar
  3
AcMeServices
 90
    32768
280
     1
281
     0
  0
CLASS
  1
ACIMINTSTATICVAR
  2
AcImIntStaticVar
  3
AcMeServices
 90
    32768
280
     1
281
     0
  0
CLASS
  1
ACADGREFMODULE
  2
AcAdGrefModule
  3
AdGrefServices
 90
    32768
280
     1
281
     0
  0
CLASS
  1
AMIMASTER
  2
AmiMaster
  3
AmiServices
 90
    32768
280
     1
281
     0
  0
CLASS
  1
ACASGREFMASTER
  2
AcAsGrefMaster
  3
AutoSurfResolverServices
 90
    32768
280
     1
281
     0
  0
CLASS
  1
MAPIAMMOUDLE
  2
MApiAmModule
  3
MApiAmServices
 90
    32768
280
     1
281
     0
  0
CLASS
  1
AMDTDMMENUSTATE
  2
AmdtDmMenuState
  3
AcMechDwgViewMgmt
 90
    32768
280
     1
281
     0
  0
CLASS
  1
AMDTADMENUSTATE
  2
AmdtAdMenuState
  3
DesignerServices
 90
    32768
280
     1
281
     0
  0
CLASS
  1
ADAPPL
  2
AcAdAppl
  3
DesignerServices
 90
    32768
280
     1
281
     0
  0
CLASS
  1
DEPMGR
  2
AcAdDepMgr
  3
DesignerServices
 90
    32768
280
     1
281
     0
  0
CLASS
  1
PARAMMGR
  2
AcAdParamMgr
  3
DesignerServices
 90
    32768
280
     1
281
     0
  0
CLASS
  1
PARAMSCOPE
  2
AcAdParamScope
  3
DesignerServices
 90
    32768
280
     1
281
     0
  0
CLASS
  1
NAMEDAPPL
  2
AcAdNamedAppl
  3
DesignerServices
 90
    32768
280
     1
281
     0
  0
CLASS
  1
ADHNTMPLT
  2
AdHoleNoteTemplateMgr
  3
DesignerServices
 90
    32768
280
     1
281
     0
  0
CLASS
  1
AM_HNTEMPLATE_MGR_NAME
  2
AdHoleNoteTemplateMgrName
  3
DesignerServices
 90
    32768
280
     1
281
     0
  0
CLASS
  1
AMDTAMMENUSTATE
  2
AmdtAmMenuState
  3
DesignerAssemblies
 90
    32768
280
     1
281
     0
  0
CLASS
  1
ACAMPROJECT
  2
AcAmProject
  3
DesignerAssemblies
 90
    32768
280
     1
281
     0
  0
CLASS
  1
ACAMGRCOMPDEF
  2
AcAmGrCompDef
  3
DesignerAssemblies
 90
    32768
280
     1
281
     0
  0
CLASS
  1
ACCMCONTEXT
  2
AcCmContext
  3
DesignerAssemblies
 90
    32768
280
     1
281
     0
  0
CLASS
  1
ACAMCOMPDEF
  2
AcAmCompDef
  3
DesignerAssemblies
 90
    32768
280
     1
281
     0
  0
CLASS
  1
ACAMCOMPDEFMGR
  2
AcAmCompDefMgr
  3
DesignerAssemblies
 90
    32768
280
     1
281
     0
  0
CLASS
  1
AMCONTEXTMGR
  2
AcAmContextMgr
  3
DesignerAssemblies
 90
    32768
280
     1
281
     0
  0
CLASS
  1
ACAMCONTEXTMODELER
  2
AcAmContextModeler
  3
DesignerAssemblies
 90
    32768
280
     1
281
     0
  0
CLASS
  1
MAPIADMODULE
  2
MApiAdModule
  3
MApiAdServices
 90
    32768
280
     1
281
     0
  0
CLASS
  1
ACMDATADICTIONARY
  2
AcmDataDictionary
  3
"AcmSymBB|Product Description: AutoCAD Mechanical 2000|Company: Autodesk"
 90
    32768
280
     1
281
     0
  0
CLASS
  1
ACMDATAENTRYBLOCK
  2
AcmDataEntryBlock
  3
"AcmSymBB|Product Description: AutoCAD Mechanical 2000|Company: Autodesk"
 90
    32768
280
     1
281
     0
  0
CLASS
  1
AMDTBROWSERDBTAB
  2
AmdtBrowserDbTab
  3
McadcomServices
 90
    32768
280
     1
281
     0
  0
CLASS
  1
CBROWSERAPPOBJECT
  2
CBrowserAppObject
  3
McadcomServices
 90
    32768
280
     1
281
     0
  0
CLASS
  1
DM_PLACEHOLDER
  2
AcDmSelsetPlaceholder
  3
AcMechDwgViewMgmt
 90
    32768
280
     1
281
     0
  0
CLASS
  1
CATALOGSTATE
  2
AcAmCatalogState
  3
DesignerAssemblies
 90
    32768
280
     1
281
     0
  0
CLASS
  1
ACAMGRCOMPDEFSET
  2
AcAmGrCompDefSet
  3
DesignerAssemblies
 90
    32768
280
     1
281
     0
  0
CLASS
  1
AMGOBJPROPCFG
  2
AmgObjPropCfg
  3
"AmgLay|Product Description: AutoCAD Mechanical 2000|Company: Autodesk"
 90
    32769
280
     1
281
     0
  0
CLASS
  1
LAYER_INDEX
  2
AcDbLayerIndex
  3
AutoCAD 2000
 90
    32768
280
     0
281
     0
  0
CLASS
  1
IDBUFFER
  2
AcDbIdBuffer
  3
AutoCAD 2000
 90
    32768
280
     0
281
     0
  0
CLASS
  1
ACRFATTGENMGR
  2
AcRfAttGeneralMgr
  3
AcAttribServices
 90
    32768
280
     1
281
     0
  0
CLASS
  1
PLOTSETTINGS
  2
AcDbPlotSettings
  3
AutoCAD 2000
 90
    32768
280
     0
281
     0
  0
CLASS
  1
VBA_PROJECT
  2
AcDbVbaProject
  3
acadvba
 90
        0
280
     0
281
     0
  0
CLASS
  1
LONG_TRANSACTION
  2
AcDbLongTransaction
  3
AutoCAD 2000
 90
    32768
280
     0
281
     0
  0
CLASS
  1
LWPOLYLINE
  2
AcDbPolyline
  3
AutoCAD 2000
 90
    32768
280
     0
281
     1
  0
CLASS
  1
HATCH
  2
AcDbHatch
  3
AutoCAD 2000
 90
    32768
280
     0
281
     1
  0
CLASS
  1
XRECORD
  2
AcDbXrecord
  3
AutoCAD 2000
 90
    32768
280
     0
281
     0
  0
CLASS
  1
LONG_TRANSACTION
  2
AcDbLongTransaction
  3
AutoCAD 2000
 90
    32768
280
     0
281
     0
  0
CLASS
  1
LWPOLYLINE
  2
AcDbPolyline
  3
AutoCAD 2000
 90
    32768
280
     0
281
     1
  0
CLASS
  1
HATCH
  2
AcDbHatch
  3
AutoCAD 2000
 90
    32768
280
     0
281
     1
  0
CLASS
  1
XRECORD
  2
AcDbXrecord
  3
AutoCAD 2000
 90
    32768
280
     0
281
     0
  0
ENDSEC
  0
SECTION
  2
TABLES
  0
TABLE
  2
VPORT
  5
1B
330
0
100
AcDbSymbolTable
 70
     2
  0
VPORT
  5
521
330
1B
100
AcDbSymbolTableRecord
100
AcDbViewportTableRecord
  2
*Active
 70
     0
 10
0.0
 20
0.0
 11
1.0
 21
1.0
 12
69.56275987848377
 22
-25.77065383308973
 13
0.0
 23
0.0
 14
1.0
 24
1.0
 15
0.0
 25
0.0
 16
0.0
 26
0.0
 36
1.0
 17
-64.46234487877643
 27
33.0238264231553
 37
6.148717398612387
 40
44.88704396944212
 41
1.413068844807467
 42
50.0
 43
-6.148717398612387
 44
-6.148717398612387
 50
0.0
 51
0.0
 71
     0
 72
 20000
 73
     1
 74
     1
 75
     0
 76
     0
 77
     0
 78
     2
281
     0
 65
     1
110
0.0
120
0.0
130
0.0
111
1.0
121
0.0
131
0.0
112
0.0
122
1.0
132
0.0
 79
     0
146
0.0
  0
ENDTAB
  0
TABLE
  2
LTYPE
  5
16
330
0
100
AcDbSymbolTable
 70
     1
  0
LTYPE
  5
17
330
16
100
AcDbSymbolTableRecord
100
AcDbLinetypeTableRecord
  2
BYBLOCK
 70
     0
  3

 72
    65
 73
     0
 40
0.0
  0
LTYPE
  5
18
330
16
100
AcDbSymbolTableRecord
100
AcDbLinetypeTableRecord
  2
BYLAYER
 70
     0
  3

 72
    65
 73
     0
 40
0.0
  0
LTYPE
  5
9
330
16
100
AcDbSymbolTableRecord
100
AcDbLinetypeTableRecord
  2
CONTINUOUS
 70
     0
  3
Solid line
 72
    65
 73
     0
 40
0.0
  0
ENDTAB
  0
TABLE
  2
LAYER
  5
11
330
0
100
AcDbSymbolTable
 70
     5
  0
LAYER
  5
5
330
11
100
AcDbSymbolTableRecord
100
AcDbLayerTableRecord
  2
0
 70
     0
 62
     7
  6
CONTINUOUS
370
    -3
390
6
  0
LAYER
  5
24
330
11
100
AcDbSymbolTableRecord
100
AcDbLayerTableRecord
  2
A1
 70
     0
 62
     7
  6
CONTINUOUS
370
    -3
390
6
  0
LAYER
  5
A6
330
11
100
AcDbSymbolTableRecord
100
AcDbLayerTableRecord
  2
Defpoints
 70
     0
 62
     7
  6
CONTINUOUS
290
     0
370
    -3
390
6
  0
LAYER
  5
1CF
330
11
100
AcDbSymbolTableRecord
100
AcDbLayerTableRecord
  2
ASHADE
 70
     4
 62
     7
  6
CONTINUOUS
370
    -3
390
6
  0
LAYER
  5
410
330
11
100
AcDbSymbolTableRecord
100
AcDbLayerTableRecord
  2
LINEWORK
 70
     0
 62
    41
  6
CONTINUOUS
370
    -3
390
6
  0
ENDTAB
  0
TABLE
  2
STYLE
  5
12
330
0
100
AcDbSymbolTable
 70
     3
  0
STYLE
  5
13
330
12
100
AcDbSymbolTableRecord
100
AcDbTextStyleTableRecord
  2
STANDARD
 70
     0
 40
0.0
 41
1.0
 50
0.0
 71
     0
 42
4.0
  3
unvr55w.ttf
  4

1001
ACAD
1000
Univers
1071
       34
  0
STYLE
  5
411
330
12
100
AcDbSymbolTableRecord
100
AcDbTextStyleTableRecord
  2
ROMANC
 70
     0
 40
0.0
 41
1.0
 50
0.0
 71
     0
 42
0.5
  3
TIMESBD.TTF
  4

1001
ACAD
1000
Times New Roman
1071
 33554450
  0
STYLE
  5
412
330
12
100
AcDbSymbolTableRecord
100
AcDbTextStyleTableRecord
  2
barcoder
 70
     0
 40
0.0
 41
1.0
 50
0.0
 71
     0
 42
4.5625
  3
cw_barcd.ttf
  4

1001
ACAD
1000
Barcoder
1071
 33554434
  0
ENDTAB
  0
TABLE
  2
VIEW
  5
19
330
0
100
AcDbSymbolTable
 70
     0
  0
ENDTAB
  0
TABLE
  2
UCS
  5
1A
330
0
100
AcDbSymbolTable
 70
     0
  0
ENDTAB
  0
TABLE
  2
APPID
  5
1D
330
0
100
AcDbSymbolTable
 70
    20
  0
APPID
  5
14
330
1D
100
AcDbSymbolTableRecord
100
AcDbRegAppTableRecord
  2
ACAD
 70
     0
  0
APPID
  5
54
330
1D
100
AcDbSymbolTableRecord
100
AcDbRegAppTableRecord
  2
DCO15
 70
     0
  0
APPID
  5
1D0
330
1D
100
AcDbSymbolTableRecord
100
AcDbRegAppTableRecord
  2
GENIUS_GENDIM_13
 70
     0
  0
APPID
  5
1D1
330
1D
100
AcDbSymbolTableRecord
100
AcDbRegAppTableRecord
  2
GENIUS_GENDTOL_13
 70
     0
  0
APPID
  5
1D2
330
1D
100
AcDbSymbolTableRecord
100
AcDbRegAppTableRecord
  2
GENIUS_GE3DTOL_13
 70
     0
  0
APPID
  5
1D3
330
1D
100
AcDbSymbolTableRecord
100
AcDbRegAppTableRecord
  2
MCAD_NO_VIS
 70
     0
  0
APPID
  5
1D4
330
1D
100
AcDbSymbolTableRecord
100
AcDbRegAppTableRecord
  2
ACAD_TEMP_GRAPHIC
 70
     0
  0
APPID
  5
1D5
330
1D
100
AcDbSymbolTableRecord
100
AcDbRegAppTableRecord
  2
AD_DRAW
 70
     0
  0
APPID
  5
1D6
330
1D
100
AcDbSymbolTableRecord
100
AcDbRegAppTableRecord
  2
ACATTRIBSERVICES
 70
     0
  0
APPID
  5
1D7
330
1D
100
AcDbSymbolTableRecord
100
AcDbRegAppTableRecord
  2
ASURF_PCURVE_APPNAME
 70
     0
  0
APPID
  5
1D8
330
1D
100
AcDbSymbolTableRecord
100
AcDbRegAppTableRecord
  2
DESIGNERASSEMBLIES
 70
     0
  0
APPID
  5
1D9
330
1D
100
AcDbSymbolTableRecord
100
AcDbRegAppTableRecord
  2
ACADM_DIM_EDIT
 70
     0
  0
APPID
  5
1DA
330
1D
100
AcDbSymbolTableRecord
100
AcDbRegAppTableRecord
  2
AVE_MATERIAL
 70
     0
  0
APPID
  5
1DB
330
1D
100
AcDbSymbolTableRecord
100
AcDbRegAppTableRecord
  2
ADCADD_ZZ
 70
     0
  0
APPID
  5
1DC
330
1D
100
AcDbSymbolTableRecord
100
AcDbRegAppTableRecord
  2
SDSK_PMN
 70
     0
  0
APPID
  5
1DD
330
1D
100
AcDbSymbolTableRecord
100
AcDbRegAppTableRecord
  2
AVE_RENDER
 70
     0
  0
APPID
  5
1DE
330
1D
100
AcDbSymbolTableRecord
100
AcDbRegAppTableRecord
  2
AVE_FINISH
 70
     0
  0
APPID
  5
1DF
330
1D
100
AcDbSymbolTableRecord
100
AcDbRegAppTableRecord
  2
AVE_ENTITY_MATERIAL
 70
     0
  0
APPID
  5
1E0
330
1D
100
AcDbSymbolTableRecord
100
AcDbRegAppTableRecord
  2
AVE_GLOBAL
 70
     0
  0
APPID
  5
1E1
330
1D
100
AcDbSymbolTableRecord
100
AcDbRegAppTableRecord
  2
RAK
 70
     0
  0
ENDTAB
  0
TABLE
  2
DIMSTYLE
  5
1E
330
0
100
AcDbSymbolTable
 70
     1
100
AcDbDimStyleTable
 71
     0
  0
DIMSTYLE
105
1F
102
{ACAD_REACTORS
330
3C3
330
2F0
330
2F1
330
3E6
102
}
330
1E
100
AcDbSymbolTableRecord
100
AcDbDimStyleTableRecord
  2
STANDARD
 70
     0
  3
"
 41
0.5
 42
1.0
 43
0.0625
 44
0.25
 73
     0
 74
     0
 77
     3
140
1.0
141
0.0
146
0.125
147
0.125
171
     0
274
     0
276
     2
277
     5
285
     2
286
     2
289
     0
340
13
  0
ENDTAB
  0
TABLE
  2
BLOCK_RECORD
  5
1
330
0
100
AcDbSymbolTable
 70
     8
  0
BLOCK_RECORD
  5
2
102
{ACAD_XDICTIONARY
360
3
102
}
330
1
100
AcDbSymbolTableRecord
100
AcDbBlockTableRecord
  2
*MODEL_SPACE
340
B
  0
BLOCK_RECORD
  5
D
102
{ACAD_XDICTIONARY
360
482
102
}
330
1
100
AcDbSymbolTableRecord
100
AcDbBlockTableRecord
  2
*PAPER_SPACE
340
10
  0
BLOCK_RECORD
  5
2D
330
1
100
AcDbSymbolTableRecord
100
AcDbBlockTableRecord
  2
PROFILE LOGO
340
0
102
{BLKREFS
331
2ED
331
3F8
102
}
  0
BLOCK_RECORD
  5
193
330
1
100
AcDbSymbolTableRecord
100
AcDbBlockTableRecord
  2
AVE_RENDER
340
0
102
{BLKREFS
331
275
331
276
331
277
331
278
331
279
331
27A
331
27B
331
27C
331
282
331
283
331
284
331
285
331
286
331
287
331
288
331
289
331
28B
331
28C
331
28D
331
28E
331
28F
331
290
331
291
331
292
331
294
331
295
331
296
331
297
331
298
331
299
331
29A
331
29B
331
29D
331
29E
331
29F
331
2A0
331
2A1
331
2A2
331
2A3
331
2A4
331
2A6
331
2A7
331
2A8
331
2A9
331
2AA
331
2AB
331
2AC
331
2AD
331
2AF
331
2B0
331
2B1
331
2B2
331
2B3
331
2B4
331
2B5
331
2B6
331
2B8
331
2B9
331
2BA
331
2BB
331
2BC
331
2BD
331
2BE
331
2BF
331
2C1
331
2C2
331
2C3
331
2C4
331
2C5
331
2C6
331
2C7
331
2C8
331
2CA
331
2CB
331
2CC
331
2CD
331
2CE
331
2CF
331
2D0
331
2D1
331
2D3
331
2D4
331
2D5
331
2D6
331
2D7
331
2D8
331
2D9
331
2DA
331
2DC
331
2DD
331
2DE
331
2DF
331
2E0
331
2E1
331
2E2
331
2E3
102
}
  0
BLOCK_RECORD
  5
196
330
1
100
AcDbSymbolTableRecord
100
AcDbBlockTableRecord
  2
AVE_GLOBAL
340
0
102
{BLKREFS
331
27D
331
27E
331
27F
331
280
331
281
331
28A
331
293
331
29C
331
2A5
331
2AE
331
2B7
331
2C0
331
2C9
331
2D2
331
2DB
331
2E4
102
}
  0
BLOCK_RECORD
  5
304
330
1
100
AcDbSymbolTableRecord
100
AcDbBlockTableRecord
  2
*D3
340
0
  0
BLOCK_RECORD
  5
311
330
1
100
AcDbSymbolTableRecord
100
AcDbBlockTableRecord
  2
*D4
340
0
  0
BLOCK_RECORD
  5
3C4
330
1
100
AcDbSymbolTableRecord
100
AcDbBlockTableRecord
  2
*D5
340
0
  0
BLOCK_RECORD
  5
3E7
330
1
100
AcDbSymbolTableRecord
100
AcDbBlockTableRecord
  2
*D6
340
0
  0
BLOCK_RECORD
  5
413
330
1
100
AcDbSymbolTableRecord
100
AcDbBlockTableRecord
  2
TSFORMB
340
0
102
{BLKREFS
331
441
102
}
  0
ENDTAB
  0
ENDSEC
  0
SECTION
  2
BLOCKS
  0
BLOCK
  5
4
330
2
100
AcDbEntity
  8
0
100
AcDbBlockBegin
  2
*MODEL_SPACE
 70
     2
 10
0.0
 20
0.0
 30
0.0
  3
*MODEL_SPACE
  1

  0
ENDBLK
  5
A
330
2
100
AcDbEntity
  8
0
100
AcDbBlockEnd
  0
BLOCK
  5
E
330
D
100
AcDbEntity
 67
     1
  8
0
100
AcDbBlockBegin
  2
*PAPER_SPACE
 70
     0
 10
0.0
 20
0.0
 30
0.0
  3
*PAPER_SPACE
  1

  0
ENDBLK
  5
F
330
D
100
AcDbEntity
 67
     1
  8
0
100
AcDbBlockEnd
  0
BLOCK
  5
46
330
2D
100
AcDbEntity
  8
0
 62
     7
100
AcDbBlockBegin
  2
PROFILE LOGO
 70
     2
 10
0.0
 20
0.0
 30
0.0
  3
PROFILE LOGO
  1

  0
LINE
  5
2E
330
2D
100
AcDbEntity
  8
0
 62
    22
100
AcDbLine
 10
0.7459516636765642
 20
-0.415894330395318
 30
0.0
 11
0.74595166367655
 21
-1.12746688439163
 31
0.0
  0
LINE
  5
2F
330
2D
100
AcDbEntity
  8
0
 62
    22
100
AcDbLine
 10
0.5841942848079072
 20
-0.415894330395318
 30
0.0
 11
0.5841942848079072
 21
-1.12746688439163
 31
0.0
  0
HATCH
  5
30
330
2D
100
AcDbEntity
  8
0
 62
    22
100
AcDbHatch
 10
0.0
 20
0.0
 30
0.0
210
0.0
220
0.0
230
1.0
  2
LINE
 70
     0
 71
     0
 91
        1
 92
       33
 93
       38
 72
     1
 10
1.115683196411978
 20
-0.1706330859717084
 11
0.2177636962628071
 21
-0.1706330859717084
 72
     1
 10
0.2177636962628213
 20
-0.1706330859717084
 11
0.2078601968792952
 21
-0.4246889457533243
 72
     1
 10
0.2078601968792952
 20
-0.4246889457533243
 11
0.2375709173007294
 21
-0.4246889457533243
 72
     1
 10
0.2375709173007294
 20
-0.4246889457533243
 11
0.2441732502230991
 21
-0.3817964654080939
 72
     1
 10
0.2441732502230991
 20
-0.3817964654080939
 11
0.254076749606611
 21
-0.3422032805409501
 72
     1
 10
0.2540767496066252
 20
-0.3422032805409501
 11
0.2738837483736916
 21
-0.3092090964125091
 72
     1
 10
0.2738837483736916
 20
-0.3092090964125091
 11
0.2969919136019428
 21
-0.2861130719066693
 72
     1
 10
0.296991913601957
 20
-0.2861130719066764
 11
0.3267026340234338
 21
-0.2663164794731259
 72
     1
 10
0.3267026340234196
 20
-0.2663164794731259
 11
0.356413132174012
 21
-0.2498193191118219
 72
     1
 10
0.356413132174012
 20
-0.2498193191118148
 11
0.3828224638634481
 21
-0.243220591561446
 72
     1
 10
0.3828224638634623
 20
-0.243220591561446
 11
0.4092320178237401
 21
-0.243220591561446
 72
     1
 10
0.4092320178237401
 20
-0.243220591561446
 11
0.4719541805861525
 21
-0.2465198870395469
 72
     1
 10
0.4719541805861525
 20
-0.2465198870395469
 11
0.514869566852326
 21
-0.2729153436176332
 72
     1
 10
0.514869566852326
 20
-0.2729153436176332
 11
0.5742905631535394
 21
-0.3389038484686964
 72
     1
 10
0.5742905631535394
 20
-0.3389038484687106
 11
0.5907966177302626
 21
-0.3916947616248691
 72
     1
 10
0.5907966177302768
 20
-0.3916947616248691
 11
0.5907966177302768
 21
-1.157161773041991
 72
     1
 10
0.5907966177302768
 20
-1.157161773041984
 11
0.5643870637699991
 21
-1.203353685459461
 72
     1
 10
0.5643870637699849
 20
-1.203353685459468
 11
0.4983637345463876
 21
-1.226449709965308
 72
     1
 10
0.4983637345464019
 20
-1.226449709965301
 11
0.4389425159743326
 21
-1.226449709965301
 72
     1
 10
0.4389425159743326
 20
-1.226449709965301
 11
0.4323401830519913
 21
-1.249545734471119
 72
     1
 10
0.4323401830520055
 20
-1.249545734471134
 11
0.8945045989712809
 21
-1.249545734471134
 72
     1
 10
0.8945045989712667
 20
-1.249545734471134
 11
0.8945045989712667
 21
-1.226449709965315
 72
     1
 10
0.8945045989712667
 20
-1.226449709965301
 11
0.8152763816321311
 21
-1.226449709965301
 72
     1
 10
0.8152763816321311
 20
-1.226449709965301
 11
0.7525539965988913
 21
-1.186856661692324
 72
     1
 10
0.7525539965988913
 20
-1.186856661692324
 11
0.7426504972153794
 21
-1.140664612680659
 72
     1
 10
0.7426504972153652
 20
-1.140664612680673
 11
0.7393493307541803
 21
-0.394994193697137
 72
     1
 10
0.7393493307541803
 20
-0.394994193697137
 11
0.7558551630600619
 21
-0.3389038484687106
 72
     1
 10
0.7558551630600761
 20
-0.3389038484687106
 11
0.7987705493262496
 21
-0.2828136398344298
 72
     1
 10
0.7987705493262496
 20
-0.2828136398344227
 11
0.8614929343594894
 21
-0.2498193191118148
 72
     1
 10
0.8614929343594894
 20
-0.2498193191118148
 11
0.9374197629665985
 21
-0.2399211594891923
 72
     1
 10
0.9374197629665985
 20
-0.2399211594891923
 11
1.010045647383407
 21
-0.2663164794731117
 72
     1
 10
1.010045647383407
 20
-0.2663164794731259
 11
1.056262200110722
 21
-0.3092090964125234
 72
     1
 10
1.056262200110722
 20
-0.3092090964125091
 11
1.085972698261343
 21
-0.361999872974522
 72
     1
 10
1.085972698261358
 20
-0.3619998729745291
 11
1.092575031183727
 21
-0.4246889457533243
 72
     1
 10
1.092575031183727
 20
-0.4246889457533243
 11
1.115683196411993
 21
-0.4246889457533243
 72
     1
 10
1.115683196411978
 20
-0.4246889457533243
 11
1.109080863489609
 21
-0.17723195011623
 72
     1
 10
1.109080863489609
 20
-0.17723195011623
 11
1.109080863489609
 21
-0.1739325180439621
 72
     1
 10
1.109080863489609
 20
-0.1739325180439621
 11
1.105779697028424
 21
-0.1739325180439621
 97
        0
 75
     0
 76
     1
 52
0.0
 41
0.078125
 77
     0
 78
     1
 53
0.0
 43
-28.182772630023
 44
-32.9923404580304
 45
0.0
 46
0.009765625
 79
     0
 98
        1
 10
-28.182772630023
 20
-32.9923404580304
  0
LWPOLYLINE
  5
31
330
2D
100
AcDbEntity
  8
0
 62
    22
100
AcDbPolyline
 90
        4
 70
     1
 43
0.0
 10
0.0262955969727301
 20
-0.0287577800528069
 10
1.307151517972869
 20
-0.0287577800528069
 10
1.307151517972869
 20
-1.731261997456265
 10
0.0262955969727301
 20
-1.731261997456265
  0
LINE
  5
32
330
2D
100
AcDbEntity
  8
0
 62
    22
100
AcDbLine
 10
0.0262955969727443
 20
-1.4112176328236
 30
0.0
 11
1.307151517972869
 21
-1.4112176328236
 31
0.0
  0
ATTDEF
  5
33
330
2D
100
AcDbEntity
  8
A1
 62
    22
100
AcDbText
 10
0.6781304052809105
 20
-1.678298248906529
 30
0.0
 40
0.2126953125
  1

 72
     1
 11
0.6781304052809105
 21
-1.678298248906529
 31
0.0
100
AcDbAttributeDefinition
  3
ADD STONE MARKER
  2
XXXX
 70
     0
  0
LINE
  5
34
330
2D
100
AcDbEntity
  8
0
 62
    22
100
AcDbLine
 10
0.7464576960363587
 20
-1.129021462591367
 30
0.0
 11
0.74595166367655
 21
-1.12746688439163
 31
0.0
  0
ARC
  5
35
330
2D
100
AcDbEntity
  8
0
 62
    22
100
AcDbCircle
 10
0.8421255873066684
 20
-1.127299146756172
 30
0.0
 40
0.0956833935014068
100
AcDbArc
 50
181.0313885659746
 51
269.7936990713142
  0
LINE
  5
36
330
2D
100
AcDbEntity
  8
0
 62
    22
100
AcDbLine
 10
0.9011069318936506
 20
-1.22315027789304
 30
0.0
 11
0.841781067510368
 21
-1.22315027789304
 31
0.0
  0
LINE
  5
37
330
2D
100
AcDbEntity
  8
0
 62
    22
100
AcDbLine
 10
0.9011069318936506
 20
-1.256144598615648
 30
0.0
 11
0.9011069318936506
 21
-1.22315027789304
 31
0.0
  0
ARC
  5
38
330
2D
100
AcDbEntity
  8
0
 62
    22
100
AcDbCircle
 10
0.4880203611777887
 20
-1.127299146756172
 30
0.0
 40
0.0956833935014068
100
AcDbArc
 50
270.2063009286848
 51
358.9686114340253
  0
LINE
  5
39
330
2D
100
AcDbEntity
  8
0
 62
    22
100
AcDbLine
 10
0.4290390165908207
 20
-1.256144598615648
 30
0.0
 11
0.4290390165908207
 21
-1.22315027789304
 31
0.0
  0
LINE
  5
3A
330
2D
100
AcDbEntity
  8
0
 62
    22
100
AcDbLine
 10
0.4290390165908207
 20
-1.22315027789304
 30
0.0
 11
0.4883648809740891
 21
-1.22315027789304
 31
0.0
  0
LINE
  5
3B
330
2D
100
AcDbEntity
  8
0
 62
    22
100
AcDbLine
 10
0.5836882524480984
 20
-1.129021462591367
 30
0.0
 11
0.5841942848079072
 21
-1.12746688439163
 31
0.0
  0
LINE
  5
3C
330
2D
100
AcDbEntity
  8
0
 62
    22
100
AcDbLine
 10
0.4290390165908207
 20
-1.256144598615648
 30
0.0
 11
0.9011069318936506
 21
-1.256144598615648
 31
0.0
  0
LINE
  5
3D
330
2D
100
AcDbEntity
  8
0
 62
    22
100
AcDbLine
 10
1.085512597630156
 20
-0.415894330395318
 30
0.0
 11
1.085512597630156
 21
-0.4280723832374847
 31
0.0
  0
ARC
  5
3E
330
2D
100
AcDbEntity
  8
0
 62
    22
100
AcDbCircle
 10
0.9138550451562537
 20
-0.4147906495365632
 30
0.0
 40
0.1716611005230106
100
AcDbArc
 50
359.6316189828552
 51
90.00081606717127
  0
ARC
  5
3F
330
2D
100
AcDbEntity
  8
0
 62
    22
100
AcDbCircle
 10
0.9180888683309831
 20
-0.4147906495365632
 30
0.0
 40
0.1716611005230106
100
AcDbArc
 50
89.99918393282873
 51
180.3683810171443
  0
LINE
  5
40
330
2D
100
AcDbEntity
  8
0
 62
    22
100
AcDbLine
 10
0.2078601968792952
 20
-0.427988377825578
 30
0.0
 11
0.2441732502230991
 21
-0.427988377825578
 31
0.0
  0
LINE
  5
41
330
2D
100
AcDbEntity
  8
0
 62
    22
100
AcDbLine
 10
0.2446333508543006
 20
-0.415894330395318
 30
0.0
 11
0.2446333508543006
 21
-0.4280723832374847
 31
0.0
  0
ARC
  5
42
330
2D
100
AcDbEntity
  8
0
 62
    22
100
AcDbCircle
 10
0.4162909033282176
 20
-0.4147906495365632
 30
0.0
 40
0.1716611005230106
100
AcDbArc
 50
89.99918393282873
 51
180.3683810171443
  0
LINE
  5
43
330
2D
100
AcDbEntity
  8
0
 62
    22
100
AcDbLine
 10
0.2144627520724782
 20
-0.1706330859717156
 30
0.0
 11
0.2078601968792952
 21
-0.427988377825578
 31
0.0
  0
ARC
  5
44
330
2D
100
AcDbEntity
  8
0
 62
    22
100
AcDbCircle
 10
0.4120570801534882
 20
-0.4147906495365632
 30
0.0
 40
0.1716611005230106
100
AcDbArc
 50
359.6316189828552
 51
90.00081606717127
  0
LWPOLYLINE
  5
45
330
2D
100
AcDbEntity
  8
0
 62
    22
100
AcDbPolyline
 90
        4
 70
     0
 43
0.0
 10
0.224366029185191
 20
-0.1706330859717084
 10
1.115683196411978
 20
-0.1706330859717084
 10
1.122285751605161
 20
-0.427988377825578
 10
1.085972698261358
 20
-0.427988377825578
  0
ENDBLK
  5
47
330
2D
100
AcDbEntity
  8
0
 62
     7
100
AcDbBlockEnd
  0
BLOCK
  5
194
330
193
100
AcDbEntity
  8
0
100
AcDbBlockBegin
  2
AVE_RENDER
 70
     0
 10
0.0
 20
0.0
 30
0.0
  3
AVE_RENDER
  1
AVE_RENDER
  0
ENDBLK
  5
195
330
193
100
AcDbEntity
  8
0
100
AcDbBlockEnd
  0
BLOCK
  5
197
330
196
100
AcDbEntity
  8
0
100
AcDbBlockBegin
  2
AVE_GLOBAL
 70
     0
 10
0.0
 20
0.0
 30
0.0
  3
AVE_GLOBAL
  1
AVE_GLOBAL
  0
ENDBLK
  5
198
330
196
100
AcDbEntity
  8
0
100
AcDbBlockEnd
  0
BLOCK
  5
30F
330
304
100
AcDbEntity
  8
0
 62
     7
100
AcDbBlockBegin
  2
*D3
 70
     1
 10
0.0
 20
0.0
 30
0.0
  3
*D3
  1

  0
LINE
  5
4F2
330
304
100
AcDbEntity
  8
A1
 62
     0
100
AcDbLine
 10
-3.175137687758649
 20
2.063456139138843
 30
0.0
 11
-6.939917443516322
 21
2.063456139138844
 31
0.0
  0
LINE
  5
4F3
330
304
100
AcDbEntity
  8
A1
 62
     0
100
AcDbLine
 10
-1.050137687758649
 20
7.063456139138899
 30
0.0
 11
-6.939917443516321
 21
7.063456139138901
 31
0.0
  0
LINE
  5
4F4
330
304
100
AcDbEntity
  8
A1
 62
     0
100
AcDbLine
 10
-6.689917443516322
 20
2.563456139138844
 30
0.0
 11
-6.689917443516322
 21
3.557096202863833
 31
0.0
  0
LINE
  5
4F5
330
304
100
AcDbEntity
  8
A1
 62
     0
100
AcDbLine
 10
-6.689917443516321
 20
6.563456139138901
 30
0.0
 11
-6.689917443516322
 21
5.579775153962346
 31
0.0
  0
MTEXT
  5
4F6
330
304
100
AcDbEntity
  8
A1
 62
     0
100
AcDbMText
 10
-6.689917443516321
 20
4.568435678413088
 30
0.0
 40
1.0
 41
0.0
 71
     5
 72
     1
  1
\A1;5"
 73
     1
 44
1.0
  0
SOLID
  5
4F7
330
304
100
AcDbEntity
  8
A1
 62
     0
100
AcDbTrace
 10
-6.773250776849655
 20
2.563456139138844
 30
0.0
 11
-6.606584110182989
 21
2.563456139138844
 31
0.0
 12
-6.689917443516322
 22
2.063456139138844
 32
0.0
 13
-6.689917443516322
 23
2.063456139138844
 33
0.0
  0
SOLID
  5
4F8
330
304
100
AcDbEntity
  8
A1
 62
     0
100
AcDbTrace
 10
-6.773250776849654
 20
6.563456139138901
 30
0.0
 11
-6.606584110182988
 21
6.563456139138901
 31
0.0
 12
-6.689917443516321
 22
7.063456139138901
 32
0.0
 13
-6.689917443516321
 23
7.063456139138901
 33
0.0
  0
POINT
  5
4F9
330
304
100
AcDbEntity
  8
Defpoints
 62
     0
100
AcDbPoint
 10
-2.175137687758649
 20
2.063456139138843
 30
0.0
  0
POINT
  5
4FA
330
304
100
AcDbEntity
  8
Defpoints
 62
     0
100
AcDbPoint
 10
-0.0501376877586495
 20
7.063456139138899
 30
0.0
  0
POINT
  5
4FB
330
304
100
AcDbEntity
  8
Defpoints
 62
     0
100
AcDbPoint
 10
-6.689917443516321
 20
7.063456139138901
 30
0.0
  0
ENDBLK
  5
310
330
304
100
AcDbEntity
  8
0
 62
     7
100
AcDbBlockEnd
  0
BLOCK
  5
31C
330
311
100
AcDbEntity
  8
0
 62
     7
100
AcDbBlockBegin
  2
*D4
 70
     1
 10
0.0
 20
0.0
 30
0.0
  3
*D4
  1

  0
LINE
  5
4FC
330
311
100
AcDbEntity
  8
A1
 62
     0
100
AcDbLine
 10
5.57486231224135
 20
1.063456139138843
 30
0.0
 11
5.57486231224135
 21
-1.027834630255433
 31
0.0
  0
LINE
  5
4FD
330
311
100
AcDbEntity
  8
A1
 62
     0
100
AcDbLine
 10
-2.175137687758649
 20
1.063456139138843
 30
0.0
 11
-2.175137687758649
 21
-1.027834630255433
 31
0.0
  0
LINE
  5
4FE
330
311
100
AcDbEntity
  8
A1
 62
     0
100
AcDbLine
 10
6.07486231224135
 20
-0.777834630255434
 30
0.0
 11
6.57486231224135
 21
-0.777834630255434
 31
0.0
  0
LINE
  5
4FF
330
311
100
AcDbEntity
  8
A1
 62
     0
100
AcDbLine
 10
-2.675137687758649
 20
-0.777834630255434
 30
0.0
 11
-3.175137687758649
 21
-0.777834630255434
 31
0.0
  0
MTEXT
  5
500
330
311
100
AcDbEntity
  8
A1
 62
     0
100
AcDbMText
 10
1.948498670879018
 20
-0.777834630255434
 30
0.0
 40
1.0
 41
0.0
 71
     5
 72
     1
  1
\A1;%%C7 3/4"
 73
     1
 44
1.0
  0
SOLID
  5
501
330
311
100
AcDbEntity
  8
A1
 62
     0
100
AcDbTrace
 10
6.07486231224135
 20
-0.6945012969221006
 30
0.0
 11
6.07486231224135
 21
-0.8611679635887673
 31
0.0
 12
5.57486231224135
 22
-0.777834630255434
 32
0.0
 13
5.57486231224135
 23
-0.777834630255434
 33
0.0
  0
SOLID
  5
502
330
311
100
AcDbEntity
  8
A1
 62
     0
100
AcDbTrace
 10
-2.675137687758649
 20
-0.6945012969221006
 30
0.0
 11
-2.675137687758649
 21
-0.8611679635887673
 31
0.0
 12
-2.175137687758649
 22
-0.777834630255434
 32
0.0
 13
-2.175137687758649
 23
-0.777834630255434
 33
0.0
  0
POINT
  5
503
330
311
100
AcDbEntity
  8
Defpoints
 62
     0
100
AcDbPoint
 10
5.57486231224135
 20
2.063456139138843
 30
0.0
  0
POINT
  5
504
330
311
100
AcDbEntity
  8
Defpoints
 62
     0
100
AcDbPoint
 10
-2.175137687758649
 20
2.063456139138843
 30
0.0
  0
POINT
  5
505
330
311
100
AcDbEntity
  8
Defpoints
 62
     0
100
AcDbPoint
 10
-2.175137687758649
 20
-0.777834630255434
 30
0.0
  0
ENDBLK
  5
31D
330
311
100
AcDbEntity
  8
0
 62
     7
100
AcDbBlockEnd
  0
BLOCK
  5
3CF
330
3C4
100
AcDbEntity
  8
0
 62
     7
100
AcDbBlockBegin
  2
*D5
 70
     1
 10
0.0
 20
0.0
 30
0.0
  3
*D5
  1

  0
LINE
  5
506
330
3C4
100
AcDbEntity
  8
A1
 62
     0
100
AcDbLine
 10
-1.630277179951235
 20
7.464476948081816
 30
0.0
 11
-6.947927988622127
 21
7.464476948081818
 31
0.0
  0
LINE
  5
507
330
3C4
100
AcDbEntity
  8
A1
 62
     0
100
AcDbLine
 10
0.5586701446544226
 20
14.71320710658297
 30
0.0
 11
-6.947927988622124
 21
14.71320710658297
 31
0.0
  0
LINE
  5
508
330
3C4
100
AcDbEntity
  8
A1
 62
     0
100
AcDbLine
 10
-6.697927988622127
 20
7.964476948081818
 30
0.0
 11
-6.697927988622127
 21
9.905143996338097
 31
0.0
  0
LINE
  5
509
330
3C4
100
AcDbEntity
  8
A1
 62
     0
100
AcDbLine
 10
-6.697927988622125
 20
14.21320710658297
 30
0.0
 11
-6.697927988622126
 21
11.98026802185191
 31
0.0
  0
MTEXT
  5
50A
330
3C4
100
AcDbEntity
  8
A1
 62
     0
100
AcDbMText
 10
-6.697927988622126
 20
10.942706009095
 30
0.0
 40
1.0
 41
0.0
 71
     5
 72
     1
  1
\A1;7 1/4"
 73
     1
 44
1.0
  0
SOLID
  5
50B
330
3C4
100
AcDbEntity
  8
A1
 62
     0
100
AcDbTrace
 10
-6.78126132195546
 20
7.964476948081818
 30
0.0
 11
-6.614594655288794
 21
7.964476948081818
 31
0.0
 12
-6.697927988622127
 22
7.464476948081818
 32
0.0
 13
-6.697927988622127
 23
7.464476948081818
 33
0.0
  0
SOLID
  5
50C
330
3C4
100
AcDbEntity
  8
A1
 62
     0
100
AcDbTrace
 10
-6.781261321955458
 20
14.21320710658297
 30
0.0
 11
-6.614594655288792
 21
14.21320710658297
 31
0.0
 12
-6.697927988622125
 22
14.71320710658297
 32
0.0
 13
-6.697927988622125
 23
14.71320710658297
 33
0.0
  0
POINT
  5
50D
330
3C4
100
AcDbEntity
  8
Defpoints
 62
     0
100
AcDbPoint
 10
-0.6302771799512357
 20
7.464476948081816
 30
0.0
  0
POINT
  5
50E
330
3C4
100
AcDbEntity
  8
Defpoints
 62
     0
100
AcDbPoint
 10
1.558670144654422
 20
14.71320710658297
 30
0.0
  0
POINT
  5
50F
330
3C4
100
AcDbEntity
  8
Defpoints
 62
     0
100
AcDbPoint
 10
-6.697927988622125
 20
14.71320710658297
 30
0.0
  0
ENDBLK
  5
3D0
330
3C4
100
AcDbEntity
  8
0
 62
     7
100
AcDbBlockEnd
  0
BLOCK
  5
3F2
330
3E7
100
AcDbEntity
  8
0
 62
     7
100
AcDbBlockBegin
  2
*D6
 70
     1
 10
0.0
 20
0.0
 30
0.0
  3
*D6
  1

  0
LINE
  5
510
330
3E7
100
AcDbEntity
  8
A1
 62
     0
100
AcDbLine
 10
6.57486231224135
 20
2.063456139138843
 30
0.0
 11
11.62982504888264
 21
2.063456139138841
 31
0.0
  0
LINE
  5
511
330
3E7
100
AcDbEntity
  8
A1
 62
     0
100
AcDbLine
 10
2.666875695316888
 20
14.71556376986368
 30
0.0
 11
11.62982504888265
 21
14.71556376986368
 31
0.0
  0
LINE
  5
512
330
3E7
100
AcDbEntity
  8
A1
 62
     0
100
AcDbLine
 10
11.37982504888265
 20
2.563456139138841
 30
0.0
 11
11.37982504888265
 21
7.578206296191845
 31
0.0
  0
LINE
  5
513
330
3E7
100
AcDbEntity
  8
A1
 62
     0
100
AcDbLine
 10
11.37982504888265
 20
14.21556376986368
 30
0.0
 11
11.37982504888265
 21
9.668213383364063
 31
0.0
  0
MTEXT
  5
514
330
3E7
100
AcDbEntity
  8
A1
 62
     0
100
AcDbMText
 10
11.37982504888265
 20
8.623209839777956
 30
0.0
 40
1.0
 41
0.0
 71
     5
 72
     1
  1
\A1;12 5/8"
 73
     1
 44
1.0
  0
SOLID
  5
515
330
3E7
100
AcDbEntity
  8
A1
 62
     0
100
AcDbTrace
 10
11.29649171554931
 20
2.563456139138841
 30
0.0
 11
11.46315838221598
 21
2.563456139138841
 31
0.0
 12
11.37982504888265
 22
2.063456139138841
 32
0.0
 13
11.37982504888265
 23
2.063456139138841
 33
0.0
  0
SOLID
  5
516
330
3E7
100
AcDbEntity
  8
A1
 62
     0
100
AcDbTrace
 10
11.29649171554931
 20
14.21556376986368
 30
0.0
 11
11.46315838221598
 21
14.21556376986368
 31
0.0
 12
11.37982504888265
 22
14.71556376986368
 32
0.0
 13
11.37982504888265
 23
14.71556376986368
 33
0.0
  0
POINT
  5
517
330
3E7
100
AcDbEntity
  8
Defpoints
 62
     0
100
AcDbPoint
 10
5.57486231224135
 20
2.063456139138843
 30
0.0
  0
POINT
  5
518
330
3E7
100
AcDbEntity
  8
Defpoints
 62
     0
100
AcDbPoint
 10
1.666875695316888
 20
14.71556376986368
 30
0.0
  0
POINT
  5
519
330
3E7
100
AcDbEntity
  8
Defpoints
 62
     0
100
AcDbPoint
 10
11.37982504888265
 20
14.71556376986368
 30
0.0
  0
ENDBLK
  5
3F3
330
3E7
100
AcDbEntity
  8
0
 62
     7
100
AcDbBlockEnd
  0
BLOCK
  5
43F
330
413
100
AcDbEntity
  8
0
 62
     7
100
AcDbBlockBegin
  2
TSFORMB
 70
     2
 10
0.0
 20
0.0
 30
0.0
  3
TSFORMB
  1

  0
LINE
  5
414
330
413
100
AcDbEntity
  8
0
100
AcDbLine
 10
105.9925392881563
 20
78.84810849484797
 30
0.0
 11
105.9925392881563
 21
70.31072004936999
 31
0.0
  0
LINE
  5
415
330
413
100
AcDbEntity
  8
0
100
AcDbLine
 10
105.9925392881563
 20
0.0
 30
0.0
 11
105.9925392881563
 21
78.84810849484797
 31
0.0
  0
LINE
  5
416
330
413
100
AcDbEntity
  8
0
100
AcDbLine
 10
0.0
 20
0.0
 30
0.0
 11
105.9925392881563
 21
0.0
 31
0.0
  0
LINE
  5
417
330
413
100
AcDbEntity
  8
0
100
AcDbLine
 10
0.0
 20
78.84810849484797
 30
0.0
 11
0.0
 21
0.0
 31
0.0
  0
LINE
  5
418
330
413
100
AcDbEntity
  8
0
100
AcDbLine
 10
56.87404547169354
 20
0.0
 30
0.0
 11
56.87404547169354
 21
12.46470592426129
 31
0.0
  0
TEXT
  5
419
330
413
100
AcDbEntity
  8
0
 62
     7
100
AcDbText
 10
39.28098221173831
 20
10.97304845086642
 30
0.0
 40
0.8085000000000002
  1
LEGEND
100
AcDbText
  0
TEXT
  5
41A
330
413
100
AcDbEntity
  8
0
 62
     7
100
AcDbText
 10
38.18320344075362
 20
3.401999220949562
 30
0.0
 40
0.8400000000000002
  1
CATEGORY
 72
     1
 11
41.47652732452399
 21
3.401999220949562
 31
0.0
100
AcDbText
  0
LINE
  5
41B
330
413
100
AcDbEntity
  8
0
 62
     7
100
AcDbLine
 10
26.78791925899645
 20
8.549200111339303
 30
0.0
 11
29.32320076794366
 21
8.549200111339303
 31
0.0
  0
TEXT
  5
41C
330
413
100
AcDbEntity
  8
0
 62
     7
100
AcDbText
 10
30.56536100380196
 20
8.165961840384341
 30
0.0
 40
1.05
  1
- Unfinished Side
100
AcDbText
  0
LINE
  5
41D
330
413
100
AcDbEntity
  8
0
100
AcDbLine
 10
25.9704997615305
 20
0.0
 30
0.0
 11
25.9704997615305
 21
12.46470592426129
 31
0.0
  0
ATTDEF
  5
41E
330
413
100
AcDbEntity
  8
A1
 62
     1
100
AcDbText
 10
41.26016333205519
 20
0.916484150045278
 30
0.0
 40
1.025589599999999
  1

 72
     1
 11
41.26016333205519
 21
0.916484150045278
 31
0.0
100
AcDbAttributeDefinition
  3
ADD CATEGORY NAMES
  2
XXXXXX
 70
     0
  0
ATTDEF
  5
41F
330
413
100
AcDbEntity
  8
A1
 62
     1
100
AcDbText
 10
21.55372231158242
 20
1.875018704105684
 30
0.0
 40
0.8400000000000002
  1

 72
     2
 11
21.55372231158242
 21
1.875018704105684
 31
0.0
100
AcDbAttributeDefinition
  3
ADD BARCODE TEXT
  2
XXXXXX
 70
     0
  0
LINE
  5
420
330
413
100
AcDbEntity
  8
0
 62
     7
100
AcDbLine
 10
25.9704997615305
 20
12.46470592426129
 30
0.0
 11
0.0
 21
12.46470592426129
 31
0.0
  0
ATTDEF
  5
421
330
413
100
AcDbEntity
  8
A1
 62
     1
100
AcDbText
 10
12.85191920549937
 20
3.11796280247222
 30
0.0
 40
6.132000000000001
  1

  7
barcoder
 72
     1
 11
12.85191920549937
 21
3.11796280247222
 31
0.0
100
AcDbAttributeDefinition
  3
ADD BARCODE NUMBER
  2
BARCODE
 70
     0
  0
LINE
  5
422
330
413
100
AcDbEntity
  8
0
 62
     7
100
AcDbLine
 10
56.87404547169354
 20
10.31505184057846
 30
0.0
 11
25.9704997615305
 21
10.31505184057846
 31
0.0
  0
LINE
  5
423
330
413
100
AcDbEntity
  8
0
 62
     7
100
AcDbLine
 10
56.87404547169354
 20
2.864660228904256
 30
0.0
 11
25.9704997615305
 21
2.864660228904256
 31
0.0
  0
LINE
  5
424
330
413
100
AcDbEntity
  8
0
 62
     7
100
AcDbLine
 10
56.87404547169354
 20
4.753491724833224
 30
0.0
 11
25.9704997615305
 21
4.753491724833224
 31
0.0
  0
LINE
  5
425
330
413
100
AcDbEntity
  8
0
100
AcDbLine
 10
92.45878286761296
 20
70.31072004936999
 30
0.0
 11
92.45878286761296
 21
78.84810849484797
 31
0.0
  0
ATTDEF
  5
426
330
413
100
AcDbEntity
  8
A1
 62
     1
100
AcDbText
 10
99.20289126219257
 20
73.40001633244828
 30
0.0
 40
2.079
  1

 72
     1
 11
99.20289126219257
 21
73.40001633244828
 31
0.0
100
AcDbAttributeDefinition
  3
ADD PAGE NUMBER
  2
TS00XX
 70
     0
  0
LINE
  5
427
330
413
100
AcDbEntity
  8
0
100
AcDbLine
 10
105.9925392881563
 20
70.31072004936999
 30
0.0
 11
92.45878286761296
 21
70.31072004936999
 31
0.0
  0
LINE
  5
428
330
413
100
AcDbEntity
  8
0
100
AcDbLine
 10
105.9925392881563
 20
78.84810849484797
 30
0.0
 11
0.0
 21
78.84810849484797
 31
0.0
  0
TEXT
  5
429
330
413
100
AcDbEntity
  8
0
 62
     7
100
AcDbText
 10
101.0916707105178
 20
4.784832420392319
 30
0.0
 40
0.8459472656250001
  1
1:1
100
AcDbText
  0
ARC
  5
42A
330
413
100
AcDbEntity
  8
0
 62
     7
100
AcDbCircle
 10
92.02173719823599
 20
7.854684255185304
 30
0.0
 40
0.5838368232859321
100
AcDbArc
 50
297.5553548372056
 51
304.8408806463489
  0
LINE
  5
42B
330
413
100
AcDbEntity
  8
0
 62
     7
100
AcDbLine
 10
96.44018670993672
 20
6.648784575743377
 30
0.0
 11
95.62662822118033
 21
6.648784575743377
 31
0.0
  0
ARC
  5
42C
330
413
100
AcDbEntity
  8
0
 62
     7
100
AcDbCircle
 10
92.02173719823599
 20
7.854684255185304
 30
0.0
 40
0.5838368232859408
100
AcDbArc
 50
304.8408806463489
 51
297.5553548372056
  0
TEXT
  5
42D
330
413
100
AcDbEntity
  8
0
 62
     7
100
AcDbText
 10
91.5997577365548
 20
7.487990433787842
 30
0.0
 40
0.7875000000000002
  1
R
  7
ROMANC
 72
     1
 11
92.02565639984959
 21
7.487990433787842
 31
0.0
100
AcDbText
  0
LINE
  5
42E
330
413
100
AcDbEntity
  8
0
100
AcDbLine
 10
96.44018670993649
 20
0.0
 30
0.0
 11
96.44018670993695
 21
12.46470592426129
 31
0.0
  0
TEXT
  5
42F
330
413
100
AcDbEntity
  8
0
100
AcDbText
 10
57.83820509574335
 20
4.931128255646488
 30
0.0
 40
1.111564440985976
  1
ARCHITECTURAL CONCRETE CO., INC.
 41
1.25
 72
     4
 11
76.69038922088157
 21
5.404193065577089
 31
0.0
100
AcDbText
  0
TEXT
  5
430
330
413
100
AcDbEntity
  8
0
100
AcDbText
 10
64.01730751652124
 20
0.6790765005606179
 30
0.0
 40
0.6552430415498756
  1
PHONE: 1-800-789-4841  FAX : 770-463-2635
 41
1.1875
 72
     4
 11
76.73327742292065
 21
1.005769257279496
 31
0.0
100
AcDbText
  0
TEXT
  5
431
330
413
100
AcDbEntity
  8
0
 62
     7
100
AcDbText
 10
61.23651428794109
 20
7.899354841769707
 30
0.0
 40
3.572100000000002
  1
TannerStone
  7
ROMANC
 72
     1
 11
75.92109734429948
 21
7.899354841769707
 31
0.0
100
AcDbText
  0
TEXT
  5
432
330
413
100
AcDbEntity
  8
0
100
AcDbText
 10
61.57240842020546
 20
1.964543484004154
 30
0.0
 40
0.6552430415498756
  1
http://TannerStone.com ~ Email:Sales@TannerStone.com 
 41
1.1875
 72
     4
 11
77.08342119362362
 21
2.259193880788984
 31
0.0
100
AcDbText
  0
TEXT
  5
433
330
413
100
AcDbEntity
  8
0
100
AcDbText
 10
59.98363509556096
 20
3.260563711198551
 30
0.0
 40
0.74899296216962
  1
101 JOHNSTON CIRCLE, PALMETTO, GEORGIA 30268
 41
1.1875
 72
     4
 11
76.85158629384147
 21
3.579323650094977
 31
0.0
100
AcDbText
  0
LINE
  5
434
330
413
100
AcDbEntity
  8
0
100
AcDbLine
 10
56.87404547169354
 20
6.648784575743377
 30
0.0
 11
105.9925392881563
 21
6.648784575743377
 31
0.0
  0
LINE
  5
435
330
413
100
AcDbEntity
  8
0
 62
     7
100
AcDbLine
 10
96.44018670993682
 20
9.556745250002336
 30
0.0
 11
105.9925392881563
 21
9.556745250002336
 31
0.0
  0
TEXT
  5
436
330
413
100
AcDbEntity
  8
0
 62
     7
100
AcDbText
 10
96.66995560986686
 20
8.813345575893606
 30
0.0
 40
0.5414062500000001
  1
LBS/LINEAR FEET:
100
AcDbText
  0
LINE
  5
437
330
413
100
AcDbEntity
  8
LINEWORK
 62
     7
100
AcDbLine
 10
96.40991550469017
 20
3.757904136908962
 30
0.0
 11
105.9622680829099
 21
3.757904136909189
 31
0.0
  0
TEXT
  5
438
330
413
100
AcDbEntity
  8
0
 62
     7
100
AcDbText
 10
98.85330873086445
 20
1.524519923848686
 30
0.0
 40
0.8459472656250001
  1
1-1-2000
100
AcDbText
  0
TEXT
  5
439
330
413
100
AcDbEntity
  8
0
 62
     7
100
AcDbText
 10
96.68542089784603
 20
5.927566558083469
 30
0.0
 40
0.5414062500000001
  1
SCALE:
100
AcDbText
  0
TEXT
  5
43A
330
413
100
AcDbEntity
  8
0
 62
     7
100
AcDbText
 10
96.74158717246577
 20
2.97910930546476
 30
0.0
 40
0.5414062500000001
  1
DATE:
100
AcDbText
  0
TEXT
  5
43B
330
413
100
AcDbEntity
  8
0
 62
     7
100
AcDbText
 10
96.70022651293084
 20
11.66518473255649
 30
0.0
 40
0.5414062500000001
  1
PROFILE AREA:
100
AcDbText
  0
ATTDEF
  5
43C
330
413
100
AcDbEntity
  8
A1
 62
     1
100
AcDbText
 10
101.1759733039033
 20
10.07900441527107
 30
0.0
 40
0.9450000000000002
  1

 72
     1
 11
101.1759733039033
 21
10.07900441527107
 31
0.0
100
AcDbAttributeDefinition
  3
ADD PROFILE AREA
  2
XXXXX
 70
     0
  0
ATTDEF
  5
43D
330
413
100
AcDbEntity
  8
A1
 62
     1
100
AcDbText
 10
101.1418062311347
 20
7.21953861551384
 30
0.0
 40
0.9450000000000002
  1

 72
     1
 11
101.1418062311347
 21
7.21953861551384
 31
0.0
100
AcDbAttributeDefinition
  3
ADD #/LF
  2
XXXXX
 70
     0
  0
LINE
  5
43E
330
413
100
AcDbEntity
  8
0
100
AcDbLine
 10
25.9704997615305
 20
12.46470592426129
 30
0.0
 11
105.9925392881563
 21
12.46470592426129
 31
0.0
  0
ENDBLK
  5
440
330
413
100
AcDbEntity
  8
0
 62
     7
100
AcDbBlockEnd
  0
ENDSEC
  0
SECTION
  2
ENTITIES
  0
INSERT
  5
275
330
2
100
AcDbEntity
  8
ASHADE
 62
     1
100
AcDbBlockReference
  2
AVE_RENDER
 10
-130.4817540857459
 20
212.0620495555568
 30
0.0
 41
0.4444444444444571
 42
0.4444444444445708
 43
0.4444444444444445
1001
AVE_RENDER
1002
{
1070
     7
1000
Pref
1070
    60
1070
    20
1070
     1
1070
     0
1000

1070
    10
1070
     1
1070
    30
1040
1.0
1070
     1
1040
0.3
1040
0.7
1040
0.0
1040
10.0
1010
-1.0
1020
-1.0
1030
-1.0
1040
0.3
1070
    49
1070
     1
1070
     0
1010
1.0
1020
1.0
1030
1.0
1040
45.0
1070
     1
1070
     0
1000
WCS
1040
0.0
1070
     0
1040
10.0
1002
}
  0
INSERT
  5
276
330
2
100
AcDbEntity
  8
ASHADE
 62
     3
100
AcDbBlockReference
  2
AVE_RENDER
 10
-130.4817540857459
 20
212.0620495555568
 30
0.0
 41
0.4444444444444571
 42
0.4444444444445708
 43
0.4444444444444445
1001
AVE_RENDER
1002
{
1070
     0
1000
Full Opt
1070
     0
1070
     1
1070
     1
1070
     1
1070
     0
1070
     0
1070
     0
1070
     1
1070
     1
1040
0.0001
1040
0.0001
1002
}
  0
INSERT
  5
277
330
2
100
AcDbEntity
  8
ASHADE
 62
     4
100
AcDbBlockReference
  2
AVE_RENDER
 10
-130.4817540857459
 20
212.0620495555568
 30
0.0
 41
0.4444444444444571
 42
0.4444444444445708
 43
0.4444444444444445
1001
AVE_RENDER
1002
{
1070
     0
1000
Quick Opt
1070
     0
1070
     1
1070
     1
1070
     1
1070
     0
1070
     0
1070
     1
1002
}
  0
INSERT
  5
278
330
2
100
AcDbEntity
  8
ASHADE
 62
     5
100
AcDbBlockReference
  2
AVE_RENDER
 10
-130.4817540857459
 20
212.0620495555568
 30
0.0
 41
0.4444444444444571
 42
0.4444444444445708
 43
0.4444444444444445
1001
AVE_RENDER
1002
{
1070
     1
1000
Scanl Opt
1070
     2
1070
     0
1070
     2
1040
2.0
1040
4.0
1070
     0
1070
     1
1070
     0
1040
0.03
1002
}
  0
INSERT
  5
279
330
2
100
AcDbEntity
  8
ASHADE
 62
     6
100
AcDbBlockReference
  2
AVE_RENDER
 10
-130.4817540857459
 20
212.0620495555568
 30
0.0
 41
0.4444444444444571
 42
0.4444444444445708
 43
0.4444444444444445
1001
AVE_RENDER
1002
{
1070
     2
1000
Raytr Opt
1070
     2
1070
     0
1070
     2
1040
2.0
1040
4.0
1070
     0
1070
     1
1070
     1
1040
0.03
1070
     3
1040
0.03
1002
}
  0
INSERT
  5
27A
330
2
100
AcDbEntity
  8
ASHADE
 62
     7
100
AcDbBlockReference
  2
AVE_RENDER
 10
-130.4817540857459
 20
212.0620495555568
 30
0.0
 41
0.4444444444444571
 42
0.4444444444445708
 43
0.4444444444444445
1001
AVE_RENDER
1002
{
1070
     0
1000
RFile Opt
1070
     5
1070
   640
1070
   480
1070
 10000
1070
     3
1070
    32
1070
    24
1070
     0
1070
     0
1070
     0
1070
     1
1070
     0
1070
     0
1070
     0
1002
}
  0
INSERT
  5
27B
330
2
100
AcDbEntity
  8
ASHADE
 62
     8
100
AcDbBlockReference
  2
AVE_RENDER
 10
-130.4817540857459
 20
212.0620495555568
 30
0.0
 41
0.4444444444444571
 42
0.4444444444445708
 43
0.4444444444444445
1001
AVE_RENDER
1002
{
1070
     0
1000
Fog Opt
1070
     0
1070
     0
1040
0.0
1040
1.0
1040
0.0
1040
1.0
1010
0.5
1020
0.5
1030
0.5
1002
}
  0
INSERT
  5
27C
330
2
100
AcDbEntity
  8
ASHADE
 62
     9
100
AcDbBlockReference
  2
AVE_RENDER
 10
-130.4817540857459
 20
212.0620495555568
 30
0.0
 41
0.4444444444444571
 42
0.4444444444445708
 43
0.4444444444444445
1001
AVE_RENDER
1002
{
1070
     0
1000
BG Opt
1070
     0
1070
     1
1010
0.0
1020
0.0
1030
0.0
1010
1.0
1020
0.0
1030
0.0
1010
0.0
1020
1.0
1030
0.0
1010
0.0
1020
0.0
1030
1.0
1040
0.5
1040
0.33
1040
0.0
1000

1070
     1
1000

1070
     1
1070
     1
1040
1.0
1040
1.0
1040
0.0
1040
0.0
1070
     0
1002
}
  0
INSERT
  5
27D
330
2
100
AcDbEntity
  8
ASHADE
 62
     1
100
AcDbBlockReference
  2
AVE_GLOBAL
 10
-130.4817540857459
 20
212.0620495555568
 30
0.0
 41
0.4444444444444571
 42
0.4444444444445708
 43
0.4444444444444445
1001
AVE_MATERIAL
1002
{
1000
*GLOBAL*
1000
1
1000
Global finish.
1002
{
1002
}
1002
{
1070
    63
1002
{
1002
{
1010
-1.0
1020
-1.0
1030
-1.0
1002
}
1040
0.1000000014901161
1000

1040
0.0
1002
{
1002
}
1040
0.0
1002
{
1002
}
1040
0.0
1002
}
1002
{
1002
{
1010
-1.0
1020
-1.0
1030
-1.0
1002
}
1040
0.6999999880790711
1000

1040
0.0
1002
{
1002
}
1040
0.0
1002
{
1002
}
1040
0.0
1002
}
1002
{
1002
{
1010
-1.0
1020
-1.0
1030
-1.0
1002
}
1040
0.2000000029802322
1000

1040
0.0
1002
{
1002
}
1040
0.0
1002
{
1002
}
1040
0.0
1002
}
1002
{
1070
     0
1002
{
1070
     1
1002
{
1040
1.0
1040
1.0
1000

1040
0.0
1002
{
1002
}
1040
0.0
1002
{
1002
}
1040
0.0
1002
}
1002
}
1040
1.0
1040
0.0
1040
0.0
1002
}
1002
{
1040
1.0
1040
1.0
1000

1040
0.0
1002
{
1002
}
1040
0.0
1002
{
1002
}
1040
0.0
1002
}
1002
{
1040
0.5
1040
1.0
1000

1040
0.0
1002
{
1002
}
1040
0.0
1002
{
1002
}
1040
0.0
1002
}
1002
{
1070
     0
1040
0.0
1002
{
1002
}
1040
1.0
1002
{
1002
}
1040
0.0
1002
}
1002
{
1040
0.0
1002
{
1002
{
1010
0.0
1020
0.0
1030
0.0
1002
}
1040
1.0
1000

1040
0.0
1002
{
1002
}
1040
0.0
1002
{
1002
}
1040
0.0
1002
}
1002
}
1002
{
1002
{
1070
     1
1002
{
1040
0.0
1040
1.0
1000

1040
0.0
1002
{
1002
}
1040
0.0
1002
{
1002
}
1040
0.0
1002
}
1002
}
1040
0.0
1002
{
1002
}
1010
1.0
1020
0.0
1030
0.0
1010
0.0
1020
1.0
1030
0.0
1010
0.0
1020
0.0
1030
1.0
1070
     0
1002
}
1002
{
1002
{
1040
1.0
1040
1.0
1002
{
1070
     1
1002
{
1040
1.0
1040
1.0
1000

1040
0.0
1002
{
1002
}
1040
0.0
1002
{
1002
}
1040
0.0
1002
}
1002
}
1002
}
1070
     0
1040
0.0
1002
{
1002
}
1002
}
1002
{
1002
}
1002
}
1002
{
1071
        3
1070
     3
1070
     0
1002
{
1070
     2
1070
     0
1070
     0
1040
0.0
1002
}
1070
     0
1070
     2
1002
{
1002
}
1002
}
1002
{
1040
8030.0
1040
190.3000030517578
1040
0.3050000071525574
1040
228.0
1040
545.0
1040
14.0
1040
17.39999961853027
1040
0.4560000002384186
1002
}
1002
}
  0
INSERT
  5
27E
330
2
100
AcDbEntity
  8
ASHADE
 62
     1
100
AcDbBlockReference
  2
AVE_GLOBAL
 10
132.2949329398848
 20
330.8909519638169
 30
0.0
1001
AVE_MATERIAL
1002
{
1000
*GLOBAL*
1000
1
1000
Global finish.
1002
{
1002
}
1002
{
1070
    63
1002
{
1002
{
1010
-1.0
1020
-1.0
1030
-1.0
1002
}
1040
0.1000000014901161
1000

1040
0.0
1002
{
1002
}
1040
0.0
1002
{
1002
}
1040
0.0
1002
}
1002
{
1002
{
1010
-1.0
1020
-1.0
1030
-1.0
1002
}
1040
0.6999999880790711
1000

1040
0.0
1002
{
1002
}
1040
0.0
1002
{
1002
}
1040
0.0
1002
}
1002
{
1002
{
1010
-1.0
1020
-1.0
1030
-1.0
1002
}
1040
0.2000000029802322
1000

1040
0.0
1002
{
1002
}
1040
0.0
1002
{
1002
}
1040
0.0
1002
}
1002
{
1070
     0
1002
{
1070
     1
1002
{
1040
1.0
1040
1.0
1000

1040
0.0
1002
{
1002
}
1040
0.0
1002
{
1002
}
1040
0.0
1002
}
1002
}
1040
1.0
1040
0.0
1040
0.0
1002
}
1002
{
1040
1.0
1040
1.0
1000

1040
0.0
1002
{
1002
}
1040
0.0
1002
{
1002
}
1040
0.0
1002
}
1002
{
1040
0.5
1040
1.0
1000

1040
0.0
1002
{
1002
}
1040
0.0
1002
{
1002
}
1040
0.0
1002
}
1002
{
1070
     0
1040
0.0
1002
{
1002
}
1040
1.0
1002
{
1002
}
1040
0.0
1002
}
1002
{
1040
0.0
1002
{
1002
{
1010
0.0
1020
0.0
1030
0.0
1002
}
1040
1.0
1000

1040
0.0
1002
{
1002
}
1040
0.0
1002
{
1002
}
1040
0.0
1002
}
1002
}
1002
{
1002
{
1070
     1
1002
{
1040
0.0
1040
1.0
1000

1040
0.0
1002
{
1002
}
1040
0.0
1002
{
1002
}
1040
0.0
1002
}
1002
}
1040
0.0
1002
{
1002
}
1010
1.0
1020
0.0
1030
0.0
1010
0.0
1020
1.0
1030
0.0
1010
0.0
1020
0.0
1030
1.0
1070
     0
1002
}
1002
{
1002
{
1040
1.0
1040
1.0
1002
{
1070
     1
1002
{
1040
1.0
1040
1.0
1000

1040
0.0
1002
{
1002
}
1040
0.0
1002
{
1002
}
1040
0.0
1002
}
1002
}
1002
}
1070
     0
1040
0.0
1002
{
1002
}
1002
}
1002
{
1002
}
1002
}
1002
{
1071
        3
1070
     3
1070
     0
1002
{
1070
     2
1070
     0
1070
     0
1040
0.0
1002
}
1070
     0
1070
     2
1002
{
1002
}
1002
}
1002
{
1040
8030.0
1040
190.3000030517578
1040
0.3050000071525574
1040
228.0
1040
545.0
1040
14.0
1040
17.39999961853027
1040
0.4560000002384186
1002
}
1002
}
  0
INSERT
  5
27F
330
2
100
AcDbEntity
  8
ASHADE
 62
     1
100
AcDbBlockReference
  2
AVE_GLOBAL
 10
132.7668810444859
 20
303.0580162819775
 30
0.0
1001
AVE_MATERIAL
1002
{
1000
*GLOBAL*
1000
1
1000
Global finish.
1002
{
1002
}
1002
{
1070
    63
1002
{
1002
{
1010
-1.0
1020
-1.0
1030
-1.0
1002
}
1040
0.1000000014901161
1000

1040
0.0
1002
{
1002
}
1040
0.0
1002
{
1002
}
1040
0.0
1002
}
1002
{
1002
{
1010
-1.0
1020
-1.0
1030
-1.0
1002
}
1040
0.6999999880790711
1000

1040
0.0
1002
{
1002
}
1040
0.0
1002
{
1002
}
1040
0.0
1002
}
1002
{
1002
{
1010
-1.0
1020
-1.0
1030
-1.0
1002
}
1040
0.2000000029802322
1000

1040
0.0
1002
{
1002
}
1040
0.0
1002
{
1002
}
1040
0.0
1002
}
1002
{
1070
     0
1002
{
1070
     1
1002
{
1040
1.0
1040
1.0
1000

1040
0.0
1002
{
1002
}
1040
0.0
1002
{
1002
}
1040
0.0
1002
}
1002
}
1040
1.0
1040
0.0
1040
0.0
1002
}
1002
{
1040
1.0
1040
1.0
1000

1040
0.0
1002
{
1002
}
1040
0.0
1002
{
1002
}
1040
0.0
1002
}
1002
{
1040
0.5
1040
1.0
1000

1040
0.0
1002
{
1002
}
1040
0.0
1002
{
1002
}
1040
0.0
1002
}
1002
{
1070
     0
1040
0.0
1002
{
1002
}
1040
1.0
1002
{
1002
}
1040
0.0
1002
}
1002
{
1040
0.0
1002
{
1002
{
1010
0.0
1020
0.0
1030
0.0
1002
}
1040
1.0
1000

1040
0.0
1002
{
1002
}
1040
0.0
1002
{
1002
}
1040
0.0
1002
}
1002
}
1002
{
1002
{
1070
     1
1002
{
1040
0.0
1040
1.0
1000

1040
0.0
1002
{
1002
}
1040
0.0
1002
{
1002
}
1040
0.0
1002
}
1002
}
1040
0.0
1002
{
1002
}
1010
1.0
1020
0.0
1030
0.0
1010
0.0
1020
1.0
1030
0.0
1010
0.0
1020
0.0
1030
1.0
1070
     0
1002
}
1002
{
1002
{
1040
1.0
1040
1.0
1002
{
1070
     1
1002
{
1040
1.0
1040
1.0
1000

1040
0.0
1002
{
1002
}
1040
0.0
1002
{
1002
}
1040
0.0
1002
}
1002
}
1002
}
1070
     0
1040
0.0
1002
{
1002
}
1002
}
1002
{
1002
}
1002
}
1002
{
1071
        3
1070
     3
1070
     0
1002
{
1070
     2
1070
     0
1070
     0
1040
0.0
1002
}
1070
     0
1070
     2
1002
{
1002
}
1002
}
1002
{
1040
8030.0
1040
190.3000030517578
1040
0.3050000071525574
1040
228.0
1040
545.0
1040
14.0
1040
17.39999961853027
1040
0.4560000002384186
1002
}
1002
}
  0
INSERT
  5
280
330
2
100
AcDbEntity
  8
ASHADE
 62
     1
100
AcDbBlockReference
  2
AVE_GLOBAL
 10
-148.7993177824599
 20
347.4567230565634
 30
12.6740639196657
 41
0.6666666666666572
 42
0.6666666666667425
 43
0.6666666666666666
1001
AVE_MATERIAL
1002
{
1000
*GLOBAL*
1000
1
1000
Global finish.
1002
{
1002
}
1002
{
1070
    63
1002
{
1002
{
1010
-1.0
1020
-1.0
1030
-1.0
1002
}
1040
0.1000000014901161
1000

1040
0.0
1002
{
1002
}
1040
0.0
1002
{
1002
}
1040
0.0
1002
}
1002
{
1002
{
1010
-1.0
1020
-1.0
1030
-1.0
1002
}
1040
0.6999999880790711
1000

1040
0.0
1002
{
1002
}
1040
0.0
1002
{
1002
}
1040
0.0
1002
}
1002
{
1002
{
1010
-1.0
1020
-1.0
1030
-1.0
1002
}
1040
0.2000000029802322
1000

1040
0.0
1002
{
1002
}
1040
0.0
1002
{
1002
}
1040
0.0
1002
}
1002
{
1070
     0
1002
{
1070
     1
1002
{
1040
1.0
1040
1.0
1000

1040
0.0
1002
{
1002
}
1040
0.0
1002
{
1002
}
1040
0.0
1002
}
1002
}
1040
1.0
1040
0.0
1040
0.0
1002
}
1002
{
1040
1.0
1040
1.0
1000

1040
0.0
1002
{
1002
}
1040
0.0
1002
{
1002
}
1040
0.0
1002
}
1002
{
1040
0.5
1040
1.0
1000

1040
0.0
1002
{
1002
}
1040
0.0
1002
{
1002
}
1040
0.0
1002
}
1002
{
1070
     0
1040
0.0
1002
{
1002
}
1040
1.0
1002
{
1002
}
1040
0.0
1002
}
1002
{
1040
0.0
1002
{
1002
{
1010
0.0
1020
0.0
1030
0.0
1002
}
1040
1.0
1000

1040
0.0
1002
{
1002
}
1040
0.0
1002
{
1002
}
1040
0.0
1002
}
1002
}
1002
{
1002
{
1070
     1
1002
{
1040
0.0
1040
1.0
1000

1040
0.0
1002
{
1002
}
1040
0.0
1002
{
1002
}
1040
0.0
1002
}
1002
}
1040
0.0
1002
{
1002
}
1010
1.0
1020
0.0
1030
0.0
1010
0.0
1020
1.0
1030
0.0
1010
0.0
1020
0.0
1030
1.0
1070
     0
1002
}
1002
{
1002
{
1040
1.0
1040
1.0
1002
{
1070
     1
1002
{
1040
1.0
1040
1.0
1000

1040
0.0
1002
{
1002
}
1040
0.0
1002
{
1002
}
1040
0.0
1002
}
1002
}
1002
}
1070
     0
1040
0.0
1002
{
1002
}
1002
}
1002
{
1002
}
1002
}
1002
{
1071
        3
1070
     3
1070
     0
1002
{
1070
     2
1070
     0
1070
     0
1040
0.0
1002
}
1070
     0
1070
     2
1002
{
1002
}
1002
}
1002
{
1040
8030.0
1040
190.3000030517578
1040
0.3050000071525574
1040
228.0
1040
545.0
1040
14.0
1040
17.39999961853027
1040
0.4560000002384186
1002
}
1002
}
  0
INSERT
  5
281
330
2
100
AcDbEntity
  8
ASHADE
 62
     1
100
AcDbBlockReference
  2
AVE_GLOBAL
 10
-72.45309992777709
 20
347.4567230565634
 30
12.6740639196657
 41
0.6666666666666572
 42
0.6666666666667425
 43
0.6666666666666666
1001
AVE_MATERIAL
1002
{
1000
*GLOBAL*
1000
1
1000
Global finish.
1002
{
1002
}
1002
{
1070
    63
1002
{
1002
{
1010
-1.0
1020
-1.0
1030
-1.0
1002
}
1040
0.1000000014901161
1000

1040
0.0
1002
{
1002
}
1040
0.0
1002
{
1002
}
1040
0.0
1002
}
1002
{
1002
{
1010
-1.0
1020
-1.0
1030
-1.0
1002
}
1040
0.6999999880790711
1000

1040
0.0
1002
{
1002
}
1040
0.0
1002
{
1002
}
1040
0.0
1002
}
1002
{
1002
{
1010
-1.0
1020
-1.0
1030
-1.0
1002
}
1040
0.2000000029802322
1000

1040
0.0
1002
{
1002
}
1040
0.0
1002
{
1002
}
1040
0.0
1002
}
1002
{
1070
     0
1002
{
1070
     1
1002
{
1040
1.0
1040
1.0
1000

1040
0.0
1002
{
1002
}
1040
0.0
1002
{
1002
}
1040
0.0
1002
}
1002
}
1040
1.0
1040
0.0
1040
0.0
1002
}
1002
{
1040
1.0
1040
1.0
1000

1040
0.0
1002
{
1002
}
1040
0.0
1002
{
1002
}
1040
0.0
1002
}
1002
{
1040
0.5
1040
1.0
1000

1040
0.0
1002
{
1002
}
1040
0.0
1002
{
1002
}
1040
0.0
1002
}
1002
{
1070
     0
1040
0.0
1002
{
1002
}
1040
1.0
1002
{
1002
}
1040
0.0
1002
}
1002
{
1040
0.0
1002
{
1002
{
1010
0.0
1020
0.0
1030
0.0
1002
}
1040
1.0
1000

1040
0.0
1002
{
1002
}
1040
0.0
1002
{
1002
}
1040
0.0
1002
}
1002
}
1002
{
1002
{
1070
     1
1002
{
1040
0.0
1040
1.0
1000

1040
0.0
1002
{
1002
}
1040
0.0
1002
{
1002
}
1040
0.0
1002
}
1002
}
1040
0.0
1002
{
1002
}
1010
1.0
1020
0.0
1030
0.0
1010
0.0
1020
1.0
1030
0.0
1010
0.0
1020
0.0
1030
1.0
1070
     0
1002
}
1002
{
1002
{
1040
1.0
1040
1.0
1002
{
1070
     1
1002
{
1040
1.0
1040
1.0
1000

1040
0.0
1002
{
1002
}
1040
0.0
1002
{
1002
}
1040
0.0
1002
}
1002
}
1002
}
1070
     0
1040
0.0
1002
{
1002
}
1002
}
1002
{
1002
}
1002
}
1002
{
1071
        3
1070
     3
1070
     0
1002
{
1070
     2
1070
     0
1070
     0
1040
0.0
1002
}
1070
     0
1070
     2
1002
{
1002
}
1002
}
1002
{
1040
8030.0
1040
190.3000030517578
1040
0.3050000071525574
1040
228.0
1040
545.0
1040
14.0
1040
17.39999961853027
1040
0.4560000002384186
1002
}
1002
}
  0
INSERT
  5
282
330
2
100
AcDbEntity
  8
ASHADE
 62
     1
100
AcDbBlockReference
  2
AVE_RENDER
 10
-311.8387380913129
 20
-396.3901453132872
 30
0.0
 41
1.305149999999997
 42
1.305149999999912
 43
1.305150000000001
1001
AVE_RENDER
1002
{
1070
     6
1000
Pref
1070
    30
1070
    20
1070
     1
1070
     0
1000

1070
    10
1070
     1
1070
    30
1040
1.0
1070
     1
1040
0.3
1040
0.7
1040
0.0
1040
10.0
1010
-1.0
1020
-1.0
1030
-1.0
1040
0.3
1070
    49
1070
     0
1070
     0
1010
1.0
1020
1.0
1030
1.0
1040
45.0
1070
     1
1070
     0
1000
WCS
1040
0.0
1002
}
  0
INSERT
  5
283
330
2
100
AcDbEntity
  8
ASHADE
 62
     3
100
AcDbBlockReference
  2
AVE_RENDER
 10
-311.8387380913129
 20
-396.3901453132872
 30
0.0
 41
1.305149999999997
 42
1.305149999999912
 43
1.305150000000001
1001
AVE_RENDER
1002
{
1070
     0
1000
Full Opt
1070
     0
1070
     1
1070
     1
1070
     1
1070
     0
1070
     0
1070
     0
1070
     1
1070
     1
1040
0.0001
1040
0.0001
1002
}
  0
INSERT
  5
284
330
2
100
AcDbEntity
  8
ASHADE
 62
     4
100
AcDbBlockReference
  2
AVE_RENDER
 10
-311.8387380913129
 20
-396.3901453132872
 30
0.0
 41
1.305149999999997
 42
1.305149999999912
 43
1.305150000000001
1001
AVE_RENDER
1002
{
1070
     0
1000
Quick Opt
1070
     0
1070
     1
1070
     1
1070
     1
1070
     0
1070
     0
1070
     1
1002
}
  0
INSERT
  5
285
330
2
100
AcDbEntity
  8
ASHADE
 62
     5
100
AcDbBlockReference
  2
AVE_RENDER
 10
-311.8387380913129
 20
-396.3901453132872
 30
0.0
 41
1.305149999999997
 42
1.305149999999912
 43
1.305150000000001
1001
AVE_RENDER
1002
{
1070
     1
1000
Scanl Opt
1070
     2
1070
     0
1070
     2
1040
2.0
1040
4.0
1070
     0
1070
     1
1070
     0
1040
0.03
1002
}
  0
INSERT
  5
286
330
2
100
AcDbEntity
  8
ASHADE
 62
     6
100
AcDbBlockReference
  2
AVE_RENDER
 10
-311.8387380913129
 20
-396.3901453132872
 30
0.0
 41
1.305149999999997
 42
1.305149999999912
 43
1.305150000000001
1001
AVE_RENDER
1002
{
1070
     2
1000
Raytr Opt
1070
     2
1070
     0
1070
     2
1040
2.0
1040
4.0
1070
     0
1070
     1
1070
     1
1040
0.03
1070
     3
1040
0.03
1002
}
  0
INSERT
  5
287
330
2
100
AcDbEntity
  8
ASHADE
 62
     7
100
AcDbBlockReference
  2
AVE_RENDER
 10
-311.8387380913129
 20
-396.3901453132872
 30
0.0
 41
1.305149999999997
 42
1.305149999999912
 43
1.305150000000001
1001
AVE_RENDER
1002
{
1070
     0
1000
RFile Opt
1070
     5
1070
   640
1070
   480
1070
 10000
1070
     3
1070
    32
1070
    24
1070
     0
1070
     0
1070
     0
1070
     1
1070
     0
1070
     0
1070
     0
1002
}
  0
INSERT
  5
288
330
2
100
AcDbEntity
  8
ASHADE
 62
     8
100
AcDbBlockReference
  2
AVE_RENDER
 10
-311.8387380913129
 20
-396.3901453132872
 30
0.0
 41
1.305149999999997
 42
1.305149999999912
 43
1.305150000000001
1001
AVE_RENDER
1002
{
1070
     0
1000
Fog Opt
1070
     0
1070
     0
1040
0.0
1040
1.0
1040
0.0
1040
1.0
1010
0.5
1020
0.5
1030
0.5
1002
}
  0
INSERT
  5
289
330
2
100
AcDbEntity
  8
ASHADE
 62
     9
100
AcDbBlockReference
  2
AVE_RENDER
 10
-311.8387380913129
 20
-396.3901453132872
 30
0.0
 41
1.305149999999997
 42
1.305149999999912
 43
1.305150000000001
1001
AVE_RENDER
1002
{
1070
     0
1000
BG Opt
1070
     0
1070
     1
1010
0.0
1020
0.0
1030
0.0
1010
1.0
1020
0.0
1030
0.0
1010
0.0
1020
1.0
1030
0.0
1010
0.0
1020
0.0
1030
1.0
1040
0.5
1040
0.33
1040
0.0
1000

1070
     1
1000

1070
     1
1070
     1
1040
1.0
1040
1.0
1040
0.0
1040
0.0
1070
     0
1002
}
  0
INSERT
  5
28A
330
2
100
AcDbEntity
  8
ASHADE
 62
     1
100
AcDbBlockReference
  2
AVE_GLOBAL
 10
-311.8387380913129
 20
-396.3901453132872
 30
0.0
 41
1.305149999999997
 42
1.305149999999912
 43
1.305150000000001
1001
AVE_MATERIAL
1002
{
1000
*GLOBAL*
1000
1
1000
Global finish.
1002
{
1002
}
1002
{
1070
    63
1002
{
1002
{
1010
-1.0
1020
-1.0
1030
-1.0
1002
}
1040
0.1000000014901161
1000

1040
0.0
1002
{
1002
}
1040
0.0
1002
{
1002
}
1040
0.0
1002
}
1002
{
1002
{
1010
-1.0
1020
-1.0
1030
-1.0
1002
}
1040
0.6999999880790711
1000

1040
0.0
1002
{
1002
}
1040
0.0
1002
{
1002
}
1040
0.0
1002
}
1002
{
1002
{
1010
-1.0
1020
-1.0
1030
-1.0
1002
}
1040
0.2000000029802322
1000

1040
0.0
1002
{
1002
}
1040
0.0
1002
{
1002
}
1040
0.0
1002
}
1002
{
1070
     0
1002
{
1070
     1
1002
{
1040
1.0
1040
1.0
1000

1040
0.0
1002
{
1002
}
1040
0.0
1002
{
1002
}
1040
0.0
1002
}
1002
}
1040
1.0
1040
0.0
1040
0.0
1002
}
1002
{
1040
1.0
1040
1.0
1000

1040
0.0
1002
{
1002
}
1040
0.0
1002
{
1002
}
1040
0.0
1002
}
1002
{
1040
0.5
1040
1.0
1000

1040
0.0
1002
{
1002
}
1040
0.0
1002
{
1002
}
1040
0.0
1002
}
1002
{
1070
     0
1040
0.0
1002
{
1002
}
1040
1.0
1002
{
1002
}
1040
0.0
1002
}
1002
{
1040
0.0
1002
{
1002
{
1010
0.0
1020
0.0
1030
0.0
1002
}
1040
1.0
1000

1040
0.0
1002
{
1002
}
1040
0.0
1002
{
1002
}
1040
0.0
1002
}
1002
}
1002
{
1002
{
1070
     1
1002
{
1040
0.0
1040
1.0
1000

1040
0.0
1002
{
1002
}
1040
0.0
1002
{
1002
}
1040
0.0
1002
}
1002
}
1040
0.0
1002
{
1002
}
1010
1.0
1020
0.0
1030
0.0
1010
0.0
1020
1.0
1030
0.0
1010
0.0
1020
0.0
1030
1.0
1070
     0
1002
}
1002
{
1002
{
1040
1.0
1040
1.0
1002
{
1070
     1
1002
{
1040
1.0
1040
1.0
1000

1040
0.0
1002
{
1002
}
1040
0.0
1002
{
1002
}
1040
0.0
1002
}
1002
}
1002
}
1070
     0
1040
0.0
1002
{
1002
}
1002
}
1002
{
1002
}
1002
}
1002
{
1071
        3
1070
     3
1070
     0
1002
{
1070
     2
1070
     0
1070
     0
1040
0.0
1002
}
1070
     0
1070
     2
1002
{
1002
}
1002
}
1002
{
1040
8030.0
1040
190.3000030517578
1040
0.3050000071525574
1040
228.0
1040
545.0
1040
14.0
1040
17.39999961853027
1040
0.4560000002384186
1002
}
1002
}
  0
INSERT
  5
28B
330
2
100
AcDbEntity
  8
ASHADE
 62
     1
100
AcDbBlockReference
  2
AVE_RENDER
 10
104.9310744785735
 20
249.3208388452711
 30
0.0
 41
0.3262875000000065
 42
0.3262875000000349
 43
0.3262875000000003
1001
AVE_RENDER
1002
{
1070
     6
1000
Pref
1070
    30
1070
    20
1070
     1
1070
     0
1000

1070
    10
1070
     1
1070
    30
1040
1.0
1070
     1
1040
0.3
1040
0.7
1040
0.0
1040
10.0
1010
-1.0
1020
-1.0
1030
-1.0
1040
0.3
1070
    49
1070
     0
1070
     0
1010
1.0
1020
1.0
1030
1.0
1040
45.0
1070
     1
1070
     0
1000
WCS
1040
0.0
1002
}
  0
INSERT
  5
28C
330
2
100
AcDbEntity
  8
ASHADE
 62
     3
100
AcDbBlockReference
  2
AVE_RENDER
 10
104.9310744785735
 20
249.3208388452711
 30
0.0
 41
0.3262875000000065
 42
0.3262875000000349
 43
0.3262875000000003
1001
AVE_RENDER
1002
{
1070
     0
1000
Full Opt
1070
     0
1070
     1
1070
     1
1070
     1
1070
     0
1070
     0
1070
     0
1070
     1
1070
     1
1040
0.0001
1040
0.0001
1002
}
  0
INSERT
  5
28D
330
2
100
AcDbEntity
  8
ASHADE
 62
     4
100
AcDbBlockReference
  2
AVE_RENDER
 10
104.9310744785735
 20
249.3208388452711
 30
0.0
 41
0.3262875000000065
 42
0.3262875000000349
 43
0.3262875000000003
1001
AVE_RENDER
1002
{
1070
     0
1000
Quick Opt
1070
     0
1070
     1
1070
     1
1070
     1
1070
     0
1070
     0
1070
     1
1002
}
  0
INSERT
  5
28E
330
2
100
AcDbEntity
  8
ASHADE
 62
     5
100
AcDbBlockReference
  2
AVE_RENDER
 10
104.9310744785735
 20
249.3208388452711
 30
0.0
 41
0.3262875000000065
 42
0.3262875000000349
 43
0.3262875000000003
1001
AVE_RENDER
1002
{
1070
     1
1000
Scanl Opt
1070
     2
1070
     0
1070
     2
1040
2.0
1040
4.0
1070
     0
1070
     1
1070
     0
1040
0.03
1002
}
  0
INSERT
  5
28F
330
2
100
AcDbEntity
  8
ASHADE
 62
     6
100
AcDbBlockReference
  2
AVE_RENDER
 10
104.9310744785735
 20
249.3208388452711
 30
0.0
 41
0.3262875000000065
 42
0.3262875000000349
 43
0.3262875000000003
1001
AVE_RENDER
1002
{
1070
     2
1000
Raytr Opt
1070
     2
1070
     0
1070
     2
1040
2.0
1040
4.0
1070
     0
1070
     1
1070
     1
1040
0.03
1070
     3
1040
0.03
1002
}
  0
INSERT
  5
290
330
2
100
AcDbEntity
  8
ASHADE
 62
     7
100
AcDbBlockReference
  2
AVE_RENDER
 10
104.9310744785735
 20
249.3208388452711
 30
0.0
 41
0.3262875000000065
 42
0.3262875000000349
 43
0.3262875000000003
1001
AVE_RENDER
1002
{
1070
     0
1000
RFile Opt
1070
     5
1070
   640
1070
   480
1070
 10000
1070
     3
1070
    32
1070
    24
1070
     0
1070
     0
1070
     0
1070
     1
1070
     0
1070
     0
1070
     0
1002
}
  0
INSERT
  5
291
330
2
100
AcDbEntity
  8
ASHADE
 62
     8
100
AcDbBlockReference
  2
AVE_RENDER
 10
104.9310744785735
 20
249.3208388452711
 30
0.0
 41
0.3262875000000065
 42
0.3262875000000349
 43
0.3262875000000003
1001
AVE_RENDER
1002
{
1070
     0
1000
Fog Opt
1070
     0
1070
     0
1040
0.0
1040
1.0
1040
0.0
1040
1.0
1010
0.5
1020
0.5
1030
0.5
1002
}
  0
INSERT
  5
292
330
2
100
AcDbEntity
  8
ASHADE
 62
     9
100
AcDbBlockReference
  2
AVE_RENDER
 10
104.9310744785735
 20
249.3208388452711
 30
0.0
 41
0.3262875000000065
 42
0.3262875000000349
 43
0.3262875000000003
1001
AVE_RENDER
1002
{
1070
     0
1000
BG Opt
1070
     0
1070
     1
1010
0.0
1020
0.0
1030
0.0
1010
1.0
1020
0.0
1030
0.0
1010
0.0
1020
1.0
1030
0.0
1010
0.0
1020
0.0
1030
1.0
1040
0.5
1040
0.33
1040
0.0
1000

1070
     1
1000

1070
     1
1070
     1
1040
1.0
1040
1.0
1040
0.0
1040
0.0
1070
     0
1002
}
  0
INSERT
  5
293
330
2
100
AcDbEntity
  8
ASHADE
 62
     1
100
AcDbBlockReference
  2
AVE_GLOBAL
 10
104.9310744785735
 20
249.3208388452711
 30
0.0
 41
0.3262875000000065
 42
0.3262875000000349
 43
0.3262875000000003
1001
AVE_MATERIAL
1002
{
1000
*GLOBAL*
1000
1
1000
Global finish.
1002
{
1002
}
1002
{
1070
    63
1002
{
1002
{
1010
-1.0
1020
-1.0
1030
-1.0
1002
}
1040
0.1000000014901161
1000

1040
0.0
1002
{
1002
}
1040
0.0
1002
{
1002
}
1040
0.0
1002
}
1002
{
1002
{
1010
-1.0
1020
-1.0
1030
-1.0
1002
}
1040
0.6999999880790711
1000

1040
0.0
1002
{
1002
}
1040
0.0
1002
{
1002
}
1040
0.0
1002
}
1002
{
1002
{
1010
-1.0
1020
-1.0
1030
-1.0
1002
}
1040
0.2000000029802322
1000

1040
0.0
1002
{
1002
}
1040
0.0
1002
{
1002
}
1040
0.0
1002
}
1002
{
1070
     0
1002
{
1070
     1
1002
{
1040
1.0
1040
1.0
1000

1040
0.0
1002
{
1002
}
1040
0.0
1002
{
1002
}
1040
0.0
1002
}
1002
}
1040
1.0
1040
0.0
1040
0.0
1002
}
1002
{
1040
1.0
1040
1.0
1000

1040
0.0
1002
{
1002
}
1040
0.0
1002
{
1002
}
1040
0.0
1002
}
1002
{
1040
0.5
1040
1.0
1000

1040
0.0
1002
{
1002
}
1040
0.0
1002
{
1002
}
1040
0.0
1002
}
1002
{
1070
     0
1040
0.0
1002
{
1002
}
1040
1.0
1002
{
1002
}
1040
0.0
1002
}
1002
{
1040
0.0
1002
{
1002
{
1010
0.0
1020
0.0
1030
0.0
1002
}
1040
1.0
1000

1040
0.0
1002
{
1002
}
1040
0.0
1002
{
1002
}
1040
0.0
1002
}
1002
}
1002
{
1002
{
1070
     1
1002
{
1040
0.0
1040
1.0
1000

1040
0.0
1002
{
1002
}
1040
0.0
1002
{
1002
}
1040
0.0
1002
}
1002
}
1040
0.0
1002
{
1002
}
1010
1.0
1020
0.0
1030
0.0
1010
0.0
1020
1.0
1030
0.0
1010
0.0
1020
0.0
1030
1.0
1070
     0
1002
}
1002
{
1002
{
1040
1.0
1040
1.0
1002
{
1070
     1
1002
{
1040
1.0
1040
1.0
1000

1040
0.0
1002
{
1002
}
1040
0.0
1002
{
1002
}
1040
0.0
1002
}
1002
}
1002
}
1070
     0
1040
0.0
1002
{
1002
}
1002
}
1002
{
1002
}
1002
}
1002
{
1071
        3
1070
     3
1070
     0
1002
{
1070
     2
1070
     0
1070
     0
1040
0.0
1002
}
1070
     0
1070
     2
1002
{
1002
}
1002
}
1002
{
1040
8030.0
1040
190.3000030517578
1040
0.3050000071525574
1040
228.0
1040
545.0
1040
14.0
1040
17.39999961853027
1040
0.4560000002384186
1002
}
1002
}
  0
INSERT
  5
294
330
2
100
AcDbEntity
  8
ASHADE
 62
     1
100
AcDbBlockReference
  2
AVE_RENDER
 10
-103.3652446350596
 20
-396.3901453132873
 30
0.0
 41
1.305149999999997
 42
1.305149999999912
 43
1.305150000000001
1001
AVE_RENDER
1002
{
1070
     6
1000
Pref
1070
    30
1070
    20
1070
     1
1070
     0
1000

1070
    10
1070
     1
1070
    30
1040
1.0
1070
     1
1040
0.3
1040
0.7
1040
0.0
1040
10.0
1010
-1.0
1020
-1.0
1030
-1.0
1040
0.3
1070
    49
1070
     0
1070
     0
1010
1.0
1020
1.0
1030
1.0
1040
45.0
1070
     1
1070
     0
1000
WCS
1040
0.0
1002
}
  0
INSERT
  5
295
330
2
100
AcDbEntity
  8
ASHADE
 62
     3
100
AcDbBlockReference
  2
AVE_RENDER
 10
-103.3652446350596
 20
-396.3901453132873
 30
0.0
 41
1.305149999999997
 42
1.305149999999912
 43
1.305150000000001
1001
AVE_RENDER
1002
{
1070
     0
1000
Full Opt
1070
     0
1070
     1
1070
     1
1070
     1
1070
     0
1070
     0
1070
     0
1070
     1
1070
     1
1040
0.0001
1040
0.0001
1002
}
  0
INSERT
  5
296
330
2
100
AcDbEntity
  8
ASHADE
 62
     4
100
AcDbBlockReference
  2
AVE_RENDER
 10
-103.3652446350596
 20
-396.3901453132873
 30
0.0
 41
1.305149999999997
 42
1.305149999999912
 43
1.305150000000001
1001
AVE_RENDER
1002
{
1070
     0
1000
Quick Opt
1070
     0
1070
     1
1070
     1
1070
     1
1070
     0
1070
     0
1070
     1
1002
}
  0
INSERT
  5
297
330
2
100
AcDbEntity
  8
ASHADE
 62
     5
100
AcDbBlockReference
  2
AVE_RENDER
 10
-103.3652446350596
 20
-396.3901453132873
 30
0.0
 41
1.305149999999997
 42
1.305149999999912
 43
1.305150000000001
1001
AVE_RENDER
1002
{
1070
     1
1000
Scanl Opt
1070
     2
1070
     0
1070
     2
1040
2.0
1040
4.0
1070
     0
1070
     1
1070
     0
1040
0.03
1002
}
  0
INSERT
  5
298
330
2
100
AcDbEntity
  8
ASHADE
 62
     6
100
AcDbBlockReference
  2
AVE_RENDER
 10
-103.3652446350596
 20
-396.3901453132873
 30
0.0
 41
1.305149999999997
 42
1.305149999999912
 43
1.305150000000001
1001
AVE_RENDER
1002
{
1070
     2
1000
Raytr Opt
1070
     2
1070
     0
1070
     2
1040
2.0
1040
4.0
1070
     0
1070
     1
1070
     1
1040
0.03
1070
     3
1040
0.03
1002
}
  0
INSERT
  5
299
330
2
100
AcDbEntity
  8
ASHADE
 62
     7
100
AcDbBlockReference
  2
AVE_RENDER
 10
-103.3652446350596
 20
-396.3901453132873
 30
0.0
 41
1.305149999999997
 42
1.305149999999912
 43
1.305150000000001
1001
AVE_RENDER
1002
{
1070
     0
1000
RFile Opt
1070
     5
1070
   640
1070
   480
1070
 10000
1070
     3
1070
    32
1070
    24
1070
     0
1070
     0
1070
     0
1070
     1
1070
     0
1070
     0
1070
     0
1002
}
  0
INSERT
  5
29A
330
2
100
AcDbEntity
  8
ASHADE
 62
     8
100
AcDbBlockReference
  2
AVE_RENDER
 10
-103.3652446350596
 20
-396.3901453132873
 30
0.0
 41
1.305149999999997
 42
1.305149999999912
 43
1.305150000000001
1001
AVE_RENDER
1002
{
1070
     0
1000
Fog Opt
1070
     0
1070
     0
1040
0.0
1040
1.0
1040
0.0
1040
1.0
1010
0.5
1020
0.5
1030
0.5
1002
}
  0
INSERT
  5
29B
330
2
100
AcDbEntity
  8
ASHADE
 62
     9
100
AcDbBlockReference
  2
AVE_RENDER
 10
-103.3652446350596
 20
-396.3901453132873
 30
0.0
 41
1.305149999999997
 42
1.305149999999912
 43
1.305150000000001
1001
AVE_RENDER
1002
{
1070
     0
1000
BG Opt
1070
     0
1070
     1
1010
0.0
1020
0.0
1030
0.0
1010
1.0
1020
0.0
1030
0.0
1010
0.0
1020
1.0
1030
0.0
1010
0.0
1020
0.0
1030
1.0
1040
0.5
1040
0.33
1040
0.0
1000

1070
     1
1000

1070
     1
1070
     1
1040
1.0
1040
1.0
1040
0.0
1040
0.0
1070
     0
1002
}
  0
INSERT
  5
29C
330
2
100
AcDbEntity
  8
ASHADE
 62
     1
100
AcDbBlockReference
  2
AVE_GLOBAL
 10
-103.3652446350596
 20
-396.3901453132873
 30
0.0
 41
1.305149999999997
 42
1.305149999999912
 43
1.305150000000001
1001
AVE_MATERIAL
1002
{
1000
*GLOBAL*
1000
1
1000
Global finish.
1002
{
1002
}
1002
{
1070
    63
1002
{
1002
{
1010
-1.0
1020
-1.0
1030
-1.0
1002
}
1040
0.1000000014901161
1000

1040
0.0
1002
{
1002
}
1040
0.0
1002
{
1002
}
1040
0.0
1002
}
1002
{
1002
{
1010
-1.0
1020
-1.0
1030
-1.0
1002
}
1040
0.6999999880790711
1000

1040
0.0
1002
{
1002
}
1040
0.0
1002
{
1002
}
1040
0.0
1002
}
1002
{
1002
{
1010
-1.0
1020
-1.0
1030
-1.0
1002
}
1040
0.2000000029802322
1000

1040
0.0
1002
{
1002
}
1040
0.0
1002
{
1002
}
1040
0.0
1002
}
1002
{
1070
     0
1002
{
1070
     1
1002
{
1040
1.0
1040
1.0
1000

1040
0.0
1002
{
1002
}
1040
0.0
1002
{
1002
}
1040
0.0
1002
}
1002
}
1040
1.0
1040
0.0
1040
0.0
1002
}
1002
{
1040
1.0
1040
1.0
1000

1040
0.0
1002
{
1002
}
1040
0.0
1002
{
1002
}
1040
0.0
1002
}
1002
{
1040
0.5
1040
1.0
1000

1040
0.0
1002
{
1002
}
1040
0.0
1002
{
1002
}
1040
0.0
1002
}
1002
{
1070
     0
1040
0.0
1002
{
1002
}
1040
1.0
1002
{
1002
}
1040
0.0
1002
}
1002
{
1040
0.0
1002
{
1002
{
1010
0.0
1020
0.0
1030
0.0
1002
}
1040
1.0
1000

1040
0.0
1002
{
1002
}
1040
0.0
1002
{
1002
}
1040
0.0
1002
}
1002
}
1002
{
1002
{
1070
     1
1002
{
1040
0.0
1040
1.0
1000

1040
0.0
1002
{
1002
}
1040
0.0
1002
{
1002
}
1040
0.0
1002
}
1002
}
1040
0.0
1002
{
1002
}
1010
1.0
1020
0.0
1030
0.0
1010
0.0
1020
1.0
1030
0.0
1010
0.0
1020
0.0
1030
1.0
1070
     0
1002
}
1002
{
1002
{
1040
1.0
1040
1.0
1002
{
1070
     1
1002
{
1040
1.0
1040
1.0
1000

1040
0.0
1002
{
1002
}
1040
0.0
1002
{
1002
}
1040
0.0
1002
}
1002
}
1002
}
1070
     0
1040
0.0
1002
{
1002
}
1002
}
1002
{
1002
}
1002
}
1002
{
1071
        3
1070
     3
1070
     0
1002
{
1070
     2
1070
     0
1070
     0
1040
0.0
1002
}
1070
     0
1070
     2
1002
{
1002
}
1002
}
1002
{
1040
8030.0
1040
190.3000030517578
1040
0.3050000071525574
1040
228.0
1040
545.0
1040
14.0
1040
17.39999961853027
1040
0.4560000002384186
1002
}
1002
}
  0
INSERT
  5
29D
330
2
100
AcDbEntity
  8
ASHADE
 62
     1
100
AcDbBlockReference
  2
AVE_RENDER
 10
308.6949980093728
 20
444.4070671228877
 30
2.284012500000298
 41
1.305149999999997
 42
1.305149999999912
 43
1.305150000000001
1001
AVE_RENDER
1002
{
1070
     6
1000
Pref
1070
    30
1070
    20
1070
     1
1070
     0
1000

1070
    10
1070
     1
1070
    30
1040
1.0
1070
     1
1040
0.3
1040
0.7
1040
0.0
1040
10.0
1010
-1.0
1020
-1.0
1030
-1.0
1040
0.3
1070
    49
1070
     0
1070
     0
1010
1.0
1020
1.0
1030
1.0
1040
45.0
1070
     1
1070
     0
1000
WCS
1040
0.0
1002
}
  0
INSERT
  5
29E
330
2
100
AcDbEntity
  8
ASHADE
 62
     3
100
AcDbBlockReference
  2
AVE_RENDER
 10
308.6949980093728
 20
444.4070671228877
 30
2.284012500000298
 41
1.305149999999997
 42
1.305149999999912
 43
1.305150000000001
1001
AVE_RENDER
1002
{
1070
     0
1000
Full Opt
1070
     0
1070
     1
1070
     1
1070
     1
1070
     0
1070
     0
1070
     0
1070
     1
1070
     1
1040
0.0001
1040
0.0001
1002
}
  0
INSERT
  5
29F
330
2
100
AcDbEntity
  8
ASHADE
 62
     4
100
AcDbBlockReference
  2
AVE_RENDER
 10
308.6949980093728
 20
444.4070671228877
 30
2.284012500000298
 41
1.305149999999997
 42
1.305149999999912
 43
1.305150000000001
1001
AVE_RENDER
1002
{
1070
     0
1000
Quick Opt
1070
     0
1070
     1
1070
     1
1070
     1
1070
     0
1070
     0
1070
     1
1002
}
  0
INSERT
  5
2A0
330
2
100
AcDbEntity
  8
ASHADE
 62
     5
100
AcDbBlockReference
  2
AVE_RENDER
 10
308.6949980093728
 20
444.4070671228877
 30
2.284012500000298
 41
1.305149999999997
 42
1.305149999999912
 43
1.305150000000001
1001
AVE_RENDER
1002
{
1070
     1
1000
Scanl Opt
1070
     2
1070
     0
1070
     2
1040
2.0
1040
4.0
1070
     0
1070
     1
1070
     0
1040
0.03
1002
}
  0
INSERT
  5
2A1
330
2
100
AcDbEntity
  8
ASHADE
 62
     6
100
AcDbBlockReference
  2
AVE_RENDER
 10
308.6949980093728
 20
444.4070671228877
 30
2.284012500000298
 41
1.305149999999997
 42
1.305149999999912
 43
1.305150000000001
1001
AVE_RENDER
1002
{
1070
     2
1000
Raytr Opt
1070
     2
1070
     0
1070
     2
1040
2.0
1040
4.0
1070
     0
1070
     1
1070
     1
1040
0.03
1070
     3
1040
0.03
1002
}
  0
INSERT
  5
2A2
330
2
100
AcDbEntity
  8
ASHADE
 62
     7
100
AcDbBlockReference
  2
AVE_RENDER
 10
308.6949980093728
 20
444.4070671228877
 30
2.284012500000298
 41
1.305149999999997
 42
1.305149999999912
 43
1.305150000000001
1001
AVE_RENDER
1002
{
1070
     0
1000
RFile Opt
1070
     5
1070
   640
1070
   480
1070
 10000
1070
     3
1070
    32
1070
    24
1070
     0
1070
     0
1070
     0
1070
     1
1070
     0
1070
     0
1070
     0
1002
}
  0
INSERT
  5
2A3
330
2
100
AcDbEntity
  8
ASHADE
 62
     8
100
AcDbBlockReference
  2
AVE_RENDER
 10
308.6949980093728
 20
444.4070671228877
 30
2.284012500000298
 41
1.305149999999997
 42
1.305149999999912
 43
1.305150000000001
1001
AVE_RENDER
1002
{
1070
     0
1000
Fog Opt
1070
     0
1070
     0
1040
0.0
1040
1.0
1040
0.0
1040
1.0
1010
0.5
1020
0.5
1030
0.5
1002
}
  0
INSERT
  5
2A4
330
2
100
AcDbEntity
  8
ASHADE
 62
     9
100
AcDbBlockReference
  2
AVE_RENDER
 10
308.6949980093728
 20
444.4070671228877
 30
2.284012500000298
 41
1.305149999999997
 42
1.305149999999912
 43
1.305150000000001
1001
AVE_RENDER
1002
{
1070
     0
1000
BG Opt
1070
     0
1070
     1
1010
0.0
1020
0.0
1030
0.0
1010
1.0
1020
0.0
1030
0.0
1010
0.0
1020
1.0
1030
0.0
1010
0.0
1020
0.0
1030
1.0
1040
0.5
1040
0.33
1040
0.0
1000

1070
     1
1000

1070
     1
1070
     1
1040
1.0
1040
1.0
1040
0.0
1040
0.0
1070
     0
1002
}
  0
INSERT
  5
2A5
330
2
100
AcDbEntity
  8
ASHADE
 62
     1
100
AcDbBlockReference
  2
AVE_GLOBAL
 10
308.6949980093728
 20
444.4070671228877
 30
2.284012500000298
 41
1.305149999999997
 42
1.305149999999912
 43
1.305150000000001
1001
AVE_MATERIAL
1002
{
1000
*GLOBAL*
1000
1
1000
Global finish.
1002
{
1002
}
1002
{
1070
    63
1002
{
1002
{
1010
-1.0
1020
-1.0
1030
-1.0
1002
}
1040
0.1000000014901161
1000

1040
0.0
1002
{
1002
}
1040
0.0
1002
{
1002
}
1040
0.0
1002
}
1002
{
1002
{
1010
-1.0
1020
-1.0
1030
-1.0
1002
}
1040
0.6999999880790711
1000

1040
0.0
1002
{
1002
}
1040
0.0
1002
{
1002
}
1040
0.0
1002
}
1002
{
1002
{
1010
-1.0
1020
-1.0
1030
-1.0
1002
}
1040
0.2000000029802322
1000

1040
0.0
1002
{
1002
}
1040
0.0
1002
{
1002
}
1040
0.0
1002
}
1002
{
1070
     0
1002
{
1070
     1
1002
{
1040
1.0
1040
1.0
1000

1040
0.0
1002
{
1002
}
1040
0.0
1002
{
1002
}
1040
0.0
1002
}
1002
}
1040
1.0
1040
0.0
1040
0.0
1002
}
1002
{
1040
1.0
1040
1.0
1000

1040
0.0
1002
{
1002
}
1040
0.0
1002
{
1002
}
1040
0.0
1002
}
1002
{
1040
0.5
1040
1.0
1000

1040
0.0
1002
{
1002
}
1040
0.0
1002
{
1002
}
1040
0.0
1002
}
1002
{
1070
     0
1040
0.0
1002
{
1002
}
1040
1.0
1002
{
1002
}
1040
0.0
1002
}
1002
{
1040
0.0
1002
{
1002
{
1010
0.0
1020
0.0
1030
0.0
1002
}
1040
1.0
1000

1040
0.0
1002
{
1002
}
1040
0.0
1002
{
1002
}
1040
0.0
1002
}
1002
}
1002
{
1002
{
1070
     1
1002
{
1040
0.0
1040
1.0
1000

1040
0.0
1002
{
1002
}
1040
0.0
1002
{
1002
}
1040
0.0
1002
}
1002
}
1040
0.0
1002
{
1002
}
1010
1.0
1020
0.0
1030
0.0
1010
0.0
1020
1.0
1030
0.0
1010
0.0
1020
0.0
1030
1.0
1070
     0
1002
}
1002
{
1002
{
1040
1.0
1040
1.0
1002
{
1070
     1
1002
{
1040
1.0
1040
1.0
1000

1040
0.0
1002
{
1002
}
1040
0.0
1002
{
1002
}
1040
0.0
1002
}
1002
}
1002
}
1070
     0
1040
0.0
1002
{
1002
}
1002
}
1002
{
1002
}
1002
}
1002
{
1071
        3
1070
     3
1070
     0
1002
{
1070
     2
1070
     0
1070
     0
1040
0.0
1002
}
1070
     0
1070
     2
1002
{
1002
}
1002
}
1002
{
1040
8030.0
1040
190.3000030517578
1040
0.3050000071525574
1040
228.0
1040
545.0
1040
14.0
1040
17.39999961853027
1040
0.4560000002384186
1002
}
1002
}
  0
INSERT
  5
2A6
330
2
100
AcDbEntity
  8
ASHADE
 62
     1
100
AcDbBlockReference
  2
AVE_RENDER
 10
-1141.414795507534
 20
-489.9106158584262
 30
-3.763544048676747
 41
1.305149999999997
 42
1.305149999999912
 43
1.305150000000001
1001
AVE_RENDER
1002
{
1070
     6
1000
Pref
1070
    30
1070
    20
1070
     1
1070
     0
1000

1070
    10
1070
     1
1070
    30
1040
1.0
1070
     1
1040
0.3
1040
0.7
1040
0.0
1040
10.0
1010
-1.0
1020
-1.0
1030
-1.0
1040
0.3
1070
    49
1070
     0
1070
     0
1010
1.0
1020
1.0
1030
1.0
1040
45.0
1070
     1
1070
     0
1000
WCS
1040
0.0
1002
}
  0
INSERT
  5
2A7
330
2
100
AcDbEntity
  8
ASHADE
 62
     3
100
AcDbBlockReference
  2
AVE_RENDER
 10
-1141.414795507534
 20
-489.9106158584262
 30
-3.763544048676747
 41
1.305149999999997
 42
1.305149999999912
 43
1.305150000000001
1001
AVE_RENDER
1002
{
1070
     0
1000
Full Opt
1070
     0
1070
     1
1070
     1
1070
     1
1070
     0
1070
     0
1070
     0
1070
     1
1070
     1
1040
0.0001
1040
0.0001
1002
}
  0
INSERT
  5
2A8
330
2
100
AcDbEntity
  8
ASHADE
 62
     4
100
AcDbBlockReference
  2
AVE_RENDER
 10
-1141.414795507534
 20
-489.9106158584262
 30
-3.763544048676747
 41
1.305149999999997
 42
1.305149999999912
 43
1.305150000000001
1001
AVE_RENDER
1002
{
1070
     0
1000
Quick Opt
1070
     0
1070
     1
1070
     1
1070
     1
1070
     0
1070
     0
1070
     1
1002
}
  0
INSERT
  5
2A9
330
2
100
AcDbEntity
  8
ASHADE
 62
     5
100
AcDbBlockReference
  2
AVE_RENDER
 10
-1141.414795507534
 20
-489.9106158584262
 30
-3.763544048676747
 41
1.305149999999997
 42
1.305149999999912
 43
1.305150000000001
1001
AVE_RENDER
1002
{
1070
     1
1000
Scanl Opt
1070
     2
1070
     0
1070
     2
1040
2.0
1040
4.0
1070
     0
1070
     1
1070
     0
1040
0.03
1002
}
  0
INSERT
  5
2AA
330
2
100
AcDbEntity
  8
ASHADE
 62
     6
100
AcDbBlockReference
  2
AVE_RENDER
 10
-1141.414795507534
 20
-489.9106158584262
 30
-3.763544048676747
 41
1.305149999999997
 42
1.305149999999912
 43
1.305150000000001
1001
AVE_RENDER
1002
{
1070
     2
1000
Raytr Opt
1070
     2
1070
     0
1070
     2
1040
2.0
1040
4.0
1070
     0
1070
     1
1070
     1
1040
0.03
1070
     3
1040
0.03
1002
}
  0
INSERT
  5
2AB
330
2
100
AcDbEntity
  8
ASHADE
 62
     7
100
AcDbBlockReference
  2
AVE_RENDER
 10
-1141.414795507534
 20
-489.9106158584262
 30
-3.763544048676747
 41
1.305149999999997
 42
1.305149999999912
 43
1.305150000000001
1001
AVE_RENDER
1002
{
1070
     0
1000
RFile Opt
1070
     5
1070
   640
1070
   480
1070
 10000
1070
     3
1070
    32
1070
    24
1070
     0
1070
     0
1070
     0
1070
     1
1070
     0
1070
     0
1070
     0
1002
}
  0
INSERT
  5
2AC
330
2
100
AcDbEntity
  8
ASHADE
 62
     8
100
AcDbBlockReference
  2
AVE_RENDER
 10
-1141.414795507534
 20
-489.9106158584262
 30
-3.763544048676747
 41
1.305149999999997
 42
1.305149999999912
 43
1.305150000000001
1001
AVE_RENDER
1002
{
1070
     0
1000
Fog Opt
1070
     0
1070
     0
1040
0.0
1040
1.0
1040
0.0
1040
1.0
1010
0.5
1020
0.5
1030
0.5
1002
}
  0
INSERT
  5
2AD
330
2
100
AcDbEntity
  8
ASHADE
 62
     9
100
AcDbBlockReference
  2
AVE_RENDER
 10
-1141.414795507534
 20
-489.9106158584262
 30
-3.763544048676747
 41
1.305149999999997
 42
1.305149999999912
 43
1.305150000000001
1001
AVE_RENDER
1002
{
1070
     0
1000
BG Opt
1070
     0
1070
     1
1010
0.0
1020
0.0
1030
0.0
1010
1.0
1020
0.0
1030
0.0
1010
0.0
1020
1.0
1030
0.0
1010
0.0
1020
0.0
1030
1.0
1040
0.5
1040
0.33
1040
0.0
1000

1070
     1
1000

1070
     1
1070
     1
1040
1.0
1040
1.0
1040
0.0
1040
0.0
1070
     0
1002
}
  0
INSERT
  5
2AE
330
2
100
AcDbEntity
  8
ASHADE
 62
     1
100
AcDbBlockReference
  2
AVE_GLOBAL
 10
-1141.414795507534
 20
-489.9106158584262
 30
-3.763544048676747
 41
1.305149999999997
 42
1.305149999999912
 43
1.305150000000001
1001
AVE_MATERIAL
1002
{
1000
*GLOBAL*
1000
1
1000
Global finish.
1002
{
1002
}
1002
{
1070
    63
1002
{
1002
{
1010
-1.0
1020
-1.0
1030
-1.0
1002
}
1040
0.1000000014901161
1000

1040
0.0
1002
{
1002
}
1040
0.0
1002
{
1002
}
1040
0.0
1002
}
1002
{
1002
{
1010
-1.0
1020
-1.0
1030
-1.0
1002
}
1040
0.6999999880790711
1000

1040
0.0
1002
{
1002
}
1040
0.0
1002
{
1002
}
1040
0.0
1002
}
1002
{
1002
{
1010
-1.0
1020
-1.0
1030
-1.0
1002
}
1040
0.2000000029802322
1000

1040
0.0
1002
{
1002
}
1040
0.0
1002
{
1002
}
1040
0.0
1002
}
1002
{
1070
     0
1002
{
1070
     1
1002
{
1040
1.0
1040
1.0
1000

1040
0.0
1002
{
1002
}
1040
0.0
1002
{
1002
}
1040
0.0
1002
}
1002
}
1040
1.0
1040
0.0
1040
0.0
1002
}
1002
{
1040
1.0
1040
1.0
1000

1040
0.0
1002
{
1002
}
1040
0.0
1002
{
1002
}
1040
0.0
1002
}
1002
{
1040
0.5
1040
1.0
1000

1040
0.0
1002
{
1002
}
1040
0.0
1002
{
1002
}
1040
0.0
1002
}
1002
{
1070
     0
1040
0.0
1002
{
1002
}
1040
1.0
1002
{
1002
}
1040
0.0
1002
}
1002
{
1040
0.0
1002
{
1002
{
1010
0.0
1020
0.0
1030
0.0
1002
}
1040
1.0
1000

1040
0.0
1002
{
1002
}
1040
0.0
1002
{
1002
}
1040
0.0
1002
}
1002
}
1002
{
1002
{
1070
     1
1002
{
1040
0.0
1040
1.0
1000

1040
0.0
1002
{
1002
}
1040
0.0
1002
{
1002
}
1040
0.0
1002
}
1002
}
1040
0.0
1002
{
1002
}
1010
1.0
1020
0.0
1030
0.0
1010
0.0
1020
1.0
1030
0.0
1010
0.0
1020
0.0
1030
1.0
1070
     0
1002
}
1002
{
1002
{
1040
1.0
1040
1.0
1002
{
1070
     1
1002
{
1040
1.0
1040
1.0
1000

1040
0.0
1002
{
1002
}
1040
0.0
1002
{
1002
}
1040
0.0
1002
}
1002
}
1002
}
1070
     0
1040
0.0
1002
{
1002
}
1002
}
1002
{
1002
}
1002
}
1002
{
1071
        3
1070
     3
1070
     0
1002
{
1070
     2
1070
     0
1070
     0
1040
0.0
1002
}
1070
     0
1070
     2
1002
{
1002
}
1002
}
1002
{
1040
8030.0
1040
190.3000030517578
1040
0.3050000071525574
1040
228.0
1040
545.0
1040
14.0
1040
17.39999961853027
1040
0.4560000002384186
1002
}
1002
}
  0
INSERT
  5
2AF
330
2
100
AcDbEntity
  8
ASHADE
 62
     1
100
AcDbBlockReference
  2
AVE_RENDER
 10
489.910615858426
 20
-1480.989586647651
 30
-380.3952955258116
 41
1.305150000000001
 42
1.305150000000001
 43
1.305149999999997
 50
90.0
210
-1.0
220
0.0
230
0.0000000000000001
1001
AVE_RENDER
1002
{
1070
     6
1000
Pref
1070
    30
1070
    20
1070
     1
1070
     0
1000

1070
    10
1070
     1
1070
    30
1040
1.0
1070
     1
1040
0.3
1040
0.7
1040
0.0
1040
10.0
1010
-1.0
1020
-1.0
1030
-1.0
1040
0.3
1070
    49
1070
     0
1070
     0
1010
1.0
1020
1.0
1030
1.0
1040
45.0
1070
     1
1070
     0
1000
WCS
1040
0.0
1002
}
  0
INSERT
  5
2B0
330
2
100
AcDbEntity
  8
ASHADE
 62
     3
100
AcDbBlockReference
  2
AVE_RENDER
 10
489.910615858426
 20
-1480.989586647651
 30
-380.3952955258116
 41
1.305150000000001
 42
1.305150000000001
 43
1.305149999999997
 50
90.0
210
-1.0
220
0.0
230
0.0000000000000001
1001
AVE_RENDER
1002
{
1070
     0
1000
Full Opt
1070
     0
1070
     1
1070
     1
1070
     1
1070
     0
1070
     0
1070
     0
1070
     1
1070
     1
1040
0.0001
1040
0.0001
1002
}
  0
INSERT
  5
2B1
330
2
100
AcDbEntity
  8
ASHADE
 62
     4
100
AcDbBlockReference
  2
AVE_RENDER
 10
489.910615858426
 20
-1480.989586647651
 30
-380.3952955258116
 41
1.305150000000001
 42
1.305150000000001
 43
1.305149999999997
 50
90.0
210
-1.0
220
0.0
230
0.0000000000000001
1001
AVE_RENDER
1002
{
1070
     0
1000
Quick Opt
1070
     0
1070
     1
1070
     1
1070
     1
1070
     0
1070
     0
1070
     1
1002
}
  0
INSERT
  5
2B2
330
2
100
AcDbEntity
  8
ASHADE
 62
     5
100
AcDbBlockReference
  2
AVE_RENDER
 10
489.910615858426
 20
-1480.989586647651
 30
-380.3952955258116
 41
1.305150000000001
 42
1.305150000000001
 43
1.305149999999997
 50
90.0
210
-1.0
220
0.0
230
0.0000000000000001
1001
AVE_RENDER
1002
{
1070
     1
1000
Scanl Opt
1070
     2
1070
     0
1070
     2
1040
2.0
1040
4.0
1070
     0
1070
     1
1070
     0
1040
0.03
1002
}
  0
INSERT
  5
2B3
330
2
100
AcDbEntity
  8
ASHADE
 62
     6
100
AcDbBlockReference
  2
AVE_RENDER
 10
489.910615858426
 20
-1480.989586647651
 30
-380.3952955258116
 41
1.305150000000001
 42
1.305150000000001
 43
1.305149999999997
 50
90.0
210
-1.0
220
0.0
230
0.0000000000000001
1001
AVE_RENDER
1002
{
1070
     2
1000
Raytr Opt
1070
     2
1070
     0
1070
     2
1040
2.0
1040
4.0
1070
     0
1070
     1
1070
     1
1040
0.03
1070
     3
1040
0.03
1002
}
  0
INSERT
  5
2B4
330
2
100
AcDbEntity
  8
ASHADE
 62
     7
100
AcDbBlockReference
  2
AVE_RENDER
 10
489.910615858426
 20
-1480.989586647651
 30
-380.3952955258116
 41
1.305150000000001
 42
1.305150000000001
 43
1.305149999999997
 50
90.0
210
-1.0
220
0.0
230
0.0000000000000001
1001
AVE_RENDER
1002
{
1070
     0
1000
RFile Opt
1070
     5
1070
   640
1070
   480
1070
 10000
1070
     3
1070
    32
1070
    24
1070
     0
1070
     0
1070
     0
1070
     1
1070
     0
1070
     0
1070
     0
1002
}
  0
INSERT
  5
2B5
330
2
100
AcDbEntity
  8
ASHADE
 62
     8
100
AcDbBlockReference
  2
AVE_RENDER
 10
489.910615858426
 20
-1480.989586647651
 30
-380.3952955258116
 41
1.305150000000001
 42
1.305150000000001
 43
1.305149999999997
 50
90.0
210
-1.0
220
0.0
230
0.0000000000000001
1001
AVE_RENDER
1002
{
1070
     0
1000
Fog Opt
1070
     0
1070
     0
1040
0.0
1040
1.0
1040
0.0
1040
1.0
1010
0.5
1020
0.5
1030
0.5
1002
}
  0
INSERT
  5
2B6
330
2
100
AcDbEntity
  8
ASHADE
 62
     9
100
AcDbBlockReference
  2
AVE_RENDER
 10
489.910615858426
 20
-1480.989586647651
 30
-380.3952955258116
 41
1.305150000000001
 42
1.305150000000001
 43
1.305149999999997
 50
90.0
210
-1.0
220
0.0
230
0.0000000000000001
1001
AVE_RENDER
1002
{
1070
     0
1000
BG Opt
1070
     0
1070
     1
1010
0.0
1020
0.0
1030
0.0
1010
1.0
1020
0.0
1030
0.0
1010
0.0
1020
1.0
1030
0.0
1010
0.0
1020
0.0
1030
1.0
1040
0.5
1040
0.33
1040
0.0
1000

1070
     1
1000

1070
     1
1070
     1
1040
1.0
1040
1.0
1040
0.0
1040
0.0
1070
     0
1002
}
  0
INSERT
  5
2B7
330
2
100
AcDbEntity
  8
ASHADE
 62
     1
100
AcDbBlockReference
  2
AVE_GLOBAL
 10
489.910615858426
 20
-1480.989586647651
 30
-380.3952955258116
 41
1.305150000000001
 42
1.305150000000001
 43
1.305149999999997
 50
90.0
210
-1.0
220
0.0
230
0.0000000000000001
1001
AVE_MATERIAL
1002
{
1000
*GLOBAL*
1000
1
1000
Global finish.
1002
{
1002
}
1002
{
1070
    63
1002
{
1002
{
1010
-1.0
1020
-1.0
1030
-1.0
1002
}
1040
0.1000000014901161
1000

1040
0.0
1002
{
1002
}
1040
0.0
1002
{
1002
}
1040
0.0
1002
}
1002
{
1002
{
1010
-1.0
1020
-1.0
1030
-1.0
1002
}
1040
0.6999999880790711
1000

1040
0.0
1002
{
1002
}
1040
0.0
1002
{
1002
}
1040
0.0
1002
}
1002
{
1002
{
1010
-1.0
1020
-1.0
1030
-1.0
1002
}
1040
0.2000000029802322
1000

1040
0.0
1002
{
1002
}
1040
0.0
1002
{
1002
}
1040
0.0
1002
}
1002
{
1070
     0
1002
{
1070
     1
1002
{
1040
1.0
1040
1.0
1000

1040
0.0
1002
{
1002
}
1040
0.0
1002
{
1002
}
1040
0.0
1002
}
1002
}
1040
1.0
1040
0.0
1040
0.0
1002
}
1002
{
1040
1.0
1040
1.0
1000

1040
0.0
1002
{
1002
}
1040
0.0
1002
{
1002
}
1040
0.0
1002
}
1002
{
1040
0.5
1040
1.0
1000

1040
0.0
1002
{
1002
}
1040
0.0
1002
{
1002
}
1040
0.0
1002
}
1002
{
1070
     0
1040
0.0
1002
{
1002
}
1040
1.0
1002
{
1002
}
1040
0.0
1002
}
1002
{
1040
0.0
1002
{
1002
{
1010
0.0
1020
0.0
1030
0.0
1002
}
1040
1.0
1000

1040
0.0
1002
{
1002
}
1040
0.0
1002
{
1002
}
1040
0.0
1002
}
1002
}
1002
{
1002
{
1070
     1
1002
{
1040
0.0
1040
1.0
1000

1040
0.0
1002
{
1002
}
1040
0.0
1002
{
1002
}
1040
0.0
1002
}
1002
}
1040
0.0
1002
{
1002
}
1010
1.0
1020
0.0
1030
0.0
1010
0.0
1020
1.0
1030
0.0
1010
0.0
1020
0.0
1030
1.0
1070
     0
1002
}
1002
{
1002
{
1040
1.0
1040
1.0
1002
{
1070
     1
1002
{
1040
1.0
1040
1.0
1000

1040
0.0
1002
{
1002
}
1040
0.0
1002
{
1002
}
1040
0.0
1002
}
1002
}
1002
}
1070
     0
1040
0.0
1002
{
1002
}
1002
}
1002
{
1002
}
1002
}
1002
{
1071
        3
1070
     3
1070
     0
1002
{
1070
     2
1070
     0
1070
     0
1040
0.0
1002
}
1070
     0
1070
     2
1002
{
1002
}
1002
}
1002
{
1040
8030.0
1040
190.3000030517578
1040
0.3050000071525574
1040
228.0
1040
545.0
1040
14.0
1040
17.39999961853027
1040
0.4560000002384186
1002
}
1002
}
  0
INSERT
  5
2B8
330
2
100
AcDbEntity
  8
ASHADE
 62
     1
100
AcDbBlockReference
  2
AVE_RENDER
 10
-444.4070671228877
 20
-30.87979313074396
 30
-382.112054316938
 41
1.305150000000001
 42
1.305150000000001
 43
1.305149999999997
 50
90.0
210
-1.0
220
0.0
230
0.0000000000000001
1001
AVE_RENDER
1002
{
1070
     6
1000
Pref
1070
    30
1070
    20
1070
     1
1070
     0
1000

1070
    10
1070
     1
1070
    30
1040
1.0
1070
     1
1040
0.3
1040
0.7
1040
0.0
1040
10.0
1010
-1.0
1020
-1.0
1030
-1.0
1040
0.3
1070
    49
1070
     0
1070
     0
1010
1.0
1020
1.0
1030
1.0
1040
45.0
1070
     1
1070
     0
1000
WCS
1040
0.0
1002
}
  0
INSERT
  5
2B9
330
2
100
AcDbEntity
  8
ASHADE
 62
     3
100
AcDbBlockReference
  2
AVE_RENDER
 10
-444.4070671228877
 20
-30.87979313074396
 30
-382.112054316938
 41
1.305150000000001
 42
1.305150000000001
 43
1.305149999999997
 50
90.0
210
-1.0
220
0.0
230
0.0000000000000001
1001
AVE_RENDER
1002
{
1070
     0
1000
Full Opt
1070
     0
1070
     1
1070
     1
1070
     1
1070
     0
1070
     0
1070
     0
1070
     1
1070
     1
1040
0.0001
1040
0.0001
1002
}
  0
INSERT
  5
2BA
330
2
100
AcDbEntity
  8
ASHADE
 62
     4
100
AcDbBlockReference
  2
AVE_RENDER
 10
-444.4070671228877
 20
-30.87979313074396
 30
-382.112054316938
 41
1.305150000000001
 42
1.305150000000001
 43
1.305149999999997
 50
90.0
210
-1.0
220
0.0
230
0.0000000000000001
1001
AVE_RENDER
1002
{
1070
     0
1000
Quick Opt
1070
     0
1070
     1
1070
     1
1070
     1
1070
     0
1070
     0
1070
     1
1002
}
  0
INSERT
  5
2BB
330
2
100
AcDbEntity
  8
ASHADE
 62
     5
100
AcDbBlockReference
  2
AVE_RENDER
 10
-444.4070671228877
 20
-30.87979313074396
 30
-382.112054316938
 41
1.305150000000001
 42
1.305150000000001
 43
1.305149999999997
 50
90.0
210
-1.0
220
0.0
230
0.0000000000000001
1001
AVE_RENDER
1002
{
1070
     1
1000
Scanl Opt
1070
     2
1070
     0
1070
     2
1040
2.0
1040
4.0
1070
     0
1070
     1
1070
     0
1040
0.03
1002
}
  0
INSERT
  5
2BC
330
2
100
AcDbEntity
  8
ASHADE
 62
     6
100
AcDbBlockReference
  2
AVE_RENDER
 10
-444.4070671228877
 20
-30.87979313074396
 30
-382.112054316938
 41
1.305150000000001
 42
1.305150000000001
 43
1.305149999999997
 50
90.0
210
-1.0
220
0.0
230
0.0000000000000001
1001
AVE_RENDER
1002
{
1070
     2
1000
Raytr Opt
1070
     2
1070
     0
1070
     2
1040
2.0
1040
4.0
1070
     0
1070
     1
1070
     1
1040
0.03
1070
     3
1040
0.03
1002
}
  0
INSERT
  5
2BD
330
2
100
AcDbEntity
  8
ASHADE
 62
     7
100
AcDbBlockReference
  2
AVE_RENDER
 10
-444.4070671228877
 20
-30.87979313074396
 30
-382.112054316938
 41
1.305150000000001
 42
1.305150000000001
 43
1.305149999999997
 50
90.0
210
-1.0
220
0.0
230
0.0000000000000001
1001
AVE_RENDER
1002
{
1070
     0
1000
RFile Opt
1070
     5
1070
   640
1070
   480
1070
 10000
1070
     3
1070
    32
1070
    24
1070
     0
1070
     0
1070
     0
1070
     1
1070
     0
1070
     0
1070
     0
1002
}
  0
INSERT
  5
2BE
330
2
100
AcDbEntity
  8
ASHADE
 62
     8
100
AcDbBlockReference
  2
AVE_RENDER
 10
-444.4070671228877
 20
-30.87979313074396
 30
-382.112054316938
 41
1.305150000000001
 42
1.305150000000001
 43
1.305149999999997
 50
90.0
210
-1.0
220
0.0
230
0.0000000000000001
1001
AVE_RENDER
1002
{
1070
     0
1000
Fog Opt
1070
     0
1070
     0
1040
0.0
1040
1.0
1040
0.0
1040
1.0
1010
0.5
1020
0.5
1030
0.5
1002
}
  0
INSERT
  5
2BF
330
2
100
AcDbEntity
  8
ASHADE
 62
     9
100
AcDbBlockReference
  2
AVE_RENDER
 10
-444.4070671228877
 20
-30.87979313074396
 30
-382.112054316938
 41
1.305150000000001
 42
1.305150000000001
 43
1.305149999999997
 50
90.0
210
-1.0
220
0.0
230
0.0000000000000001
1001
AVE_RENDER
1002
{
1070
     0
1000
BG Opt
1070
     0
1070
     1
1010
0.0
1020
0.0
1030
0.0
1010
1.0
1020
0.0
1030
0.0
1010
0.0
1020
1.0
1030
0.0
1010
0.0
1020
0.0
1030
1.0
1040
0.5
1040
0.33
1040
0.0
1000

1070
     1
1000

1070
     1
1070
     1
1040
1.0
1040
1.0
1040
0.0
1040
0.0
1070
     0
1002
}
  0
INSERT
  5
2C0
330
2
100
AcDbEntity
  8
ASHADE
 62
     1
100
AcDbBlockReference
  2
AVE_GLOBAL
 10
-444.4070671228877
 20
-30.87979313074396
 30
-382.112054316938
 41
1.305150000000001
 42
1.305150000000001
 43
1.305149999999997
 50
90.0
210
-1.0
220
0.0
230
0.0000000000000001
1001
AVE_MATERIAL
1002
{
1000
*GLOBAL*
1000
1
1000
Global finish.
1002
{
1002
}
1002
{
1070
    63
1002
{
1002
{
1010
-1.0
1020
-1.0
1030
-1.0
1002
}
1040
0.1000000014901161
1000

1040
0.0
1002
{
1002
}
1040
0.0
1002
{
1002
}
1040
0.0
1002
}
1002
{
1002
{
1010
-1.0
1020
-1.0
1030
-1.0
1002
}
1040
0.6999999880790711
1000

1040
0.0
1002
{
1002
}
1040
0.0
1002
{
1002
}
1040
0.0
1002
}
1002
{
1002
{
1010
-1.0
1020
-1.0
1030
-1.0
1002
}
1040
0.2000000029802322
1000

1040
0.0
1002
{
1002
}
1040
0.0
1002
{
1002
}
1040
0.0
1002
}
1002
{
1070
     0
1002
{
1070
     1
1002
{
1040
1.0
1040
1.0
1000

1040
0.0
1002
{
1002
}
1040
0.0
1002
{
1002
}
1040
0.0
1002
}
1002
}
1040
1.0
1040
0.0
1040
0.0
1002
}
1002
{
1040
1.0
1040
1.0
1000

1040
0.0
1002
{
1002
}
1040
0.0
1002
{
1002
}
1040
0.0
1002
}
1002
{
1040
0.5
1040
1.0
1000

1040
0.0
1002
{
1002
}
1040
0.0
1002
{
1002
}
1040
0.0
1002
}
1002
{
1070
     0
1040
0.0
1002
{
1002
}
1040
1.0
1002
{
1002
}
1040
0.0
1002
}
1002
{
1040
0.0
1002
{
1002
{
1010
0.0
1020
0.0
1030
0.0
1002
}
1040
1.0
1000

1040
0.0
1002
{
1002
}
1040
0.0
1002
{
1002
}
1040
0.0
1002
}
1002
}
1002
{
1002
{
1070
     1
1002
{
1040
0.0
1040
1.0
1000

1040
0.0
1002
{
1002
}
1040
0.0
1002
{
1002
}
1040
0.0
1002
}
1002
}
1040
0.0
1002
{
1002
}
1010
1.0
1020
0.0
1030
0.0
1010
0.0
1020
1.0
1030
0.0
1010
0.0
1020
0.0
1030
1.0
1070
     0
1002
}
1002
{
1002
{
1040
1.0
1040
1.0
1002
{
1070
     1
1002
{
1040
1.0
1040
1.0
1000

1040
0.0
1002
{
1002
}
1040
0.0
1002
{
1002
}
1040
0.0
1002
}
1002
}
1002
}
1070
     0
1040
0.0
1002
{
1002
}
1002
}
1002
{
1002
}
1002
}
1002
{
1071
        3
1070
     3
1070
     0
1002
{
1070
     2
1070
     0
1070
     0
1040
0.0
1002
}
1070
     0
1070
     2
1002
{
1002
}
1002
}
1002
{
1040
8030.0
1040
190.3000030517578
1040
0.3050000071525574
1040
228.0
1040
545.0
1040
14.0
1040
17.39999961853027
1040
0.4560000002384186
1002
}
1002
}
  0
INSERT
  5
2C1
330
2
100
AcDbEntity
  8
ASHADE
 62
     1
100
AcDbBlockReference
  2
AVE_RENDER
 10
-398.6391149967798
 20
-339.3370529841462
 30
0.0
1001
AVE_RENDER
1002
{
1070
     6
1000
Pref
1070
    30
1070
    20
1070
     1
1070
     0
1000

1070
    10
1070
     1
1070
    30
1040
1.0
1070
     1
1040
0.3
1040
0.7
1040
0.0
1040
10.0
1010
-1.0
1020
-1.0
1030
-1.0
1040
0.3
1070
    49
1070
     0
1070
     0
1010
1.0
1020
1.0
1030
1.0
1040
45.0
1070
     1
1070
     0
1000
WCS
1040
0.0
1002
}
  0
INSERT
  5
2C2
330
2
100
AcDbEntity
  8
ASHADE
 62
     3
100
AcDbBlockReference
  2
AVE_RENDER
 10
-398.6391149967798
 20
-339.3370529841462
 30
0.0
1001
AVE_RENDER
1002
{
1070
     0
1000
Full Opt
1070
     0
1070
     1
1070
     1
1070
     1
1070
     0
1070
     0
1070
     0
1070
     1
1070
     1
1040
0.0001
1040
0.0001
1002
}
  0
INSERT
  5
2C3
330
2
100
AcDbEntity
  8
ASHADE
 62
     4
100
AcDbBlockReference
  2
AVE_RENDER
 10
-398.6391149967798
 20
-339.3370529841462
 30
0.0
1001
AVE_RENDER
1002
{
1070
     0
1000
Quick Opt
1070
     0
1070
     1
1070
     1
1070
     1
1070
     0
1070
     0
1070
     1
1002
}
  0
INSERT
  5
2C4
330
2
100
AcDbEntity
  8
ASHADE
 62
     5
100
AcDbBlockReference
  2
AVE_RENDER
 10
-398.6391149967798
 20
-339.3370529841462
 30
0.0
1001
AVE_RENDER
1002
{
1070
     1
1000
Scanl Opt
1070
     2
1070
     0
1070
     2
1040
2.0
1040
4.0
1070
     0
1070
     1
1070
     0
1040
0.03
1002
}
  0
INSERT
  5
2C5
330
2
100
AcDbEntity
  8
ASHADE
 62
     6
100
AcDbBlockReference
  2
AVE_RENDER
 10
-398.6391149967798
 20
-339.3370529841462
 30
0.0
1001
AVE_RENDER
1002
{
1070
     2
1000
Raytr Opt
1070
     2
1070
     0
1070
     2
1040
2.0
1040
4.0
1070
     0
1070
     1
1070
     1
1040
0.03
1070
     3
1040
0.03
1002
}
  0
INSERT
  5
2C6
330
2
100
AcDbEntity
  8
ASHADE
 62
     7
100
AcDbBlockReference
  2
AVE_RENDER
 10
-398.6391149967798
 20
-339.3370529841462
 30
0.0
1001
AVE_RENDER
1002
{
1070
     0
1000
RFile Opt
1070
     5
1070
   640
1070
   480
1070
 10000
1070
     3
1070
    32
1070
    24
1070
     0
1070
     0
1070
     0
1070
     1
1070
     0
1070
     0
1070
     0
1002
}
  0
INSERT
  5
2C7
330
2
100
AcDbEntity
  8
ASHADE
 62
     8
100
AcDbBlockReference
  2
AVE_RENDER
 10
-398.6391149967798
 20
-339.3370529841462
 30
0.0
1001
AVE_RENDER
1002
{
1070
     0
1000
Fog Opt
1070
     0
1070
     0
1040
0.0
1040
1.0
1040
0.0
1040
1.0
1010
0.5
1020
0.5
1030
0.5
1002
}
  0
INSERT
  5
2C8
330
2
100
AcDbEntity
  8
ASHADE
 62
     9
100
AcDbBlockReference
  2
AVE_RENDER
 10
-398.6391149967798
 20
-339.3370529841462
 30
0.0
1001
AVE_RENDER
1002
{
1070
     0
1000
BG Opt
1070
     0
1070
     1
1010
0.0
1020
0.0
1030
0.0
1010
1.0
1020
0.0
1030
0.0
1010
0.0
1020
1.0
1030
0.0
1010
0.0
1020
0.0
1030
1.0
1040
0.5
1040
0.33
1040
0.0
1000

1070
     1
1000

1070
     1
1070
     1
1040
1.0
1040
1.0
1040
0.0
1040
0.0
1070
     0
1002
}
  0
INSERT
  5
2C9
330
2
100
AcDbEntity
  8
ASHADE
 62
     1
100
AcDbBlockReference
  2
AVE_GLOBAL
 10
-398.6391149967798
 20
-339.3370529841462
 30
0.0
1001
AVE_MATERIAL
1002
{
1000
*GLOBAL*
1000
1
1000
Global finish.
1002
{
1002
}
1002
{
1070
    63
1002
{
1002
{
1010
-1.0
1020
-1.0
1030
-1.0
1002
}
1040
0.1000000014901161
1000

1040
0.0
1002
{
1002
}
1040
0.0
1002
{
1002
}
1040
0.0
1002
}
1002
{
1002
{
1010
-1.0
1020
-1.0
1030
-1.0
1002
}
1040
0.6999999880790711
1000

1040
0.0
1002
{
1002
}
1040
0.0
1002
{
1002
}
1040
0.0
1002
}
1002
{
1002
{
1010
-1.0
1020
-1.0
1030
-1.0
1002
}
1040
0.2000000029802322
1000

1040
0.0
1002
{
1002
}
1040
0.0
1002
{
1002
}
1040
0.0
1002
}
1002
{
1070
     0
1002
{
1070
     1
1002
{
1040
1.0
1040
1.0
1000

1040
0.0
1002
{
1002
}
1040
0.0
1002
{
1002
}
1040
0.0
1002
}
1002
}
1040
1.0
1040
0.0
1040
0.0
1002
}
1002
{
1040
1.0
1040
1.0
1000

1040
0.0
1002
{
1002
}
1040
0.0
1002
{
1002
}
1040
0.0
1002
}
1002
{
1040
0.5
1040
1.0
1000

1040
0.0
1002
{
1002
}
1040
0.0
1002
{
1002
}
1040
0.0
1002
}
1002
{
1070
     0
1040
0.0
1002
{
1002
}
1040
1.0
1002
{
1002
}
1040
0.0
1002
}
1002
{
1040
0.0
1002
{
1002
{
1010
0.0
1020
0.0
1030
0.0
1002
}
1040
1.0
1000

1040
0.0
1002
{
1002
}
1040
0.0
1002
{
1002
}
1040
0.0
1002
}
1002
}
1002
{
1002
{
1070
     1
1002
{
1040
0.0
1040
1.0
1000

1040
0.0
1002
{
1002
}
1040
0.0
1002
{
1002
}
1040
0.0
1002
}
1002
}
1040
0.0
1002
{
1002
}
1010
1.0
1020
0.0
1030
0.0
1010
0.0
1020
1.0
1030
0.0
1010
0.0
1020
0.0
1030
1.0
1070
     0
1002
}
1002
{
1002
{
1040
1.0
1040
1.0
1002
{
1070
     1
1002
{
1040
1.0
1040
1.0
1000

1040
0.0
1002
{
1002
}
1040
0.0
1002
{
1002
}
1040
0.0
1002
}
1002
}
1002
}
1070
     0
1040
0.0
1002
{
1002
}
1002
}
1002
{
1002
}
1002
}
1002
{
1071
        3
1070
     3
1070
     0
1002
{
1070
     2
1070
     0
1070
     0
1040
0.0
1002
}
1070
     0
1070
     2
1002
{
1002
}
1002
}
1002
{
1040
8030.0
1040
190.3000030517578
1040
0.3050000071525574
1040
228.0
1040
545.0
1040
14.0
1040
17.39999961853027
1040
0.4560000002384186
1002
}
1002
}
  0
INSERT
  5
2CA
330
2
100
AcDbEntity
  8
ASHADE
 62
     1
100
AcDbBlockReference
  2
AVE_RENDER
 10
-298.9179405669649
 20
-340.4318302589192
 30
0.0
1001
AVE_RENDER
1002
{
1070
     6
1000
Pref
1070
    30
1070
    20
1070
     1
1070
     0
1000

1070
    10
1070
     1
1070
    30
1040
1.0
1070
     1
1040
0.3
1040
0.7
1040
0.0
1040
10.0
1010
-1.0
1020
-1.0
1030
-1.0
1040
0.3
1070
    49
1070
     0
1070
     0
1010
1.0
1020
1.0
1030
1.0
1040
45.0
1070
     1
1070
     0
1000
WCS
1040
0.0
1002
}
  0
INSERT
  5
2CB
330
2
100
AcDbEntity
  8
ASHADE
 62
     3
100
AcDbBlockReference
  2
AVE_RENDER
 10
-298.9179405669649
 20
-340.4318302589192
 30
0.0
1001
AVE_RENDER
1002
{
1070
     0
1000
Full Opt
1070
     0
1070
     1
1070
     1
1070
     1
1070
     0
1070
     0
1070
     0
1070
     1
1070
     1
1040
0.0001
1040
0.0001
1002
}
  0
INSERT
  5
2CC
330
2
100
AcDbEntity
  8
ASHADE
 62
     4
100
AcDbBlockReference
  2
AVE_RENDER
 10
-298.9179405669649
 20
-340.4318302589192
 30
0.0
1001
AVE_RENDER
1002
{
1070
     0
1000
Quick Opt
1070
     0
1070
     1
1070
     1
1070
     1
1070
     0
1070
     0
1070
     1
1002
}
  0
INSERT
  5
2CD
330
2
100
AcDbEntity
  8
ASHADE
 62
     5
100
AcDbBlockReference
  2
AVE_RENDER
 10
-298.9179405669649
 20
-340.4318302589192
 30
0.0
1001
AVE_RENDER
1002
{
1070
     1
1000
Scanl Opt
1070
     2
1070
     0
1070
     2
1040
2.0
1040
4.0
1070
     0
1070
     1
1070
     0
1040
0.03
1002
}
  0
INSERT
  5
2CE
330
2
100
AcDbEntity
  8
ASHADE
 62
     6
100
AcDbBlockReference
  2
AVE_RENDER
 10
-298.9179405669649
 20
-340.4318302589192
 30
0.0
1001
AVE_RENDER
1002
{
1070
     2
1000
Raytr Opt
1070
     2
1070
     0
1070
     2
1040
2.0
1040
4.0
1070
     0
1070
     1
1070
     1
1040
0.03
1070
     3
1040
0.03
1002
}
  0
INSERT
  5
2CF
330
2
100
AcDbEntity
  8
ASHADE
 62
     7
100
AcDbBlockReference
  2
AVE_RENDER
 10
-298.9179405669649
 20
-340.4318302589192
 30
0.0
1001
AVE_RENDER
1002
{
1070
     0
1000
RFile Opt
1070
     5
1070
   640
1070
   480
1070
 10000
1070
     3
1070
    32
1070
    24
1070
     0
1070
     0
1070
     0
1070
     1
1070
     0
1070
     0
1070
     0
1002
}
  0
INSERT
  5
2D0
330
2
100
AcDbEntity
  8
ASHADE
 62
     8
100
AcDbBlockReference
  2
AVE_RENDER
 10
-298.9179405669649
 20
-340.4318302589192
 30
0.0
1001
AVE_RENDER
1002
{
1070
     0
1000
Fog Opt
1070
     0
1070
     0
1040
0.0
1040
1.0
1040
0.0
1040
1.0
1010
0.5
1020
0.5
1030
0.5
1002
}
  0
INSERT
  5
2D1
330
2
100
AcDbEntity
  8
ASHADE
 62
     9
100
AcDbBlockReference
  2
AVE_RENDER
 10
-298.9179405669649
 20
-340.4318302589192
 30
0.0
1001
AVE_RENDER
1002
{
1070
     0
1000
BG Opt
1070
     0
1070
     1
1010
0.0
1020
0.0
1030
0.0
1010
1.0
1020
0.0
1030
0.0
1010
0.0
1020
1.0
1030
0.0
1010
0.0
1020
0.0
1030
1.0
1040
0.5
1040
0.33
1040
0.0
1000

1070
     1
1000

1070
     1
1070
     1
1040
1.0
1040
1.0
1040
0.0
1040
0.0
1070
     0
1002
}
  0
INSERT
  5
2D2
330
2
100
AcDbEntity
  8
ASHADE
 62
     1
100
AcDbBlockReference
  2
AVE_GLOBAL
 10
-298.9179405669649
 20
-340.4318302589192
 30
0.0
1001
AVE_MATERIAL
1002
{
1000
*GLOBAL*
1000
1
1000
Global finish.
1002
{
1002
}
1002
{
1070
    63
1002
{
1002
{
1010
-1.0
1020
-1.0
1030
-1.0
1002
}
1040
0.1000000014901161
1000

1040
0.0
1002
{
1002
}
1040
0.0
1002
{
1002
}
1040
0.0
1002
}
1002
{
1002
{
1010
-1.0
1020
-1.0
1030
-1.0
1002
}
1040
0.6999999880790711
1000

1040
0.0
1002
{
1002
}
1040
0.0
1002
{
1002
}
1040
0.0
1002
}
1002
{
1002
{
1010
-1.0
1020
-1.0
1030
-1.0
1002
}
1040
0.2000000029802322
1000

1040
0.0
1002
{
1002
}
1040
0.0
1002
{
1002
}
1040
0.0
1002
}
1002
{
1070
     0
1002
{
1070
     1
1002
{
1040
1.0
1040
1.0
1000

1040
0.0
1002
{
1002
}
1040
0.0
1002
{
1002
}
1040
0.0
1002
}
1002
}
1040
1.0
1040
0.0
1040
0.0
1002
}
1002
{
1040
1.0
1040
1.0
1000

1040
0.0
1002
{
1002
}
1040
0.0
1002
{
1002
}
1040
0.0
1002
}
1002
{
1040
0.5
1040
1.0
1000

1040
0.0
1002
{
1002
}
1040
0.0
1002
{
1002
}
1040
0.0
1002
}
1002
{
1070
     0
1040
0.0
1002
{
1002
}
1040
1.0
1002
{
1002
}
1040
0.0
1002
}
1002
{
1040
0.0
1002
{
1002
{
1010
0.0
1020
0.0
1030
0.0
1002
}
1040
1.0
1000

1040
0.0
1002
{
1002
}
1040
0.0
1002
{
1002
}
1040
0.0
1002
}
1002
}
1002
{
1002
{
1070
     1
1002
{
1040
0.0
1040
1.0
1000

1040
0.0
1002
{
1002
}
1040
0.0
1002
{
1002
}
1040
0.0
1002
}
1002
}
1040
0.0
1002
{
1002
}
1010
1.0
1020
0.0
1030
0.0
1010
0.0
1020
1.0
1030
0.0
1010
0.0
1020
0.0
1030
1.0
1070
     0
1002
}
1002
{
1002
{
1040
1.0
1040
1.0
1002
{
1070
     1
1002
{
1040
1.0
1040
1.0
1000

1040
0.0
1002
{
1002
}
1040
0.0
1002
{
1002
}
1040
0.0
1002
}
1002
}
1002
}
1070
     0
1040
0.0
1002
{
1002
}
1002
}
1002
{
1002
}
1002
}
1002
{
1071
        3
1070
     3
1070
     0
1002
{
1070
     2
1070
     0
1070
     0
1040
0.0
1002
}
1070
     0
1070
     2
1002
{
1002
}
1002
}
1002
{
1040
8030.0
1040
190.3000030517578
1040
0.3050000071525574
1040
228.0
1040
545.0
1040
14.0
1040
17.39999961853027
1040
0.4560000002384186
1002
}
1002
}
  0
INSERT
  5
2D3
330
2
100
AcDbEntity
  8
ASHADE
 62
     1
100
AcDbBlockReference
  2
AVE_RENDER
 10
-491.6305196758109
 20
-402.2352799674012
 30
0.0
1001
AVE_RENDER
1002
{
1070
     7
1000
Pref
1070
    60
1070
    20
1070
     1
1070
     0
1000

1070
    10
1070
     1
1070
    30
1040
1.0
1070
     1
1040
0.3
1040
0.7
1040
0.0
1040
10.0
1010
-1.0
1020
-1.0
1030
-1.0
1040
1.0
1070
    49
1070
     0
1070
     0
1010
1.0
1020
1.0
1030
1.0
1040
45.0
1070
     1
1070
     0
1000
WCS
1040
0.0
1070
     0
1040
10.0
1002
}
  0
INSERT
  5
2D4
330
2
100
AcDbEntity
  8
ASHADE
 62
     3
100
AcDbBlockReference
  2
AVE_RENDER
 10
-491.6305196758109
 20
-402.2352799674012
 30
0.0
1001
AVE_RENDER
1002
{
1070
     0
1000
Full Opt
1070
     0
1070
     1
1070
     1
1070
     1
1070
     0
1070
     0
1070
     0
1070
     1
1070
     1
1040
0.0001
1040
0.0001
1002
}
  0
INSERT
  5
2D5
330
2
100
AcDbEntity
  8
ASHADE
 62
     4
100
AcDbBlockReference
  2
AVE_RENDER
 10
-491.6305196758109
 20
-402.2352799674012
 30
0.0
1001
AVE_RENDER
1002
{
1070
     0
1000
Quick Opt
1070
     0
1070
     1
1070
     1
1070
     1
1070
     0
1070
     0
1070
     1
1002
}
  0
INSERT
  5
2D6
330
2
100
AcDbEntity
  8
ASHADE
 62
     5
100
AcDbBlockReference
  2
AVE_RENDER
 10
-491.6305196758109
 20
-402.2352799674012
 30
0.0
1001
AVE_RENDER
1002
{
1070
     1
1000
Scanl Opt
1070
     2
1070
     0
1070
     2
1040
2.0
1040
4.0
1070
     0
1070
     1
1070
     0
1040
0.03
1002
}
  0
INSERT
  5
2D7
330
2
100
AcDbEntity
  8
ASHADE
 62
     6
100
AcDbBlockReference
  2
AVE_RENDER
 10
-491.6305196758109
 20
-402.2352799674012
 30
0.0
1001
AVE_RENDER
1002
{
1070
     2
1000
Raytr Opt
1070
     2
1070
     0
1070
     2
1040
2.0
1040
4.0
1070
     0
1070
     1
1070
     1
1040
0.03
1070
     3
1040
0.03
1002
}
  0
INSERT
  5
2D8
330
2
100
AcDbEntity
  8
ASHADE
 62
     7
100
AcDbBlockReference
  2
AVE_RENDER
 10
-491.6305196758109
 20
-402.2352799674012
 30
0.0
1001
AVE_RENDER
1002
{
1070
     0
1000
RFile Opt
1070
     4
1070
  1024
1070
   768
1070
 10000
1070
     3
1070
     8
1070
     8
1070
     0
1070
     0
1070
     0
1070
     1
1070
     0
1070
     0
1070
     0
1002
}
  0
INSERT
  5
2D9
330
2
100
AcDbEntity
  8
ASHADE
 62
     8
100
AcDbBlockReference
  2
AVE_RENDER
 10
-491.6305196758109
 20
-402.2352799674012
 30
0.0
1001
AVE_RENDER
1002
{
1070
     0
1000
Fog Opt
1070
     0
1070
     0
1040
0.0
1040
1.0
1040
0.0
1040
1.0
1010
0.5
1020
0.5
1030
0.5
1002
}
  0
INSERT
  5
2DA
330
2
100
AcDbEntity
  8
ASHADE
 62
     9
100
AcDbBlockReference
  2
AVE_RENDER
 10
-491.6305196758109
 20
-402.2352799674012
 30
0.0
1001
AVE_RENDER
1002
{
1070
     0
1000
BG Opt
1070
     0
1070
     1
1010
0.0
1020
0.0
1030
0.0
1010
1.0
1020
0.0
1030
0.0
1010
0.0
1020
1.0
1030
0.0
1010
0.0
1020
0.0
1030
1.0
1040
0.5
1040
0.33
1040
0.0
1000

1070
     1
1000

1070
     1
1070
     1
1040
1.0
1040
1.0
1040
0.0
1040
0.0
1070
     0
1002
}
  0
INSERT
  5
2DB
330
2
100
AcDbEntity
  8
ASHADE
 62
     1
100
AcDbBlockReference
  2
AVE_GLOBAL
 10
-491.6305196758109
 20
-402.2352799674012
 30
0.0
1001
AVE_MATERIAL
1002
{
1000
*GLOBAL*
1000
1
1000
Global finish.
1002
{
1002
}
1002
{
1070
    63
1002
{
1002
{
1010
-1.0
1020
-1.0
1030
-1.0
1002
}
1040
0.1000000014901161
1000

1040
0.0
1002
{
1002
}
1040
0.0
1002
{
1002
}
1040
0.0
1002
}
1002
{
1002
{
1010
-1.0
1020
-1.0
1030
-1.0
1002
}
1040
0.6999999880790711
1000

1040
0.0
1002
{
1002
}
1040
0.0
1002
{
1002
}
1040
0.0
1002
}
1002
{
1002
{
1010
-1.0
1020
-1.0
1030
-1.0
1002
}
1040
0.2000000029802322
1000

1040
0.0
1002
{
1002
}
1040
0.0
1002
{
1002
}
1040
0.0
1002
}
1002
{
1070
     0
1002
{
1070
     1
1002
{
1040
1.0
1040
1.0
1000

1040
0.0
1002
{
1002
}
1040
0.0
1002
{
1002
}
1040
0.0
1002
}
1002
}
1040
1.0
1040
0.0
1040
0.0
1002
}
1002
{
1040
1.0
1040
1.0
1000

1040
0.0
1002
{
1002
}
1040
0.0
1002
{
1002
}
1040
0.0
1002
}
1002
{
1040
0.5
1040
1.0
1000

1040
0.0
1002
{
1002
}
1040
0.0
1002
{
1002
}
1040
0.0
1002
}
1002
{
1070
     0
1040
0.0
1002
{
1002
}
1040
1.0
1002
{
1002
}
1040
0.0
1002
}
1002
{
1040
0.0
1002
{
1002
{
1010
0.0
1020
0.0
1030
0.0
1002
}
1040
1.0
1000

1040
0.0
1002
{
1002
}
1040
0.0
1002
{
1002
}
1040
0.0
1002
}
1002
}
1002
{
1002
{
1070
     1
1002
{
1040
0.0
1040
1.0
1000

1040
0.0
1002
{
1002
}
1040
0.0
1002
{
1002
}
1040
0.0
1002
}
1002
}
1040
0.0
1002
{
1002
}
1010
1.0
1020
0.0
1030
0.0
1010
0.0
1020
1.0
1030
0.0
1010
0.0
1020
0.0
1030
1.0
1070
     0
1002
}
1002
{
1002
{
1040
1.0
1040
1.0
1002
{
1070
     1
1002
{
1040
1.0
1040
1.0
1000

1040
0.0
1002
{
1002
}
1040
0.0
1002
{
1002
}
1040
0.0
1002
}
1002
}
1002
}
1070
     0
1040
0.0
1002
{
1002
}
1002
}
1002
{
1002
}
1002
}
1002
{
1071
        3
1070
     3
1070
     0
1002
{
1070
     2
1070
     0
1070
     0
1040
0.0
1002
}
1070
     0
1070
     2
1002
{
1002
}
1002
}
1002
{
1040
8030.0
1040
190.3000030517578
1040
0.3050000071525574
1040
228.0
1040
545.0
1040
14.0
1040
17.39999961853027
1040
0.4560000002384186
1002
}
1002
}
  0
INSERT
  5
2DC
330
2
100
AcDbEntity
  8
ASHADE
 62
     1
100
AcDbBlockReference
  2
AVE_RENDER
 10
-15.75704558749316
 20
232.188685969268
 30
0.0
 41
0.3480083857442366
 42
0.3480083857441514
 43
0.3480083857442348
1001
AVE_RENDER
1002
{
1070
     7
1000
Pref
1070
    30
1070
    20
1070
     1
1070
     0
1000

1070
    10
1070
     1
1070
    30
1040
1.0
1070
     1
1040
0.3
1040
0.7
1040
0.0
1040
10.0
1010
-1.0
1020
-1.0
1030
-1.0
1040
0.3
1070
    49
1070
     0
1070
     0
1010
1.0
1020
1.0
1030
1.0
1040
45.0
1070
     1
1070
     0
1000
WCS
1040
0.0
1070
     0
1040
10.0
1002
}
  0
INSERT
  5
2DD
330
2
100
AcDbEntity
  8
ASHADE
 62
     3
100
AcDbBlockReference
  2
AVE_RENDER
 10
-15.75704558749316
 20
232.188685969268
 30
0.0
 41
0.3480083857442366
 42
0.3480083857441514
 43
0.3480083857442348
1001
AVE_RENDER
1002
{
1070
     0
1000
Full Opt
1070
     0
1070
     1
1070
     1
1070
     1
1070
     0
1070
     0
1070
     0
1070
     1
1070
     1
1040
0.0001
1040
0.0001
1002
}
  0
INSERT
  5
2DE
330
2
100
AcDbEntity
  8
ASHADE
 62
     4
100
AcDbBlockReference
  2
AVE_RENDER
 10
-15.75704558749316
 20
232.188685969268
 30
0.0
 41
0.3480083857442366
 42
0.3480083857441514
 43
0.3480083857442348
1001
AVE_RENDER
1002
{
1070
     0
1000
Quick Opt
1070
     0
1070
     1
1070
     1
1070
     1
1070
     0
1070
     0
1070
     1
1002
}
  0
INSERT
  5
2DF
330
2
100
AcDbEntity
  8
ASHADE
 62
     5
100
AcDbBlockReference
  2
AVE_RENDER
 10
-15.75704558749316
 20
232.188685969268
 30
0.0
 41
0.3480083857442366
 42
0.3480083857441514
 43
0.3480083857442348
1001
AVE_RENDER
1002
{
1070
     1
1000
Scanl Opt
1070
     2
1070
     0
1070
     2
1040
2.0
1040
4.0
1070
     0
1070
     1
1070
     0
1040
0.03
1002
}
  0
INSERT
  5
2E0
330
2
100
AcDbEntity
  8
ASHADE
 62
     6
100
AcDbBlockReference
  2
AVE_RENDER
 10
-15.75704558749316
 20
232.188685969268
 30
0.0
 41
0.3480083857442366
 42
0.3480083857441514
 43
0.3480083857442348
1001
AVE_RENDER
1002
{
1070
     2
1000
Raytr Opt
1070
     2
1070
     0
1070
     2
1040
2.0
1040
4.0
1070
     0
1070
     1
1070
     1
1040
0.03
1070
     3
1040
0.03
1002
}
  0
INSERT
  5
2E1
330
2
100
AcDbEntity
  8
ASHADE
 62
     7
100
AcDbBlockReference
  2
AVE_RENDER
 10
-15.75704558749316
 20
232.188685969268
 30
0.0
 41
0.3480083857442366
 42
0.3480083857441514
 43
0.3480083857442348
1001
AVE_RENDER
1002
{
1070
     0
1000
RFile Opt
1070
     5
1070
   640
1070
   480
1070
 10000
1070
     3
1070
    32
1070
    24
1070
     0
1070
     0
1070
     0
1070
     1
1070
     0
1070
     0
1070
     0
1002
}
  0
INSERT
  5
2E2
330
2
100
AcDbEntity
  8
ASHADE
 62
     8
100
AcDbBlockReference
  2
AVE_RENDER
 10
-15.75704558749316
 20
232.188685969268
 30
0.0
 41
0.3480083857442366
 42
0.3480083857441514
 43
0.3480083857442348
1001
AVE_RENDER
1002
{
1070
     0
1000
Fog Opt
1070
     0
1070
     0
1040
0.0
1040
1.0
1040
0.0
1040
1.0
1010
0.5
1020
0.5
1030
0.5
1002
}
  0
INSERT
  5
2E3
330
2
100
AcDbEntity
  8
ASHADE
 62
     9
100
AcDbBlockReference
  2
AVE_RENDER
 10
-15.75704558749316
 20
232.188685969268
 30
0.0
 41
0.3480083857442366
 42
0.3480083857441514
 43
0.3480083857442348
1001
AVE_RENDER
1002
{
1070
     0
1000
BG Opt
1070
     0
1070
     1
1010
0.0
1020
0.0
1030
0.0
1010
1.0
1020
0.0
1030
0.0
1010
0.0
1020
1.0
1030
0.0
1010
0.0
1020
0.0
1030
1.0
1040
0.5
1040
0.33
1040
0.0
1000

1070
     1
1000

1070
     1
1070
     1
1040
1.0
1040
1.0
1040
0.0
1040
0.0
1070
     0
1002
}
  0
INSERT
  5
2E4
330
2
100
AcDbEntity
  8
ASHADE
 62
     1
100
AcDbBlockReference
  2
AVE_GLOBAL
 10
-15.75704558749316
 20
232.188685969268
 30
0.0
 41
0.3480083857442366
 42
0.3480083857441514
 43
0.3480083857442348
1001
AVE_MATERIAL
1002
{
1000
*GLOBAL*
1000
1
1000
Global finish.
1002
{
1002
}
1002
{
1070
    63
1002
{
1002
{
1010
-1.0
1020
-1.0
1030
-1.0
1002
}
1040
0.1000000014901161
1000

1040
0.0
1002
{
1002
}
1040
0.0
1002
{
1002
}
1040
0.0
1002
}
1002
{
1002
{
1010
-1.0
1020
-1.0
1030
-1.0
1002
}
1040
0.6999999880790711
1000

1040
0.0
1002
{
1002
}
1040
0.0
1002
{
1002
}
1040
0.0
1002
}
1002
{
1002
{
1010
-1.0
1020
-1.0
1030
-1.0
1002
}
1040
0.2000000029802322
1000

1040
0.0
1002
{
1002
}
1040
0.0
1002
{
1002
}
1040
0.0
1002
}
1002
{
1070
     0
1002
{
1070
     1
1002
{
1040
1.0
1040
1.0
1000

1040
0.0
1002
{
1002
}
1040
0.0
1002
{
1002
}
1040
0.0
1002
}
1002
}
1040
1.0
1040
0.0
1040
0.0
1002
}
1002
{
1040
1.0
1040
1.0
1000

1040
0.0
1002
{
1002
}
1040
0.0
1002
{
1002
}
1040
0.0
1002
}
1002
{
1040
0.5
1040
1.0
1000

1040
0.0
1002
{
1002
}
1040
0.0
1002
{
1002
}
1040
0.0
1002
}
1002
{
1070
     0
1040
0.0
1002
{
1002
}
1040
1.0
1002
{
1002
}
1040
0.0
1002
}
1002
{
1040
0.0
1002
{
1002
{
1010
0.0
1020
0.0
1030
0.0
1002
}
1040
1.0
1000

1040
0.0
1002
{
1002
}
1040
0.0
1002
{
1002
}
1040
0.0
1002
}
1002
}
1002
{
1002
{
1070
     1
1002
{
1040
0.0
1040
1.0
1000

1040
0.0
1002
{
1002
}
1040
0.0
1002
{
1002
}
1040
0.0
1002
}
1002
}
1040
0.0
1002
{
1002
}
1010
1.0
1020
0.0
1030
0.0
1010
0.0
1020
1.0
1030
0.0
1010
0.0
1020
0.0
1030
1.0
1070
     0
1002
}
1002
{
1002
{
1040
1.0
1040
1.0
1002
{
1070
     1
1002
{
1040
1.0
1040
1.0
1000

1040
0.0
1002
{
1002
}
1040
0.0
1002
{
1002
}
1040
0.0
1002
}
1002
}
1002
}
1070
     0
1040
0.0
1002
{
1002
}
1002
}
1002
{
1002
}
1002
}
1002
{
1071
        3
1070
     3
1070
     0
1002
{
1070
     2
1070
     0
1070
     0
1040
0.0
1002
}
1070
     0
1070
     2
1002
{
1002
}
1002
}
1002
{
1040
8030.0
1040
190.3000030517578
1040
0.3050000071525574
1040
228.0
1040
545.0
1040
14.0
1040
17.39999961853027
1040
0.4560000002384186
1002
}
1002
}
  0
LINE
  5
2E5
330
2
100
AcDbEntity
  8
0
100
AcDbLine
 10
-0.1611931782733222
 20
6.589476948081816
 30
0.0
 11
-0.0642073435861335
 21
6.541388510074106
 31
0.0
  0
ARC
  5
2E6
330
2
100
AcDbEntity
  8
0
100
AcDbCircle
 10
-0.4251376877586495
 20
5.813456139138843
 30
0.0
 40
0.8125
100
AcDbArc
 50
8.225138029036278
 51
63.62642913597284
  0
ARC
  5
2E7
330
2
100
AcDbEntity
  8
0
100
AcDbCircle
 10
-2.302545100457621
 20
5.750956139138843
 30
0.0
 40
2.6875
100
AcDbArc
 50
272.7172629482129
 51
3.813412243263702
  0
ARC
  5
2E8
330
2
100
AcDbEntity
  8
0
100
AcDbCircle
 10
-0.0501376877586495
 20
6.813456139138843
 30
0.0
 40
0.25
100
AcDbArc
 50
90.0
 51
243.6264291359727
  0
LINE
  5
2E9
330
2
100
AcDbEntity
  8
0
100
AcDbLine
 10
-2.175137687758649
 20
3.063456139138843
 30
0.0
 11
-2.175137687758649
 21
2.063456139138843
 31
0.0
  0
LWPOLYLINE
  5
2EA
330
2
100
AcDbEntity
  8
A1
 62
     7
100
AcDbPolyline
 90
       14
 70
     1
 43
0.12
 10
1.69986231224135
 20
7.063456139138843
 10
-0.0501376877586495
 20
7.063456139138843
 42
0.7927780126776032
 10
-0.1611931782733222
 20
6.589476948081816
 10
-0.0642073435860198
 20
6.541388510074106
 42
-0.2465550463435953
 10
0.3790045784676863
 20
5.929694969433789
 42
-0.4198281899652871
 10
-2.175137687758649
 20
3.066477865583742
 10
-2.175137687758649
 20
2.063456139138843
 10
1.69986231224135
 20
2.063456139138843
 10
5.57486231224135
 20
2.063456139138843
 10
5.57486231224135
 20
3.066477865583742
 42
-0.4198281899652871
 10
3.020720046015014
 20
5.929694969433789
 42
-0.2465550463435953
 10
3.46393196806872
 20
6.541388510074106
 10
3.560917802756023
 20
6.589476948081816
 42
0.7927780126776032
 10
3.44986231224135
 20
7.063456139138843
  0
LWPOLYLINE
  5
2EB
330
2
100
AcDbEntity
  8
0
100
AcDbPolyline
 90
        2
 70
     0
 43
0.12
 10
5.57486231224135
 20
3.063456139138843
 10
-2.175137687758649
 20
3.063456139138843
  0
LWPOLYLINE
  5
2EC
330
2
100
AcDbEntity
  8
0
100
AcDbPolyline
 90
        2
 70
     0
 43
0.12
 10
-0.1611931782733222
 20
6.589476948081816
 10
3.560917802755909
 20
6.589476948081816
  0
INSERT
  5
2ED
330
2
100
AcDbEntity
  8
A1
 62
     7
100
AcDbBlockReference
 66
     1
  2
PROFILE LOGO
 10
-2.0419003413229
 20
2.941160388082941
 30
0.0
 41
0.4050000000000012
 42
0.4050000000000003
 43
0.4050000000000001
  0
ATTRIB
  5
2EE
330
2ED
100
AcDbEntity
  8
A1
 62
    22
100
AcDbText
 10
-1.924034021027218
 20
2.26144959727582
 30
0.0
 40
0.0861416015625
  1
1576
 72
     1
 11
-1.767257527184199
 21
2.26144959727582
 31
0.0
100
AcDbAttribute
  2
XXXX
 70
     0
  0
SEQEND
  5
2EF
330
2ED
100
AcDbEntity
  8
A1
 62
     7
  0
DIMENSION
  5
2F0
330
2
100
AcDbEntity
  8
A1
 62
     7
100
AcDbDimension
  2
*D3
 10
-6.689917443516321
 20
7.063456139138901
 30
0.0
 11
-6.689917443516321
 21
4.568435678413088
 31
0.0
 70
   160
 71
     5
 42
-1.0
  3
STANDARD
100
AcDbAlignedDimension
 13
-2.175137687758649
 23
2.063456139138843
 33
0.0
 14
-0.0501376877586495
 24
7.063456139138899
 34
0.0
 50
90.0
100
AcDbRotatedDimension
1001
ACAD
1000
DSTYLE
1002
{
1070
   287
1070
     4
1070
    73
1070
     1
1070
    74
1070
     1
1070
    77
1070
     0
1070
   147
1040
0.5
1070
   279
1070
     1
1070
   288
1070
     1
1070
   289
1070
     3
1002
}
  0
DIMENSION
  5
2F1
330
2
100
AcDbEntity
  8
A1
 62
     7
100
AcDbDimension
  2
*D4
 10
-2.175137687758649
 20
-0.777834630255434
 30
0.0
 11
1.948498670879018
 21
-0.777834630255434
 31
0.0
 70
   161
  1
%%C7 3/4"
 71
     5
 42
-1.0
  3
STANDARD
100
AcDbAlignedDimension
 13
5.57486231224135
 23
2.063456139138843
 33
0.0
 14
-2.175137687758649
 24
2.063456139138843
 34
0.0
1001
ACAD
1000
DSTYLE
1002
{
1070
   287
1070
     4
1070
    73
1070
     1
1070
    74
1070
     1
1070
    77
1070
     0
1070
   147
1040
0.5
1070
   279
1070
     1
1070
   288
1070
     1
1070
   289
1070
     3
1002
}
  0
DIMENSION
  5
3C3
330
2
100
AcDbEntity
  8
A1
 62
     7
100
AcDbDimension
  2
*D5
 10
-6.697927988622125
 20
14.71320710658297
 30
0.0
 11
-6.697927988622126
 21
10.942706009095
 31
0.0
 70
   160
 71
     5
 42
-1.0
  3
STANDARD
100
AcDbAlignedDimension
 13
-0.6302771799512357
 23
7.464476948081816
 33
0.0
 14
1.558670144654422
 24
14.71320710658297
 34
0.0
 50
90.0
100
AcDbRotatedDimension
1001
ACAD
1000
DSTYLE
1002
{
1070
   287
1070
     4
1070
    73
1070
     1
1070
    74
1070
     1
1070
    77
1070
     0
1070
   147
1040
0.5
1070
   279
1070
     1
1070
   288
1070
     1
1070
   289
1070
     3
1002
}
  0
DIMENSION
  5
3E6
330
2
100
AcDbEntity
  8
A1
 62
     7
100
AcDbDimension
  2
*D6
 10
11.37982504888265
 20
14.71556376986368
 30
0.0
 11
11.37982504888265
 21
8.623209839777956
 31
0.0
 70
   160
 71
     5
 42
-1.0
  3
STANDARD
100
AcDbAlignedDimension
 13
5.57486231224135
 23
2.063456139138843
 33
0.0
 14
1.666875695316888
 24
14.71556376986368
 34
0.0
 50
90.0
100
AcDbRotatedDimension
1001
ACAD
1000
DSTYLE
1002
{
1070
   287
1070
     4
1070
    73
1070
     1
1070
    74
1070
     1
1070
    77
1070
     0
1070
   147
1040
0.5
1070
   279
1070
     1
1070
   288
1070
     1
1070
   289
1070
     3
1002
}
  0
LWPOLYLINE
  5
3F7
330
2
100
AcDbEntity
  8
A1
 62
     7
100
AcDbPolyline
 90
        3
 70
     1
 43
0.12
 10
4.030001804433823
 20
7.464476948081816
 10
-0.6302771799512357
 20
7.464476948081816
 42
-0.7290185352914404
 10
1.699862312241293
 20
14.71569978678827
 42
-0.7290185352913962
  0
INSERT
  5
3F8
330
2
100
AcDbEntity
  8
A1
 62
     7
100
AcDbBlockReference
 66
     1
  2
PROFILE LOGO
 10
-1.95245423619383
 20
11.47233933899325
 30
0.0
  0
ATTRIB
  5
3F9
330
3F8
100
AcDbEntity
  8
A1
 62
    22
100
AcDbText
 10
-1.661426284846243
 20
9.794041090086722
 30
0.0
 40
0.2126953125
  1
1530
 72
     1
 11
-1.274323830912862
 21
9.794041090086722
 31
0.0
100
AcDbAttribute
  2
XXXX
 70
     0
  0
SEQEND
  5
3FA
330
3F8
100
AcDbEntity
  8
A1
 62
     7
  0
SOLID
  5
3FB
330
2
100
AcDbEntity
  8
A1
 62
     1
100
AcDbTrace
 10
2.181717393873474
 20
15.01516317269449
 30
0.0
 11
2.062295451552448
 21
15.13142226898399
 31
0.0
 12
1.773229133844471
 22
14.71502689387615
 32
0.0
 13
1.773229133844471
 23
14.71502689387615
 33
0.0
  0
LINE
  5
3FC
330
2
100
AcDbEntity
  8
A1
 62
     1
100
AcDbLine
 10
2.122006422712961
 20
15.07329272083924
 30
0.0
 11
6.171959095096214
 21
19.23342495892157
 31
0.0
  0
ATTDEF
  5
3FD
330
2
100
AcDbEntity
  8
A1
 62
     1
100
AcDbText
 10
16.45572087192231
 20
19.61619403346689
 30
0.0
 40
1.0
  1

100
AcDbAttributeDefinition
  3
ADD LINK NUMBER (WMF)
  2
TSD018
 70
     0
  0
MTEXT
  5
3FE
330
2
100
AcDbEntity
  8
0
 62
     1
100
AcDbMText
 10
16.49455340289734
 20
18.86891881095209
 30
0.0
 40
1.0
 41
0.0
 71
     1
 72
     1
  1
TannerStone
 73
     1
 44
1.0
1001
ACAD
1000
MTEXTBEGIN
1070
    73
1070
     1
1070
    44
1040
1.0
1070
    74
1070
     0
1000
MTEXTEND
1000
MTEXTBEGIN
1070
    73
1070
     1
1070
    44
1040
1.0
1070
    74
1070
     0
1000
MTEXTEND
  0
MTEXT
  5
3FF
330
2
100
AcDbEntity
  8
0
 62
     1
100
AcDbMText
 10
16.57229581024574
 20
17.35175874462428
 30
0.0
 40
0.7386749999999999
 41
0.0
 71
     1
 72
     1
  1
1-800-789-4841
 73
     1
 44
1.0
1001
ACAD
1000
MTEXTBEGIN
1070
    73
1070
     1
1070
    44
1040
1.0
1070
    74
1070
     0
1000
MTEXTEND
1000
MTEXTBEGIN
1070
    73
1070
     1
1070
    44
1040
1.0
1070
    74
1070
     0
1000
MTEXTEND
  0
LINE
  5
400
330
2
100
AcDbEntity
  8
0
 62
     1
100
AcDbLine
 10
6.171959095096216
 20
19.23342495892157
 30
0.0
 11
25.07628928416548
 21
19.23342495892157
 31
0.0
  0
LINE
  5
401
330
2
100
AcDbEntity
  8
0
 62
     1
100
AcDbLine
 10
15.96889052284456
 20
16.24564740714592
 30
0.0
 11
15.96889052284456
 21
20.80010116997203
 31
0.0
  0
ATTDEF
  5
402
330
2
100
AcDbEntity
  8
A1
 62
     1
100
AcDbText
 10
16.56035977322459
 20
-1.754945337530344
 30
0.0
 40
1.0
  1

100
AcDbAttributeDefinition
  3
ADD LINK NUMBER (WMF)
  2
TS1576
 70
     0
  0
LINE
  5
403
330
2
100
AcDbEntity
  8
0
 62
     1
100
AcDbLine
 10
16.07352942414684
 20
-2.137714412075666
 30
0.0
 11
16.07352942414684
 21
-0.5710382010252033
 31
0.0
  0
LINE
  5
404
330
2
100
AcDbEntity
  8
0
 62
     1
100
AcDbLine
 10
9.278311374372055
 20
-1.354376306550435
 30
0.0
 11
16.07352942414684
 21
-1.354376306550435
 31
0.0
  0
SOLID
  5
407
330
2
100
AcDbEntity
  8
A1
 62
     1
100
AcDbTrace
 10
5.86393290528083
 20
1.664080601693249
 30
0.0
 11
5.976586613972654
 21
1.786909424433499
 31
0.0
 12
5.551773291405993
 22
2.063456139138843
 32
0.0
 13
5.551773291405993
 23
2.063456139138843
 33
0.0
  0
LINE
  5
408
330
2
100
AcDbEntity
  8
A1
 62
     1
100
AcDbLine
 10
5.920259759626742
 20
1.725495013063374
 30
0.0
 11
9.278311374372055
 21
-1.354376306550434
 31
0.0
  0
INSERT
  5
441
330
2
100
AcDbEntity
  8
A1
 62
     7
100
AcDbBlockReference
 66
     1
  2
TSFORMB
 10
-24.89058483473435
 20
-15.02914511834036
 30
0.0
 41
0.55125
 42
0.55125
 43
0.55125
  0
ATTRIB
  5
442
330
441
100
AcDbEntity
  8
A1
 62
     1
100
AcDbText
 10
-6.345022333842551
 20
-14.5239332306279
 30
0.0
 40
0.5653562669999999
  1
BALL AND PEDESTAL
 72
     1
 11
-2.145919797938938
 21
-14.5239332306279
 31
0.0
100
AcDbAttribute
  2
XXXXXX
 70
     0
  0
ATTRIB
  5
443
330
441
100
AcDbEntity
  8
A1
 62
     1
100
AcDbText
 10
-15.65054789098482
 20
-13.9955410577021
 30
0.0
 40
0.4630500000000001
  1
TSD018
 72
     2
 11
-13.00909541047454
 21
-13.9955410577021
 31
0.0
100
AcDbAttribute
  2
XXXXXX
 70
     0
  0
ATTRIB
  5
444
330
441
100
AcDbEntity
  8
A1
 62
     1
100
AcDbText
 10
-21.14397606020283
 20
-13.31036812347755
 30
0.0
 40
3.380265
  1
TSD018
  7
barcoder
 72
     1
 11
-17.80596437270283
 21
-13.31036812347755
 31
0.0
100
AcDbAttribute
  2
BARCODE
 70
     0
  0
ATTRIB
  5
445
330
441
100
AcDbEntity
  8
A1
 62
     1
100
AcDbText
 10
26.52621152891781
 20
25.43261388492174
 30
0.0
 40
1.14604875
  1
TSD018
 72
     1
 11
29.79500897354928
 21
25.43261388492174
 31
0.0
100
AcDbAttribute
  2
TS00XX
 70
     0
  0
ATTRIB
  5
446
330
441
100
AcDbEntity
  8
A1
 62
     1
100
AcDbText
 10
29.62852200379075
 20
-9.47309393442218
 30
0.0
 40
0.5209312500000002
  1
57.82"
 72
     1
 11
30.88267044904235
 21
-9.47309393442218
 31
0.0
100
AcDbAttribute
  2
XXXXX
 70
     0
  0
ATTRIB
  5
447
330
441
100
AcDbEntity
  8
A1
 62
     1
100
AcDbText
 10
29.78320809061097
 20
-11.04937445653835
 30
0.0
 40
0.5209312500000002
  1
52.19
 72
     1
 11
30.86383585017866
 21
-11.04937445653835
 31
0.0
100
AcDbAttribute
  2
XXXXX
 70
     0
  0
SEQEND
  5
448
330
441
100
AcDbEntity
  8
A1
 62
     7
  0
LINE
  5
4B6
330
2
100
AcDbEntity
  8
0
 62
     1
100
AcDbLine
 10
9.573727550615384
 20
11.85911254444252
 30
0.0
 11
10.80369248976482
 21
11.85911254444252
 31
0.0
  0
ATTDEF
  5
4B9
330
2
100
AcDbEntity
  8
A1
 62
     1
100
AcDbText
 10
16.45572087192231
 20
11.45854351346261
 30
0.0
 40
1.0
  1

100
AcDbAttributeDefinition
  3
ADD LINK NUMBER (WMF)
  2
TS1530
 70
     0
  0
LINE
  5
4BA
330
2
100
AcDbEntity
  8
0
 62
     1
100
AcDbLine
 10
15.96889052284456
 20
11.07577443891728
 30
0.0
 11
15.96889052284456
 21
12.64245064996775
 31
0.0
  0
LINE
  5
4BE
330
2
100
AcDbEntity
  8
0
 62
     1
100
AcDbLine
 10
11.91477539029881
 20
11.85911254444252
 30
0.0
 11
15.96889052284456
 21
11.85911254444252
 31
0.0
  0
SOLID
  5
4BF
330
2
100
AcDbEntity
  8
A1
 62
     1
100
AcDbTrace
 10
6.200625978139068
 20
10.69918777091487
 30
0.0
 11
6.150125343650255
 21
10.8580193285286
 31
0.0
 12
5.698880988053458
 22
10.6271016462553
 32
0.0
 13
5.698880988053458
 23
10.6271016462553
 33
0.0
  0
LINE
  5
4C0
330
2
100
AcDbEntity
  8
A1
 62
     1
100
AcDbLine
 10
6.175375660894662
 20
10.77860354972174
 30
0.0
 11
9.573727550615384
 21
11.85911254444252
 31
0.0
  0
ENDSEC
  0
SECTION
  2
OBJECTS
  0
DICTIONARY
  5
8
330
0
100
AcDbDictionary
281
     1
  3
ACAD_GROUP
350
21
  3
ACAD_LAYOUT
350
C
  3
ACAD_MLINESTYLE
350
22
  3
ACAD_PLOTSETTINGS
350
23
  3
ACAD_PLOTSTYLENAME
350
7
  3
ACAD_VBA
350
449
  3
DWGPROPS
350
454
  0
DICTIONARY
  5
3
330
2
100
AcDbDictionary
280
     1
281
     1
  3
ACAD_LAYOUTSELFREF
360
4EC
  0
DICTIONARY
  5
482
330
D
100
AcDbDictionary
280
     1
281
     1
  3
ACAD_LAYOUTSELFREF
360
4EF
  0
DICTIONARY
  5
21
102
{ACAD_REACTORS
330
8
102
}
330
8
100
AcDbDictionary
281
     1
  0
DICTIONARY
  5
C
102
{ACAD_REACTORS
330
8
102
}
330
8
100
AcDbDictionary
281
     1
  3
Layout1
350
10
  3
Model
350
B
  0
DICTIONARY
  5
22
102
{ACAD_REACTORS
330
8
102
}
330
8
100
AcDbDictionary
281
     1
  3
STANDARD
350
25
  0
DICTIONARY
  5
23
102
{ACAD_REACTORS
330
8
102
}
330
8
100
AcDbDictionary
281
     1
  0
ACDBDICTIONARYWDFLT
  5
7
102
{ACAD_REACTORS
330
8
102
}
330
8
100
AcDbDictionary
281
     1
  3
Normal
350
6
100
AcDbDictionaryWithDefault
340
6
  0
DICTIONARY
  5
449
102
{ACAD_REACTORS
330
8
102
}
330
8
100
AcDbDictionary
281
     1
  3
VBAProject
350
44A
  0
XRECORD
  5
454
102
{ACAD_REACTORS
330
8
102
}
330
8
100
AcDbXrecord
280
     1
  1
DWGPROPS COOKIE
  2

  3

  4

  6

  7

  8
catalog
  9

300
=
301
=
302
=
303
=
304
=
305
=
306
=
307
=
308
=
309
=
 40
2.453845138888889
 41
2451085.66483831
 42
2451642.669714004
  1

 90
        0
  0
XRECORD
  5
4EC
102
{ACAD_REACTORS
330
3
102
}
330
3
100
AcDbXrecord
280
     1
340
2
  0
XRECORD
  5
4EF
102
{ACAD_REACTORS
330
482
102
}
330
482
100
AcDbXrecord
280
     1
340
D
  0
LAYOUT
  5
10
102
{ACAD_REACTORS
330
C
102
}
330
C
100
AcDbPlotSettings
  1

  2
None
  4

  6

 40
0.0
 41
0.0
 42
0.0
 43
0.0
 44
0.0
 45
0.0
 46
0.0
 47
0.0
 48
0.0
 49
0.0
140
0.0
141
0.0
142
1.0
143
1.0
 70
   688
 72
     0
 73
     0
 74
     5
  7

 75
    16
147
1.0
148
0.0
149
0.0
100
AcDbLayout
  1
Layout1
 70
     1
 71
     1
 10
0.0
 20
0.0
 11
12.0
 21
9.0
 12
0.0
 22
0.0
 32
0.0
 14
1.000000000000000E+20
 24
1.000000000000000E+20
 34
1.000000000000000E+20
 15
-1.000000000000000E+20
 25
-1.000000000000000E+20
 35
-1.000000000000000E+20
146
0.0
 13
0.0
 23
0.0
 33
0.0
 16
1.0
 26
0.0
 36
0.0
 17
0.0
 27
1.0
 37
0.0
 76
     0
330
D
  0
LAYOUT
  5
B
102
{ACAD_REACTORS
330
C
102
}
330
C
100
AcDbPlotSettings
  1

  2
HP LaserJet 5.pc3
  4
Letter
  6

 40
7.143749713897705
 41
6.381738662719726
 42
7.14373779296875
 43
6.381744384765625
 44
215.8999938964843
 45
279.3999938964843
 46
0.0
 47
0.0
 48
917.8333800552392
 49
179.3425476187949
140
952.5212158630973
141
236.652699324871
142
1.0
143
7.344714902257228
 70
 11952
 72
     0
 73
     0
 74
     1
  7

 75
     0
147
0.1361523235834073
148
665.8557126490689
149
403.7206934290625
100
AcDbLayout
  1
Model
 70
     1
 71
     0
 10
0.0
 20
0.0
 11
12.0
 21
9.0
 12
0.0
 22
0.0
 32
0.0
 14
0.0
 24
0.0
 34
0.0
 15
0.0
 25
0.0
 35
0.0
146
0.0
 13
0.0
 23
0.0
 33
0.0
 16
1.0
 26
0.0
 36
0.0
 17
0.0
 27
1.0
 37
0.0
 76
     0
330
2
  0
MLINESTYLE
  5
25
102
{ACAD_REACTORS
330
22
102
}
330
22
100
AcDbMlineStyle
  2
STANDARD
 70
     0
  3

 62
   256
 51
90.0
 52
90.0
 71
     2
 49
0.5
 62
   256
  6
BYLAYER
 49
-0.5
 62
   256
  6
BYLAYER
  0
ACDBPLACEHOLDER
  5
6
102
{ACAD_REACTORS
330
7
102
}
330
7
  0
VBA_PROJECT
  5
44A
102
{ACAD_REACTORS
330
449
102
}
330
449
100
AcDbVbaProject
 90
     7680
310
D0CF11E0A1B11AE1000000000000000000000000000000003E000300FEFF0900060000000000000000000000010000000100000000000000001000000200000001000000FEFFFFFF0000000000000000FFFFFFFFFFFFFFFFFFFFFFFFFFFFFFFFFFFFFFFFFFFFFFFFFFFFFFFFFFFFFFFFFFFFFFFFFFFFFFFFFFFFFFFFFFFFFF
310
FFFFFFFFFFFFFFFFFFFFFFFFFFFFFFFFFFFFFFFFFFFFFFFFFFFFFFFFFFFFFFFFFFFFFFFFFFFFFFFFFFFFFFFFFFFFFFFFFFFFFFFFFFFFFFFFFFFFFFFFFFFFFFFFFFFFFFFFFFFFFFFFFFFFFFFFFFFFFFFFFFFFFFFFFFFFFFFFFFFFFFFFFFFFFFFFFFFFFFFFFFFFFFFFFFFFFFFFFFFFFFFFFFFFFFFFFFFFFFFFFFFFFFFFFFFFFF
310
FFFFFFFFFFFFFFFFFFFFFFFFFFFFFFFFFFFFFFFFFFFFFFFFFFFFFFFFFFFFFFFFFFFFFFFFFFFFFFFFFFFFFFFFFFFFFFFFFFFFFFFFFFFFFFFFFFFFFFFFFFFFFFFFFFFFFFFFFFFFFFFFFFFFFFFFFFFFFFFFFFFFFFFFFFFFFFFFFFFFFFFFFFFFFFFFFFFFFFFFFFFFFFFFFFFFFFFFFFFFFFFFFFFFFFFFFFFFFFFFFFFFFFFFFFFFFF
310
FFFFFFFFFFFFFFFFFFFFFFFFFFFFFFFFFFFFFFFFFFFFFFFFFFFFFFFFFFFFFFFFFFFFFFFFFFFFFFFFFFFFFFFFFFFFFFFFFFFFFFFFFFFFFFFFFFFFFFFFFFFFFFFFFFFFFFFFFFFFFFFFFFFFFFFFFFFFFFFFFFFFFFFFFFFFFFFFFFFFFFFFFFFFFFFFFFFFFFFFFFFFFFFFFFFFFFFFFFFFFFFFFFFFFFFFFFFFFFFFFFFFFFFFFFFFFF
310
FFFFFFFFFDFFFFFF04000000FEFFFFFF050000000D000000060000000700000008000000090000000A0000000B0000000C000000FEFFFFFFFEFFFFFFFFFFFFFFFFFFFFFFFFFFFFFFFFFFFFFFFFFFFFFFFFFFFFFFFFFFFFFFFFFFFFFFFFFFFFFFFFFFFFFFFFFFFFFFFFFFFFFFFFFFFFFFFFFFFFFFFFFFFFFFFFFFFFFFFFFFFF
310
FFFFFFFFFFFFFFFFFFFFFFFFFFFFFFFFFFFFFFFFFFFFFFFFFFFFFFFFFFFFFFFFFFFFFFFFFFFFFFFFFFFFFFFFFFFFFFFFFFFFFFFFFFFFFFFFFFFFFFFFFFFFFFFFFFFFFFFFFFFFFFFFFFFFFFFFFFFFFFFFFFFFFFFFFFFFFFFFFFFFFFFFFFFFFFFFFFFFFFFFFFFFFFFFFFFFFFFFFFFFFFFFFFFFFFFFFFFFFFFFFFFFFFFFFFFFFF
310
FFFFFFFFFFFFFFFFFFFFFFFFFFFFFFFFFFFFFFFFFFFFFFFFFFFFFFFFFFFFFFFFFFFFFFFFFFFFFFFFFFFFFFFFFFFFFFFFFFFFFFFFFFFFFFFFFFFFFFFFFFFFFFFFFFFFFFFFFFFFFFFFFFFFFFFFFFFFFFFFFFFFFFFFFFFFFFFFFFFFFFFFFFFFFFFFFFFFFFFFFFFFFFFFFFFFFFFFFFFFFFFFFFFFFFFFFFFFFFFFFFFFFFFFFFFFFF
310
FFFFFFFFFFFFFFFFFFFFFFFFFFFFFFFFFFFFFFFFFFFFFFFFFFFFFFFFFFFFFFFFFFFFFFFFFFFFFFFFFFFFFFFFFFFFFFFFFFFFFFFFFFFFFFFFFFFFFFFFFFFFFFFFFFFFFFFFFFFFFFFFFFFFFFFFFFFFFFFFFFFFFFFFFFFFFFFFFFFFFFFFFFFFFFFFFFFFFFFFFFFFFFFFFFFFFFFFFFFFFFFFFFFFFFFFFFFFFFFFFFFFFFFFFFFFFF
310
FFFFFFFFFFFFFFFF52006F006F007400200045006E00740072007900000000000000000000000000000000000000000000000000000000000000000000000000000000000000000016000500FFFFFFFFFFFFFFFF010000000000000000000000000000000000000000000000000000000000000060737A72E3AEBF01030000
310
00C0100000000000005600420041005F00500072006F006A0065006300740000000000000000000000000000000000000000000000000000000000000000000000000000000000000018000101FFFFFFFF0800000006000000000000000000000000000000000000000000000060737A72E3AEBF0160737A72E3AEBF010000
310
000000000000000000005600420041000000000000000000000000000000000000000000000000000000000000000000000000000000000000000000000000000000000000000000000008000100FFFFFFFFFFFFFFFF04000000000000000000000000000000000000000000000060737A72E3AEBF0160737A72E3AEBF0100
310
00000000000000000000006400690072000000000000000000000000000000000000000000000000000000000000000000000000000000000000000000000000000000000000000000000008000200FFFFFFFFFFFFFFFFFFFFFFFF000000000000000000000000000000000000000000000000000000000000000000000000
310
00000000F90100000000000001000000020000000300000004000000050000000600000007000000FEFFFFFF090000000A0000000B0000000C0000000D0000000E0000000F0000001000000011000000120000001300000014000000150000001600000017000000FEFFFFFF190000001A0000001B0000001C0000001D0000
310
001E0000001F000000200000002100000022000000230000002400000025000000260000002700000028000000290000002A0000002B0000002C0000002D0000002E0000002F000000300000003100000032000000330000003400000035000000360000003700000038000000390000003A0000003B000000FEFFFFFF3D00
310
00003E0000003F00000040000000FEFFFFFFFEFFFFFFFEFFFFFFFFFFFFFFFFFFFFFFFFFFFFFFFFFFFFFFFFFFFFFFFFFFFFFFFFFFFFFFFFFFFFFFFFFFFFFFFFFFFFFFFFFFFFFFFFFFFFFFFFFFFFFFFFFFFFFFFFFFFFFFFFFFFFFFFFFFFFFFFFFFFFFFFFFFFFFFFFFFFFFFFFFFFFFFFFFFFFFFFFFFFFFFFFFFFFFFFFFFFFFFFF
310
FFFFFFFFFFFFFFFFFFFFFFFFFFFFFFFFFFFFFFFFFFFFFFFFFFFFFFFFFFFFFFFFFFFFFFFFFFFFFFFFFFFFFFFFFFFFFFFFFFFFFFFFFFFFFFFFFFFFFFFFFFFFFFFFFFFFFFFFFFFFFFFFFFFFFFFFFFFFFFFFFFFFFFFFFFFFFFFFFFFFFFFFFFFFFFFFFFFFFFFFFFFFFFFFFFFFFFFFFFFFFFFFFFFFFFFFFFFFFFFFFFFFFFFFFFFFFF
310
FFFFFFFFFFFFFFFFFFFFFFFFFFFFFFFF01F5B1800100040000000100302A020290090070140648030082020064E40404000B001C004143414450726F6A10656374050038000040D5021406020A3D020A07027401140A080612090212A44EC9382831000C024A3C020A16000101727374646F6C653E0102197300740064006F
310
00006C0065000D00660500255C00032A5C477B3000303032303433302D3B0008040443000A020E011230300034367D23322E3023003023433A5C57494E00444F57535C5359530054454D5C5354444F004C45322E544C4223010008204175746F6D613074696F6E005E00011600020780024D53466F726D10733E000E010600
310
53000246004572006D007300682F007A800970800101463600354238343236302D00344131382D31314400312D384439372D348034343535333534014803174604332E545744234D006963726F736F66748A20023D200060204F6201B000204C69627261727947003900011E50300090001372038001015038393136374580
310
30362D35343239275081804A505C5642455C8528044558A728E12E450D8F00E01A10852E02608C284D0BB481940F828F01002213C201DEF2198291546800697344726177696E44671A0D04320016C030541000680069805D4400721000610077C0026E006744001C4006000048420131C1C2941F0300001E42020105A22C42
310
19DCF22242082B420102104201000000000000005400680069007300440072006100770069006E006700000000000000000000000000000000000000000000000000000000000000000000000000000000000000180002010300000005000000FFFFFFFF000000000000000000000000000000000000000000000000000000
310
00000000000000000008000000D0030000000000005F005600420041005F00500052004F004A00450043005400000000000000000000000000000000000000000000000000000000000000000000000000000000001A000200FFFFFFFFFFFFFFFFFFFFFFFF0000000000000000000000000000000000000000000000000000
310
0000000000000000000018000000EA08000000000000500052004F004A004500430054000000000000000000000000000000000000000000000000000000000000000000000000000000000000000000000000000000100002010200000007000000FFFFFFFF00000000000000000000000000000000000000000000000000
310
00000000000000000000003C0000002201000000000000500052004F004A0045004300540077006D000000000000000000000000000000000000000000000000000000000000000000000000000000000000000000000014000200FFFFFFFFFFFFFFFFFFFFFFFF000000000000000000000000000000000000000000000000
310
0000000000000000000000004100000026000000000000000116010000B600FFFF010100000000FFFFFFFF00000000FFFFFFFFFFFF0000000000000000000000000000000000000000000000000000000000000000000000000000000000000000000000000000000010000000030000000500000007000000FFFFFFFFFFFF
310
FFFF010108000000FFFFFFFF78000000DE000000AF020000F5010000FFFFFFFF0000000001000000DEF2DCF20000FFFF2300000088000000080000000000000000000000000000000000000000000000000000000000000000FFFF0000CB020000D6000000D60000001F0300000000FFFFFFFF00000000DF00FFFF00000000
310
0C00FFFFFFFFFFFFFFFFFFFFFFFFFFFFFFFFFFFFFFFFFFFFFFFFFFFFFFFFFFFFFFFFFFFFFFFFFFFFFFFFFFFFFFFFFFFFFFFFFFFFFFFFFFFFFFFFFFFFFFFFFFFFFFFFFFFFFFFFFFFFFFFFFFFFFFFFFFFFFFFFFFFFFFFFFFFFFFFFFFFFFFFFFFFFFFFFFFFFFFFFFFFFFFFFFFFFFFFFFFFFFFFFFFFFFFFFFFFFFFFFFFFFFFFFFF
310
FFFFFF280000000200534CFFFFFFFF000001005310FFFFFFFF000001005394FFFFFFFF00000000023CFFFFFFFF0000FFFF01010000000001004E0030007B00380045003700350044003900310033002D0033004400320031002D0031003100440032002D0038003500430034002D0030003800300030003000390041003000
310
43003600320036007D00000000000000DF00000000FFFFFFFF0101380000000281FEFFFFFFFFFFFFFFFFFF280000000000FFFF0000000000000000FFFFFFFFFFFFFFFFC00000001D00000024000000FFFFFFFF480000000000FFFF00000100000000000000FFFFFFFFFFFFFFFFFFFFFFFF00000000FFFFFFFFFFFFFFFFFFFF
310
FFFFFFFFFFFF00000000FFFFFFFFFFFFFFFFFFFFFFFFFFFFFFFF0000000000000000FFFFFFFFFFFFFFFF00000000FFFFFFFFFFFFFFFFFFFFFFFFFFFFFFFFFFFFFFFFFFFFFFFFFFFFFFFFFFFF4D450000FFFFFFFFFFFF00000000FFFF00000000FFFF0101000000000000000000000000000000000000000000000000000000
310
00000000000000000000000000000000000000000000000000000000000000000000000000FECA01000000FFFFFFFF010108000000FFFFFFFF7800000001ADB000417474726962757400652056425F4E616D0065203D2022546869007344726177696E6788220D0A0A88426173028800307B3845373544390031332D334432
310
312D00313144322D38354300342D303830303039804130433632367D0D7C00437265617461626C41018646616C73650CBC508072656465636C610006444964008A5472750D22452078706F7365141C5465006D706C6174654465187269760224116543757360746F6D697A0488033200000000000000000000000000000000
310
0000000000000000000000000000000000000000000000000000000000000000CC615E00000100FF0904000009040000E4040100000000000000000001000400020016012A005C0047007B00300030003000320030003400450046002D0030003000300030002D0030003000300030002D0043003000300030002D00300030
310
0030003000300030003000300030003000340036007D00230033002E00300023003900230043003A005C00500052004F004700520041004D002000460049004C00450053005C0043004F004D004D004F004E002000460049004C00450053005C004D004900430052004F0053004F0046005400200053004800410052004500
310
44005C005600420041005C005600420041003300330032002E0044004C004C002300560069007300750061006C00200042006100730069006300200046006F00720020004100700070006C00690063006100740069006F006E007300000000000000000000000000CE002A005C0047007B0043003000390034004300310045
310
0032002D0035003700430036002D0031003100440032002D0038003500450033002D003000380030003000300039004100300043003600320036007D00230031002E00310023003000230043003A005C00500072006F006700720061006D002000460069006C00650073005C004D00440054005C0041004300410044002E00
310
54004C00420023004100750074006F00430041004400200032003000300030002000540079007000650020004C00690062007200610072007900000000000000000000000000B8002A005C0047007B00300030003000320030003400330030002D0030003000300030002D0030003000300030002D0043003000300030002D
310
003000300030003000300030003000300030003000340036007D00230032002E00300023003000230043003A005C00570049004E0044004F00570053005C00530059005300540045004D005C005300540044004F004C00450032002E0054004C00420023004F004C00450020004100750074006F006D006100740069006F00
310
6E00000000000000000000000000E0002A005C0047007B00360035004200380034003200360030002D0034004100310038002D0031003100440031002D0038004400390037002D003400340034003500350033003500340030003000300030007D00230032002E00300023003000230043003A005C00570049004E0044004F
310
00570053005C00530059005300540045004D005C004D00530046006F0072006D0073002E0054005700440023004D006900630072006F0073006F0066007400200046006F0072006D007300200032002E00300020004F0062006A0065006300740020004C00690062007200610072007900000000000000000000000100E400
310
2A005C0047007B00380039003100360037004500300036002D0035003400320039002D0031003100440031002D0038004400390037002D003400340034003500350033003500340030003000300030007D00230032002E00300023003000230043003A005C00570049004E0044004F00570053005C00540045004D0050005C
310
005600420045005C004D00530046006F0072006D0073002E0045005800440023004D006900630072006F0073006F0066007400200046006F0072006D007300200032002E00300020004F0062006A0065006300740020004C006900620072006100720079000000000000000000000001000000E12E450D8FE01A10852E0260
310
8C4D0BB400000100020003000402000006020100080200001002FFFFFFFFFFFF00000000FFFF0000A44EC9383100FFFFFFFF0000FFFFFFFFFFFFFFFFFFFFFFFFFFFFFFFFFFFFFFFFFFFFFFFFFFFFFFFFFFFFFFFFFFFFFFFFFFFFFFFFFFFFFFFFFFFFFFFFFFFFFFFFFFFFFFFFFFFF0100000000000000000000000000000000
310
000000DEF2010016005400680069007300440072006100770069006E0067000A003331333863393465613403002A44011302FFFFDCF200000000000000020000001F030000FFFFFFFFFFFF010120020000FFFFFFFFFFFFFFFFFFFFFFFFFFFFFFFFFFFFFFFFFFFFFFFFFFFFFFFFFFFFFFFFFFFFFFFFFFFFFFFFFFFFFFFFFFFF
310
FFFFFFFFFFFFFFFFFFFFFFFFFFFFFFFFFFFFFFFFFFFFFFFFFFFFFFFFFFFFFFFFFFFFFFFFFFFFFFFFFFFFFFFFFFFFFFFFFFFFFFFFFFFFFFFFFFFFFFFFFFFFFFFFFFFFFFFFFFFFFFFFFFFFFFFFFFFFFFFFFFFFFFFFFFFFFFFFFFFFFFFFFFFFFFFFFFFFFFFFFFFFFFFFFFFFFFFFFFFFFFFFFFFFFFFFFFFFFFFFFFFFFFFFFFFFFF
310
FFFFFFFFFFFFFFFFFFFFFFFFFFFFFFFFFFFFFFFFFFFFFFFFFFFFFFFFFFFFFFFFFFFFFFFFFFFFFFFFFFFFFFFFFFFFFFFFFFFFFFFFFFFFFFFFFFFFFFFFFFFFFFFFFFFFFFFFFFFFFFFFFFFFFFFFFFFFFFFFFFFFFFFFFFFFFFFFFFFFFFFFFFFFFFFFFFFFFFFFFFFFFFFFFFFFFFFFFFFFFFFFFFFFFFFFFFFFFFFFFFFFFFFFFFFFFF
310
FFFFFFFFFFFFFFFFFFFFFFFFFFFFFFFFFFFFFFFFFFFFFFFFFFFFFFFFFFFFFFFFFFFFFFFFFFFFFFFFFFFFFFFFFFFFFFFFFFFFFFFFFFFFFFFFFFFFFFFFFFFFFFFFFFFFFFFFFFFFFFFF00020000FFFFFFFFFFFFFFFFFFFFFFFFFFFFFFFFFFFFFFFFFFFFFFFFFFFFFFFFFFFFFFFFFFFFFFFFFFFFFFFFFFFFFFFFFFFFFFFFFFFFFF
310
FFFFFFFFFFFFFFFFFFFFFFFFFFFFFFFFFFFFFFFFFFFFFFFFFFFFFFFFFFFFFFFFFFFFFFFFFFFFFFFFFFFFFFFFFFFFFFFFFFFFFFFFFFFFFFFFFFFFFFFFFFFFFFFFFFFFFFFFFFFFFFFFFFFFFFFFFFFFFFFFFFFFFFFFFFA37ACEB584F6D3118DA400A0C981A35FFFFFFFFF01000000FFFFFFFF600000008000000000000B010C00
310
FF008825000007044175746F43414422F810000304564241F7E21000050457696E3136C17E1000050457696E3332077F100003044D6163B3B21000080450726F6A656374310A17100006047374646F6C659360100007004D53466F726D73430F10000B044143414450726F6A656374A6D410000B045468697344726177696E
310
67B935100009800000FF03FFFF5F4576616C7561746518D910000C0441636164446F63756D656E741B5A100002FFFF0101480000001002FFFFFFFF130200000100FFFFFFFFFFFFFFFFFFFFFFFF00020100FFFF02020000FFFFFFFFFFFFFFFFFFFFFFFFFFFFFFFFFFFFFFFFFFFFFFFFFFFF0C020200FFFF0E020300FFFF0100
310
0C0000000100120000000000000000000000000000000000000000000000000000000000000000000000000000000000000049443D227B42354345374141412D463638342D313144332D384441342D3030413043393831413335467D220D0A446F63756D656E743D5468697344726177696E672F264830303030303030300D
310
0A4E616D653D224143414450726F6A656374220D0A48656C70436F6E7465787449443D2230220D0A434D473D2242314233344441423531414235314142353141423531220D0A4450423D22324232394437354635303630353036303530220D0A47433D224135413735394439413935324141353241414144220D0A0D0A5B48
310
6F737420457874656E64657220496E666F5D0D0A264830303030303030313D7B33383332443634302D434639302D313143462D384534332D3030413043393131303035417D3B5642453B264830303030303030300D0A0000000000000000000000000000000000000000000000000000000000005468697344726177696E67
310
005400680069007300440072006100770069006E0067000000000000000000000000000000000000000000000000000000000000000F00000000000000000000000000000000000000000000000000000000000000000000000000000000000000000000000000000000000000000000000000000000000000000000000000
310
00000000000000000000000000000000000000000000000000000000000000000000000000000000000000000000000000000000000000000000000000000000000000000000000000000000000000000000000000000000000000000000000000000000000000000000000000000000000000000000000000000000000000
310
00000000000000000000000000000000000000000000000000000000000000000000000000000000000000000000000000000000000000000000000000000000000000000000000000000000000000000000000000000000000000000000000000000000000000000000000000000000000000000000000000000000000000
310
00000000000000000000000000000000000000000000000000000000000000000000000000000000000000000000000000000000000000005600420041005F00500072006F006A006500630074005F00560065007200730069006F006E00000000000000000000000000000000000000000000000000000028000200FFFFFF
310
FFFFFFFFFFFFFFFFFF0000000000000000000000000000000000000000000000000000000000000000000000004200000008000000000000000000000000000000000000000000000000000000000000000000000000000000000000000000000000000000000000000000000000000000000000000000000000000000FFFF
310
FFFFFFFFFFFFFFFFFFFF0000000000000000000000000000000000000000000000000000000000000000000000000000000000000000000000000000000000000000000000000000000000000000000000000000000000000000000000000000000000000000000000000000000000000000000000000000000000000000FF
310
FFFFFFFFFFFFFFFFFFFFFF0000000000000000000000000000000000000000000000000000000000000000000000000000000000000000000000000000000000000000000000000000000000000000000000000000000000000000000000000000000000000000000000000000000000000000000000000000000000000000
310
FFFFFFFFFFFFFFFFFFFFFFFF000000000000000000000000000000000000000000000000000000000000000000000000000000000000000000000000
  0
ENDSEC
  0
EOF
