  0
SECTION
  2
HEADER
  9
$ACADVER
  1
AC1015
  9
$ACADMAINTVER
 70
     6
  9
$DWGCODEPAGE
  3
ANSI_1252
  9
$INSBASE
 10
0.0
 20
0.0
 30
0.0
  9
$EXTMIN
 10
589.0767736505733
 20
289.1787498603459
 30
0.0
  9
$EXTMAX
 10
688.7945546128707
 20
363.3590503322989
 30
0.0
  9
$LIMMIN
 10
0.0
 20
0.0
  9
$LIMMAX
 10
12.0
 20
9.0
  9
$ORTHOMODE
 70
     0
  9
$REGENMODE
 70
     1
  9
$FILLMODE
 70
     1
  9
$QTEXTMODE
 70
     0
  9
$MIRRTEXT
 70
     0
  9
$LTSCALE
 40
1.0
  9
$ATTMODE
 70
     2
  9
$TEXTSIZE
 40
0.5
  9
$TRACEWID
 40
0.05
  9
$TEXTSTYLE
  7
STANDARD
  9
$CLAYER
  8
PLINE
  9
$CELTYPE
  6
BYLAYER
  9
$CECOLOR
 62
     7
  9
$CELTSCALE
 40
1.0
  9
$DISPSILH
 70
     0
  9
$DIMSCALE
 40
1.5
  9
$DIMASZ
 40
0.5
  9
$DIMEXO
 40
1.0
  9
$DIMDLI
 40
0.0625
  9
$DIMRND
 40
0.0
  9
$DIMDLE
 40
0.0
  9
$DIMEXE
 40
0.25
  9
$DIMTP
 40
0.0
  9
$DIMTM
 40
0.0
  9
$DIMTXT
 40
1.0
  9
$DIMCEN
 40
0.0
  9
$DIMTSZ
 40
0.0
  9
$DIMTOL
 70
     0
  9
$DIMLIM
 70
     0
  9
$DIMTIH
 70
     1
  9
$DIMTOH
 70
     1
  9
$DIMSE1
 70
     0
  9
$DIMSE2
 70
     0
  9
$DIMTAD
 70
     0
  9
$DIMZIN
 70
     0
  9
$DIMBLK
  1

  9
$DIMASO
 70
     1
  9
$DIMSHO
 70
     1
  9
$DIMPOST
  1
"
  9
$DIMAPOST
  1

  9
$DIMALT
 70
     0
  9
$DIMALTD
 70
     0
  9
$DIMALTF
 40
25.4
  9
$DIMLFAC
 40
1.0
  9
$DIMTOFL
 70
     0
  9
$DIMTVP
 40
0.0
  9
$DIMTIX
 70
     0
  9
$DIMSOXD
 70
     0
  9
$DIMSAH
 70
     0
  9
$DIMBLK1
  1

  9
$DIMBLK2
  1

  9
$DIMSTYLE
  2
STANDARD
  9
$DIMCLRD
 70
     0
  9
$DIMCLRE
 70
     0
  9
$DIMCLRT
 70
     0
  9
$DIMTFAC
 40
0.125
  9
$DIMGAP
 40
0.5
  9
$DIMJUST
 70
     0
  9
$DIMSD1
 70
     0
  9
$DIMSD2
 70
     0
  9
$DIMTOLJ
 70
     1
  9
$DIMTZIN
 70
     0
  9
$DIMALTZ
 70
     2
  9
$DIMALTTZ
 70
     2
  9
$DIMUPT
 70
     1
  9
$DIMDEC
 70
     4
  9
$DIMTDEC
 70
     4
  9
$DIMALTU
 70
     2
  9
$DIMALTTD
 70
     0
  9
$DIMTXSTY
  7
STANDARD
  9
$DIMAUNIT
 70
     0
  9
$DIMADEC
 70
     0
  9
$DIMALTRND
 40
0.0
  9
$DIMAZIN
 70
     0
  9
$DIMDSEP
 70
    46
  9
$DIMATFIT
 70
     1
  9
$DIMFRAC
 70
     2
  9
$DIMLDRBLK
  1

  9
$DIMLUNIT
 70
     5
  9
$DIMLWD
 70
    -2
  9
$DIMLWE
 70
    -2
  9
$DIMTMOVE
 70
     1
  9
$LUNITS
 70
     5
  9
$LUPREC
 70
     4
  9
$SKETCHINC
 40
0.1
  9
$FILLETRAD
 40
0.0
  9
$AUNITS
 70
     0
  9
$AUPREC
 70
     1
  9
$MENU
  1
acad
  9
$ELEVATION
 40
0.0
  9
$PELEVATION
 40
0.0
  9
$THICKNESS
 40
0.0
  9
$LIMCHECK
 70
     0
  9
$CHAMFERA
 40
0.75
  9
$CHAMFERB
 40
0.75
  9
$CHAMFERC
 40
0.0
  9
$CHAMFERD
 40
0.0
  9
$SKPOLY
 70
     0
  9
$TDCREATE
 40
2451085.664838310
  9
$TDUCREATE
 40
2451085.831504977
  9
$TDUPDATE
 40
2451660.599399768
  9
$TDUUPDATE
 40
2451660.766066435
  9
$TDINDWG
 40
2.5229152778
  9
$TDUSRTIMER
 40
2.5229152778
  9
$USRTIMER
 70
     1
  9
$ANGBASE
 50
0.0
  9
$ANGDIR
 70
     0
  9
$PDMODE
 70
     0
  9
$PDSIZE
 40
0.0
  9
$PLINEWID
 40
0.0
  9
$SPLFRAME
 70
     0
  9
$SPLINETYPE
 70
     6
  9
$SPLINESEGS
 70
     8
  9
$HANDSEED
  5
B3A45
  9
$SURFTAB1
 70
     6
  9
$SURFTAB2
 70
     6
  9
$SURFTYPE
 70
     6
  9
$SURFU
 70
     6
  9
$SURFV
 70
     6
  9
$UCSBASE
  2

  9
$UCSNAME
  2

  9
$UCSORG
 10
0.0
 20
0.0
 30
0.0
  9
$UCSXDIR
 10
1.0
 20
0.0
 30
0.0
  9
$UCSYDIR
 10
0.0
 20
1.0
 30
0.0
  9
$UCSORTHOREF
  2

  9
$UCSORTHOVIEW
 70
     0
  9
$UCSORGTOP
 10
0.0
 20
0.0
 30
0.0
  9
$UCSORGBOTTOM
 10
0.0
 20
0.0
 30
0.0
  9
$UCSORGLEFT
 10
0.0
 20
0.0
 30
0.0
  9
$UCSORGRIGHT
 10
0.0
 20
0.0
 30
0.0
  9
$UCSORGFRONT
 10
0.0
 20
0.0
 30
0.0
  9
$UCSORGBACK
 10
0.0
 20
0.0
 30
0.0
  9
$PUCSBASE
  2

  9
$PUCSNAME
  2

  9
$PUCSORG
 10
0.0
 20
0.0
 30
0.0
  9
$PUCSXDIR
 10
1.0
 20
0.0
 30
0.0
  9
$PUCSYDIR
 10
0.0
 20
1.0
 30
0.0
  9
$PUCSORTHOREF
  2

  9
$PUCSORTHOVIEW
 70
     0
  9
$PUCSORGTOP
 10
0.0
 20
0.0
 30
0.0
  9
$PUCSORGBOTTOM
 10
0.0
 20
0.0
 30
0.0
  9
$PUCSORGLEFT
 10
0.0
 20
0.0
 30
0.0
  9
$PUCSORGRIGHT
 10
0.0
 20
0.0
 30
0.0
  9
$PUCSORGFRONT
 10
0.0
 20
0.0
 30
0.0
  9
$PUCSORGBACK
 10
0.0
 20
0.0
 30
0.0
  9
$USERI1
 70
     0
  9
$USERI2
 70
     0
  9
$USERI3
 70
     0
  9
$USERI4
 70
     0
  9
$USERI5
 70
     0
  9
$USERR1
 40
0.0
  9
$USERR2
 40
0.0
  9
$USERR3
 40
0.0
  9
$USERR4
 40
0.0
  9
$USERR5
 40
0.0
  9
$WORLDVIEW
 70
     1
  9
$SHADEDGE
 70
     1
  9
$SHADEDIF
 70
    70
  9
$TILEMODE
 70
     1
  9
$MAXACTVP
 70
    16
  9
$PINSBASE
 10
0.0
 20
0.0
 30
0.0
  9
$PLIMCHECK
 70
     0
  9
$PEXTMIN
 10
1.000000000000000E+20
 20
1.000000000000000E+20
 30
1.000000000000000E+20
  9
$PEXTMAX
 10
-1.000000000000000E+20
 20
-1.000000000000000E+20
 30
-1.000000000000000E+20
  9
$PLIMMIN
 10
0.0
 20
0.0
  9
$PLIMMAX
 10
12.0
 20
9.0
  9
$UNITMODE
 70
     0
  9
$VISRETAIN
 70
     0
  9
$PLINEGEN
 70
     0
  9
$PSLTSCALE
 70
     1
  9
$TREEDEPTH
 70
  3020
  9
$CMLSTYLE
  2
STANDARD
  9
$CMLJUST
 70
     0
  9
$CMLSCALE
 40
1.0
  9
$PROXYGRAPHICS
 70
     1
  9
$MEASUREMENT
 70
     0
  9
$CELWEIGHT
370
    -1
  9
$ENDCAPS
280
     0
  9
$JOINSTYLE
280
     0
  9
$LWDISPLAY
290
     0
  9
$INSUNITS
 70
     0
  9
$HYPERLINKBASE
  1

  9
$STYLESHEET
  1

  9
$XEDIT
290
     1
  9
$CEPSNTYPE
380
     0
  9
$PSTYLEMODE
290
     1
  9
$FINGERPRINTGUID
  2
{A6232B84-9B2E-11D3-8DA4-00A0C981A35F}
  9
$VERSIONGUID
  2
{580290F2-19C2-11D4-8DA4-00A0C981A35F}
  9
$EXTNAMES
290
     1
  9
$PSVPSCALE
 40
0.0
  9
$OLESTARTUP
290
     0
  0
ENDSEC
  0
SECTION
  2
CLASSES
  0
CLASS
  1
DICTIONARYVAR
  2
AcDbDictionaryVar
  3
AutoCAD 2000
 90
    32768
280
     0
281
     0
  0
CLASS
  1
LWPOLYLINE
  2
AcDbPolyline
  3
AutoCAD 2000
 90
    32768
280
     0
281
     1
  0
CLASS
  1
RASTERVARIABLES
  2
AcDbRasterVariables
  3
ISM
 90
    32768
280
     0
281
     0
  0
CLASS
  1
ACDBDICTIONARYWDFLT
  2
AcDbDictionaryWithDefault
  3
AutoCAD 2000
 90
        0
280
     0
281
     0
  0
CLASS
  1
ACDBPLACEHOLDER
  2
AcDbPlaceHolder
  3
AutoCAD 2000
 90
        0
280
     0
281
     0
  0
CLASS
  1
LAYOUT
  2
AcDbLayout
  3
AutoCAD 2000
 90
        0
280
     0
281
     0
  0
CLASS
  1
ACME_DOCUMENT
  2
AcMeDbDoc
  3
AcMeServices
 90
    32768
280
     1
281
     0
  0
CLASS
  1
ACMESCOPE
  2
AcMeScope
  3
AcMeServices
 90
    32768
280
     1
281
     0
  0
CLASS
  1
ACMECOMMANDHISTORY
  2
AcMeCommandHistory
  3
AcMeServices
 90
    32768
280
     1
281
     0
  0
CLASS
  1
ACIMSYSVARMAN
  2
AcImSysVarManager
  3
AcMeServices
 90
    32768
280
     1
281
     0
  0
CLASS
  1
ACIMREALSYSVAR
  2
AcImRealSysVar
  3
AcMeServices
 90
    32768
280
     1
281
     0
  0
CLASS
  1
ACIMINTSYSVAR
  2
AcImIntSysVar
  3
AcMeServices
 90
    32768
280
     1
281
     0
  0
CLASS
  1
ACMEDRAWINGMAN
  2
AcMeDrawingMan
  3
AcMeServices
 90
    32768
280
     1
281
     0
  0
CLASS
  1
ACMEVIEW
  2
AcMeView
  3
AcMeServices
 90
    32768
280
     1
281
     0
  0
CLASS
  1
ACDBENTITYCACHE
  2
AcMeEntityCache
  3
AcMeServices
 90
    32768
280
     1
281
     0
  0
CLASS
  1
GSMANAGER
  2
AcMeGSManager
  3
AcMeServices
 90
    32768
280
     1
281
     0
  0
CLASS
  1
AmdtInternalReactor
  2
AmdtInternalReactor
  3
AcMeServices
 90
    32768
280
     1
281
     0
  0
CLASS
  1
ACMESTATEMGR
  2
AcMeStateMgr
  3
AcMeServices
 90
    32768
280
     1
281
     0
  0
CLASS
  1
ACGREFMASTER
  2
AcGrefMaster
  3
AcAttribServices
 90
    32768
280
     1
281
     0
  0
CLASS
  1
AM_DRAWING_MGR
  2
AcDmDwgMgr
  3
AcMechDwgViewMgmt
 90
    32768
280
     1
281
     0
  0
CLASS
  1
AM_DWG_DOCUMENT
  2
AcDmDwgDocument
  3
AcMechDwgViewMgmt
 90
    32768
280
     1
281
     0
  0
CLASS
  1
AM_DWG_SHEET
  2
AcDmSheet
  3
AcMechDwgViewMgmt
 90
    32768
280
     1
281
     0
  0
CLASS
  1
AM_VIEWDIMPARMAP
  2
AcDmViewDimParMap
  3
AcMechDwgViewMgmt
 90
    32768
280
     1
281
     0
  0
CLASS
  1
AM_DWGMGR_NAME
  2
AcDmDwgMgrName
  3
AcMechDwgViewMgmt
 90
    32768
280
     1
281
     0
  0
CLASS
  1
ACME_DATABASE
  2
AcMeDbDatabase
  3
AcMeServices
 90
    32768
280
     1
281
     0
  0
CLASS
  1
ACRFINSADJUSTERMGR
  2
AcRfInsAdjusterMgr
  3
AcMeServices
 90
    32768
280
     1
281
     0
  0
CLASS
  1
ACGREFMASTER
  2
AcGrefacadMaster
  3
AcGrefServices
 90
    32768
280
     1
281
     0
  0
CLASS
  1
AMDTMENUSTATEMGR
  2
AmdtMenuStateMgr
  3
McadcomServices
 90
    32768
280
     1
281
     0
  0
CLASS
  1
AMDTMCOMMENUSTATE
  2
AmdtMcomMenuState
  3
McadcomServices
 90
    32768
280
     1
281
     0
  0
CLASS
  1
ASAPP
  2
AcAsAppObject
  3
AutoSurfServices
 90
    32768
280
     1
281
     0
  0
CLASS
  1
IM_STATIC_MAN
  2
AcImStaticVarManager
  3
AcMeServices
 90
    32768
280
     1
281
     0
  0
CLASS
  1
ACIMSTRSYSVAR
  2
AcImStrSysVar
  3
AcMeServices
 90
    32768
280
     1
281
     0
  0
CLASS
  1
ACIMDBLSTATICVAR
  2
AcImDblStaticVar
  3
AcMeServices
 90
    32768
280
     1
281
     0
  0
CLASS
  1
ACIMSTRSTATICVAR
  2
AcImStrStaticVar
  3
AcMeServices
 90
    32768
280
     1
281
     0
  0
CLASS
  1
ACIMINTSTATICVAR
  2
AcImIntStaticVar
  3
AcMeServices
 90
    32768
280
     1
281
     0
  0
CLASS
  1
ACADGREFMODULE
  2
AcAdGrefModule
  3
AdGrefServices
 90
    32768
280
     1
281
     0
  0
CLASS
  1
AMIMASTER
  2
AmiMaster
  3
AmiServices
 90
    32768
280
     1
281
     0
  0
CLASS
  1
ACASGREFMASTER
  2
AcAsGrefMaster
  3
AutoSurfResolverServices
 90
    32768
280
     1
281
     0
  0
CLASS
  1
MAPIAMMOUDLE
  2
MApiAmModule
  3
MApiAmServices
 90
    32768
280
     1
281
     0
  0
CLASS
  1
AMDTDMMENUSTATE
  2
AmdtDmMenuState
  3
AcMechDwgViewMgmt
 90
    32768
280
     1
281
     0
  0
CLASS
  1
AMDTADMENUSTATE
  2
AmdtAdMenuState
  3
DesignerServices
 90
    32768
280
     1
281
     0
  0
CLASS
  1
ADAPPL
  2
AcAdAppl
  3
DesignerServices
 90
    32768
280
     1
281
     0
  0
CLASS
  1
DEPMGR
  2
AcAdDepMgr
  3
DesignerServices
 90
    32768
280
     1
281
     0
  0
CLASS
  1
PARAMMGR
  2
AcAdParamMgr
  3
DesignerServices
 90
    32768
280
     1
281
     0
  0
CLASS
  1
PARAMSCOPE
  2
AcAdParamScope
  3
DesignerServices
 90
    32768
280
     1
281
     0
  0
CLASS
  1
NAMEDAPPL
  2
AcAdNamedAppl
  3
DesignerServices
 90
    32768
280
     1
281
     0
  0
CLASS
  1
ADHNTMPLT
  2
AdHoleNoteTemplateMgr
  3
DesignerServices
 90
    32768
280
     1
281
     0
  0
CLASS
  1
AM_HNTEMPLATE_MGR_NAME
  2
AdHoleNoteTemplateMgrName
  3
DesignerServices
 90
    32768
280
     1
281
     0
  0
CLASS
  1
AMDTAMMENUSTATE
  2
AmdtAmMenuState
  3
DesignerAssemblies
 90
    32768
280
     1
281
     0
  0
CLASS
  1
ACAMPROJECT
  2
AcAmProject
  3
DesignerAssemblies
 90
    32768
280
     1
281
     0
  0
CLASS
  1
ACAMGRCOMPDEF
  2
AcAmGrCompDef
  3
DesignerAssemblies
 90
    32768
280
     1
281
     0
  0
CLASS
  1
ACCMCONTEXT
  2
AcCmContext
  3
DesignerAssemblies
 90
    32768
280
     1
281
     0
  0
CLASS
  1
ACAMCOMPDEF
  2
AcAmCompDef
  3
DesignerAssemblies
 90
    32768
280
     1
281
     0
  0
CLASS
  1
ACAMCOMPDEFMGR
  2
AcAmCompDefMgr
  3
DesignerAssemblies
 90
    32768
280
     1
281
     0
  0
CLASS
  1
AMCONTEXTMGR
  2
AcAmContextMgr
  3
DesignerAssemblies
 90
    32768
280
     1
281
     0
  0
CLASS
  1
ACAMCONTEXTMODELER
  2
AcAmContextModeler
  3
DesignerAssemblies
 90
    32768
280
     1
281
     0
  0
CLASS
  1
MAPIADMODULE
  2
MApiAdModule
  3
MApiAdServices
 90
    32768
280
     1
281
     0
  0
CLASS
  1
ACMDATADICTIONARY
  2
AcmDataDictionary
  3
"AcmSymBB|Product Description: AutoCAD Mechanical 2000|Company: Autodesk"
 90
    32768
280
     1
281
     0
  0
CLASS
  1
ACMDATAENTRYBLOCK
  2
AcmDataEntryBlock
  3
"AcmSymBB|Product Description: AutoCAD Mechanical 2000|Company: Autodesk"
 90
    32768
280
     1
281
     0
  0
CLASS
  1
AMDTBROWSERDBTAB
  2
AmdtBrowserDbTab
  3
McadcomServices
 90
    32768
280
     1
281
     0
  0
CLASS
  1
CBROWSERAPPOBJECT
  2
CBrowserAppObject
  3
McadcomServices
 90
    32768
280
     1
281
     0
  0
CLASS
  1
DM_PLACEHOLDER
  2
AcDmSelsetPlaceholder
  3
AcMechDwgViewMgmt
 90
    32768
280
     1
281
     0
  0
CLASS
  1
CATALOGSTATE
  2
AcAmCatalogState
  3
DesignerAssemblies
 90
    32768
280
     1
281
     0
  0
CLASS
  1
ACAMGRCOMPDEFSET
  2
AcAmGrCompDefSet
  3
DesignerAssemblies
 90
    32768
280
     1
281
     0
  0
CLASS
  1
AMGOBJPROPCFG
  2
AmgObjPropCfg
  3
"AmgLay|Product Description: AutoCAD Mechanical 2000|Company: Autodesk"
 90
    32769
280
     1
281
     0
  0
CLASS
  1
LAYER_INDEX
  2
AcDbLayerIndex
  3
AutoCAD 2000
 90
    32768
280
     0
281
     0
  0
CLASS
  1
IDBUFFER
  2
AcDbIdBuffer
  3
AutoCAD 2000
 90
    32768
280
     0
281
     0
  0
CLASS
  1
ACRFATTGENMGR
  2
AcRfAttGeneralMgr
  3
AcAttribServices
 90
    32768
280
     1
281
     0
  0
CLASS
  1
PLOTSETTINGS
  2
AcDbPlotSettings
  3
AutoCAD 2000
 90
    32768
280
     0
281
     0
  0
CLASS
  1
VBA_PROJECT
  2
AcDbVbaProject
  3
acadvba
 90
        0
280
     0
281
     0
  0
CLASS
  1
LONG_TRANSACTION
  2
AcDbLongTransaction
  3
AutoCAD 2000
 90
    32768
280
     0
281
     0
  0
CLASS
  1
LWPOLYLINE
  2
AcDbPolyline
  3
AutoCAD 2000
 90
    32768
280
     0
281
     1
  0
CLASS
  1
HATCH
  2
AcDbHatch
  3
AutoCAD 2000
 90
    32768
280
     0
281
     1
  0
CLASS
  1
XRECORD
  2
AcDbXrecord
  3
AutoCAD 2000
 90
    32768
280
     0
281
     0
  0
CLASS
  1
LONG_TRANSACTION
  2
AcDbLongTransaction
  3
AutoCAD 2000
 90
    32768
280
     0
281
     0
  0
CLASS
  1
LWPOLYLINE
  2
AcDbPolyline
  3
AutoCAD 2000
 90
    32768
280
     0
281
     1
  0
CLASS
  1
HATCH
  2
AcDbHatch
  3
AutoCAD 2000
 90
    32768
280
     0
281
     1
  0
CLASS
  1
XRECORD
  2
AcDbXrecord
  3
AutoCAD 2000
 90
    32768
280
     0
281
     0
  0
ENDSEC
  0
SECTION
  2
TABLES
  0
TABLE
  2
VPORT
  5
1B
330
0
100
AcDbSymbolTable
 70
     2
  0
VPORT
  5
B3A44
330
1B
100
AcDbSymbolTableRecord
100
AcDbViewportTableRecord
  2
*Active
 70
     0
 10
0.0
 20
0.0
 11
1.0
 21
1.0
 12
703.407161256861
 22
294.1790596942601
 13
0.0
 23
0.0
 14
1.0
 24
1.0
 15
0.0
 25
0.0
 16
0.0
 26
0.0
 36
1.0
 17
-64.46234487877643
 27
33.0238264231553
 37
6.148717398612387
 40
76.62504273549996
 41
1.413068844807467
 42
50.0
 43
-6.148717398612387
 44
-6.148717398612387
 50
0.0
 51
0.0
 71
     0
 72
 20000
 73
     1
 74
     1
 75
     0
 76
     0
 77
     0
 78
     0
281
     0
 65
     1
110
0.0
120
0.0
130
0.0
111
1.0
121
0.0
131
0.0
112
0.0
122
1.0
132
0.0
 79
     0
146
0.0
  0
ENDTAB
  0
TABLE
  2
LTYPE
  5
16
330
0
100
AcDbSymbolTable
 70
     1
  0
LTYPE
  5
17
330
16
100
AcDbSymbolTableRecord
100
AcDbLinetypeTableRecord
  2
BYBLOCK
 70
     0
  3

 72
    65
 73
     0
 40
0.0
  0
LTYPE
  5
18
330
16
100
AcDbSymbolTableRecord
100
AcDbLinetypeTableRecord
  2
BYLAYER
 70
     0
  3

 72
    65
 73
     0
 40
0.0
  0
LTYPE
  5
9
330
16
100
AcDbSymbolTableRecord
100
AcDbLinetypeTableRecord
  2
CONTINUOUS
 70
     0
  3
Solid line
 72
    65
 73
     0
 40
0.0
  0
ENDTAB
  0
TABLE
  2
LAYER
  5
11
330
0
100
AcDbSymbolTable
 70
     6
  0
LAYER
  5
5
330
11
100
AcDbSymbolTableRecord
100
AcDbLayerTableRecord
  2
0
 70
     0
 62
     7
  6
CONTINUOUS
370
    -3
390
6
  0
LAYER
  5
24
330
11
100
AcDbSymbolTableRecord
100
AcDbLayerTableRecord
  2
A1
 70
     0
 62
     7
  6
CONTINUOUS
370
    -3
390
6
  0
LAYER
  5
D2
330
11
100
AcDbSymbolTableRecord
100
AcDbLayerTableRecord
  2
DEFPOINTS
 70
     0
 62
     7
  6
CONTINUOUS
290
     0
370
    -3
390
6
  0
LAYER
  5
90342
330
11
100
AcDbSymbolTableRecord
100
AcDbLayerTableRecord
  2
ASHADE
 70
     4
 62
     7
  6
CONTINUOUS
370
    -3
390
6
  0
LAYER
  5
98A37
330
11
100
AcDbSymbolTableRecord
100
AcDbLayerTableRecord
  2
PLINE
 70
     0
 62
     7
  6
CONTINUOUS
370
    -3
390
6
  0
LAYER
  5
B3846
330
11
100
AcDbSymbolTableRecord
100
AcDbLayerTableRecord
  2
LINEWORK
 70
     0
 62
    41
  6
CONTINUOUS
370
    -3
390
6
  0
ENDTAB
  0
TABLE
  2
STYLE
  5
12
330
0
100
AcDbSymbolTable
 70
     3
  0
STYLE
  5
13
330
12
100
AcDbSymbolTableRecord
100
AcDbTextStyleTableRecord
  2
STANDARD
 70
     0
 40
0.0
 41
1.0
 50
0.0
 71
     0
 42
0.5
  3
unvr55w.ttf
  4

1001
ACAD
1000
Univers
1071
       34
  0
STYLE
  5
B3847
330
12
100
AcDbSymbolTableRecord
100
AcDbTextStyleTableRecord
  2
ROMANC
 70
     0
 40
0.0
 41
1.0
 50
0.0
 71
     0
 42
0.5
  3
TIMESBD.TTF
  4

1001
ACAD
1000
Times New Roman
1071
 33554450
  0
STYLE
  5
B3848
330
12
100
AcDbSymbolTableRecord
100
AcDbTextStyleTableRecord
  2
barcoder
 70
     0
 40
0.0
 41
1.0
 50
0.0
 71
     0
 42
4.5625
  3
cw_barcd.ttf
  4

1001
ACAD
1000
Barcoder
1071
 33554434
  0
ENDTAB
  0
TABLE
  2
VIEW
  5
19
330
0
100
AcDbSymbolTable
 70
     0
  0
ENDTAB
  0
TABLE
  2
UCS
  5
1A
330
0
100
AcDbSymbolTable
 70
     0
  0
ENDTAB
  0
TABLE
  2
APPID
  5
1D
330
0
100
AcDbSymbolTable
 70
    20
  0
APPID
  5
14
330
1D
100
AcDbSymbolTableRecord
100
AcDbRegAppTableRecord
  2
ACAD
 70
     0
  0
APPID
  5
1BD0
330
1D
100
AcDbSymbolTableRecord
100
AcDbRegAppTableRecord
  2
GENIUS_GENDIM_13
 70
     0
  0
APPID
  5
1BD1
330
1D
100
AcDbSymbolTableRecord
100
AcDbRegAppTableRecord
  2
GENIUS_GENDTOL_13
 70
     0
  0
APPID
  5
1BD2
330
1D
100
AcDbSymbolTableRecord
100
AcDbRegAppTableRecord
  2
GENIUS_GE3DTOL_13
 70
     0
  0
APPID
  5
1BD3
330
1D
100
AcDbSymbolTableRecord
100
AcDbRegAppTableRecord
  2
MCAD_NO_VIS
 70
     0
  0
APPID
  5
1BD4
330
1D
100
AcDbSymbolTableRecord
100
AcDbRegAppTableRecord
  2
ACAD_TEMP_GRAPHIC
 70
     0
  0
APPID
  5
1BD5
330
1D
100
AcDbSymbolTableRecord
100
AcDbRegAppTableRecord
  2
AD_DRAW
 70
     0
  0
APPID
  5
1BD6
330
1D
100
AcDbSymbolTableRecord
100
AcDbRegAppTableRecord
  2
ACATTRIBSERVICES
 70
     0
  0
APPID
  5
1BD7
330
1D
100
AcDbSymbolTableRecord
100
AcDbRegAppTableRecord
  2
ASURF_PCURVE_APPNAME
 70
     0
  0
APPID
  5
1BD8
330
1D
100
AcDbSymbolTableRecord
100
AcDbRegAppTableRecord
  2
DESIGNERASSEMBLIES
 70
     0
  0
APPID
  5
1BD9
330
1D
100
AcDbSymbolTableRecord
100
AcDbRegAppTableRecord
  2
ACADM_DIM_EDIT
 70
     0
  0
APPID
  5
93F1
330
1D
100
AcDbSymbolTableRecord
100
AcDbRegAppTableRecord
  2
AVE_MATERIAL
 70
     0
  0
APPID
  5
9034A
330
1D
100
AcDbSymbolTableRecord
100
AcDbRegAppTableRecord
  2
ADCADD_ZZ
 70
     0
  0
APPID
  5
9034B
330
1D
100
AcDbSymbolTableRecord
100
AcDbRegAppTableRecord
  2
SDSK_PMN
 70
     0
  0
APPID
  5
9034C
330
1D
100
AcDbSymbolTableRecord
100
AcDbRegAppTableRecord
  2
AVE_RENDER
 70
     0
  0
APPID
  5
9034D
330
1D
100
AcDbSymbolTableRecord
100
AcDbRegAppTableRecord
  2
AVE_FINISH
 70
     0
  0
APPID
  5
9034E
330
1D
100
AcDbSymbolTableRecord
100
AcDbRegAppTableRecord
  2
AVE_ENTITY_MATERIAL
 70
     0
  0
APPID
  5
9034F
330
1D
100
AcDbSymbolTableRecord
100
AcDbRegAppTableRecord
  2
AVE_GLOBAL
 70
     0
  0
APPID
  5
90350
330
1D
100
AcDbSymbolTableRecord
100
AcDbRegAppTableRecord
  2
RAK
 70
     0
  0
APPID
  5
B11B8
330
1D
100
AcDbSymbolTableRecord
100
AcDbRegAppTableRecord
  2
DCO15
 70
     0
  0
ENDTAB
  0
TABLE
  2
DIMSTYLE
  5
1E
330
0
100
AcDbSymbolTable
 70
     1
100
AcDbDimStyleTable
 71
     0
  0
DIMSTYLE
105
1F
102
{ACAD_REACTORS
330
B36D5
330
B36E3
330
B36F1
330
B36FF
330
B370D
102
}
330
1E
100
AcDbSymbolTableRecord
100
AcDbDimStyleTableRecord
  2
STANDARD
 70
     0
  3
"
 41
0.5
 42
1.0
 43
0.0625
 44
0.25
 73
     0
 74
     0
 77
     3
140
1.0
141
0.0
146
0.125
147
0.125
171
     0
274
     0
276
     2
277
     5
285
     2
286
     2
289
     0
340
13
  0
ENDTAB
  0
TABLE
  2
BLOCK_RECORD
  5
1
330
0
100
AcDbSymbolTable
 70
     9
  0
BLOCK_RECORD
  5
2
102
{ACAD_XDICTIONARY
360
3
102
}
330
1
100
AcDbSymbolTableRecord
100
AcDbBlockTableRecord
  2
*MODEL_SPACE
340
B
  0
BLOCK_RECORD
  5
D
102
{ACAD_XDICTIONARY
360
B38B4
102
}
330
1
100
AcDbSymbolTableRecord
100
AcDbBlockTableRecord
  2
*PAPER_SPACE
340
10
  0
BLOCK_RECORD
  5
8558B
330
1
100
AcDbSymbolTableRecord
100
AcDbBlockTableRecord
  2
AVE_RENDER
340
0
102
{BLKREFS
331
92A34
331
92A35
331
92A36
331
92A37
331
92A38
331
92A39
331
92A3A
331
92A3B
331
92A8C
331
92A8D
331
92A8E
331
92A8F
331
92A90
331
92A91
331
92A92
331
92A93
331
92A95
331
92A96
331
92A97
331
92A98
331
92A99
331
92A9A
331
92A9B
331
92A9C
331
92A9E
331
92A9F
331
92AA0
331
92AA1
331
92AA2
331
92AA3
331
92AA4
331
92AA5
331
92AA7
331
92AA8
331
92AA9
331
92AAA
331
92AAB
331
92AAC
331
92AAD
331
92AAE
331
92AB0
331
92AB1
331
92AB2
331
92AB3
331
92AB4
331
92AB5
331
92AB6
331
92AB7
331
92AB9
331
92ABA
331
92ABB
331
92ABC
331
92ABD
331
92ABE
331
92ABF
331
92AC0
331
92AC2
331
92AC3
331
92AC4
331
92AC5
331
92AC6
331
92AC7
331
92AC8
331
92AC9
331
92ACB
331
92ACC
331
92ACD
331
92ACE
331
92ACF
331
92AD0
331
92AD1
331
92AD2
331
92AD4
331
92AD5
331
92AD6
331
92AD7
331
92AD8
331
92AD9
331
92ADA
331
92ADB
331
92ADD
331
92ADE
331
92ADF
331
92AE0
331
92AE1
331
92AE2
331
92AE3
331
92AE4
331
92AE6
331
92AE7
331
92AE8
331
92AE9
331
92AEA
331
92AEB
331
92AEC
331
92AED
102
}
  0
BLOCK_RECORD
  5
8558E
330
1
100
AcDbSymbolTableRecord
100
AcDbBlockTableRecord
  2
AVE_GLOBAL
340
0
102
{BLKREFS
331
92A3C
331
92A3D
331
92A57
331
92A58
331
92A72
331
92A94
331
92A9D
331
92AA6
331
92AAF
331
92AB8
331
92AC1
331
92ACA
331
92AD3
331
92ADC
331
92AE5
331
92AEE
102
}
  0
BLOCK_RECORD
  5
B36D6
330
1
100
AcDbSymbolTableRecord
100
AcDbBlockTableRecord
  2
*D2
340
0
  0
BLOCK_RECORD
  5
B36E4
330
1
100
AcDbSymbolTableRecord
100
AcDbBlockTableRecord
  2
*D3
340
0
  0
BLOCK_RECORD
  5
B36F2
330
1
100
AcDbSymbolTableRecord
100
AcDbBlockTableRecord
  2
*D4
340
0
  0
BLOCK_RECORD
  5
B3700
330
1
100
AcDbSymbolTableRecord
100
AcDbBlockTableRecord
  2
*D5
340
0
  0
BLOCK_RECORD
  5
B370E
330
1
100
AcDbSymbolTableRecord
100
AcDbBlockTableRecord
  2
*D6
340
0
  0
BLOCK_RECORD
  5
B37D9
330
1
100
AcDbSymbolTableRecord
100
AcDbBlockTableRecord
  2
PROFILE LOGO
340
0
102
{BLKREFS
331
B37F4
102
}
  0
BLOCK_RECORD
  5
B3849
330
1
100
AcDbSymbolTableRecord
100
AcDbBlockTableRecord
  2
TSFORMB
340
0
102
{BLKREFS
331
B3877
102
}
  0
ENDTAB
  0
ENDSEC
  0
SECTION
  2
BLOCKS
  0
BLOCK
  5
4
330
2
100
AcDbEntity
  8
0
100
AcDbBlockBegin
  2
*MODEL_SPACE
 70
     2
 10
0.0
 20
0.0
 30
0.0
  3
*MODEL_SPACE
  1

  0
ENDBLK
  5
A
330
2
100
AcDbEntity
  8
0
100
AcDbBlockEnd
  0
BLOCK
  5
E
330
D
100
AcDbEntity
 67
     1
  8
0
100
AcDbBlockBegin
  2
*PAPER_SPACE
 70
     0
 10
0.0
 20
0.0
 30
0.0
  3
*PAPER_SPACE
  1

  0
ENDBLK
  5
F
330
D
100
AcDbEntity
 67
     1
  8
0
100
AcDbBlockEnd
  0
BLOCK
  5
8558C
330
8558B
100
AcDbEntity
  8
0
100
AcDbBlockBegin
  2
AVE_RENDER
 70
     0
 10
0.0
 20
0.0
 30
0.0
  3
AVE_RENDER
  1
AVE_RENDER
  0
ENDBLK
  5
8558D
330
8558B
100
AcDbEntity
  8
0
100
AcDbBlockEnd
  0
BLOCK
  5
8558F
330
8558E
100
AcDbEntity
  8
0
100
AcDbBlockBegin
  2
AVE_GLOBAL
 70
     0
 10
0.0
 20
0.0
 30
0.0
  3
AVE_GLOBAL
  1
AVE_GLOBAL
  0
ENDBLK
  5
85590
330
8558E
100
AcDbEntity
  8
0
100
AcDbBlockEnd
  0
BLOCK
  5
B36E1
330
B36D6
100
AcDbEntity
  8
0
 62
     7
100
AcDbBlockBegin
  2
*D2
 70
     1
 10
0.0
 20
0.0
 30
0.0
  3
*D2
  1

  0
LINE
  5
B3A0B
330
B36D6
100
AcDbEntity
  8
PLINE
 62
     0
100
AcDbLine
 10
623.504918381486
 20
311.050346918686
 30
0.0
 11
623.504918381486
 21
306.9391447811711
 31
0.0
  0
LINE
  5
B3A0C
330
B36D6
100
AcDbEntity
  8
PLINE
 62
     0
100
AcDbLine
 10
635.879918381486
 20
311.050346918686
 30
0.0
 11
635.879918381486
 21
306.9391447811711
 31
0.0
  0
LINE
  5
B3A0D
330
B36D6
100
AcDbEntity
  8
PLINE
 62
     0
100
AcDbLine
 10
624.254918381486
 20
307.3141447811711
 30
0.0
 11
625.0363751653928
 21
307.3141447811711
 31
0.0
  0
LINE
  5
B3A0E
330
B36D6
100
AcDbEntity
  8
PLINE
 62
     0
100
AcDbLine
 10
635.129918381486
 20
307.3141447811711
 30
0.0
 11
634.4701101051518
 21
307.3141447811711
 31
0.0
  0
MTEXT
  5
B3A0F
330
B36D6
100
AcDbEntity
  8
PLINE
 62
     0
100
AcDbMText
 10
629.7532426352724
 20
307.3141447811711
 30
0.0
 40
1.5
 41
0.0
 71
     5
 72
     1
  1
\A1;12 3/8"
 73
     1
 44
1.0
  0
SOLID
  5
B3A10
330
B36D6
100
AcDbEntity
  8
PLINE
 62
     0
100
AcDbTrace
 10
624.254918381486
 20
307.4391447811711
 30
0.0
 11
624.254918381486
 21
307.1891447811711
 31
0.0
 12
623.504918381486
 22
307.3141447811711
 32
0.0
 13
623.504918381486
 23
307.3141447811711
 33
0.0
  0
SOLID
  5
B3A11
330
B36D6
100
AcDbEntity
  8
PLINE
 62
     0
100
AcDbTrace
 10
635.129918381486
 20
307.4391447811711
 30
0.0
 11
635.129918381486
 21
307.1891447811711
 31
0.0
 12
635.879918381486
 22
307.3141447811711
 32
0.0
 13
635.879918381486
 23
307.3141447811711
 33
0.0
  0
POINT
  5
B3A12
330
B36D6
100
AcDbEntity
  8
DEFPOINTS
 62
     0
100
AcDbPoint
 10
623.504918381486
 20
312.550346918686
 30
0.0
  0
POINT
  5
B3A13
330
B36D6
100
AcDbEntity
  8
DEFPOINTS
 62
     0
100
AcDbPoint
 10
635.879918381486
 20
312.550346918686
 30
0.0
  0
POINT
  5
B3A14
330
B36D6
100
AcDbEntity
  8
DEFPOINTS
 62
     0
100
AcDbPoint
 10
635.879918381486
 20
307.3141447811711
 30
0.0
  0
ENDBLK
  5
B36E2
330
B36D6
100
AcDbEntity
  8
0
 62
     7
100
AcDbBlockEnd
  0
BLOCK
  5
B36EF
330
B36E4
100
AcDbEntity
  8
0
 62
     7
100
AcDbBlockBegin
  2
*D3
 70
     1
 10
0.0
 20
0.0
 30
0.0
  3
*D3
  1

  0
LINE
  5
B3A15
330
B36E4
100
AcDbEntity
  8
PLINE
 62
     0
100
AcDbLine
 10
622.8802781727783
 20
322.6838691330176
 30
0.0
 11
622.8802781727783
 21
303.737841303604
 31
0.0
  0
LINE
  5
B3A16
330
B36E4
100
AcDbEntity
  8
PLINE
 62
     0
100
AcDbLine
 10
636.5045585901935
 20
322.6838691330174
 30
0.0
 11
636.5045585901935
 21
303.737841303604
 31
0.0
  0
LINE
  5
B3A17
330
B36E4
100
AcDbEntity
  8
PLINE
 62
     0
100
AcDbLine
 10
623.6302781727784
 20
304.112841303604
 30
0.0
 11
625.1431345119142
 21
304.112841303604
 31
0.0
  0
LINE
  5
B3A18
330
B36E4
100
AcDbEntity
  8
PLINE
 62
     0
100
AcDbLine
 10
635.7545585901934
 20
304.112841303604
 30
0.0
 11
634.5768694516732
 21
304.112841303604
 31
0.0
  0
MTEXT
  5
B3A19
330
B36E4
100
AcDbEntity
  8
PLINE
 62
     0
100
AcDbMText
 10
629.8600019817937
 20
304.112841303604
 30
0.0
 40
1.5
 41
0.0
 71
     5
 72
     1
  1
\A1;13 5/8"
 73
     1
 44
1.0
  0
SOLID
  5
B3A1A
330
B36E4
100
AcDbEntity
  8
PLINE
 62
     0
100
AcDbTrace
 10
623.6302781727784
 20
304.237841303604
 30
0.0
 11
623.6302781727784
 21
303.987841303604
 31
0.0
 12
622.8802781727783
 22
304.112841303604
 32
0.0
 13
622.8802781727783
 23
304.112841303604
 33
0.0
  0
SOLID
  5
B3A1B
330
B36E4
100
AcDbEntity
  8
PLINE
 62
     0
100
AcDbTrace
 10
635.7545585901934
 20
304.237841303604
 30
0.0
 11
635.7545585901934
 21
303.987841303604
 31
0.0
 12
636.5045585901935
 22
304.112841303604
 32
0.0
 13
636.5045585901935
 23
304.112841303604
 33
0.0
  0
POINT
  5
B3A1C
330
B36E4
100
AcDbEntity
  8
DEFPOINTS
 62
     0
100
AcDbPoint
 10
622.8802781727783
 20
324.1838691330176
 30
0.0
  0
POINT
  5
B3A1D
330
B36E4
100
AcDbEntity
  8
DEFPOINTS
 62
     0
100
AcDbPoint
 10
636.5045585901935
 20
324.1838691330174
 30
0.0
  0
POINT
  5
B3A1E
330
B36E4
100
AcDbEntity
  8
DEFPOINTS
 62
     0
100
AcDbPoint
 10
636.5045585901935
 20
304.112841303604
 30
0.0
  0
ENDBLK
  5
B36F0
330
B36E4
100
AcDbEntity
  8
0
 62
     7
100
AcDbBlockEnd
  0
BLOCK
  5
B36FD
330
B36F2
100
AcDbEntity
  8
0
 62
     7
100
AcDbBlockBegin
  2
*D4
 70
     1
 10
0.0
 20
0.0
 30
0.0
  3
*D4
  1

  0
LINE
  5
B3A1F
330
B36F2
100
AcDbEntity
  8
PLINE
 62
     0
100
AcDbLine
 10
621.0528352417473
 20
331.863475029353
 30
0.0
 11
621.0528352417473
 21
354.1080604909426
 31
0.0
  0
LINE
  5
B3A20
330
B36F2
100
AcDbEntity
  8
PLINE
 62
     0
100
AcDbLine
 10
638.3315119313238
 20
331.9696253901381
 30
0.0
 11
638.3315119313238
 21
354.1080604909426
 31
0.0
  0
LINE
  5
B3A21
330
B36F2
100
AcDbEntity
  8
PLINE
 62
     0
100
AcDbLine
 10
621.8028352417473
 20
353.7330604909425
 30
0.0
 11
624.7160952902143
 21
353.7330604909425
 31
0.0
  0
LINE
  5
B3A22
330
B36F2
100
AcDbEntity
  8
PLINE
 62
     0
100
AcDbLine
 10
637.5815119313239
 20
353.7330604909425
 30
0.0
 11
634.1498302299733
 21
353.7330604909425
 31
0.0
  0
MTEXT
  5
B3A23
330
B36F2
100
AcDbEntity
  8
PLINE
 62
     0
100
AcDbMText
 10
629.4329627600937
 20
353.7330604909425
 30
0.0
 40
1.5
 41
0.0
 71
     5
 72
     1
  1
\A1;17 1/4"
 73
     1
 44
1.0
  0
SOLID
  5
B3A24
330
B36F2
100
AcDbEntity
  8
PLINE
 62
     0
100
AcDbTrace
 10
621.8028352417473
 20
353.8580604909426
 30
0.0
 11
621.8028352417473
 21
353.6080604909425
 31
0.0
 12
621.0528352417473
 22
353.7330604909425
 32
0.0
 13
621.0528352417473
 23
353.7330604909425
 33
0.0
  0
SOLID
  5
B3A25
330
B36F2
100
AcDbEntity
  8
PLINE
 62
     0
100
AcDbTrace
 10
637.5815119313239
 20
353.8580604909426
 30
0.0
 11
637.5815119313239
 21
353.6080604909425
 31
0.0
 12
638.3315119313238
 22
353.7330604909425
 32
0.0
 13
638.3315119313238
 23
353.7330604909425
 33
0.0
  0
POINT
  5
B3A26
330
B36F2
100
AcDbEntity
  8
DEFPOINTS
 62
     0
100
AcDbPoint
 10
621.0528352417473
 20
330.3634750293531
 30
0.0
  0
POINT
  5
B3A27
330
B36F2
100
AcDbEntity
  8
DEFPOINTS
 62
     0
100
AcDbPoint
 10
638.3315119313238
 20
330.4696253901381
 30
0.0
  0
POINT
  5
B3A28
330
B36F2
100
AcDbEntity
  8
DEFPOINTS
 62
     0
100
AcDbPoint
 10
638.3315119313238
 20
353.7330604909425
 30
0.0
  0
ENDBLK
  5
B36FE
330
B36F2
100
AcDbEntity
  8
0
 62
     7
100
AcDbBlockEnd
  0
BLOCK
  5
B370B
330
B3700
100
AcDbEntity
  8
0
 62
     7
100
AcDbBlockBegin
  2
*D5
 70
     1
 10
0.0
 20
0.0
 30
0.0
  3
*D5
  1

  0
LINE
  5
B3A29
330
B3700
100
AcDbEntity
  8
PLINE
 62
     0
100
AcDbLine
 10
637.379918381486
 20
312.550346918686
 30
0.0
 11
649.0247717913449
 21
312.550346918686
 31
0.0
  0
LINE
  5
B3A2A
330
B3700
100
AcDbEntity
  8
PLINE
 62
     0
100
AcDbLine
 10
637.8769183814861
 20
324.5345577242564
 30
0.0
 11
649.0247717913449
 21
324.5345577242563
 31
0.0
  0
LINE
  5
B3A2B
330
B3700
100
AcDbEntity
  8
PLINE
 62
     0
100
AcDbLine
 10
648.6497717913449
 20
313.300346918686
 30
0.0
 11
648.6497717913449
 21
316.7941288925116
 31
0.0
  0
LINE
  5
B3A2C
330
B3700
100
AcDbEntity
  8
PLINE
 62
     0
100
AcDbLine
 10
648.6497717913449
 20
323.7845577242564
 30
0.0
 11
648.6497717913449
 21
319.8164534849992
 31
0.0
  0
MTEXT
  5
B3A2D
330
B3700
100
AcDbEntity
  8
PLINE
 62
     0
100
AcDbMText
 10
648.6497717913449
 20
318.3052911887555
 30
0.0
 40
1.5
 41
0.0
 71
     5
 72
     1
  1
\A1;12"
 73
     1
 44
1.0
  0
SOLID
  5
B3A2E
330
B3700
100
AcDbEntity
  8
PLINE
 62
     0
100
AcDbTrace
 10
648.5247717913449
 20
313.300346918686
 30
0.0
 11
648.774771791345
 21
313.300346918686
 31
0.0
 12
648.6497717913449
 22
312.550346918686
 32
0.0
 13
648.6497717913449
 23
312.550346918686
 33
0.0
  0
SOLID
  5
B3A2F
330
B3700
100
AcDbEntity
  8
PLINE
 62
     0
100
AcDbTrace
 10
648.5247717913449
 20
323.7845577242564
 30
0.0
 11
648.774771791345
 21
323.7845577242564
 31
0.0
 12
648.6497717913449
 22
324.5345577242563
 32
0.0
 13
648.6497717913449
 23
324.5345577242563
 33
0.0
  0
POINT
  5
B3A30
330
B3700
100
AcDbEntity
  8
DEFPOINTS
 62
     0
100
AcDbPoint
 10
635.879918381486
 20
312.550346918686
 30
0.0
  0
POINT
  5
B3A31
330
B3700
100
AcDbEntity
  8
DEFPOINTS
 62
     0
100
AcDbPoint
 10
636.3769183814861
 20
324.5345577242564
 30
0.0
  0
POINT
  5
B3A32
330
B3700
100
AcDbEntity
  8
DEFPOINTS
 62
     0
100
AcDbPoint
 10
648.6497717913449
 20
324.5345577242563
 30
0.0
  0
ENDBLK
  5
B370C
330
B3700
100
AcDbEntity
  8
0
 62
     7
100
AcDbBlockEnd
  0
BLOCK
  5
B3719
330
B370E
100
AcDbEntity
  8
0
 62
     7
100
AcDbBlockBegin
  2
*D6
 70
     1
 10
0.0
 20
0.0
 30
0.0
  3
*D6
  1

  0
LINE
  5
B3A33
330
B370E
100
AcDbEntity
  8
PLINE
 62
     0
100
AcDbLine
 10
637.8816948282617
 20
324.5214345446472
 30
0.0
 11
649.0247717913449
 21
324.5214345446471
 31
0.0
  0
LINE
  5
B3A34
330
B370E
100
AcDbEntity
  8
PLINE
 62
     0
100
AcDbLine
 10
631.192418381486
 20
346.6595577242563
 30
0.0
 11
649.0247717913449
 21
346.6595577242563
 31
0.0
  0
LINE
  5
B3A35
330
B370E
100
AcDbEntity
  8
PLINE
 62
     0
100
AcDbLine
 10
648.6497717913449
 20
325.2714345446471
 30
0.0
 11
648.6497717913449
 21
333.1711488982883
 31
0.0
  0
LINE
  5
B3A36
330
B370E
100
AcDbEntity
  8
PLINE
 62
     0
100
AcDbLine
 10
648.6497717913449
 20
345.9095577242563
 30
0.0
 11
648.6497717913449
 21
336.3061595290466
 31
0.0
  0
MTEXT
  5
B3A37
330
B370E
100
AcDbEntity
  8
PLINE
 62
     0
100
AcDbMText
 10
648.6497717913449
 20
334.7386542136676
 30
0.0
 40
1.5
 41
0.0
 71
     5
 72
     1
  1
\A1;22 1/8"
 73
     1
 44
1.0
  0
SOLID
  5
B3A38
330
B370E
100
AcDbEntity
  8
PLINE
 62
     0
100
AcDbTrace
 10
648.5247717913449
 20
325.2714345446471
 30
0.0
 11
648.774771791345
 21
325.2714345446471
 31
0.0
 12
648.6497717913449
 22
324.5214345446471
 32
0.0
 13
648.6497717913449
 23
324.5214345446471
 33
0.0
  0
SOLID
  5
B3A39
330
B370E
100
AcDbEntity
  8
PLINE
 62
     0
100
AcDbTrace
 10
648.5247717913449
 20
345.9095577242563
 30
0.0
 11
648.774771791345
 21
345.9095577242563
 31
0.0
 12
648.6497717913449
 22
346.6595577242563
 32
0.0
 13
648.6497717913449
 23
346.6595577242563
 33
0.0
  0
POINT
  5
B3A3A
330
B370E
100
AcDbEntity
  8
DEFPOINTS
 62
     0
100
AcDbPoint
 10
636.3816948282617
 20
324.5214345446472
 30
0.0
  0
POINT
  5
B3A3B
330
B370E
100
AcDbEntity
  8
DEFPOINTS
 62
     0
100
AcDbPoint
 10
629.692418381486
 20
346.6595577242563
 30
0.0
  0
POINT
  5
B3A3C
330
B370E
100
AcDbEntity
  8
DEFPOINTS
 62
     0
100
AcDbPoint
 10
648.6497717913449
 20
346.6595577242563
 30
0.0
  0
ENDBLK
  5
B371A
330
B370E
100
AcDbEntity
  8
0
 62
     7
100
AcDbBlockEnd
  0
BLOCK
  5
B37F2
330
B37D9
100
AcDbEntity
  8
0
 62
     7
100
AcDbBlockBegin
  2
PROFILE LOGO
 70
     2
 10
0.0
 20
0.0
 30
0.0
  3
PROFILE LOGO
  1

  0
LINE
  5
B37DA
330
B37D9
100
AcDbEntity
  8
0
 62
    22
100
AcDbLine
 10
0.7459516636765642
 20
-0.415894330395318
 30
0.0
 11
0.74595166367655
 21
-1.12746688439163
 31
0.0
  0
LINE
  5
B37DB
330
B37D9
100
AcDbEntity
  8
0
 62
    22
100
AcDbLine
 10
0.5841942848079072
 20
-0.415894330395318
 30
0.0
 11
0.5841942848079072
 21
-1.12746688439163
 31
0.0
  0
HATCH
  5
B37DC
330
B37D9
100
AcDbEntity
  8
0
 62
    22
100
AcDbHatch
 10
0.0
 20
0.0
 30
0.0
210
0.0
220
0.0
230
1.0
  2
LINE
 70
     0
 71
     0
 91
        1
 92
       33
 93
       38
 72
     1
 10
1.115683196411978
 20
-0.1706330859717084
 11
0.2177636962628071
 21
-0.1706330859717084
 72
     1
 10
0.2177636962628213
 20
-0.1706330859717084
 11
0.2078601968792952
 21
-0.4246889457533243
 72
     1
 10
0.2078601968792952
 20
-0.4246889457533243
 11
0.2375709173007294
 21
-0.4246889457533243
 72
     1
 10
0.2375709173007294
 20
-0.4246889457533243
 11
0.2441732502230991
 21
-0.3817964654080939
 72
     1
 10
0.2441732502230991
 20
-0.3817964654080939
 11
0.254076749606611
 21
-0.3422032805409501
 72
     1
 10
0.2540767496066252
 20
-0.3422032805409501
 11
0.2738837483736916
 21
-0.3092090964125091
 72
     1
 10
0.2738837483736916
 20
-0.3092090964125091
 11
0.2969919136019428
 21
-0.2861130719066693
 72
     1
 10
0.296991913601957
 20
-0.2861130719066764
 11
0.3267026340234338
 21
-0.2663164794731259
 72
     1
 10
0.3267026340234196
 20
-0.2663164794731259
 11
0.356413132174012
 21
-0.2498193191118219
 72
     1
 10
0.356413132174012
 20
-0.2498193191118148
 11
0.3828224638634481
 21
-0.243220591561446
 72
     1
 10
0.3828224638634623
 20
-0.243220591561446
 11
0.4092320178237401
 21
-0.243220591561446
 72
     1
 10
0.4092320178237401
 20
-0.243220591561446
 11
0.4719541805861525
 21
-0.2465198870395469
 72
     1
 10
0.4719541805861525
 20
-0.2465198870395469
 11
0.514869566852326
 21
-0.2729153436176332
 72
     1
 10
0.514869566852326
 20
-0.2729153436176332
 11
0.5742905631535394
 21
-0.3389038484686964
 72
     1
 10
0.5742905631535394
 20
-0.3389038484687106
 11
0.5907966177302626
 21
-0.3916947616248691
 72
     1
 10
0.5907966177302768
 20
-0.3916947616248691
 11
0.5907966177302768
 21
-1.157161773041991
 72
     1
 10
0.5907966177302768
 20
-1.157161773041984
 11
0.5643870637699991
 21
-1.203353685459461
 72
     1
 10
0.5643870637699849
 20
-1.203353685459468
 11
0.4983637345463876
 21
-1.226449709965308
 72
     1
 10
0.4983637345464019
 20
-1.226449709965301
 11
0.4389425159743326
 21
-1.226449709965301
 72
     1
 10
0.4389425159743326
 20
-1.226449709965301
 11
0.4323401830519913
 21
-1.249545734471119
 72
     1
 10
0.4323401830520055
 20
-1.249545734471134
 11
0.8945045989712809
 21
-1.249545734471134
 72
     1
 10
0.8945045989712667
 20
-1.249545734471134
 11
0.8945045989712667
 21
-1.226449709965315
 72
     1
 10
0.8945045989712667
 20
-1.226449709965301
 11
0.8152763816321311
 21
-1.226449709965301
 72
     1
 10
0.8152763816321311
 20
-1.226449709965301
 11
0.7525539965988913
 21
-1.186856661692324
 72
     1
 10
0.7525539965988913
 20
-1.186856661692324
 11
0.7426504972153794
 21
-1.140664612680659
 72
     1
 10
0.7426504972153652
 20
-1.140664612680673
 11
0.7393493307541803
 21
-0.394994193697137
 72
     1
 10
0.7393493307541803
 20
-0.394994193697137
 11
0.7558551630600619
 21
-0.3389038484687106
 72
     1
 10
0.7558551630600761
 20
-0.3389038484687106
 11
0.7987705493262496
 21
-0.2828136398344298
 72
     1
 10
0.7987705493262496
 20
-0.2828136398344227
 11
0.8614929343594894
 21
-0.2498193191118148
 72
     1
 10
0.8614929343594894
 20
-0.2498193191118148
 11
0.9374197629665985
 21
-0.2399211594891923
 72
     1
 10
0.9374197629665985
 20
-0.2399211594891923
 11
1.010045647383407
 21
-0.2663164794731117
 72
     1
 10
1.010045647383407
 20
-0.2663164794731259
 11
1.056262200110722
 21
-0.3092090964125234
 72
     1
 10
1.056262200110722
 20
-0.3092090964125091
 11
1.085972698261343
 21
-0.361999872974522
 72
     1
 10
1.085972698261358
 20
-0.3619998729745291
 11
1.092575031183727
 21
-0.4246889457533243
 72
     1
 10
1.092575031183727
 20
-0.4246889457533243
 11
1.115683196411993
 21
-0.4246889457533243
 72
     1
 10
1.115683196411978
 20
-0.4246889457533243
 11
1.109080863489609
 21
-0.17723195011623
 72
     1
 10
1.109080863489609
 20
-0.17723195011623
 11
1.109080863489609
 21
-0.1739325180439621
 72
     1
 10
1.109080863489609
 20
-0.1739325180439621
 11
1.105779697028424
 21
-0.1739325180439621
 97
        0
 75
     0
 76
     1
 52
0.0
 41
0.078125
 77
     0
 78
     1
 53
0.0
 43
-28.182772630023
 44
-32.9923404580304
 45
0.0
 46
0.009765625
 79
     0
 98
        1
 10
-28.182772630023
 20
-32.9923404580304
  0
LWPOLYLINE
  5
B37DD
330
B37D9
100
AcDbEntity
  8
0
 62
    22
100
AcDbPolyline
 90
        4
 70
     1
 43
0.0
 10
0.0262955969727301
 20
-0.0287577800528069
 10
1.307151517972869
 20
-0.0287577800528069
 10
1.307151517972869
 20
-1.731261997456265
 10
0.0262955969727301
 20
-1.731261997456265
  0
LINE
  5
B37DE
330
B37D9
100
AcDbEntity
  8
0
 62
    22
100
AcDbLine
 10
0.0262955969727443
 20
-1.4112176328236
 30
0.0
 11
1.307151517972869
 21
-1.4112176328236
 31
0.0
  0
ATTDEF
  5
B37DF
330
B37D9
100
AcDbEntity
  8
A1
 62
    22
100
AcDbText
 10
0.6781304052809105
 20
-1.678298248906529
 30
0.0
 40
0.2126953125
  1

 72
     1
 11
0.6781304052809105
 21
-1.678298248906529
 31
0.0
100
AcDbAttributeDefinition
  3
ADD STONE MARKER
  2
XXXX
 70
     0
  0
LINE
  5
B37E0
330
B37D9
100
AcDbEntity
  8
0
 62
    22
100
AcDbLine
 10
0.7464576960363587
 20
-1.129021462591367
 30
0.0
 11
0.74595166367655
 21
-1.12746688439163
 31
0.0
  0
ARC
  5
B37E1
330
B37D9
100
AcDbEntity
  8
0
 62
    22
100
AcDbCircle
 10
0.8421255873066684
 20
-1.127299146756172
 30
0.0
 40
0.0956833935014068
100
AcDbArc
 50
181.0313885659746
 51
269.7936990713142
  0
LINE
  5
B37E2
330
B37D9
100
AcDbEntity
  8
0
 62
    22
100
AcDbLine
 10
0.9011069318936506
 20
-1.22315027789304
 30
0.0
 11
0.841781067510368
 21
-1.22315027789304
 31
0.0
  0
LINE
  5
B37E3
330
B37D9
100
AcDbEntity
  8
0
 62
    22
100
AcDbLine
 10
0.9011069318936506
 20
-1.256144598615648
 30
0.0
 11
0.9011069318936506
 21
-1.22315027789304
 31
0.0
  0
ARC
  5
B37E4
330
B37D9
100
AcDbEntity
  8
0
 62
    22
100
AcDbCircle
 10
0.4880203611777887
 20
-1.127299146756172
 30
0.0
 40
0.0956833935014068
100
AcDbArc
 50
270.2063009286848
 51
358.9686114340253
  0
LINE
  5
B37E5
330
B37D9
100
AcDbEntity
  8
0
 62
    22
100
AcDbLine
 10
0.4290390165908207
 20
-1.256144598615648
 30
0.0
 11
0.4290390165908207
 21
-1.22315027789304
 31
0.0
  0
LINE
  5
B37E6
330
B37D9
100
AcDbEntity
  8
0
 62
    22
100
AcDbLine
 10
0.4290390165908207
 20
-1.22315027789304
 30
0.0
 11
0.4883648809740891
 21
-1.22315027789304
 31
0.0
  0
LINE
  5
B37E7
330
B37D9
100
AcDbEntity
  8
0
 62
    22
100
AcDbLine
 10
0.5836882524480984
 20
-1.129021462591367
 30
0.0
 11
0.5841942848079072
 21
-1.12746688439163
 31
0.0
  0
LINE
  5
B37E8
330
B37D9
100
AcDbEntity
  8
0
 62
    22
100
AcDbLine
 10
0.4290390165908207
 20
-1.256144598615648
 30
0.0
 11
0.9011069318936506
 21
-1.256144598615648
 31
0.0
  0
LINE
  5
B37E9
330
B37D9
100
AcDbEntity
  8
0
 62
    22
100
AcDbLine
 10
1.085512597630156
 20
-0.415894330395318
 30
0.0
 11
1.085512597630156
 21
-0.4280723832374847
 31
0.0
  0
ARC
  5
B37EA
330
B37D9
100
AcDbEntity
  8
0
 62
    22
100
AcDbCircle
 10
0.9138550451562537
 20
-0.4147906495365632
 30
0.0
 40
0.1716611005230106
100
AcDbArc
 50
359.6316189828552
 51
90.00081606717127
  0
ARC
  5
B37EB
330
B37D9
100
AcDbEntity
  8
0
 62
    22
100
AcDbCircle
 10
0.9180888683309831
 20
-0.4147906495365632
 30
0.0
 40
0.1716611005230106
100
AcDbArc
 50
89.99918393282873
 51
180.3683810171443
  0
LINE
  5
B37EC
330
B37D9
100
AcDbEntity
  8
0
 62
    22
100
AcDbLine
 10
0.2078601968792952
 20
-0.427988377825578
 30
0.0
 11
0.2441732502230991
 21
-0.427988377825578
 31
0.0
  0
LINE
  5
B37ED
330
B37D9
100
AcDbEntity
  8
0
 62
    22
100
AcDbLine
 10
0.2446333508543006
 20
-0.415894330395318
 30
0.0
 11
0.2446333508543006
 21
-0.4280723832374847
 31
0.0
  0
ARC
  5
B37EE
330
B37D9
100
AcDbEntity
  8
0
 62
    22
100
AcDbCircle
 10
0.4162909033282176
 20
-0.4147906495365632
 30
0.0
 40
0.1716611005230106
100
AcDbArc
 50
89.99918393282873
 51
180.3683810171443
  0
LINE
  5
B37EF
330
B37D9
100
AcDbEntity
  8
0
 62
    22
100
AcDbLine
 10
0.2144627520724782
 20
-0.1706330859717156
 30
0.0
 11
0.2078601968792952
 21
-0.427988377825578
 31
0.0
  0
ARC
  5
B37F0
330
B37D9
100
AcDbEntity
  8
0
 62
    22
100
AcDbCircle
 10
0.4120570801534882
 20
-0.4147906495365632
 30
0.0
 40
0.1716611005230106
100
AcDbArc
 50
359.6316189828552
 51
90.00081606717127
  0
LWPOLYLINE
  5
B37F1
330
B37D9
100
AcDbEntity
  8
0
 62
    22
100
AcDbPolyline
 90
        4
 70
     0
 43
0.0
 10
0.224366029185191
 20
-0.1706330859717084
 10
1.115683196411978
 20
-0.1706330859717084
 10
1.122285751605161
 20
-0.427988377825578
 10
1.085972698261358
 20
-0.427988377825578
  0
ENDBLK
  5
B37F3
330
B37D9
100
AcDbEntity
  8
0
 62
     7
100
AcDbBlockEnd
  0
BLOCK
  5
B3875
330
B3849
100
AcDbEntity
  8
0
 62
     7
100
AcDbBlockBegin
  2
TSFORMB
 70
     2
 10
0.0
 20
0.0
 30
0.0
  3
TSFORMB
  1

  0
LINE
  5
B384A
330
B3849
100
AcDbEntity
  8
0
100
AcDbLine
 10
105.9925392881563
 20
78.84810849484797
 30
0.0
 11
105.9925392881563
 21
70.31072004936999
 31
0.0
  0
LINE
  5
B384B
330
B3849
100
AcDbEntity
  8
0
100
AcDbLine
 10
105.9925392881563
 20
0.0
 30
0.0
 11
105.9925392881563
 21
78.84810849484797
 31
0.0
  0
LINE
  5
B384C
330
B3849
100
AcDbEntity
  8
0
100
AcDbLine
 10
0.0
 20
0.0
 30
0.0
 11
105.9925392881563
 21
0.0
 31
0.0
  0
LINE
  5
B384D
330
B3849
100
AcDbEntity
  8
0
100
AcDbLine
 10
0.0
 20
78.84810849484797
 30
0.0
 11
0.0
 21
0.0
 31
0.0
  0
LINE
  5
B384E
330
B3849
100
AcDbEntity
  8
0
100
AcDbLine
 10
56.87404547169354
 20
0.0
 30
0.0
 11
56.87404547169354
 21
12.46470592426129
 31
0.0
  0
TEXT
  5
B384F
330
B3849
100
AcDbEntity
  8
0
 62
     7
100
AcDbText
 10
39.28098221173831
 20
10.97304845086642
 30
0.0
 40
0.8085000000000002
  1
LEGEND
100
AcDbText
  0
TEXT
  5
B3850
330
B3849
100
AcDbEntity
  8
0
 62
     7
100
AcDbText
 10
38.18320344075362
 20
3.401999220949562
 30
0.0
 40
0.8400000000000002
  1
CATEGORY
 72
     1
 11
41.47652732452399
 21
3.401999220949562
 31
0.0
100
AcDbText
  0
LINE
  5
B3851
330
B3849
100
AcDbEntity
  8
0
 62
     7
100
AcDbLine
 10
26.78791925899645
 20
8.549200111339303
 30
0.0
 11
29.32320076794366
 21
8.549200111339303
 31
0.0
  0
TEXT
  5
B3852
330
B3849
100
AcDbEntity
  8
0
 62
     7
100
AcDbText
 10
30.56536100380196
 20
8.165961840384341
 30
0.0
 40
1.05
  1
- Unfinished Side
100
AcDbText
  0
LINE
  5
B3853
330
B3849
100
AcDbEntity
  8
0
100
AcDbLine
 10
25.9704997615305
 20
0.0
 30
0.0
 11
25.9704997615305
 21
12.46470592426129
 31
0.0
  0
ATTDEF
  5
B3854
330
B3849
100
AcDbEntity
  8
A1
 62
     1
100
AcDbText
 10
41.26016333205519
 20
0.916484150045278
 30
0.0
 40
1.025589599999999
  1

 72
     1
 11
41.26016333205519
 21
0.916484150045278
 31
0.0
100
AcDbAttributeDefinition
  3
ADD CATEGORY NAMES
  2
XXXXXX
 70
     0
  0
ATTDEF
  5
B3855
330
B3849
100
AcDbEntity
  8
A1
 62
     1
100
AcDbText
 10
21.55372231158242
 20
1.875018704105684
 30
0.0
 40
0.8400000000000002
  1

 72
     2
 11
21.55372231158242
 21
1.875018704105684
 31
0.0
100
AcDbAttributeDefinition
  3
ADD BARCODE TEXT
  2
XXXXXX
 70
     0
  0
LINE
  5
B3856
330
B3849
100
AcDbEntity
  8
0
 62
     7
100
AcDbLine
 10
25.9704997615305
 20
12.46470592426129
 30
0.0
 11
0.0
 21
12.46470592426129
 31
0.0
  0
ATTDEF
  5
B3857
330
B3849
100
AcDbEntity
  8
A1
 62
     1
100
AcDbText
 10
12.85191920549937
 20
3.11796280247222
 30
0.0
 40
6.132000000000001
  1

  7
barcoder
 72
     1
 11
12.85191920549937
 21
3.11796280247222
 31
0.0
100
AcDbAttributeDefinition
  3
ADD BARCODE NUMBER
  2
BARCODE
 70
     0
  0
LINE
  5
B3858
330
B3849
100
AcDbEntity
  8
0
 62
     7
100
AcDbLine
 10
56.87404547169354
 20
10.31505184057846
 30
0.0
 11
25.9704997615305
 21
10.31505184057846
 31
0.0
  0
LINE
  5
B3859
330
B3849
100
AcDbEntity
  8
0
 62
     7
100
AcDbLine
 10
56.87404547169354
 20
2.864660228904256
 30
0.0
 11
25.9704997615305
 21
2.864660228904256
 31
0.0
  0
LINE
  5
B385A
330
B3849
100
AcDbEntity
  8
0
 62
     7
100
AcDbLine
 10
56.87404547169354
 20
4.753491724833224
 30
0.0
 11
25.9704997615305
 21
4.753491724833224
 31
0.0
  0
LINE
  5
B385B
330
B3849
100
AcDbEntity
  8
0
100
AcDbLine
 10
92.45878286761296
 20
70.31072004936999
 30
0.0
 11
92.45878286761296
 21
78.84810849484797
 31
0.0
  0
ATTDEF
  5
B385C
330
B3849
100
AcDbEntity
  8
A1
 62
     1
100
AcDbText
 10
99.20289126219257
 20
73.40001633244828
 30
0.0
 40
2.079
  1

 72
     1
 11
99.20289126219257
 21
73.40001633244828
 31
0.0
100
AcDbAttributeDefinition
  3
ADD PAGE NUMBER
  2
TS00XX
 70
     0
  0
LINE
  5
B385D
330
B3849
100
AcDbEntity
  8
0
100
AcDbLine
 10
105.9925392881563
 20
70.31072004936999
 30
0.0
 11
92.45878286761296
 21
70.31072004936999
 31
0.0
  0
LINE
  5
B385E
330
B3849
100
AcDbEntity
  8
0
100
AcDbLine
 10
105.9925392881563
 20
78.84810849484797
 30
0.0
 11
0.0
 21
78.84810849484797
 31
0.0
  0
TEXT
  5
B385F
330
B3849
100
AcDbEntity
  8
0
 62
     7
100
AcDbText
 10
101.0916707105178
 20
4.784832420392319
 30
0.0
 40
0.8459472656250001
  1
1:1
100
AcDbText
  0
ARC
  5
B3860
330
B3849
100
AcDbEntity
  8
0
 62
     7
100
AcDbCircle
 10
92.02173719823599
 20
7.854684255185304
 30
0.0
 40
0.5838368232859321
100
AcDbArc
 50
297.5553548372056
 51
304.8408806463489
  0
LINE
  5
B3861
330
B3849
100
AcDbEntity
  8
0
 62
     7
100
AcDbLine
 10
96.44018670993672
 20
6.648784575743377
 30
0.0
 11
95.62662822118033
 21
6.648784575743377
 31
0.0
  0
ARC
  5
B3862
330
B3849
100
AcDbEntity
  8
0
 62
     7
100
AcDbCircle
 10
92.02173719823599
 20
7.854684255185304
 30
0.0
 40
0.5838368232859408
100
AcDbArc
 50
304.8408806463489
 51
297.5553548372056
  0
TEXT
  5
B3863
330
B3849
100
AcDbEntity
  8
0
 62
     7
100
AcDbText
 10
91.5997577365548
 20
7.487990433787842
 30
0.0
 40
0.7875000000000002
  1
R
  7
ROMANC
 72
     1
 11
92.02565639984959
 21
7.487990433787842
 31
0.0
100
AcDbText
  0
LINE
  5
B3864
330
B3849
100
AcDbEntity
  8
0
100
AcDbLine
 10
96.44018670993649
 20
0.0
 30
0.0
 11
96.44018670993695
 21
12.46470592426129
 31
0.0
  0
TEXT
  5
B3865
330
B3849
100
AcDbEntity
  8
0
100
AcDbText
 10
57.83820509574335
 20
4.931128255646488
 30
0.0
 40
1.111564440985976
  1
ARCHITECTURAL CONCRETE CO., INC.
 41
1.25
 72
     4
 11
76.69038922088157
 21
5.404193065577089
 31
0.0
100
AcDbText
  0
TEXT
  5
B3866
330
B3849
100
AcDbEntity
  8
0
100
AcDbText
 10
64.01730751652124
 20
0.6790765005606179
 30
0.0
 40
0.6552430415498756
  1
PHONE: 1-800-789-4841  FAX : 770-463-2635
 41
1.1875
 72
     4
 11
76.73327742292065
 21
1.005769257279496
 31
0.0
100
AcDbText
  0
TEXT
  5
B3867
330
B3849
100
AcDbEntity
  8
0
 62
     7
100
AcDbText
 10
61.23651428794109
 20
7.899354841769707
 30
0.0
 40
3.572100000000002
  1
TannerStone
  7
ROMANC
 72
     1
 11
75.92109734429948
 21
7.899354841769707
 31
0.0
100
AcDbText
  0
TEXT
  5
B3868
330
B3849
100
AcDbEntity
  8
0
100
AcDbText
 10
61.57240842020546
 20
1.964543484004154
 30
0.0
 40
0.6552430415498756
  1
http://TannerStone.com ~ Email:Sales@TannerStone.com 
 41
1.1875
 72
     4
 11
77.08342119362362
 21
2.259193880788984
 31
0.0
100
AcDbText
  0
TEXT
  5
B3869
330
B3849
100
AcDbEntity
  8
0
100
AcDbText
 10
59.98363509556096
 20
3.260563711198551
 30
0.0
 40
0.74899296216962
  1
101 JOHNSTON CIRCLE, PALMETTO, GEORGIA 30268
 41
1.1875
 72
     4
 11
76.85158629384147
 21
3.579323650094977
 31
0.0
100
AcDbText
  0
LINE
  5
B386A
330
B3849
100
AcDbEntity
  8
0
100
AcDbLine
 10
56.87404547169354
 20
6.648784575743377
 30
0.0
 11
105.9925392881563
 21
6.648784575743377
 31
0.0
  0
LINE
  5
B386B
330
B3849
100
AcDbEntity
  8
0
 62
     7
100
AcDbLine
 10
96.44018670993682
 20
9.556745250002336
 30
0.0
 11
105.9925392881563
 21
9.556745250002336
 31
0.0
  0
TEXT
  5
B386C
330
B3849
100
AcDbEntity
  8
0
 62
     7
100
AcDbText
 10
96.66995560986686
 20
8.813345575893606
 30
0.0
 40
0.5414062500000001
  1
LBS/LINEAR FEET:
100
AcDbText
  0
LINE
  5
B386D
330
B3849
100
AcDbEntity
  8
LINEWORK
 62
     7
100
AcDbLine
 10
96.40991550469017
 20
3.757904136908962
 30
0.0
 11
105.9622680829099
 21
3.757904136909189
 31
0.0
  0
TEXT
  5
B386E
330
B3849
100
AcDbEntity
  8
0
 62
     7
100
AcDbText
 10
98.85330873086445
 20
1.524519923848686
 30
0.0
 40
0.8459472656250001
  1
1-1-2000
100
AcDbText
  0
TEXT
  5
B386F
330
B3849
100
AcDbEntity
  8
0
 62
     7
100
AcDbText
 10
96.68542089784603
 20
5.927566558083469
 30
0.0
 40
0.5414062500000001
  1
SCALE:
100
AcDbText
  0
TEXT
  5
B3870
330
B3849
100
AcDbEntity
  8
0
 62
     7
100
AcDbText
 10
96.74158717246577
 20
2.97910930546476
 30
0.0
 40
0.5414062500000001
  1
DATE:
100
AcDbText
  0
TEXT
  5
B3871
330
B3849
100
AcDbEntity
  8
0
 62
     7
100
AcDbText
 10
96.70022651293084
 20
11.66518473255649
 30
0.0
 40
0.5414062500000001
  1
PROFILE AREA:
100
AcDbText
  0
ATTDEF
  5
B3872
330
B3849
100
AcDbEntity
  8
A1
 62
     1
100
AcDbText
 10
101.1759733039033
 20
10.07900441527107
 30
0.0
 40
0.9450000000000002
  1

 72
     1
 11
101.1759733039033
 21
10.07900441527107
 31
0.0
100
AcDbAttributeDefinition
  3
ADD PROFILE AREA
  2
XXXXX
 70
     0
  0
ATTDEF
  5
B3873
330
B3849
100
AcDbEntity
  8
A1
 62
     1
100
AcDbText
 10
101.1418062311347
 20
7.21953861551384
 30
0.0
 40
0.9450000000000002
  1

 72
     1
 11
101.1418062311347
 21
7.21953861551384
 31
0.0
100
AcDbAttributeDefinition
  3
ADD #/LF
  2
XXXXX
 70
     0
  0
LINE
  5
B3874
330
B3849
100
AcDbEntity
  8
0
100
AcDbLine
 10
25.9704997615305
 20
12.46470592426129
 30
0.0
 11
105.9925392881563
 21
12.46470592426129
 31
0.0
  0
ENDBLK
  5
B3876
330
B3849
100
AcDbEntity
  8
0
 62
     7
100
AcDbBlockEnd
  0
ENDSEC
  0
SECTION
  2
ENTITIES
  0
INSERT
  5
92A34
330
2
100
AcDbEntity
  8
ASHADE
 62
     1
100
AcDbBlockReference
  2
AVE_RENDER
 10
-164.2545252786472
 20
206.7292599803213
 30
0.0
 41
0.4444444444444571
 42
0.4444444444445708
 43
0.4444444444444445
1001
AVE_RENDER
1002
{
1070
     7
1000
Pref
1070
    60
1070
    20
1070
     1
1070
     0
1000

1070
    10
1070
     1
1070
    30
1040
1.0
1070
     1
1040
0.3
1040
0.7
1040
0.0
1040
10.0
1010
-1.0
1020
-1.0
1030
-1.0
1040
0.3
1070
    49
1070
     1
1070
     0
1010
1.0
1020
1.0
1030
1.0
1040
45.0
1070
     1
1070
     0
1000
WCS
1040
0.0
1070
     0
1040
10.0
1002
}
  0
INSERT
  5
92A35
330
2
100
AcDbEntity
  8
ASHADE
 62
     3
100
AcDbBlockReference
  2
AVE_RENDER
 10
-164.2545252786472
 20
206.7292599803213
 30
0.0
 41
0.4444444444444571
 42
0.4444444444445708
 43
0.4444444444444445
1001
AVE_RENDER
1002
{
1070
     0
1000
Full Opt
1070
     0
1070
     1
1070
     1
1070
     1
1070
     0
1070
     0
1070
     0
1070
     1
1070
     1
1040
0.0001
1040
0.0001
1002
}
  0
INSERT
  5
92A36
330
2
100
AcDbEntity
  8
ASHADE
 62
     4
100
AcDbBlockReference
  2
AVE_RENDER
 10
-164.2545252786472
 20
206.7292599803213
 30
0.0
 41
0.4444444444444571
 42
0.4444444444445708
 43
0.4444444444444445
1001
AVE_RENDER
1002
{
1070
     0
1000
Quick Opt
1070
     0
1070
     1
1070
     1
1070
     1
1070
     0
1070
     0
1070
     1
1002
}
  0
INSERT
  5
92A37
330
2
100
AcDbEntity
  8
ASHADE
 62
     5
100
AcDbBlockReference
  2
AVE_RENDER
 10
-164.2545252786472
 20
206.7292599803213
 30
0.0
 41
0.4444444444444571
 42
0.4444444444445708
 43
0.4444444444444445
1001
AVE_RENDER
1002
{
1070
     1
1000
Scanl Opt
1070
     2
1070
     0
1070
     2
1040
2.0
1040
4.0
1070
     0
1070
     1
1070
     0
1040
0.03
1002
}
  0
INSERT
  5
92A38
330
2
100
AcDbEntity
  8
ASHADE
 62
     6
100
AcDbBlockReference
  2
AVE_RENDER
 10
-164.2545252786472
 20
206.7292599803213
 30
0.0
 41
0.4444444444444571
 42
0.4444444444445708
 43
0.4444444444444445
1001
AVE_RENDER
1002
{
1070
     2
1000
Raytr Opt
1070
     2
1070
     0
1070
     2
1040
2.0
1040
4.0
1070
     0
1070
     1
1070
     1
1040
0.03
1070
     3
1040
0.03
1002
}
  0
INSERT
  5
92A39
330
2
100
AcDbEntity
  8
ASHADE
 62
     7
100
AcDbBlockReference
  2
AVE_RENDER
 10
-164.2545252786472
 20
206.7292599803213
 30
0.0
 41
0.4444444444444571
 42
0.4444444444445708
 43
0.4444444444444445
1001
AVE_RENDER
1002
{
1070
     0
1000
RFile Opt
1070
     5
1070
   640
1070
   480
1070
 10000
1070
     3
1070
    32
1070
    24
1070
     0
1070
     0
1070
     0
1070
     1
1070
     0
1070
     0
1070
     0
1002
}
  0
INSERT
  5
92A3A
330
2
100
AcDbEntity
  8
ASHADE
 62
     8
100
AcDbBlockReference
  2
AVE_RENDER
 10
-164.2545252786472
 20
206.7292599803213
 30
0.0
 41
0.4444444444444571
 42
0.4444444444445708
 43
0.4444444444444445
1001
AVE_RENDER
1002
{
1070
     0
1000
Fog Opt
1070
     0
1070
     0
1040
0.0
1040
1.0
1040
0.0
1040
1.0
1010
0.5
1020
0.5
1030
0.5
1002
}
  0
INSERT
  5
92A3B
330
2
100
AcDbEntity
  8
ASHADE
 62
     9
100
AcDbBlockReference
  2
AVE_RENDER
 10
-164.2545252786472
 20
206.7292599803213
 30
0.0
 41
0.4444444444444571
 42
0.4444444444445708
 43
0.4444444444444445
1001
AVE_RENDER
1002
{
1070
     0
1000
BG Opt
1070
     0
1070
     1
1010
0.0
1020
0.0
1030
0.0
1010
1.0
1020
0.0
1030
0.0
1010
0.0
1020
1.0
1030
0.0
1010
0.0
1020
0.0
1030
1.0
1040
0.5
1040
0.33
1040
0.0
1000

1070
     1
1000

1070
     1
1070
     1
1040
1.0
1040
1.0
1040
0.0
1040
0.0
1070
     0
1002
}
  0
INSERT
  5
92A3C
330
2
100
AcDbEntity
  8
ASHADE
 62
     1
100
AcDbBlockReference
  2
AVE_GLOBAL
 10
-164.2545252786472
 20
206.7292599803213
 30
0.0
 41
0.4444444444444571
 42
0.4444444444445708
 43
0.4444444444444445
1001
AVE_MATERIAL
1002
{
1000
*GLOBAL*
1000
1
1000
Global finish.
1002
{
1002
}
1002
{
1070
    63
1002
{
1002
{
1010
-1.0
1020
-1.0
1030
-1.0
1002
}
1040
0.1000000014901161
1000

1040
0.0
1002
{
1002
}
1040
0.0
1002
{
1002
}
1040
0.0
1002
}
1002
{
1002
{
1010
-1.0
1020
-1.0
1030
-1.0
1002
}
1040
0.6999999880790711
1000

1040
0.0
1002
{
1002
}
1040
0.0
1002
{
1002
}
1040
0.0
1002
}
1002
{
1002
{
1010
-1.0
1020
-1.0
1030
-1.0
1002
}
1040
0.2000000029802322
1000

1040
0.0
1002
{
1002
}
1040
0.0
1002
{
1002
}
1040
0.0
1002
}
1002
{
1070
     0
1002
{
1070
     1
1002
{
1040
1.0
1040
1.0
1000

1040
0.0
1002
{
1002
}
1040
0.0
1002
{
1002
}
1040
0.0
1002
}
1002
}
1040
1.0
1040
0.0
1040
0.0
1002
}
1002
{
1040
1.0
1040
1.0
1000

1040
0.0
1002
{
1002
}
1040
0.0
1002
{
1002
}
1040
0.0
1002
}
1002
{
1040
0.5
1040
1.0
1000

1040
0.0
1002
{
1002
}
1040
0.0
1002
{
1002
}
1040
0.0
1002
}
1002
{
1070
     0
1040
0.0
1002
{
1002
}
1040
1.0
1002
{
1002
}
1040
0.0
1002
}
1002
{
1040
0.0
1002
{
1002
{
1010
0.0
1020
0.0
1030
0.0
1002
}
1040
1.0
1000

1040
0.0
1002
{
1002
}
1040
0.0
1002
{
1002
}
1040
0.0
1002
}
1002
}
1002
{
1002
{
1070
     1
1002
{
1040
0.0
1040
1.0
1000

1040
0.0
1002
{
1002
}
1040
0.0
1002
{
1002
}
1040
0.0
1002
}
1002
}
1040
0.0
1002
{
1002
}
1010
1.0
1020
0.0
1030
0.0
1010
0.0
1020
1.0
1030
0.0
1010
0.0
1020
0.0
1030
1.0
1070
     0
1002
}
1002
{
1002
{
1040
1.0
1040
1.0
1002
{
1070
     1
1002
{
1040
1.0
1040
1.0
1000

1040
0.0
1002
{
1002
}
1040
0.0
1002
{
1002
}
1040
0.0
1002
}
1002
}
1002
}
1070
     0
1040
0.0
1002
{
1002
}
1002
}
1002
{
1002
}
1002
}
1002
{
1071
        3
1070
     3
1070
     0
1002
{
1070
     2
1070
     0
1070
     0
1040
0.0
1002
}
1070
     0
1070
     2
1002
{
1002
}
1002
}
1002
{
1040
8030.0
1040
190.3000030517578
1040
0.3050000071525574
1040
228.0
1040
545.0
1040
14.0
1040
17.39999961853027
1040
0.4560000002384186
1002
}
1002
}
  0
INSERT
  5
92A3D
330
2
100
AcDbEntity
  8
ASHADE
 62
     1
100
AcDbBlockReference
  2
AVE_GLOBAL
 10
98.52216174698344
 20
325.5581623885814
 30
0.0
1001
AVE_MATERIAL
1002
{
1000
*GLOBAL*
1000
1
1000
Global finish.
1002
{
1002
}
1002
{
1070
    63
1002
{
1002
{
1010
-1.0
1020
-1.0
1030
-1.0
1002
}
1040
0.1000000014901161
1000

1040
0.0
1002
{
1002
}
1040
0.0
1002
{
1002
}
1040
0.0
1002
}
1002
{
1002
{
1010
-1.0
1020
-1.0
1030
-1.0
1002
}
1040
0.6999999880790711
1000

1040
0.0
1002
{
1002
}
1040
0.0
1002
{
1002
}
1040
0.0
1002
}
1002
{
1002
{
1010
-1.0
1020
-1.0
1030
-1.0
1002
}
1040
0.2000000029802322
1000

1040
0.0
1002
{
1002
}
1040
0.0
1002
{
1002
}
1040
0.0
1002
}
1002
{
1070
     0
1002
{
1070
     1
1002
{
1040
1.0
1040
1.0
1000

1040
0.0
1002
{
1002
}
1040
0.0
1002
{
1002
}
1040
0.0
1002
}
1002
}
1040
1.0
1040
0.0
1040
0.0
1002
}
1002
{
1040
1.0
1040
1.0
1000

1040
0.0
1002
{
1002
}
1040
0.0
1002
{
1002
}
1040
0.0
1002
}
1002
{
1040
0.5
1040
1.0
1000

1040
0.0
1002
{
1002
}
1040
0.0
1002
{
1002
}
1040
0.0
1002
}
1002
{
1070
     0
1040
0.0
1002
{
1002
}
1040
1.0
1002
{
1002
}
1040
0.0
1002
}
1002
{
1040
0.0
1002
{
1002
{
1010
0.0
1020
0.0
1030
0.0
1002
}
1040
1.0
1000

1040
0.0
1002
{
1002
}
1040
0.0
1002
{
1002
}
1040
0.0
1002
}
1002
}
1002
{
1002
{
1070
     1
1002
{
1040
0.0
1040
1.0
1000

1040
0.0
1002
{
1002
}
1040
0.0
1002
{
1002
}
1040
0.0
1002
}
1002
}
1040
0.0
1002
{
1002
}
1010
1.0
1020
0.0
1030
0.0
1010
0.0
1020
1.0
1030
0.0
1010
0.0
1020
0.0
1030
1.0
1070
     0
1002
}
1002
{
1002
{
1040
1.0
1040
1.0
1002
{
1070
     1
1002
{
1040
1.0
1040
1.0
1000

1040
0.0
1002
{
1002
}
1040
0.0
1002
{
1002
}
1040
0.0
1002
}
1002
}
1002
}
1070
     0
1040
0.0
1002
{
1002
}
1002
}
1002
{
1002
}
1002
}
1002
{
1071
        3
1070
     3
1070
     0
1002
{
1070
     2
1070
     0
1070
     0
1040
0.0
1002
}
1070
     0
1070
     2
1002
{
1002
}
1002
}
1002
{
1040
8030.0
1040
190.3000030517578
1040
0.3050000071525574
1040
228.0
1040
545.0
1040
14.0
1040
17.39999961853027
1040
0.4560000002384186
1002
}
1002
}
  0
INSERT
  5
92A57
330
2
100
AcDbEntity
  8
ASHADE
 62
     1
100
AcDbBlockReference
  2
AVE_GLOBAL
 10
98.99410985158453
 20
297.7252267067419
 30
0.0
1001
AVE_MATERIAL
1002
{
1000
*GLOBAL*
1000
1
1000
Global finish.
1002
{
1002
}
1002
{
1070
    63
1002
{
1002
{
1010
-1.0
1020
-1.0
1030
-1.0
1002
}
1040
0.1000000014901161
1000

1040
0.0
1002
{
1002
}
1040
0.0
1002
{
1002
}
1040
0.0
1002
}
1002
{
1002
{
1010
-1.0
1020
-1.0
1030
-1.0
1002
}
1040
0.6999999880790711
1000

1040
0.0
1002
{
1002
}
1040
0.0
1002
{
1002
}
1040
0.0
1002
}
1002
{
1002
{
1010
-1.0
1020
-1.0
1030
-1.0
1002
}
1040
0.2000000029802322
1000

1040
0.0
1002
{
1002
}
1040
0.0
1002
{
1002
}
1040
0.0
1002
}
1002
{
1070
     0
1002
{
1070
     1
1002
{
1040
1.0
1040
1.0
1000

1040
0.0
1002
{
1002
}
1040
0.0
1002
{
1002
}
1040
0.0
1002
}
1002
}
1040
1.0
1040
0.0
1040
0.0
1002
}
1002
{
1040
1.0
1040
1.0
1000

1040
0.0
1002
{
1002
}
1040
0.0
1002
{
1002
}
1040
0.0
1002
}
1002
{
1040
0.5
1040
1.0
1000

1040
0.0
1002
{
1002
}
1040
0.0
1002
{
1002
}
1040
0.0
1002
}
1002
{
1070
     0
1040
0.0
1002
{
1002
}
1040
1.0
1002
{
1002
}
1040
0.0
1002
}
1002
{
1040
0.0
1002
{
1002
{
1010
0.0
1020
0.0
1030
0.0
1002
}
1040
1.0
1000

1040
0.0
1002
{
1002
}
1040
0.0
1002
{
1002
}
1040
0.0
1002
}
1002
}
1002
{
1002
{
1070
     1
1002
{
1040
0.0
1040
1.0
1000

1040
0.0
1002
{
1002
}
1040
0.0
1002
{
1002
}
1040
0.0
1002
}
1002
}
1040
0.0
1002
{
1002
}
1010
1.0
1020
0.0
1030
0.0
1010
0.0
1020
1.0
1030
0.0
1010
0.0
1020
0.0
1030
1.0
1070
     0
1002
}
1002
{
1002
{
1040
1.0
1040
1.0
1002
{
1070
     1
1002
{
1040
1.0
1040
1.0
1000

1040
0.0
1002
{
1002
}
1040
0.0
1002
{
1002
}
1040
0.0
1002
}
1002
}
1002
}
1070
     0
1040
0.0
1002
{
1002
}
1002
}
1002
{
1002
}
1002
}
1002
{
1071
        3
1070
     3
1070
     0
1002
{
1070
     2
1070
     0
1070
     0
1040
0.0
1002
}
1070
     0
1070
     2
1002
{
1002
}
1002
}
1002
{
1040
8030.0
1040
190.3000030517578
1040
0.3050000071525574
1040
228.0
1040
545.0
1040
14.0
1040
17.39999961853027
1040
0.4560000002384186
1002
}
1002
}
  0
INSERT
  5
92A58
330
2
100
AcDbEntity
  8
ASHADE
 62
     1
100
AcDbBlockReference
  2
AVE_GLOBAL
 10
-182.5720889753613
 20
342.1239334813278
 30
12.6740639196657
 41
0.6666666666666572
 42
0.6666666666667425
 43
0.6666666666666666
1001
AVE_MATERIAL
1002
{
1000
*GLOBAL*
1000
1
1000
Global finish.
1002
{
1002
}
1002
{
1070
    63
1002
{
1002
{
1010
-1.0
1020
-1.0
1030
-1.0
1002
}
1040
0.1000000014901161
1000

1040
0.0
1002
{
1002
}
1040
0.0
1002
{
1002
}
1040
0.0
1002
}
1002
{
1002
{
1010
-1.0
1020
-1.0
1030
-1.0
1002
}
1040
0.6999999880790711
1000

1040
0.0
1002
{
1002
}
1040
0.0
1002
{
1002
}
1040
0.0
1002
}
1002
{
1002
{
1010
-1.0
1020
-1.0
1030
-1.0
1002
}
1040
0.2000000029802322
1000

1040
0.0
1002
{
1002
}
1040
0.0
1002
{
1002
}
1040
0.0
1002
}
1002
{
1070
     0
1002
{
1070
     1
1002
{
1040
1.0
1040
1.0
1000

1040
0.0
1002
{
1002
}
1040
0.0
1002
{
1002
}
1040
0.0
1002
}
1002
}
1040
1.0
1040
0.0
1040
0.0
1002
}
1002
{
1040
1.0
1040
1.0
1000

1040
0.0
1002
{
1002
}
1040
0.0
1002
{
1002
}
1040
0.0
1002
}
1002
{
1040
0.5
1040
1.0
1000

1040
0.0
1002
{
1002
}
1040
0.0
1002
{
1002
}
1040
0.0
1002
}
1002
{
1070
     0
1040
0.0
1002
{
1002
}
1040
1.0
1002
{
1002
}
1040
0.0
1002
}
1002
{
1040
0.0
1002
{
1002
{
1010
0.0
1020
0.0
1030
0.0
1002
}
1040
1.0
1000

1040
0.0
1002
{
1002
}
1040
0.0
1002
{
1002
}
1040
0.0
1002
}
1002
}
1002
{
1002
{
1070
     1
1002
{
1040
0.0
1040
1.0
1000

1040
0.0
1002
{
1002
}
1040
0.0
1002
{
1002
}
1040
0.0
1002
}
1002
}
1040
0.0
1002
{
1002
}
1010
1.0
1020
0.0
1030
0.0
1010
0.0
1020
1.0
1030
0.0
1010
0.0
1020
0.0
1030
1.0
1070
     0
1002
}
1002
{
1002
{
1040
1.0
1040
1.0
1002
{
1070
     1
1002
{
1040
1.0
1040
1.0
1000

1040
0.0
1002
{
1002
}
1040
0.0
1002
{
1002
}
1040
0.0
1002
}
1002
}
1002
}
1070
     0
1040
0.0
1002
{
1002
}
1002
}
1002
{
1002
}
1002
}
1002
{
1071
        3
1070
     3
1070
     0
1002
{
1070
     2
1070
     0
1070
     0
1040
0.0
1002
}
1070
     0
1070
     2
1002
{
1002
}
1002
}
1002
{
1040
8030.0
1040
190.3000030517578
1040
0.3050000071525574
1040
228.0
1040
545.0
1040
14.0
1040
17.39999961853027
1040
0.4560000002384186
1002
}
1002
}
  0
INSERT
  5
92A72
330
2
100
AcDbEntity
  8
ASHADE
 62
     1
100
AcDbBlockReference
  2
AVE_GLOBAL
 10
-106.2258711206784
 20
342.1239334813278
 30
12.6740639196657
 41
0.6666666666666572
 42
0.6666666666667425
 43
0.6666666666666666
1001
AVE_MATERIAL
1002
{
1000
*GLOBAL*
1000
1
1000
Global finish.
1002
{
1002
}
1002
{
1070
    63
1002
{
1002
{
1010
-1.0
1020
-1.0
1030
-1.0
1002
}
1040
0.1000000014901161
1000

1040
0.0
1002
{
1002
}
1040
0.0
1002
{
1002
}
1040
0.0
1002
}
1002
{
1002
{
1010
-1.0
1020
-1.0
1030
-1.0
1002
}
1040
0.6999999880790711
1000

1040
0.0
1002
{
1002
}
1040
0.0
1002
{
1002
}
1040
0.0
1002
}
1002
{
1002
{
1010
-1.0
1020
-1.0
1030
-1.0
1002
}
1040
0.2000000029802322
1000

1040
0.0
1002
{
1002
}
1040
0.0
1002
{
1002
}
1040
0.0
1002
}
1002
{
1070
     0
1002
{
1070
     1
1002
{
1040
1.0
1040
1.0
1000

1040
0.0
1002
{
1002
}
1040
0.0
1002
{
1002
}
1040
0.0
1002
}
1002
}
1040
1.0
1040
0.0
1040
0.0
1002
}
1002
{
1040
1.0
1040
1.0
1000

1040
0.0
1002
{
1002
}
1040
0.0
1002
{
1002
}
1040
0.0
1002
}
1002
{
1040
0.5
1040
1.0
1000

1040
0.0
1002
{
1002
}
1040
0.0
1002
{
1002
}
1040
0.0
1002
}
1002
{
1070
     0
1040
0.0
1002
{
1002
}
1040
1.0
1002
{
1002
}
1040
0.0
1002
}
1002
{
1040
0.0
1002
{
1002
{
1010
0.0
1020
0.0
1030
0.0
1002
}
1040
1.0
1000

1040
0.0
1002
{
1002
}
1040
0.0
1002
{
1002
}
1040
0.0
1002
}
1002
}
1002
{
1002
{
1070
     1
1002
{
1040
0.0
1040
1.0
1000

1040
0.0
1002
{
1002
}
1040
0.0
1002
{
1002
}
1040
0.0
1002
}
1002
}
1040
0.0
1002
{
1002
}
1010
1.0
1020
0.0
1030
0.0
1010
0.0
1020
1.0
1030
0.0
1010
0.0
1020
0.0
1030
1.0
1070
     0
1002
}
1002
{
1002
{
1040
1.0
1040
1.0
1002
{
1070
     1
1002
{
1040
1.0
1040
1.0
1000

1040
0.0
1002
{
1002
}
1040
0.0
1002
{
1002
}
1040
0.0
1002
}
1002
}
1002
}
1070
     0
1040
0.0
1002
{
1002
}
1002
}
1002
{
1002
}
1002
}
1002
{
1071
        3
1070
     3
1070
     0
1002
{
1070
     2
1070
     0
1070
     0
1040
0.0
1002
}
1070
     0
1070
     2
1002
{
1002
}
1002
}
1002
{
1040
8030.0
1040
190.3000030517578
1040
0.3050000071525574
1040
228.0
1040
545.0
1040
14.0
1040
17.39999961853027
1040
0.4560000002384186
1002
}
1002
}
  0
INSERT
  5
92A8C
330
2
100
AcDbEntity
  8
ASHADE
 62
     1
100
AcDbBlockReference
  2
AVE_RENDER
 10
-345.6115092842143
 20
-401.7229348885227
 30
0.0
 41
1.305149999999997
 42
1.305149999999912
 43
1.305150000000001
1001
AVE_RENDER
1002
{
1070
     6
1000
Pref
1070
    30
1070
    20
1070
     1
1070
     0
1000

1070
    10
1070
     1
1070
    30
1040
1.0
1070
     1
1040
0.3
1040
0.7
1040
0.0
1040
10.0
1010
-1.0
1020
-1.0
1030
-1.0
1040
0.3
1070
    49
1070
     0
1070
     0
1010
1.0
1020
1.0
1030
1.0
1040
45.0
1070
     1
1070
     0
1000
WCS
1040
0.0
1002
}
  0
INSERT
  5
92A8D
330
2
100
AcDbEntity
  8
ASHADE
 62
     3
100
AcDbBlockReference
  2
AVE_RENDER
 10
-345.6115092842143
 20
-401.7229348885227
 30
0.0
 41
1.305149999999997
 42
1.305149999999912
 43
1.305150000000001
1001
AVE_RENDER
1002
{
1070
     0
1000
Full Opt
1070
     0
1070
     1
1070
     1
1070
     1
1070
     0
1070
     0
1070
     0
1070
     1
1070
     1
1040
0.0001
1040
0.0001
1002
}
  0
INSERT
  5
92A8E
330
2
100
AcDbEntity
  8
ASHADE
 62
     4
100
AcDbBlockReference
  2
AVE_RENDER
 10
-345.6115092842143
 20
-401.7229348885227
 30
0.0
 41
1.305149999999997
 42
1.305149999999912
 43
1.305150000000001
1001
AVE_RENDER
1002
{
1070
     0
1000
Quick Opt
1070
     0
1070
     1
1070
     1
1070
     1
1070
     0
1070
     0
1070
     1
1002
}
  0
INSERT
  5
92A8F
330
2
100
AcDbEntity
  8
ASHADE
 62
     5
100
AcDbBlockReference
  2
AVE_RENDER
 10
-345.6115092842143
 20
-401.7229348885227
 30
0.0
 41
1.305149999999997
 42
1.305149999999912
 43
1.305150000000001
1001
AVE_RENDER
1002
{
1070
     1
1000
Scanl Opt
1070
     2
1070
     0
1070
     2
1040
2.0
1040
4.0
1070
     0
1070
     1
1070
     0
1040
0.03
1002
}
  0
INSERT
  5
92A90
330
2
100
AcDbEntity
  8
ASHADE
 62
     6
100
AcDbBlockReference
  2
AVE_RENDER
 10
-345.6115092842143
 20
-401.7229348885227
 30
0.0
 41
1.305149999999997
 42
1.305149999999912
 43
1.305150000000001
1001
AVE_RENDER
1002
{
1070
     2
1000
Raytr Opt
1070
     2
1070
     0
1070
     2
1040
2.0
1040
4.0
1070
     0
1070
     1
1070
     1
1040
0.03
1070
     3
1040
0.03
1002
}
  0
INSERT
  5
92A91
330
2
100
AcDbEntity
  8
ASHADE
 62
     7
100
AcDbBlockReference
  2
AVE_RENDER
 10
-345.6115092842143
 20
-401.7229348885227
 30
0.0
 41
1.305149999999997
 42
1.305149999999912
 43
1.305150000000001
1001
AVE_RENDER
1002
{
1070
     0
1000
RFile Opt
1070
     5
1070
   640
1070
   480
1070
 10000
1070
     3
1070
    32
1070
    24
1070
     0
1070
     0
1070
     0
1070
     1
1070
     0
1070
     0
1070
     0
1002
}
  0
INSERT
  5
92A92
330
2
100
AcDbEntity
  8
ASHADE
 62
     8
100
AcDbBlockReference
  2
AVE_RENDER
 10
-345.6115092842143
 20
-401.7229348885227
 30
0.0
 41
1.305149999999997
 42
1.305149999999912
 43
1.305150000000001
1001
AVE_RENDER
1002
{
1070
     0
1000
Fog Opt
1070
     0
1070
     0
1040
0.0
1040
1.0
1040
0.0
1040
1.0
1010
0.5
1020
0.5
1030
0.5
1002
}
  0
INSERT
  5
92A93
330
2
100
AcDbEntity
  8
ASHADE
 62
     9
100
AcDbBlockReference
  2
AVE_RENDER
 10
-345.6115092842143
 20
-401.7229348885227
 30
0.0
 41
1.305149999999997
 42
1.305149999999912
 43
1.305150000000001
1001
AVE_RENDER
1002
{
1070
     0
1000
BG Opt
1070
     0
1070
     1
1010
0.0
1020
0.0
1030
0.0
1010
1.0
1020
0.0
1030
0.0
1010
0.0
1020
1.0
1030
0.0
1010
0.0
1020
0.0
1030
1.0
1040
0.5
1040
0.33
1040
0.0
1000

1070
     1
1000

1070
     1
1070
     1
1040
1.0
1040
1.0
1040
0.0
1040
0.0
1070
     0
1002
}
  0
INSERT
  5
92A94
330
2
100
AcDbEntity
  8
ASHADE
 62
     1
100
AcDbBlockReference
  2
AVE_GLOBAL
 10
-345.6115092842143
 20
-401.7229348885227
 30
0.0
 41
1.305149999999997
 42
1.305149999999912
 43
1.305150000000001
1001
AVE_MATERIAL
1002
{
1000
*GLOBAL*
1000
1
1000
Global finish.
1002
{
1002
}
1002
{
1070
    63
1002
{
1002
{
1010
-1.0
1020
-1.0
1030
-1.0
1002
}
1040
0.1000000014901161
1000

1040
0.0
1002
{
1002
}
1040
0.0
1002
{
1002
}
1040
0.0
1002
}
1002
{
1002
{
1010
-1.0
1020
-1.0
1030
-1.0
1002
}
1040
0.6999999880790711
1000

1040
0.0
1002
{
1002
}
1040
0.0
1002
{
1002
}
1040
0.0
1002
}
1002
{
1002
{
1010
-1.0
1020
-1.0
1030
-1.0
1002
}
1040
0.2000000029802322
1000

1040
0.0
1002
{
1002
}
1040
0.0
1002
{
1002
}
1040
0.0
1002
}
1002
{
1070
     0
1002
{
1070
     1
1002
{
1040
1.0
1040
1.0
1000

1040
0.0
1002
{
1002
}
1040
0.0
1002
{
1002
}
1040
0.0
1002
}
1002
}
1040
1.0
1040
0.0
1040
0.0
1002
}
1002
{
1040
1.0
1040
1.0
1000

1040
0.0
1002
{
1002
}
1040
0.0
1002
{
1002
}
1040
0.0
1002
}
1002
{
1040
0.5
1040
1.0
1000

1040
0.0
1002
{
1002
}
1040
0.0
1002
{
1002
}
1040
0.0
1002
}
1002
{
1070
     0
1040
0.0
1002
{
1002
}
1040
1.0
1002
{
1002
}
1040
0.0
1002
}
1002
{
1040
0.0
1002
{
1002
{
1010
0.0
1020
0.0
1030
0.0
1002
}
1040
1.0
1000

1040
0.0
1002
{
1002
}
1040
0.0
1002
{
1002
}
1040
0.0
1002
}
1002
}
1002
{
1002
{
1070
     1
1002
{
1040
0.0
1040
1.0
1000

1040
0.0
1002
{
1002
}
1040
0.0
1002
{
1002
}
1040
0.0
1002
}
1002
}
1040
0.0
1002
{
1002
}
1010
1.0
1020
0.0
1030
0.0
1010
0.0
1020
1.0
1030
0.0
1010
0.0
1020
0.0
1030
1.0
1070
     0
1002
}
1002
{
1002
{
1040
1.0
1040
1.0
1002
{
1070
     1
1002
{
1040
1.0
1040
1.0
1000

1040
0.0
1002
{
1002
}
1040
0.0
1002
{
1002
}
1040
0.0
1002
}
1002
}
1002
}
1070
     0
1040
0.0
1002
{
1002
}
1002
}
1002
{
1002
}
1002
}
1002
{
1071
        3
1070
     3
1070
     0
1002
{
1070
     2
1070
     0
1070
     0
1040
0.0
1002
}
1070
     0
1070
     2
1002
{
1002
}
1002
}
1002
{
1040
8030.0
1040
190.3000030517578
1040
0.3050000071525574
1040
228.0
1040
545.0
1040
14.0
1040
17.39999961853027
1040
0.4560000002384186
1002
}
1002
}
  0
INSERT
  5
92A95
330
2
100
AcDbEntity
  8
ASHADE
 62
     1
100
AcDbBlockReference
  2
AVE_RENDER
 10
71.15830328567222
 20
243.9880492700356
 30
0.0
 41
0.3262875000000065
 42
0.3262875000000349
 43
0.3262875000000003
1001
AVE_RENDER
1002
{
1070
     6
1000
Pref
1070
    30
1070
    20
1070
     1
1070
     0
1000

1070
    10
1070
     1
1070
    30
1040
1.0
1070
     1
1040
0.3
1040
0.7
1040
0.0
1040
10.0
1010
-1.0
1020
-1.0
1030
-1.0
1040
0.3
1070
    49
1070
     0
1070
     0
1010
1.0
1020
1.0
1030
1.0
1040
45.0
1070
     1
1070
     0
1000
WCS
1040
0.0
1002
}
  0
INSERT
  5
92A96
330
2
100
AcDbEntity
  8
ASHADE
 62
     3
100
AcDbBlockReference
  2
AVE_RENDER
 10
71.15830328567222
 20
243.9880492700356
 30
0.0
 41
0.3262875000000065
 42
0.3262875000000349
 43
0.3262875000000003
1001
AVE_RENDER
1002
{
1070
     0
1000
Full Opt
1070
     0
1070
     1
1070
     1
1070
     1
1070
     0
1070
     0
1070
     0
1070
     1
1070
     1
1040
0.0001
1040
0.0001
1002
}
  0
INSERT
  5
92A97
330
2
100
AcDbEntity
  8
ASHADE
 62
     4
100
AcDbBlockReference
  2
AVE_RENDER
 10
71.15830328567222
 20
243.9880492700356
 30
0.0
 41
0.3262875000000065
 42
0.3262875000000349
 43
0.3262875000000003
1001
AVE_RENDER
1002
{
1070
     0
1000
Quick Opt
1070
     0
1070
     1
1070
     1
1070
     1
1070
     0
1070
     0
1070
     1
1002
}
  0
INSERT
  5
92A98
330
2
100
AcDbEntity
  8
ASHADE
 62
     5
100
AcDbBlockReference
  2
AVE_RENDER
 10
71.15830328567222
 20
243.9880492700356
 30
0.0
 41
0.3262875000000065
 42
0.3262875000000349
 43
0.3262875000000003
1001
AVE_RENDER
1002
{
1070
     1
1000
Scanl Opt
1070
     2
1070
     0
1070
     2
1040
2.0
1040
4.0
1070
     0
1070
     1
1070
     0
1040
0.03
1002
}
  0
INSERT
  5
92A99
330
2
100
AcDbEntity
  8
ASHADE
 62
     6
100
AcDbBlockReference
  2
AVE_RENDER
 10
71.15830328567222
 20
243.9880492700356
 30
0.0
 41
0.3262875000000065
 42
0.3262875000000349
 43
0.3262875000000003
1001
AVE_RENDER
1002
{
1070
     2
1000
Raytr Opt
1070
     2
1070
     0
1070
     2
1040
2.0
1040
4.0
1070
     0
1070
     1
1070
     1
1040
0.03
1070
     3
1040
0.03
1002
}
  0
INSERT
  5
92A9A
330
2
100
AcDbEntity
  8
ASHADE
 62
     7
100
AcDbBlockReference
  2
AVE_RENDER
 10
71.15830328567222
 20
243.9880492700356
 30
0.0
 41
0.3262875000000065
 42
0.3262875000000349
 43
0.3262875000000003
1001
AVE_RENDER
1002
{
1070
     0
1000
RFile Opt
1070
     5
1070
   640
1070
   480
1070
 10000
1070
     3
1070
    32
1070
    24
1070
     0
1070
     0
1070
     0
1070
     1
1070
     0
1070
     0
1070
     0
1002
}
  0
INSERT
  5
92A9B
330
2
100
AcDbEntity
  8
ASHADE
 62
     8
100
AcDbBlockReference
  2
AVE_RENDER
 10
71.15830328567222
 20
243.9880492700356
 30
0.0
 41
0.3262875000000065
 42
0.3262875000000349
 43
0.3262875000000003
1001
AVE_RENDER
1002
{
1070
     0
1000
Fog Opt
1070
     0
1070
     0
1040
0.0
1040
1.0
1040
0.0
1040
1.0
1010
0.5
1020
0.5
1030
0.5
1002
}
  0
INSERT
  5
92A9C
330
2
100
AcDbEntity
  8
ASHADE
 62
     9
100
AcDbBlockReference
  2
AVE_RENDER
 10
71.15830328567222
 20
243.9880492700356
 30
0.0
 41
0.3262875000000065
 42
0.3262875000000349
 43
0.3262875000000003
1001
AVE_RENDER
1002
{
1070
     0
1000
BG Opt
1070
     0
1070
     1
1010
0.0
1020
0.0
1030
0.0
1010
1.0
1020
0.0
1030
0.0
1010
0.0
1020
1.0
1030
0.0
1010
0.0
1020
0.0
1030
1.0
1040
0.5
1040
0.33
1040
0.0
1000

1070
     1
1000

1070
     1
1070
     1
1040
1.0
1040
1.0
1040
0.0
1040
0.0
1070
     0
1002
}
  0
INSERT
  5
92A9D
330
2
100
AcDbEntity
  8
ASHADE
 62
     1
100
AcDbBlockReference
  2
AVE_GLOBAL
 10
71.15830328567222
 20
243.9880492700356
 30
0.0
 41
0.3262875000000065
 42
0.3262875000000349
 43
0.3262875000000003
1001
AVE_MATERIAL
1002
{
1000
*GLOBAL*
1000
1
1000
Global finish.
1002
{
1002
}
1002
{
1070
    63
1002
{
1002
{
1010
-1.0
1020
-1.0
1030
-1.0
1002
}
1040
0.1000000014901161
1000

1040
0.0
1002
{
1002
}
1040
0.0
1002
{
1002
}
1040
0.0
1002
}
1002
{
1002
{
1010
-1.0
1020
-1.0
1030
-1.0
1002
}
1040
0.6999999880790711
1000

1040
0.0
1002
{
1002
}
1040
0.0
1002
{
1002
}
1040
0.0
1002
}
1002
{
1002
{
1010
-1.0
1020
-1.0
1030
-1.0
1002
}
1040
0.2000000029802322
1000

1040
0.0
1002
{
1002
}
1040
0.0
1002
{
1002
}
1040
0.0
1002
}
1002
{
1070
     0
1002
{
1070
     1
1002
{
1040
1.0
1040
1.0
1000

1040
0.0
1002
{
1002
}
1040
0.0
1002
{
1002
}
1040
0.0
1002
}
1002
}
1040
1.0
1040
0.0
1040
0.0
1002
}
1002
{
1040
1.0
1040
1.0
1000

1040
0.0
1002
{
1002
}
1040
0.0
1002
{
1002
}
1040
0.0
1002
}
1002
{
1040
0.5
1040
1.0
1000

1040
0.0
1002
{
1002
}
1040
0.0
1002
{
1002
}
1040
0.0
1002
}
1002
{
1070
     0
1040
0.0
1002
{
1002
}
1040
1.0
1002
{
1002
}
1040
0.0
1002
}
1002
{
1040
0.0
1002
{
1002
{
1010
0.0
1020
0.0
1030
0.0
1002
}
1040
1.0
1000

1040
0.0
1002
{
1002
}
1040
0.0
1002
{
1002
}
1040
0.0
1002
}
1002
}
1002
{
1002
{
1070
     1
1002
{
1040
0.0
1040
1.0
1000

1040
0.0
1002
{
1002
}
1040
0.0
1002
{
1002
}
1040
0.0
1002
}
1002
}
1040
0.0
1002
{
1002
}
1010
1.0
1020
0.0
1030
0.0
1010
0.0
1020
1.0
1030
0.0
1010
0.0
1020
0.0
1030
1.0
1070
     0
1002
}
1002
{
1002
{
1040
1.0
1040
1.0
1002
{
1070
     1
1002
{
1040
1.0
1040
1.0
1000

1040
0.0
1002
{
1002
}
1040
0.0
1002
{
1002
}
1040
0.0
1002
}
1002
}
1002
}
1070
     0
1040
0.0
1002
{
1002
}
1002
}
1002
{
1002
}
1002
}
1002
{
1071
        3
1070
     3
1070
     0
1002
{
1070
     2
1070
     0
1070
     0
1040
0.0
1002
}
1070
     0
1070
     2
1002
{
1002
}
1002
}
1002
{
1040
8030.0
1040
190.3000030517578
1040
0.3050000071525574
1040
228.0
1040
545.0
1040
14.0
1040
17.39999961853027
1040
0.4560000002384186
1002
}
1002
}
  0
INSERT
  5
92A9E
330
2
100
AcDbEntity
  8
ASHADE
 62
     1
100
AcDbBlockReference
  2
AVE_RENDER
 10
-137.1380158279609
 20
-401.7229348885228
 30
0.0
 41
1.305149999999997
 42
1.305149999999912
 43
1.305150000000001
1001
AVE_RENDER
1002
{
1070
     6
1000
Pref
1070
    30
1070
    20
1070
     1
1070
     0
1000

1070
    10
1070
     1
1070
    30
1040
1.0
1070
     1
1040
0.3
1040
0.7
1040
0.0
1040
10.0
1010
-1.0
1020
-1.0
1030
-1.0
1040
0.3
1070
    49
1070
     0
1070
     0
1010
1.0
1020
1.0
1030
1.0
1040
45.0
1070
     1
1070
     0
1000
WCS
1040
0.0
1002
}
  0
INSERT
  5
92A9F
330
2
100
AcDbEntity
  8
ASHADE
 62
     3
100
AcDbBlockReference
  2
AVE_RENDER
 10
-137.1380158279609
 20
-401.7229348885228
 30
0.0
 41
1.305149999999997
 42
1.305149999999912
 43
1.305150000000001
1001
AVE_RENDER
1002
{
1070
     0
1000
Full Opt
1070
     0
1070
     1
1070
     1
1070
     1
1070
     0
1070
     0
1070
     0
1070
     1
1070
     1
1040
0.0001
1040
0.0001
1002
}
  0
INSERT
  5
92AA0
330
2
100
AcDbEntity
  8
ASHADE
 62
     4
100
AcDbBlockReference
  2
AVE_RENDER
 10
-137.1380158279609
 20
-401.7229348885228
 30
0.0
 41
1.305149999999997
 42
1.305149999999912
 43
1.305150000000001
1001
AVE_RENDER
1002
{
1070
     0
1000
Quick Opt
1070
     0
1070
     1
1070
     1
1070
     1
1070
     0
1070
     0
1070
     1
1002
}
  0
INSERT
  5
92AA1
330
2
100
AcDbEntity
  8
ASHADE
 62
     5
100
AcDbBlockReference
  2
AVE_RENDER
 10
-137.1380158279609
 20
-401.7229348885228
 30
0.0
 41
1.305149999999997
 42
1.305149999999912
 43
1.305150000000001
1001
AVE_RENDER
1002
{
1070
     1
1000
Scanl Opt
1070
     2
1070
     0
1070
     2
1040
2.0
1040
4.0
1070
     0
1070
     1
1070
     0
1040
0.03
1002
}
  0
INSERT
  5
92AA2
330
2
100
AcDbEntity
  8
ASHADE
 62
     6
100
AcDbBlockReference
  2
AVE_RENDER
 10
-137.1380158279609
 20
-401.7229348885228
 30
0.0
 41
1.305149999999997
 42
1.305149999999912
 43
1.305150000000001
1001
AVE_RENDER
1002
{
1070
     2
1000
Raytr Opt
1070
     2
1070
     0
1070
     2
1040
2.0
1040
4.0
1070
     0
1070
     1
1070
     1
1040
0.03
1070
     3
1040
0.03
1002
}
  0
INSERT
  5
92AA3
330
2
100
AcDbEntity
  8
ASHADE
 62
     7
100
AcDbBlockReference
  2
AVE_RENDER
 10
-137.1380158279609
 20
-401.7229348885228
 30
0.0
 41
1.305149999999997
 42
1.305149999999912
 43
1.305150000000001
1001
AVE_RENDER
1002
{
1070
     0
1000
RFile Opt
1070
     5
1070
   640
1070
   480
1070
 10000
1070
     3
1070
    32
1070
    24
1070
     0
1070
     0
1070
     0
1070
     1
1070
     0
1070
     0
1070
     0
1002
}
  0
INSERT
  5
92AA4
330
2
100
AcDbEntity
  8
ASHADE
 62
     8
100
AcDbBlockReference
  2
AVE_RENDER
 10
-137.1380158279609
 20
-401.7229348885228
 30
0.0
 41
1.305149999999997
 42
1.305149999999912
 43
1.305150000000001
1001
AVE_RENDER
1002
{
1070
     0
1000
Fog Opt
1070
     0
1070
     0
1040
0.0
1040
1.0
1040
0.0
1040
1.0
1010
0.5
1020
0.5
1030
0.5
1002
}
  0
INSERT
  5
92AA5
330
2
100
AcDbEntity
  8
ASHADE
 62
     9
100
AcDbBlockReference
  2
AVE_RENDER
 10
-137.1380158279609
 20
-401.7229348885228
 30
0.0
 41
1.305149999999997
 42
1.305149999999912
 43
1.305150000000001
1001
AVE_RENDER
1002
{
1070
     0
1000
BG Opt
1070
     0
1070
     1
1010
0.0
1020
0.0
1030
0.0
1010
1.0
1020
0.0
1030
0.0
1010
0.0
1020
1.0
1030
0.0
1010
0.0
1020
0.0
1030
1.0
1040
0.5
1040
0.33
1040
0.0
1000

1070
     1
1000

1070
     1
1070
     1
1040
1.0
1040
1.0
1040
0.0
1040
0.0
1070
     0
1002
}
  0
INSERT
  5
92AA6
330
2
100
AcDbEntity
  8
ASHADE
 62
     1
100
AcDbBlockReference
  2
AVE_GLOBAL
 10
-137.1380158279609
 20
-401.7229348885228
 30
0.0
 41
1.305149999999997
 42
1.305149999999912
 43
1.305150000000001
1001
AVE_MATERIAL
1002
{
1000
*GLOBAL*
1000
1
1000
Global finish.
1002
{
1002
}
1002
{
1070
    63
1002
{
1002
{
1010
-1.0
1020
-1.0
1030
-1.0
1002
}
1040
0.1000000014901161
1000

1040
0.0
1002
{
1002
}
1040
0.0
1002
{
1002
}
1040
0.0
1002
}
1002
{
1002
{
1010
-1.0
1020
-1.0
1030
-1.0
1002
}
1040
0.6999999880790711
1000

1040
0.0
1002
{
1002
}
1040
0.0
1002
{
1002
}
1040
0.0
1002
}
1002
{
1002
{
1010
-1.0
1020
-1.0
1030
-1.0
1002
}
1040
0.2000000029802322
1000

1040
0.0
1002
{
1002
}
1040
0.0
1002
{
1002
}
1040
0.0
1002
}
1002
{
1070
     0
1002
{
1070
     1
1002
{
1040
1.0
1040
1.0
1000

1040
0.0
1002
{
1002
}
1040
0.0
1002
{
1002
}
1040
0.0
1002
}
1002
}
1040
1.0
1040
0.0
1040
0.0
1002
}
1002
{
1040
1.0
1040
1.0
1000

1040
0.0
1002
{
1002
}
1040
0.0
1002
{
1002
}
1040
0.0
1002
}
1002
{
1040
0.5
1040
1.0
1000

1040
0.0
1002
{
1002
}
1040
0.0
1002
{
1002
}
1040
0.0
1002
}
1002
{
1070
     0
1040
0.0
1002
{
1002
}
1040
1.0
1002
{
1002
}
1040
0.0
1002
}
1002
{
1040
0.0
1002
{
1002
{
1010
0.0
1020
0.0
1030
0.0
1002
}
1040
1.0
1000

1040
0.0
1002
{
1002
}
1040
0.0
1002
{
1002
}
1040
0.0
1002
}
1002
}
1002
{
1002
{
1070
     1
1002
{
1040
0.0
1040
1.0
1000

1040
0.0
1002
{
1002
}
1040
0.0
1002
{
1002
}
1040
0.0
1002
}
1002
}
1040
0.0
1002
{
1002
}
1010
1.0
1020
0.0
1030
0.0
1010
0.0
1020
1.0
1030
0.0
1010
0.0
1020
0.0
1030
1.0
1070
     0
1002
}
1002
{
1002
{
1040
1.0
1040
1.0
1002
{
1070
     1
1002
{
1040
1.0
1040
1.0
1000

1040
0.0
1002
{
1002
}
1040
0.0
1002
{
1002
}
1040
0.0
1002
}
1002
}
1002
}
1070
     0
1040
0.0
1002
{
1002
}
1002
}
1002
{
1002
}
1002
}
1002
{
1071
        3
1070
     3
1070
     0
1002
{
1070
     2
1070
     0
1070
     0
1040
0.0
1002
}
1070
     0
1070
     2
1002
{
1002
}
1002
}
1002
{
1040
8030.0
1040
190.3000030517578
1040
0.3050000071525574
1040
228.0
1040
545.0
1040
14.0
1040
17.39999961853027
1040
0.4560000002384186
1002
}
1002
}
  0
INSERT
  5
92AA7
330
2
100
AcDbEntity
  8
ASHADE
 62
     1
100
AcDbBlockReference
  2
AVE_RENDER
 10
274.9222268164714
 20
439.0742775476521
 30
2.284012500000298
 41
1.305149999999997
 42
1.305149999999912
 43
1.305150000000001
1001
AVE_RENDER
1002
{
1070
     6
1000
Pref
1070
    30
1070
    20
1070
     1
1070
     0
1000

1070
    10
1070
     1
1070
    30
1040
1.0
1070
     1
1040
0.3
1040
0.7
1040
0.0
1040
10.0
1010
-1.0
1020
-1.0
1030
-1.0
1040
0.3
1070
    49
1070
     0
1070
     0
1010
1.0
1020
1.0
1030
1.0
1040
45.0
1070
     1
1070
     0
1000
WCS
1040
0.0
1002
}
  0
INSERT
  5
92AA8
330
2
100
AcDbEntity
  8
ASHADE
 62
     3
100
AcDbBlockReference
  2
AVE_RENDER
 10
274.9222268164714
 20
439.0742775476521
 30
2.284012500000298
 41
1.305149999999997
 42
1.305149999999912
 43
1.305150000000001
1001
AVE_RENDER
1002
{
1070
     0
1000
Full Opt
1070
     0
1070
     1
1070
     1
1070
     1
1070
     0
1070
     0
1070
     0
1070
     1
1070
     1
1040
0.0001
1040
0.0001
1002
}
  0
INSERT
  5
92AA9
330
2
100
AcDbEntity
  8
ASHADE
 62
     4
100
AcDbBlockReference
  2
AVE_RENDER
 10
274.9222268164714
 20
439.0742775476521
 30
2.284012500000298
 41
1.305149999999997
 42
1.305149999999912
 43
1.305150000000001
1001
AVE_RENDER
1002
{
1070
     0
1000
Quick Opt
1070
     0
1070
     1
1070
     1
1070
     1
1070
     0
1070
     0
1070
     1
1002
}
  0
INSERT
  5
92AAA
330
2
100
AcDbEntity
  8
ASHADE
 62
     5
100
AcDbBlockReference
  2
AVE_RENDER
 10
274.9222268164714
 20
439.0742775476521
 30
2.284012500000298
 41
1.305149999999997
 42
1.305149999999912
 43
1.305150000000001
1001
AVE_RENDER
1002
{
1070
     1
1000
Scanl Opt
1070
     2
1070
     0
1070
     2
1040
2.0
1040
4.0
1070
     0
1070
     1
1070
     0
1040
0.03
1002
}
  0
INSERT
  5
92AAB
330
2
100
AcDbEntity
  8
ASHADE
 62
     6
100
AcDbBlockReference
  2
AVE_RENDER
 10
274.9222268164714
 20
439.0742775476521
 30
2.284012500000298
 41
1.305149999999997
 42
1.305149999999912
 43
1.305150000000001
1001
AVE_RENDER
1002
{
1070
     2
1000
Raytr Opt
1070
     2
1070
     0
1070
     2
1040
2.0
1040
4.0
1070
     0
1070
     1
1070
     1
1040
0.03
1070
     3
1040
0.03
1002
}
  0
INSERT
  5
92AAC
330
2
100
AcDbEntity
  8
ASHADE
 62
     7
100
AcDbBlockReference
  2
AVE_RENDER
 10
274.9222268164714
 20
439.0742775476521
 30
2.284012500000298
 41
1.305149999999997
 42
1.305149999999912
 43
1.305150000000001
1001
AVE_RENDER
1002
{
1070
     0
1000
RFile Opt
1070
     5
1070
   640
1070
   480
1070
 10000
1070
     3
1070
    32
1070
    24
1070
     0
1070
     0
1070
     0
1070
     1
1070
     0
1070
     0
1070
     0
1002
}
  0
INSERT
  5
92AAD
330
2
100
AcDbEntity
  8
ASHADE
 62
     8
100
AcDbBlockReference
  2
AVE_RENDER
 10
274.9222268164714
 20
439.0742775476521
 30
2.284012500000298
 41
1.305149999999997
 42
1.305149999999912
 43
1.305150000000001
1001
AVE_RENDER
1002
{
1070
     0
1000
Fog Opt
1070
     0
1070
     0
1040
0.0
1040
1.0
1040
0.0
1040
1.0
1010
0.5
1020
0.5
1030
0.5
1002
}
  0
INSERT
  5
92AAE
330
2
100
AcDbEntity
  8
ASHADE
 62
     9
100
AcDbBlockReference
  2
AVE_RENDER
 10
274.9222268164714
 20
439.0742775476521
 30
2.284012500000298
 41
1.305149999999997
 42
1.305149999999912
 43
1.305150000000001
1001
AVE_RENDER
1002
{
1070
     0
1000
BG Opt
1070
     0
1070
     1
1010
0.0
1020
0.0
1030
0.0
1010
1.0
1020
0.0
1030
0.0
1010
0.0
1020
1.0
1030
0.0
1010
0.0
1020
0.0
1030
1.0
1040
0.5
1040
0.33
1040
0.0
1000

1070
     1
1000

1070
     1
1070
     1
1040
1.0
1040
1.0
1040
0.0
1040
0.0
1070
     0
1002
}
  0
INSERT
  5
92AAF
330
2
100
AcDbEntity
  8
ASHADE
 62
     1
100
AcDbBlockReference
  2
AVE_GLOBAL
 10
274.9222268164714
 20
439.0742775476521
 30
2.284012500000298
 41
1.305149999999997
 42
1.305149999999912
 43
1.305150000000001
1001
AVE_MATERIAL
1002
{
1000
*GLOBAL*
1000
1
1000
Global finish.
1002
{
1002
}
1002
{
1070
    63
1002
{
1002
{
1010
-1.0
1020
-1.0
1030
-1.0
1002
}
1040
0.1000000014901161
1000

1040
0.0
1002
{
1002
}
1040
0.0
1002
{
1002
}
1040
0.0
1002
}
1002
{
1002
{
1010
-1.0
1020
-1.0
1030
-1.0
1002
}
1040
0.6999999880790711
1000

1040
0.0
1002
{
1002
}
1040
0.0
1002
{
1002
}
1040
0.0
1002
}
1002
{
1002
{
1010
-1.0
1020
-1.0
1030
-1.0
1002
}
1040
0.2000000029802322
1000

1040
0.0
1002
{
1002
}
1040
0.0
1002
{
1002
}
1040
0.0
1002
}
1002
{
1070
     0
1002
{
1070
     1
1002
{
1040
1.0
1040
1.0
1000

1040
0.0
1002
{
1002
}
1040
0.0
1002
{
1002
}
1040
0.0
1002
}
1002
}
1040
1.0
1040
0.0
1040
0.0
1002
}
1002
{
1040
1.0
1040
1.0
1000

1040
0.0
1002
{
1002
}
1040
0.0
1002
{
1002
}
1040
0.0
1002
}
1002
{
1040
0.5
1040
1.0
1000

1040
0.0
1002
{
1002
}
1040
0.0
1002
{
1002
}
1040
0.0
1002
}
1002
{
1070
     0
1040
0.0
1002
{
1002
}
1040
1.0
1002
{
1002
}
1040
0.0
1002
}
1002
{
1040
0.0
1002
{
1002
{
1010
0.0
1020
0.0
1030
0.0
1002
}
1040
1.0
1000

1040
0.0
1002
{
1002
}
1040
0.0
1002
{
1002
}
1040
0.0
1002
}
1002
}
1002
{
1002
{
1070
     1
1002
{
1040
0.0
1040
1.0
1000

1040
0.0
1002
{
1002
}
1040
0.0
1002
{
1002
}
1040
0.0
1002
}
1002
}
1040
0.0
1002
{
1002
}
1010
1.0
1020
0.0
1030
0.0
1010
0.0
1020
1.0
1030
0.0
1010
0.0
1020
0.0
1030
1.0
1070
     0
1002
}
1002
{
1002
{
1040
1.0
1040
1.0
1002
{
1070
     1
1002
{
1040
1.0
1040
1.0
1000

1040
0.0
1002
{
1002
}
1040
0.0
1002
{
1002
}
1040
0.0
1002
}
1002
}
1002
}
1070
     0
1040
0.0
1002
{
1002
}
1002
}
1002
{
1002
}
1002
}
1002
{
1071
        3
1070
     3
1070
     0
1002
{
1070
     2
1070
     0
1070
     0
1040
0.0
1002
}
1070
     0
1070
     2
1002
{
1002
}
1002
}
1002
{
1040
8030.0
1040
190.3000030517578
1040
0.3050000071525574
1040
228.0
1040
545.0
1040
14.0
1040
17.39999961853027
1040
0.4560000002384186
1002
}
1002
}
  0
INSERT
  5
92AB0
330
2
100
AcDbEntity
  8
ASHADE
 62
     1
100
AcDbBlockReference
  2
AVE_RENDER
 10
-1175.187566700435
 20
-495.2434054336618
 30
-3.763544048676747
 41
1.305149999999997
 42
1.305149999999912
 43
1.305150000000001
1001
AVE_RENDER
1002
{
1070
     6
1000
Pref
1070
    30
1070
    20
1070
     1
1070
     0
1000

1070
    10
1070
     1
1070
    30
1040
1.0
1070
     1
1040
0.3
1040
0.7
1040
0.0
1040
10.0
1010
-1.0
1020
-1.0
1030
-1.0
1040
0.3
1070
    49
1070
     0
1070
     0
1010
1.0
1020
1.0
1030
1.0
1040
45.0
1070
     1
1070
     0
1000
WCS
1040
0.0
1002
}
  0
INSERT
  5
92AB1
330
2
100
AcDbEntity
  8
ASHADE
 62
     3
100
AcDbBlockReference
  2
AVE_RENDER
 10
-1175.187566700435
 20
-495.2434054336618
 30
-3.763544048676747
 41
1.305149999999997
 42
1.305149999999912
 43
1.305150000000001
1001
AVE_RENDER
1002
{
1070
     0
1000
Full Opt
1070
     0
1070
     1
1070
     1
1070
     1
1070
     0
1070
     0
1070
     0
1070
     1
1070
     1
1040
0.0001
1040
0.0001
1002
}
  0
INSERT
  5
92AB2
330
2
100
AcDbEntity
  8
ASHADE
 62
     4
100
AcDbBlockReference
  2
AVE_RENDER
 10
-1175.187566700435
 20
-495.2434054336618
 30
-3.763544048676747
 41
1.305149999999997
 42
1.305149999999912
 43
1.305150000000001
1001
AVE_RENDER
1002
{
1070
     0
1000
Quick Opt
1070
     0
1070
     1
1070
     1
1070
     1
1070
     0
1070
     0
1070
     1
1002
}
  0
INSERT
  5
92AB3
330
2
100
AcDbEntity
  8
ASHADE
 62
     5
100
AcDbBlockReference
  2
AVE_RENDER
 10
-1175.187566700435
 20
-495.2434054336618
 30
-3.763544048676747
 41
1.305149999999997
 42
1.305149999999912
 43
1.305150000000001
1001
AVE_RENDER
1002
{
1070
     1
1000
Scanl Opt
1070
     2
1070
     0
1070
     2
1040
2.0
1040
4.0
1070
     0
1070
     1
1070
     0
1040
0.03
1002
}
  0
INSERT
  5
92AB4
330
2
100
AcDbEntity
  8
ASHADE
 62
     6
100
AcDbBlockReference
  2
AVE_RENDER
 10
-1175.187566700435
 20
-495.2434054336618
 30
-3.763544048676747
 41
1.305149999999997
 42
1.305149999999912
 43
1.305150000000001
1001
AVE_RENDER
1002
{
1070
     2
1000
Raytr Opt
1070
     2
1070
     0
1070
     2
1040
2.0
1040
4.0
1070
     0
1070
     1
1070
     1
1040
0.03
1070
     3
1040
0.03
1002
}
  0
INSERT
  5
92AB5
330
2
100
AcDbEntity
  8
ASHADE
 62
     7
100
AcDbBlockReference
  2
AVE_RENDER
 10
-1175.187566700435
 20
-495.2434054336618
 30
-3.763544048676747
 41
1.305149999999997
 42
1.305149999999912
 43
1.305150000000001
1001
AVE_RENDER
1002
{
1070
     0
1000
RFile Opt
1070
     5
1070
   640
1070
   480
1070
 10000
1070
     3
1070
    32
1070
    24
1070
     0
1070
     0
1070
     0
1070
     1
1070
     0
1070
     0
1070
     0
1002
}
  0
INSERT
  5
92AB6
330
2
100
AcDbEntity
  8
ASHADE
 62
     8
100
AcDbBlockReference
  2
AVE_RENDER
 10
-1175.187566700435
 20
-495.2434054336618
 30
-3.763544048676747
 41
1.305149999999997
 42
1.305149999999912
 43
1.305150000000001
1001
AVE_RENDER
1002
{
1070
     0
1000
Fog Opt
1070
     0
1070
     0
1040
0.0
1040
1.0
1040
0.0
1040
1.0
1010
0.5
1020
0.5
1030
0.5
1002
}
  0
INSERT
  5
92AB7
330
2
100
AcDbEntity
  8
ASHADE
 62
     9
100
AcDbBlockReference
  2
AVE_RENDER
 10
-1175.187566700435
 20
-495.2434054336618
 30
-3.763544048676747
 41
1.305149999999997
 42
1.305149999999912
 43
1.305150000000001
1001
AVE_RENDER
1002
{
1070
     0
1000
BG Opt
1070
     0
1070
     1
1010
0.0
1020
0.0
1030
0.0
1010
1.0
1020
0.0
1030
0.0
1010
0.0
1020
1.0
1030
0.0
1010
0.0
1020
0.0
1030
1.0
1040
0.5
1040
0.33
1040
0.0
1000

1070
     1
1000

1070
     1
1070
     1
1040
1.0
1040
1.0
1040
0.0
1040
0.0
1070
     0
1002
}
  0
INSERT
  5
92AB8
330
2
100
AcDbEntity
  8
ASHADE
 62
     1
100
AcDbBlockReference
  2
AVE_GLOBAL
 10
-1175.187566700435
 20
-495.2434054336618
 30
-3.763544048676747
 41
1.305149999999997
 42
1.305149999999912
 43
1.305150000000001
1001
AVE_MATERIAL
1002
{
1000
*GLOBAL*
1000
1
1000
Global finish.
1002
{
1002
}
1002
{
1070
    63
1002
{
1002
{
1010
-1.0
1020
-1.0
1030
-1.0
1002
}
1040
0.1000000014901161
1000

1040
0.0
1002
{
1002
}
1040
0.0
1002
{
1002
}
1040
0.0
1002
}
1002
{
1002
{
1010
-1.0
1020
-1.0
1030
-1.0
1002
}
1040
0.6999999880790711
1000

1040
0.0
1002
{
1002
}
1040
0.0
1002
{
1002
}
1040
0.0
1002
}
1002
{
1002
{
1010
-1.0
1020
-1.0
1030
-1.0
1002
}
1040
0.2000000029802322
1000

1040
0.0
1002
{
1002
}
1040
0.0
1002
{
1002
}
1040
0.0
1002
}
1002
{
1070
     0
1002
{
1070
     1
1002
{
1040
1.0
1040
1.0
1000

1040
0.0
1002
{
1002
}
1040
0.0
1002
{
1002
}
1040
0.0
1002
}
1002
}
1040
1.0
1040
0.0
1040
0.0
1002
}
1002
{
1040
1.0
1040
1.0
1000

1040
0.0
1002
{
1002
}
1040
0.0
1002
{
1002
}
1040
0.0
1002
}
1002
{
1040
0.5
1040
1.0
1000

1040
0.0
1002
{
1002
}
1040
0.0
1002
{
1002
}
1040
0.0
1002
}
1002
{
1070
     0
1040
0.0
1002
{
1002
}
1040
1.0
1002
{
1002
}
1040
0.0
1002
}
1002
{
1040
0.0
1002
{
1002
{
1010
0.0
1020
0.0
1030
0.0
1002
}
1040
1.0
1000

1040
0.0
1002
{
1002
}
1040
0.0
1002
{
1002
}
1040
0.0
1002
}
1002
}
1002
{
1002
{
1070
     1
1002
{
1040
0.0
1040
1.0
1000

1040
0.0
1002
{
1002
}
1040
0.0
1002
{
1002
}
1040
0.0
1002
}
1002
}
1040
0.0
1002
{
1002
}
1010
1.0
1020
0.0
1030
0.0
1010
0.0
1020
1.0
1030
0.0
1010
0.0
1020
0.0
1030
1.0
1070
     0
1002
}
1002
{
1002
{
1040
1.0
1040
1.0
1002
{
1070
     1
1002
{
1040
1.0
1040
1.0
1000

1040
0.0
1002
{
1002
}
1040
0.0
1002
{
1002
}
1040
0.0
1002
}
1002
}
1002
}
1070
     0
1040
0.0
1002
{
1002
}
1002
}
1002
{
1002
}
1002
}
1002
{
1071
        3
1070
     3
1070
     0
1002
{
1070
     2
1070
     0
1070
     0
1040
0.0
1002
}
1070
     0
1070
     2
1002
{
1002
}
1002
}
1002
{
1040
8030.0
1040
190.3000030517578
1040
0.3050000071525574
1040
228.0
1040
545.0
1040
14.0
1040
17.39999961853027
1040
0.4560000002384186
1002
}
1002
}
  0
INSERT
  5
92AB9
330
2
100
AcDbEntity
  8
ASHADE
 62
     1
100
AcDbBlockReference
  2
AVE_RENDER
 10
495.2434054336615
 20
-1480.989586647651
 30
-346.6225243329103
 41
1.305150000000001
 42
1.305150000000001
 43
1.305149999999997
 50
90.0
210
-1.0
220
0.0
230
0.0000000000000001
1001
AVE_RENDER
1002
{
1070
     6
1000
Pref
1070
    30
1070
    20
1070
     1
1070
     0
1000

1070
    10
1070
     1
1070
    30
1040
1.0
1070
     1
1040
0.3
1040
0.7
1040
0.0
1040
10.0
1010
-1.0
1020
-1.0
1030
-1.0
1040
0.3
1070
    49
1070
     0
1070
     0
1010
1.0
1020
1.0
1030
1.0
1040
45.0
1070
     1
1070
     0
1000
WCS
1040
0.0
1002
}
  0
INSERT
  5
92ABA
330
2
100
AcDbEntity
  8
ASHADE
 62
     3
100
AcDbBlockReference
  2
AVE_RENDER
 10
495.2434054336615
 20
-1480.989586647651
 30
-346.6225243329103
 41
1.305150000000001
 42
1.305150000000001
 43
1.305149999999997
 50
90.0
210
-1.0
220
0.0
230
0.0000000000000001
1001
AVE_RENDER
1002
{
1070
     0
1000
Full Opt
1070
     0
1070
     1
1070
     1
1070
     1
1070
     0
1070
     0
1070
     0
1070
     1
1070
     1
1040
0.0001
1040
0.0001
1002
}
  0
INSERT
  5
92ABB
330
2
100
AcDbEntity
  8
ASHADE
 62
     4
100
AcDbBlockReference
  2
AVE_RENDER
 10
495.2434054336615
 20
-1480.989586647651
 30
-346.6225243329103
 41
1.305150000000001
 42
1.305150000000001
 43
1.305149999999997
 50
90.0
210
-1.0
220
0.0
230
0.0000000000000001
1001
AVE_RENDER
1002
{
1070
     0
1000
Quick Opt
1070
     0
1070
     1
1070
     1
1070
     1
1070
     0
1070
     0
1070
     1
1002
}
  0
INSERT
  5
92ABC
330
2
100
AcDbEntity
  8
ASHADE
 62
     5
100
AcDbBlockReference
  2
AVE_RENDER
 10
495.2434054336615
 20
-1480.989586647651
 30
-346.6225243329103
 41
1.305150000000001
 42
1.305150000000001
 43
1.305149999999997
 50
90.0
210
-1.0
220
0.0
230
0.0000000000000001
1001
AVE_RENDER
1002
{
1070
     1
1000
Scanl Opt
1070
     2
1070
     0
1070
     2
1040
2.0
1040
4.0
1070
     0
1070
     1
1070
     0
1040
0.03
1002
}
  0
INSERT
  5
92ABD
330
2
100
AcDbEntity
  8
ASHADE
 62
     6
100
AcDbBlockReference
  2
AVE_RENDER
 10
495.2434054336615
 20
-1480.989586647651
 30
-346.6225243329103
 41
1.305150000000001
 42
1.305150000000001
 43
1.305149999999997
 50
90.0
210
-1.0
220
0.0
230
0.0000000000000001
1001
AVE_RENDER
1002
{
1070
     2
1000
Raytr Opt
1070
     2
1070
     0
1070
     2
1040
2.0
1040
4.0
1070
     0
1070
     1
1070
     1
1040
0.03
1070
     3
1040
0.03
1002
}
  0
INSERT
  5
92ABE
330
2
100
AcDbEntity
  8
ASHADE
 62
     7
100
AcDbBlockReference
  2
AVE_RENDER
 10
495.2434054336615
 20
-1480.989586647651
 30
-346.6225243329103
 41
1.305150000000001
 42
1.305150000000001
 43
1.305149999999997
 50
90.0
210
-1.0
220
0.0
230
0.0000000000000001
1001
AVE_RENDER
1002
{
1070
     0
1000
RFile Opt
1070
     5
1070
   640
1070
   480
1070
 10000
1070
     3
1070
    32
1070
    24
1070
     0
1070
     0
1070
     0
1070
     1
1070
     0
1070
     0
1070
     0
1002
}
  0
INSERT
  5
92ABF
330
2
100
AcDbEntity
  8
ASHADE
 62
     8
100
AcDbBlockReference
  2
AVE_RENDER
 10
495.2434054336615
 20
-1480.989586647651
 30
-346.6225243329103
 41
1.305150000000001
 42
1.305150000000001
 43
1.305149999999997
 50
90.0
210
-1.0
220
0.0
230
0.0000000000000001
1001
AVE_RENDER
1002
{
1070
     0
1000
Fog Opt
1070
     0
1070
     0
1040
0.0
1040
1.0
1040
0.0
1040
1.0
1010
0.5
1020
0.5
1030
0.5
1002
}
  0
INSERT
  5
92AC0
330
2
100
AcDbEntity
  8
ASHADE
 62
     9
100
AcDbBlockReference
  2
AVE_RENDER
 10
495.2434054336615
 20
-1480.989586647651
 30
-346.6225243329103
 41
1.305150000000001
 42
1.305150000000001
 43
1.305149999999997
 50
90.0
210
-1.0
220
0.0
230
0.0000000000000001
1001
AVE_RENDER
1002
{
1070
     0
1000
BG Opt
1070
     0
1070
     1
1010
0.0
1020
0.0
1030
0.0
1010
1.0
1020
0.0
1030
0.0
1010
0.0
1020
1.0
1030
0.0
1010
0.0
1020
0.0
1030
1.0
1040
0.5
1040
0.33
1040
0.0
1000

1070
     1
1000

1070
     1
1070
     1
1040
1.0
1040
1.0
1040
0.0
1040
0.0
1070
     0
1002
}
  0
INSERT
  5
92AC1
330
2
100
AcDbEntity
  8
ASHADE
 62
     1
100
AcDbBlockReference
  2
AVE_GLOBAL
 10
495.2434054336615
 20
-1480.989586647651
 30
-346.6225243329103
 41
1.305150000000001
 42
1.305150000000001
 43
1.305149999999997
 50
90.0
210
-1.0
220
0.0
230
0.0000000000000001
1001
AVE_MATERIAL
1002
{
1000
*GLOBAL*
1000
1
1000
Global finish.
1002
{
1002
}
1002
{
1070
    63
1002
{
1002
{
1010
-1.0
1020
-1.0
1030
-1.0
1002
}
1040
0.1000000014901161
1000

1040
0.0
1002
{
1002
}
1040
0.0
1002
{
1002
}
1040
0.0
1002
}
1002
{
1002
{
1010
-1.0
1020
-1.0
1030
-1.0
1002
}
1040
0.6999999880790711
1000

1040
0.0
1002
{
1002
}
1040
0.0
1002
{
1002
}
1040
0.0
1002
}
1002
{
1002
{
1010
-1.0
1020
-1.0
1030
-1.0
1002
}
1040
0.2000000029802322
1000

1040
0.0
1002
{
1002
}
1040
0.0
1002
{
1002
}
1040
0.0
1002
}
1002
{
1070
     0
1002
{
1070
     1
1002
{
1040
1.0
1040
1.0
1000

1040
0.0
1002
{
1002
}
1040
0.0
1002
{
1002
}
1040
0.0
1002
}
1002
}
1040
1.0
1040
0.0
1040
0.0
1002
}
1002
{
1040
1.0
1040
1.0
1000

1040
0.0
1002
{
1002
}
1040
0.0
1002
{
1002
}
1040
0.0
1002
}
1002
{
1040
0.5
1040
1.0
1000

1040
0.0
1002
{
1002
}
1040
0.0
1002
{
1002
}
1040
0.0
1002
}
1002
{
1070
     0
1040
0.0
1002
{
1002
}
1040
1.0
1002
{
1002
}
1040
0.0
1002
}
1002
{
1040
0.0
1002
{
1002
{
1010
0.0
1020
0.0
1030
0.0
1002
}
1040
1.0
1000

1040
0.0
1002
{
1002
}
1040
0.0
1002
{
1002
}
1040
0.0
1002
}
1002
}
1002
{
1002
{
1070
     1
1002
{
1040
0.0
1040
1.0
1000

1040
0.0
1002
{
1002
}
1040
0.0
1002
{
1002
}
1040
0.0
1002
}
1002
}
1040
0.0
1002
{
1002
}
1010
1.0
1020
0.0
1030
0.0
1010
0.0
1020
1.0
1030
0.0
1010
0.0
1020
0.0
1030
1.0
1070
     0
1002
}
1002
{
1002
{
1040
1.0
1040
1.0
1002
{
1070
     1
1002
{
1040
1.0
1040
1.0
1000

1040
0.0
1002
{
1002
}
1040
0.0
1002
{
1002
}
1040
0.0
1002
}
1002
}
1002
}
1070
     0
1040
0.0
1002
{
1002
}
1002
}
1002
{
1002
}
1002
}
1002
{
1071
        3
1070
     3
1070
     0
1002
{
1070
     2
1070
     0
1070
     0
1040
0.0
1002
}
1070
     0
1070
     2
1002
{
1002
}
1002
}
1002
{
1040
8030.0
1040
190.3000030517578
1040
0.3050000071525574
1040
228.0
1040
545.0
1040
14.0
1040
17.39999961853027
1040
0.4560000002384186
1002
}
1002
}
  0
INSERT
  5
92AC2
330
2
100
AcDbEntity
  8
ASHADE
 62
     1
100
AcDbBlockReference
  2
AVE_RENDER
 10
-439.0742775476521
 20
-30.87979313074396
 30
-348.3392831240367
 41
1.305150000000001
 42
1.305150000000001
 43
1.305149999999997
 50
90.0
210
-1.0
220
0.0
230
0.0000000000000001
1001
AVE_RENDER
1002
{
1070
     6
1000
Pref
1070
    30
1070
    20
1070
     1
1070
     0
1000

1070
    10
1070
     1
1070
    30
1040
1.0
1070
     1
1040
0.3
1040
0.7
1040
0.0
1040
10.0
1010
-1.0
1020
-1.0
1030
-1.0
1040
0.3
1070
    49
1070
     0
1070
     0
1010
1.0
1020
1.0
1030
1.0
1040
45.0
1070
     1
1070
     0
1000
WCS
1040
0.0
1002
}
  0
INSERT
  5
92AC3
330
2
100
AcDbEntity
  8
ASHADE
 62
     3
100
AcDbBlockReference
  2
AVE_RENDER
 10
-439.0742775476521
 20
-30.87979313074396
 30
-348.3392831240367
 41
1.305150000000001
 42
1.305150000000001
 43
1.305149999999997
 50
90.0
210
-1.0
220
0.0
230
0.0000000000000001
1001
AVE_RENDER
1002
{
1070
     0
1000
Full Opt
1070
     0
1070
     1
1070
     1
1070
     1
1070
     0
1070
     0
1070
     0
1070
     1
1070
     1
1040
0.0001
1040
0.0001
1002
}
  0
INSERT
  5
92AC4
330
2
100
AcDbEntity
  8
ASHADE
 62
     4
100
AcDbBlockReference
  2
AVE_RENDER
 10
-439.0742775476521
 20
-30.87979313074396
 30
-348.3392831240367
 41
1.305150000000001
 42
1.305150000000001
 43
1.305149999999997
 50
90.0
210
-1.0
220
0.0
230
0.0000000000000001
1001
AVE_RENDER
1002
{
1070
     0
1000
Quick Opt
1070
     0
1070
     1
1070
     1
1070
     1
1070
     0
1070
     0
1070
     1
1002
}
  0
INSERT
  5
92AC5
330
2
100
AcDbEntity
  8
ASHADE
 62
     5
100
AcDbBlockReference
  2
AVE_RENDER
 10
-439.0742775476521
 20
-30.87979313074396
 30
-348.3392831240367
 41
1.305150000000001
 42
1.305150000000001
 43
1.305149999999997
 50
90.0
210
-1.0
220
0.0
230
0.0000000000000001
1001
AVE_RENDER
1002
{
1070
     1
1000
Scanl Opt
1070
     2
1070
     0
1070
     2
1040
2.0
1040
4.0
1070
     0
1070
     1
1070
     0
1040
0.03
1002
}
  0
INSERT
  5
92AC6
330
2
100
AcDbEntity
  8
ASHADE
 62
     6
100
AcDbBlockReference
  2
AVE_RENDER
 10
-439.0742775476521
 20
-30.87979313074396
 30
-348.3392831240367
 41
1.305150000000001
 42
1.305150000000001
 43
1.305149999999997
 50
90.0
210
-1.0
220
0.0
230
0.0000000000000001
1001
AVE_RENDER
1002
{
1070
     2
1000
Raytr Opt
1070
     2
1070
     0
1070
     2
1040
2.0
1040
4.0
1070
     0
1070
     1
1070
     1
1040
0.03
1070
     3
1040
0.03
1002
}
  0
INSERT
  5
92AC7
330
2
100
AcDbEntity
  8
ASHADE
 62
     7
100
AcDbBlockReference
  2
AVE_RENDER
 10
-439.0742775476521
 20
-30.87979313074396
 30
-348.3392831240367
 41
1.305150000000001
 42
1.305150000000001
 43
1.305149999999997
 50
90.0
210
-1.0
220
0.0
230
0.0000000000000001
1001
AVE_RENDER
1002
{
1070
     0
1000
RFile Opt
1070
     5
1070
   640
1070
   480
1070
 10000
1070
     3
1070
    32
1070
    24
1070
     0
1070
     0
1070
     0
1070
     1
1070
     0
1070
     0
1070
     0
1002
}
  0
INSERT
  5
92AC8
330
2
100
AcDbEntity
  8
ASHADE
 62
     8
100
AcDbBlockReference
  2
AVE_RENDER
 10
-439.0742775476521
 20
-30.87979313074396
 30
-348.3392831240367
 41
1.305150000000001
 42
1.305150000000001
 43
1.305149999999997
 50
90.0
210
-1.0
220
0.0
230
0.0000000000000001
1001
AVE_RENDER
1002
{
1070
     0
1000
Fog Opt
1070
     0
1070
     0
1040
0.0
1040
1.0
1040
0.0
1040
1.0
1010
0.5
1020
0.5
1030
0.5
1002
}
  0
INSERT
  5
92AC9
330
2
100
AcDbEntity
  8
ASHADE
 62
     9
100
AcDbBlockReference
  2
AVE_RENDER
 10
-439.0742775476521
 20
-30.87979313074396
 30
-348.3392831240367
 41
1.305150000000001
 42
1.305150000000001
 43
1.305149999999997
 50
90.0
210
-1.0
220
0.0
230
0.0000000000000001
1001
AVE_RENDER
1002
{
1070
     0
1000
BG Opt
1070
     0
1070
     1
1010
0.0
1020
0.0
1030
0.0
1010
1.0
1020
0.0
1030
0.0
1010
0.0
1020
1.0
1030
0.0
1010
0.0
1020
0.0
1030
1.0
1040
0.5
1040
0.33
1040
0.0
1000

1070
     1
1000

1070
     1
1070
     1
1040
1.0
1040
1.0
1040
0.0
1040
0.0
1070
     0
1002
}
  0
INSERT
  5
92ACA
330
2
100
AcDbEntity
  8
ASHADE
 62
     1
100
AcDbBlockReference
  2
AVE_GLOBAL
 10
-439.0742775476521
 20
-30.87979313074396
 30
-348.3392831240367
 41
1.305150000000001
 42
1.305150000000001
 43
1.305149999999997
 50
90.0
210
-1.0
220
0.0
230
0.0000000000000001
1001
AVE_MATERIAL
1002
{
1000
*GLOBAL*
1000
1
1000
Global finish.
1002
{
1002
}
1002
{
1070
    63
1002
{
1002
{
1010
-1.0
1020
-1.0
1030
-1.0
1002
}
1040
0.1000000014901161
1000

1040
0.0
1002
{
1002
}
1040
0.0
1002
{
1002
}
1040
0.0
1002
}
1002
{
1002
{
1010
-1.0
1020
-1.0
1030
-1.0
1002
}
1040
0.6999999880790711
1000

1040
0.0
1002
{
1002
}
1040
0.0
1002
{
1002
}
1040
0.0
1002
}
1002
{
1002
{
1010
-1.0
1020
-1.0
1030
-1.0
1002
}
1040
0.2000000029802322
1000

1040
0.0
1002
{
1002
}
1040
0.0
1002
{
1002
}
1040
0.0
1002
}
1002
{
1070
     0
1002
{
1070
     1
1002
{
1040
1.0
1040
1.0
1000

1040
0.0
1002
{
1002
}
1040
0.0
1002
{
1002
}
1040
0.0
1002
}
1002
}
1040
1.0
1040
0.0
1040
0.0
1002
}
1002
{
1040
1.0
1040
1.0
1000

1040
0.0
1002
{
1002
}
1040
0.0
1002
{
1002
}
1040
0.0
1002
}
1002
{
1040
0.5
1040
1.0
1000

1040
0.0
1002
{
1002
}
1040
0.0
1002
{
1002
}
1040
0.0
1002
}
1002
{
1070
     0
1040
0.0
1002
{
1002
}
1040
1.0
1002
{
1002
}
1040
0.0
1002
}
1002
{
1040
0.0
1002
{
1002
{
1010
0.0
1020
0.0
1030
0.0
1002
}
1040
1.0
1000

1040
0.0
1002
{
1002
}
1040
0.0
1002
{
1002
}
1040
0.0
1002
}
1002
}
1002
{
1002
{
1070
     1
1002
{
1040
0.0
1040
1.0
1000

1040
0.0
1002
{
1002
}
1040
0.0
1002
{
1002
}
1040
0.0
1002
}
1002
}
1040
0.0
1002
{
1002
}
1010
1.0
1020
0.0
1030
0.0
1010
0.0
1020
1.0
1030
0.0
1010
0.0
1020
0.0
1030
1.0
1070
     0
1002
}
1002
{
1002
{
1040
1.0
1040
1.0
1002
{
1070
     1
1002
{
1040
1.0
1040
1.0
1000

1040
0.0
1002
{
1002
}
1040
0.0
1002
{
1002
}
1040
0.0
1002
}
1002
}
1002
}
1070
     0
1040
0.0
1002
{
1002
}
1002
}
1002
{
1002
}
1002
}
1002
{
1071
        3
1070
     3
1070
     0
1002
{
1070
     2
1070
     0
1070
     0
1040
0.0
1002
}
1070
     0
1070
     2
1002
{
1002
}
1002
}
1002
{
1040
8030.0
1040
190.3000030517578
1040
0.3050000071525574
1040
228.0
1040
545.0
1040
14.0
1040
17.39999961853027
1040
0.4560000002384186
1002
}
1002
}
  0
INSERT
  5
92ACB
330
2
100
AcDbEntity
  8
ASHADE
 62
     1
100
AcDbBlockReference
  2
AVE_RENDER
 10
-432.4118861896812
 20
-344.6698425593818
 30
0.0
1001
AVE_RENDER
1002
{
1070
     6
1000
Pref
1070
    30
1070
    20
1070
     1
1070
     0
1000

1070
    10
1070
     1
1070
    30
1040
1.0
1070
     1
1040
0.3
1040
0.7
1040
0.0
1040
10.0
1010
-1.0
1020
-1.0
1030
-1.0
1040
0.3
1070
    49
1070
     0
1070
     0
1010
1.0
1020
1.0
1030
1.0
1040
45.0
1070
     1
1070
     0
1000
WCS
1040
0.0
1002
}
  0
INSERT
  5
92ACC
330
2
100
AcDbEntity
  8
ASHADE
 62
     3
100
AcDbBlockReference
  2
AVE_RENDER
 10
-432.4118861896812
 20
-344.6698425593818
 30
0.0
1001
AVE_RENDER
1002
{
1070
     0
1000
Full Opt
1070
     0
1070
     1
1070
     1
1070
     1
1070
     0
1070
     0
1070
     0
1070
     1
1070
     1
1040
0.0001
1040
0.0001
1002
}
  0
INSERT
  5
92ACD
330
2
100
AcDbEntity
  8
ASHADE
 62
     4
100
AcDbBlockReference
  2
AVE_RENDER
 10
-432.4118861896812
 20
-344.6698425593818
 30
0.0
1001
AVE_RENDER
1002
{
1070
     0
1000
Quick Opt
1070
     0
1070
     1
1070
     1
1070
     1
1070
     0
1070
     0
1070
     1
1002
}
  0
INSERT
  5
92ACE
330
2
100
AcDbEntity
  8
ASHADE
 62
     5
100
AcDbBlockReference
  2
AVE_RENDER
 10
-432.4118861896812
 20
-344.6698425593818
 30
0.0
1001
AVE_RENDER
1002
{
1070
     1
1000
Scanl Opt
1070
     2
1070
     0
1070
     2
1040
2.0
1040
4.0
1070
     0
1070
     1
1070
     0
1040
0.03
1002
}
  0
INSERT
  5
92ACF
330
2
100
AcDbEntity
  8
ASHADE
 62
     6
100
AcDbBlockReference
  2
AVE_RENDER
 10
-432.4118861896812
 20
-344.6698425593818
 30
0.0
1001
AVE_RENDER
1002
{
1070
     2
1000
Raytr Opt
1070
     2
1070
     0
1070
     2
1040
2.0
1040
4.0
1070
     0
1070
     1
1070
     1
1040
0.03
1070
     3
1040
0.03
1002
}
  0
INSERT
  5
92AD0
330
2
100
AcDbEntity
  8
ASHADE
 62
     7
100
AcDbBlockReference
  2
AVE_RENDER
 10
-432.4118861896812
 20
-344.6698425593818
 30
0.0
1001
AVE_RENDER
1002
{
1070
     0
1000
RFile Opt
1070
     5
1070
   640
1070
   480
1070
 10000
1070
     3
1070
    32
1070
    24
1070
     0
1070
     0
1070
     0
1070
     1
1070
     0
1070
     0
1070
     0
1002
}
  0
INSERT
  5
92AD1
330
2
100
AcDbEntity
  8
ASHADE
 62
     8
100
AcDbBlockReference
  2
AVE_RENDER
 10
-432.4118861896812
 20
-344.6698425593818
 30
0.0
1001
AVE_RENDER
1002
{
1070
     0
1000
Fog Opt
1070
     0
1070
     0
1040
0.0
1040
1.0
1040
0.0
1040
1.0
1010
0.5
1020
0.5
1030
0.5
1002
}
  0
INSERT
  5
92AD2
330
2
100
AcDbEntity
  8
ASHADE
 62
     9
100
AcDbBlockReference
  2
AVE_RENDER
 10
-432.4118861896812
 20
-344.6698425593818
 30
0.0
1001
AVE_RENDER
1002
{
1070
     0
1000
BG Opt
1070
     0
1070
     1
1010
0.0
1020
0.0
1030
0.0
1010
1.0
1020
0.0
1030
0.0
1010
0.0
1020
1.0
1030
0.0
1010
0.0
1020
0.0
1030
1.0
1040
0.5
1040
0.33
1040
0.0
1000

1070
     1
1000

1070
     1
1070
     1
1040
1.0
1040
1.0
1040
0.0
1040
0.0
1070
     0
1002
}
  0
INSERT
  5
92AD3
330
2
100
AcDbEntity
  8
ASHADE
 62
     1
100
AcDbBlockReference
  2
AVE_GLOBAL
 10
-432.4118861896812
 20
-344.6698425593818
 30
0.0
1001
AVE_MATERIAL
1002
{
1000
*GLOBAL*
1000
1
1000
Global finish.
1002
{
1002
}
1002
{
1070
    63
1002
{
1002
{
1010
-1.0
1020
-1.0
1030
-1.0
1002
}
1040
0.1000000014901161
1000

1040
0.0
1002
{
1002
}
1040
0.0
1002
{
1002
}
1040
0.0
1002
}
1002
{
1002
{
1010
-1.0
1020
-1.0
1030
-1.0
1002
}
1040
0.6999999880790711
1000

1040
0.0
1002
{
1002
}
1040
0.0
1002
{
1002
}
1040
0.0
1002
}
1002
{
1002
{
1010
-1.0
1020
-1.0
1030
-1.0
1002
}
1040
0.2000000029802322
1000

1040
0.0
1002
{
1002
}
1040
0.0
1002
{
1002
}
1040
0.0
1002
}
1002
{
1070
     0
1002
{
1070
     1
1002
{
1040
1.0
1040
1.0
1000

1040
0.0
1002
{
1002
}
1040
0.0
1002
{
1002
}
1040
0.0
1002
}
1002
}
1040
1.0
1040
0.0
1040
0.0
1002
}
1002
{
1040
1.0
1040
1.0
1000

1040
0.0
1002
{
1002
}
1040
0.0
1002
{
1002
}
1040
0.0
1002
}
1002
{
1040
0.5
1040
1.0
1000

1040
0.0
1002
{
1002
}
1040
0.0
1002
{
1002
}
1040
0.0
1002
}
1002
{
1070
     0
1040
0.0
1002
{
1002
}
1040
1.0
1002
{
1002
}
1040
0.0
1002
}
1002
{
1040
0.0
1002
{
1002
{
1010
0.0
1020
0.0
1030
0.0
1002
}
1040
1.0
1000

1040
0.0
1002
{
1002
}
1040
0.0
1002
{
1002
}
1040
0.0
1002
}
1002
}
1002
{
1002
{
1070
     1
1002
{
1040
0.0
1040
1.0
1000

1040
0.0
1002
{
1002
}
1040
0.0
1002
{
1002
}
1040
0.0
1002
}
1002
}
1040
0.0
1002
{
1002
}
1010
1.0
1020
0.0
1030
0.0
1010
0.0
1020
1.0
1030
0.0
1010
0.0
1020
0.0
1030
1.0
1070
     0
1002
}
1002
{
1002
{
1040
1.0
1040
1.0
1002
{
1070
     1
1002
{
1040
1.0
1040
1.0
1000

1040
0.0
1002
{
1002
}
1040
0.0
1002
{
1002
}
1040
0.0
1002
}
1002
}
1002
}
1070
     0
1040
0.0
1002
{
1002
}
1002
}
1002
{
1002
}
1002
}
1002
{
1071
        3
1070
     3
1070
     0
1002
{
1070
     2
1070
     0
1070
     0
1040
0.0
1002
}
1070
     0
1070
     2
1002
{
1002
}
1002
}
1002
{
1040
8030.0
1040
190.3000030517578
1040
0.3050000071525574
1040
228.0
1040
545.0
1040
14.0
1040
17.39999961853027
1040
0.4560000002384186
1002
}
1002
}
  0
INSERT
  5
92AD4
330
2
100
AcDbEntity
  8
ASHADE
 62
     1
100
AcDbBlockReference
  2
AVE_RENDER
 10
-332.6907117598663
 20
-345.7646198341548
 30
0.0
1001
AVE_RENDER
1002
{
1070
     6
1000
Pref
1070
    30
1070
    20
1070
     1
1070
     0
1000

1070
    10
1070
     1
1070
    30
1040
1.0
1070
     1
1040
0.3
1040
0.7
1040
0.0
1040
10.0
1010
-1.0
1020
-1.0
1030
-1.0
1040
0.3
1070
    49
1070
     0
1070
     0
1010
1.0
1020
1.0
1030
1.0
1040
45.0
1070
     1
1070
     0
1000
WCS
1040
0.0
1002
}
  0
INSERT
  5
92AD5
330
2
100
AcDbEntity
  8
ASHADE
 62
     3
100
AcDbBlockReference
  2
AVE_RENDER
 10
-332.6907117598663
 20
-345.7646198341548
 30
0.0
1001
AVE_RENDER
1002
{
1070
     0
1000
Full Opt
1070
     0
1070
     1
1070
     1
1070
     1
1070
     0
1070
     0
1070
     0
1070
     1
1070
     1
1040
0.0001
1040
0.0001
1002
}
  0
INSERT
  5
92AD6
330
2
100
AcDbEntity
  8
ASHADE
 62
     4
100
AcDbBlockReference
  2
AVE_RENDER
 10
-332.6907117598663
 20
-345.7646198341548
 30
0.0
1001
AVE_RENDER
1002
{
1070
     0
1000
Quick Opt
1070
     0
1070
     1
1070
     1
1070
     1
1070
     0
1070
     0
1070
     1
1002
}
  0
INSERT
  5
92AD7
330
2
100
AcDbEntity
  8
ASHADE
 62
     5
100
AcDbBlockReference
  2
AVE_RENDER
 10
-332.6907117598663
 20
-345.7646198341548
 30
0.0
1001
AVE_RENDER
1002
{
1070
     1
1000
Scanl Opt
1070
     2
1070
     0
1070
     2
1040
2.0
1040
4.0
1070
     0
1070
     1
1070
     0
1040
0.03
1002
}
  0
INSERT
  5
92AD8
330
2
100
AcDbEntity
  8
ASHADE
 62
     6
100
AcDbBlockReference
  2
AVE_RENDER
 10
-332.6907117598663
 20
-345.7646198341548
 30
0.0
1001
AVE_RENDER
1002
{
1070
     2
1000
Raytr Opt
1070
     2
1070
     0
1070
     2
1040
2.0
1040
4.0
1070
     0
1070
     1
1070
     1
1040
0.03
1070
     3
1040
0.03
1002
}
  0
INSERT
  5
92AD9
330
2
100
AcDbEntity
  8
ASHADE
 62
     7
100
AcDbBlockReference
  2
AVE_RENDER
 10
-332.6907117598663
 20
-345.7646198341548
 30
0.0
1001
AVE_RENDER
1002
{
1070
     0
1000
RFile Opt
1070
     5
1070
   640
1070
   480
1070
 10000
1070
     3
1070
    32
1070
    24
1070
     0
1070
     0
1070
     0
1070
     1
1070
     0
1070
     0
1070
     0
1002
}
  0
INSERT
  5
92ADA
330
2
100
AcDbEntity
  8
ASHADE
 62
     8
100
AcDbBlockReference
  2
AVE_RENDER
 10
-332.6907117598663
 20
-345.7646198341548
 30
0.0
1001
AVE_RENDER
1002
{
1070
     0
1000
Fog Opt
1070
     0
1070
     0
1040
0.0
1040
1.0
1040
0.0
1040
1.0
1010
0.5
1020
0.5
1030
0.5
1002
}
  0
INSERT
  5
92ADB
330
2
100
AcDbEntity
  8
ASHADE
 62
     9
100
AcDbBlockReference
  2
AVE_RENDER
 10
-332.6907117598663
 20
-345.7646198341548
 30
0.0
1001
AVE_RENDER
1002
{
1070
     0
1000
BG Opt
1070
     0
1070
     1
1010
0.0
1020
0.0
1030
0.0
1010
1.0
1020
0.0
1030
0.0
1010
0.0
1020
1.0
1030
0.0
1010
0.0
1020
0.0
1030
1.0
1040
0.5
1040
0.33
1040
0.0
1000

1070
     1
1000

1070
     1
1070
     1
1040
1.0
1040
1.0
1040
0.0
1040
0.0
1070
     0
1002
}
  0
INSERT
  5
92ADC
330
2
100
AcDbEntity
  8
ASHADE
 62
     1
100
AcDbBlockReference
  2
AVE_GLOBAL
 10
-332.6907117598663
 20
-345.7646198341548
 30
0.0
1001
AVE_MATERIAL
1002
{
1000
*GLOBAL*
1000
1
1000
Global finish.
1002
{
1002
}
1002
{
1070
    63
1002
{
1002
{
1010
-1.0
1020
-1.0
1030
-1.0
1002
}
1040
0.1000000014901161
1000

1040
0.0
1002
{
1002
}
1040
0.0
1002
{
1002
}
1040
0.0
1002
}
1002
{
1002
{
1010
-1.0
1020
-1.0
1030
-1.0
1002
}
1040
0.6999999880790711
1000

1040
0.0
1002
{
1002
}
1040
0.0
1002
{
1002
}
1040
0.0
1002
}
1002
{
1002
{
1010
-1.0
1020
-1.0
1030
-1.0
1002
}
1040
0.2000000029802322
1000

1040
0.0
1002
{
1002
}
1040
0.0
1002
{
1002
}
1040
0.0
1002
}
1002
{
1070
     0
1002
{
1070
     1
1002
{
1040
1.0
1040
1.0
1000

1040
0.0
1002
{
1002
}
1040
0.0
1002
{
1002
}
1040
0.0
1002
}
1002
}
1040
1.0
1040
0.0
1040
0.0
1002
}
1002
{
1040
1.0
1040
1.0
1000

1040
0.0
1002
{
1002
}
1040
0.0
1002
{
1002
}
1040
0.0
1002
}
1002
{
1040
0.5
1040
1.0
1000

1040
0.0
1002
{
1002
}
1040
0.0
1002
{
1002
}
1040
0.0
1002
}
1002
{
1070
     0
1040
0.0
1002
{
1002
}
1040
1.0
1002
{
1002
}
1040
0.0
1002
}
1002
{
1040
0.0
1002
{
1002
{
1010
0.0
1020
0.0
1030
0.0
1002
}
1040
1.0
1000

1040
0.0
1002
{
1002
}
1040
0.0
1002
{
1002
}
1040
0.0
1002
}
1002
}
1002
{
1002
{
1070
     1
1002
{
1040
0.0
1040
1.0
1000

1040
0.0
1002
{
1002
}
1040
0.0
1002
{
1002
}
1040
0.0
1002
}
1002
}
1040
0.0
1002
{
1002
}
1010
1.0
1020
0.0
1030
0.0
1010
0.0
1020
1.0
1030
0.0
1010
0.0
1020
0.0
1030
1.0
1070
     0
1002
}
1002
{
1002
{
1040
1.0
1040
1.0
1002
{
1070
     1
1002
{
1040
1.0
1040
1.0
1000

1040
0.0
1002
{
1002
}
1040
0.0
1002
{
1002
}
1040
0.0
1002
}
1002
}
1002
}
1070
     0
1040
0.0
1002
{
1002
}
1002
}
1002
{
1002
}
1002
}
1002
{
1071
        3
1070
     3
1070
     0
1002
{
1070
     2
1070
     0
1070
     0
1040
0.0
1002
}
1070
     0
1070
     2
1002
{
1002
}
1002
}
1002
{
1040
8030.0
1040
190.3000030517578
1040
0.3050000071525574
1040
228.0
1040
545.0
1040
14.0
1040
17.39999961853027
1040
0.4560000002384186
1002
}
1002
}
  0
INSERT
  5
92ADD
330
2
100
AcDbEntity
  8
ASHADE
 62
     1
100
AcDbBlockReference
  2
AVE_RENDER
 10
-525.4032908687123
 20
-407.5680695426369
 30
0.0
1001
AVE_RENDER
1002
{
1070
     7
1000
Pref
1070
    60
1070
    20
1070
     1
1070
     0
1000

1070
    10
1070
     1
1070
    30
1040
1.0
1070
     1
1040
0.3
1040
0.7
1040
0.0
1040
10.0
1010
-1.0
1020
-1.0
1030
-1.0
1040
1.0
1070
    49
1070
     0
1070
     0
1010
1.0
1020
1.0
1030
1.0
1040
45.0
1070
     1
1070
     0
1000
WCS
1040
0.0
1070
     0
1040
10.0
1002
}
  0
INSERT
  5
92ADE
330
2
100
AcDbEntity
  8
ASHADE
 62
     3
100
AcDbBlockReference
  2
AVE_RENDER
 10
-525.4032908687123
 20
-407.5680695426369
 30
0.0
1001
AVE_RENDER
1002
{
1070
     0
1000
Full Opt
1070
     0
1070
     1
1070
     1
1070
     1
1070
     0
1070
     0
1070
     0
1070
     1
1070
     1
1040
0.0001
1040
0.0001
1002
}
  0
INSERT
  5
92ADF
330
2
100
AcDbEntity
  8
ASHADE
 62
     4
100
AcDbBlockReference
  2
AVE_RENDER
 10
-525.4032908687123
 20
-407.5680695426369
 30
0.0
1001
AVE_RENDER
1002
{
1070
     0
1000
Quick Opt
1070
     0
1070
     1
1070
     1
1070
     1
1070
     0
1070
     0
1070
     1
1002
}
  0
INSERT
  5
92AE0
330
2
100
AcDbEntity
  8
ASHADE
 62
     5
100
AcDbBlockReference
  2
AVE_RENDER
 10
-525.4032908687123
 20
-407.5680695426369
 30
0.0
1001
AVE_RENDER
1002
{
1070
     1
1000
Scanl Opt
1070
     2
1070
     0
1070
     2
1040
2.0
1040
4.0
1070
     0
1070
     1
1070
     0
1040
0.03
1002
}
  0
INSERT
  5
92AE1
330
2
100
AcDbEntity
  8
ASHADE
 62
     6
100
AcDbBlockReference
  2
AVE_RENDER
 10
-525.4032908687123
 20
-407.5680695426369
 30
0.0
1001
AVE_RENDER
1002
{
1070
     2
1000
Raytr Opt
1070
     2
1070
     0
1070
     2
1040
2.0
1040
4.0
1070
     0
1070
     1
1070
     1
1040
0.03
1070
     3
1040
0.03
1002
}
  0
INSERT
  5
92AE2
330
2
100
AcDbEntity
  8
ASHADE
 62
     7
100
AcDbBlockReference
  2
AVE_RENDER
 10
-525.4032908687123
 20
-407.5680695426369
 30
0.0
1001
AVE_RENDER
1002
{
1070
     0
1000
RFile Opt
1070
     4
1070
  1024
1070
   768
1070
 10000
1070
     3
1070
     8
1070
     8
1070
     0
1070
     0
1070
     0
1070
     1
1070
     0
1070
     0
1070
     0
1002
}
  0
INSERT
  5
92AE3
330
2
100
AcDbEntity
  8
ASHADE
 62
     8
100
AcDbBlockReference
  2
AVE_RENDER
 10
-525.4032908687123
 20
-407.5680695426369
 30
0.0
1001
AVE_RENDER
1002
{
1070
     0
1000
Fog Opt
1070
     0
1070
     0
1040
0.0
1040
1.0
1040
0.0
1040
1.0
1010
0.5
1020
0.5
1030
0.5
1002
}
  0
INSERT
  5
92AE4
330
2
100
AcDbEntity
  8
ASHADE
 62
     9
100
AcDbBlockReference
  2
AVE_RENDER
 10
-525.4032908687123
 20
-407.5680695426369
 30
0.0
1001
AVE_RENDER
1002
{
1070
     0
1000
BG Opt
1070
     0
1070
     1
1010
0.0
1020
0.0
1030
0.0
1010
1.0
1020
0.0
1030
0.0
1010
0.0
1020
1.0
1030
0.0
1010
0.0
1020
0.0
1030
1.0
1040
0.5
1040
0.33
1040
0.0
1000

1070
     1
1000

1070
     1
1070
     1
1040
1.0
1040
1.0
1040
0.0
1040
0.0
1070
     0
1002
}
  0
INSERT
  5
92AE5
330
2
100
AcDbEntity
  8
ASHADE
 62
     1
100
AcDbBlockReference
  2
AVE_GLOBAL
 10
-525.4032908687123
 20
-407.5680695426369
 30
0.0
1001
AVE_MATERIAL
1002
{
1000
*GLOBAL*
1000
1
1000
Global finish.
1002
{
1002
}
1002
{
1070
    63
1002
{
1002
{
1010
-1.0
1020
-1.0
1030
-1.0
1002
}
1040
0.1000000014901161
1000

1040
0.0
1002
{
1002
}
1040
0.0
1002
{
1002
}
1040
0.0
1002
}
1002
{
1002
{
1010
-1.0
1020
-1.0
1030
-1.0
1002
}
1040
0.6999999880790711
1000

1040
0.0
1002
{
1002
}
1040
0.0
1002
{
1002
}
1040
0.0
1002
}
1002
{
1002
{
1010
-1.0
1020
-1.0
1030
-1.0
1002
}
1040
0.2000000029802322
1000

1040
0.0
1002
{
1002
}
1040
0.0
1002
{
1002
}
1040
0.0
1002
}
1002
{
1070
     0
1002
{
1070
     1
1002
{
1040
1.0
1040
1.0
1000

1040
0.0
1002
{
1002
}
1040
0.0
1002
{
1002
}
1040
0.0
1002
}
1002
}
1040
1.0
1040
0.0
1040
0.0
1002
}
1002
{
1040
1.0
1040
1.0
1000

1040
0.0
1002
{
1002
}
1040
0.0
1002
{
1002
}
1040
0.0
1002
}
1002
{
1040
0.5
1040
1.0
1000

1040
0.0
1002
{
1002
}
1040
0.0
1002
{
1002
}
1040
0.0
1002
}
1002
{
1070
     0
1040
0.0
1002
{
1002
}
1040
1.0
1002
{
1002
}
1040
0.0
1002
}
1002
{
1040
0.0
1002
{
1002
{
1010
0.0
1020
0.0
1030
0.0
1002
}
1040
1.0
1000

1040
0.0
1002
{
1002
}
1040
0.0
1002
{
1002
}
1040
0.0
1002
}
1002
}
1002
{
1002
{
1070
     1
1002
{
1040
0.0
1040
1.0
1000

1040
0.0
1002
{
1002
}
1040
0.0
1002
{
1002
}
1040
0.0
1002
}
1002
}
1040
0.0
1002
{
1002
}
1010
1.0
1020
0.0
1030
0.0
1010
0.0
1020
1.0
1030
0.0
1010
0.0
1020
0.0
1030
1.0
1070
     0
1002
}
1002
{
1002
{
1040
1.0
1040
1.0
1002
{
1070
     1
1002
{
1040
1.0
1040
1.0
1000

1040
0.0
1002
{
1002
}
1040
0.0
1002
{
1002
}
1040
0.0
1002
}
1002
}
1002
}
1070
     0
1040
0.0
1002
{
1002
}
1002
}
1002
{
1002
}
1002
}
1002
{
1071
        3
1070
     3
1070
     0
1002
{
1070
     2
1070
     0
1070
     0
1040
0.0
1002
}
1070
     0
1070
     2
1002
{
1002
}
1002
}
1002
{
1040
8030.0
1040
190.3000030517578
1040
0.3050000071525574
1040
228.0
1040
545.0
1040
14.0
1040
17.39999961853027
1040
0.4560000002384186
1002
}
1002
}
  0
INSERT
  5
92AE6
330
2
100
AcDbEntity
  8
ASHADE
 62
     1
100
AcDbBlockReference
  2
AVE_RENDER
 10
-49.52981678039453
 20
226.8558963940324
 30
0.0
 41
0.3480083857442366
 42
0.3480083857441514
 43
0.3480083857442348
1001
AVE_RENDER
1002
{
1070
     7
1000
Pref
1070
    30
1070
    20
1070
     1
1070
     0
1000

1070
    10
1070
     1
1070
    30
1040
1.0
1070
     1
1040
0.3
1040
0.7
1040
0.0
1040
10.0
1010
-1.0
1020
-1.0
1030
-1.0
1040
0.3
1070
    49
1070
     0
1070
     0
1010
1.0
1020
1.0
1030
1.0
1040
45.0
1070
     1
1070
     0
1000
WCS
1040
0.0
1070
     0
1040
10.0
1002
}
  0
INSERT
  5
92AE7
330
2
100
AcDbEntity
  8
ASHADE
 62
     3
100
AcDbBlockReference
  2
AVE_RENDER
 10
-49.52981678039453
 20
226.8558963940324
 30
0.0
 41
0.3480083857442366
 42
0.3480083857441514
 43
0.3480083857442348
1001
AVE_RENDER
1002
{
1070
     0
1000
Full Opt
1070
     0
1070
     1
1070
     1
1070
     1
1070
     0
1070
     0
1070
     0
1070
     1
1070
     1
1040
0.0001
1040
0.0001
1002
}
  0
INSERT
  5
92AE8
330
2
100
AcDbEntity
  8
ASHADE
 62
     4
100
AcDbBlockReference
  2
AVE_RENDER
 10
-49.52981678039453
 20
226.8558963940324
 30
0.0
 41
0.3480083857442366
 42
0.3480083857441514
 43
0.3480083857442348
1001
AVE_RENDER
1002
{
1070
     0
1000
Quick Opt
1070
     0
1070
     1
1070
     1
1070
     1
1070
     0
1070
     0
1070
     1
1002
}
  0
INSERT
  5
92AE9
330
2
100
AcDbEntity
  8
ASHADE
 62
     5
100
AcDbBlockReference
  2
AVE_RENDER
 10
-49.52981678039453
 20
226.8558963940324
 30
0.0
 41
0.3480083857442366
 42
0.3480083857441514
 43
0.3480083857442348
1001
AVE_RENDER
1002
{
1070
     1
1000
Scanl Opt
1070
     2
1070
     0
1070
     2
1040
2.0
1040
4.0
1070
     0
1070
     1
1070
     0
1040
0.03
1002
}
  0
INSERT
  5
92AEA
330
2
100
AcDbEntity
  8
ASHADE
 62
     6
100
AcDbBlockReference
  2
AVE_RENDER
 10
-49.52981678039453
 20
226.8558963940324
 30
0.0
 41
0.3480083857442366
 42
0.3480083857441514
 43
0.3480083857442348
1001
AVE_RENDER
1002
{
1070
     2
1000
Raytr Opt
1070
     2
1070
     0
1070
     2
1040
2.0
1040
4.0
1070
     0
1070
     1
1070
     1
1040
0.03
1070
     3
1040
0.03
1002
}
  0
INSERT
  5
92AEB
330
2
100
AcDbEntity
  8
ASHADE
 62
     7
100
AcDbBlockReference
  2
AVE_RENDER
 10
-49.52981678039453
 20
226.8558963940324
 30
0.0
 41
0.3480083857442366
 42
0.3480083857441514
 43
0.3480083857442348
1001
AVE_RENDER
1002
{
1070
     0
1000
RFile Opt
1070
     5
1070
   640
1070
   480
1070
 10000
1070
     3
1070
    32
1070
    24
1070
     0
1070
     0
1070
     0
1070
     1
1070
     0
1070
     0
1070
     0
1002
}
  0
INSERT
  5
92AEC
330
2
100
AcDbEntity
  8
ASHADE
 62
     8
100
AcDbBlockReference
  2
AVE_RENDER
 10
-49.52981678039453
 20
226.8558963940324
 30
0.0
 41
0.3480083857442366
 42
0.3480083857441514
 43
0.3480083857442348
1001
AVE_RENDER
1002
{
1070
     0
1000
Fog Opt
1070
     0
1070
     0
1040
0.0
1040
1.0
1040
0.0
1040
1.0
1010
0.5
1020
0.5
1030
0.5
1002
}
  0
INSERT
  5
92AED
330
2
100
AcDbEntity
  8
ASHADE
 62
     9
100
AcDbBlockReference
  2
AVE_RENDER
 10
-49.52981678039453
 20
226.8558963940324
 30
0.0
 41
0.3480083857442366
 42
0.3480083857441514
 43
0.3480083857442348
1001
AVE_RENDER
1002
{
1070
     0
1000
BG Opt
1070
     0
1070
     1
1010
0.0
1020
0.0
1030
0.0
1010
1.0
1020
0.0
1030
0.0
1010
0.0
1020
1.0
1030
0.0
1010
0.0
1020
0.0
1030
1.0
1040
0.5
1040
0.33
1040
0.0
1000

1070
     1
1000

1070
     1
1070
     1
1040
1.0
1040
1.0
1040
0.0
1040
0.0
1070
     0
1002
}
  0
INSERT
  5
92AEE
330
2
100
AcDbEntity
  8
ASHADE
 62
     1
100
AcDbBlockReference
  2
AVE_GLOBAL
 10
-49.52981678039453
 20
226.8558963940324
 30
0.0
 41
0.3480083857442366
 42
0.3480083857441514
 43
0.3480083857442348
1001
AVE_MATERIAL
1002
{
1000
*GLOBAL*
1000
1
1000
Global finish.
1002
{
1002
}
1002
{
1070
    63
1002
{
1002
{
1010
-1.0
1020
-1.0
1030
-1.0
1002
}
1040
0.1000000014901161
1000

1040
0.0
1002
{
1002
}
1040
0.0
1002
{
1002
}
1040
0.0
1002
}
1002
{
1002
{
1010
-1.0
1020
-1.0
1030
-1.0
1002
}
1040
0.6999999880790711
1000

1040
0.0
1002
{
1002
}
1040
0.0
1002
{
1002
}
1040
0.0
1002
}
1002
{
1002
{
1010
-1.0
1020
-1.0
1030
-1.0
1002
}
1040
0.2000000029802322
1000

1040
0.0
1002
{
1002
}
1040
0.0
1002
{
1002
}
1040
0.0
1002
}
1002
{
1070
     0
1002
{
1070
     1
1002
{
1040
1.0
1040
1.0
1000

1040
0.0
1002
{
1002
}
1040
0.0
1002
{
1002
}
1040
0.0
1002
}
1002
}
1040
1.0
1040
0.0
1040
0.0
1002
}
1002
{
1040
1.0
1040
1.0
1000

1040
0.0
1002
{
1002
}
1040
0.0
1002
{
1002
}
1040
0.0
1002
}
1002
{
1040
0.5
1040
1.0
1000

1040
0.0
1002
{
1002
}
1040
0.0
1002
{
1002
}
1040
0.0
1002
}
1002
{
1070
     0
1040
0.0
1002
{
1002
}
1040
1.0
1002
{
1002
}
1040
0.0
1002
}
1002
{
1040
0.0
1002
{
1002
{
1010
0.0
1020
0.0
1030
0.0
1002
}
1040
1.0
1000

1040
0.0
1002
{
1002
}
1040
0.0
1002
{
1002
}
1040
0.0
1002
}
1002
}
1002
{
1002
{
1070
     1
1002
{
1040
0.0
1040
1.0
1000

1040
0.0
1002
{
1002
}
1040
0.0
1002
{
1002
}
1040
0.0
1002
}
1002
}
1040
0.0
1002
{
1002
}
1010
1.0
1020
0.0
1030
0.0
1010
0.0
1020
1.0
1030
0.0
1010
0.0
1020
0.0
1030
1.0
1070
     0
1002
}
1002
{
1002
{
1040
1.0
1040
1.0
1002
{
1070
     1
1002
{
1040
1.0
1040
1.0
1000

1040
0.0
1002
{
1002
}
1040
0.0
1002
{
1002
}
1040
0.0
1002
}
1002
}
1002
}
1070
     0
1040
0.0
1002
{
1002
}
1002
}
1002
{
1002
}
1002
}
1002
{
1071
        3
1070
     3
1070
     0
1002
{
1070
     2
1070
     0
1070
     0
1040
0.0
1002
}
1070
     0
1070
     2
1002
{
1002
}
1002
}
1002
{
1040
8030.0
1040
190.3000030517578
1040
0.3050000071525574
1040
228.0
1040
545.0
1040
14.0
1040
17.39999961853027
1040
0.4560000002384186
1002
}
1002
}
  0
ATTDEF
  5
B0F35
330
2
100
AcDbEntity
  8
A1
 62
     1
100
AcDbText
 10
658.1851011405507
 20
341.0995927998134
 30
0.0
 40
1.5
  1

100
AcDbAttributeDefinition
  3
ADD LINK NUMBER (WMF)
  2
TS1560
 70
     0
  0
LINE
  5
B0F36
330
2
100
AcDbEntity
  8
0
 62
     1
100
AcDbLine
 10
657.454855616934
 20
340.5254391879954
 30
0.0
 11
657.454855616934
 21
342.8754535045711
 31
0.0
  0
LWPOLYLINE
  5
B341D
330
2
100
AcDbEntity
  8
PLINE
 62
     7
100
AcDbPolyline
 90
       31
 70
     0
 43
0.0
 10
636.3811026093899
 20
324.5214345446468
 10
637.4339976601693
 20
326.0915461650327
 10
638.2081846482967
 20
327.8249156519509
 10
638.0843155378668
 20
328.0106337272798
 10
638.2391533026152
 20
328.9701775084033
 10
638.3010869400229
 20
330.4249698823284
 10
638.2391533026152
 20
331.4773727011165
 10
637.9914132461408
 20
331.6011851432601
 10
637.7436731896661
 20
332.994071884
 10
637.1862576036947
 20
334.6345823332537
 10
636.9075507285162
 20
334.7583935996242
 10
636.3811019612487
 20
336.120326935885
 10
635.8856218482997
 20
337.1417775259669
 10
635.514012681395
 20
337.6370261187683
 10
635.2972394436244
 20
337.7608373851387
 10
634.8636948036975
 20
338.8751470128852
 10
634.523052455497
 20
339.6180193142008
 10
634.0275723425477
 20
340.4537518289539
 10
633.7798322860733
 20
340.5466108666185
 10
633.4082212835539
 20
341.506154647742
 10
632.9746766436271
 20
342.4347450243865
 10
632.7888720601749
 20
342.7133221373797
 10
632.6030674767228
 20
342.775228946338
 10
632.1075873637735
 20
343.9514430314966
 10
631.7359763612544
 20
344.5085984332565
 10
631.6740427238467
 20
344.6633631041061
 10
631.6121072508244
 20
344.6943165085854
 10
630.4353424414739
 20
346.3348269578393
 10
630.249536022407
 20
346.5205450331682
 10
629.9398623285249
 20
346.6134040708325
 10
629.6921222720502
 20
346.6443574753118
  0
ARC
  5
B341E
330
2
100
AcDbEntity
  8
0
370
    50
100
AcDbCircle
 10
626.2095320780372
 20
330.3606397190041
 30
0.0
 40
12.12246977476124
100
AcDbArc
 50
348.8195907535351
 51
5.151224284825775
  0
ARC
  5
B341F
330
2
100
AcDbEntity
  8
0
370
    50
100
AcDbCircle
 10
633.2774667371368
 20
328.3008214156486
 30
0.0
 40
3.58767589170057
100
AcDbArc
 50
123.8152196317199
 51
184.2561886771803
  0
ARC
  5
B3420
330
2
100
AcDbEntity
  8
0
370
    50
100
AcDbCircle
 10
628.8725385719592
 20
327.9518788612163
 30
0.0
 40
4.72833490403533
100
AcDbArc
 50
0.7055852128115526
 51
44.3572387526266
  0
ARC
  5
B3421
330
2
100
AcDbEntity
  8
0
370
    50
100
AcDbCircle
 10
633.4023866632596
 20
328.3480334177727
 30
0.0
 40
3.718039605686624
100
AcDbArc
 50
124.7922029690963
 51
185.2147325176898
  0
ARC
  5
B3422
330
2
100
AcDbEntity
  8
0
370
    50
100
AcDbCircle
 10
638.1203818835042
 20
328.068256766458
 30
0.0
 40
4.520240997170151
100
AcDbArc
 50
133.1663416426429
 51
180.7371057968143
  0
ARC
  5
B3423
330
2
100
AcDbEntity
  8
0
370
    50
100
AcDbCircle
 10
634.1989231981138
 20
329.1057160201134
 30
0.0
 40
2.651347860607344
100
AcDbArc
 50
335.5922483794688
 51
56.80973936876497
  0
ARC
  5
B3424
330
2
100
AcDbEntity
  8
0
370
    50
100
AcDbCircle
 10
631.2585449510571
 20
329.6833832583467
 30
0.0
 40
6.777739778636026
100
AcDbArc
 50
345.7071324266798
 51
14.28077317350255
  0
ARC
  5
B3425
330
2
100
AcDbEntity
  8
0
370
    50
100
AcDbCircle
 10
640.3920264937379
 20
330.3265390050134
 30
0.0
 40
2.389111658866607
100
AcDbArc
 50
151.975723191642
 51
179.3514328646359
  0
ARC
  5
B3426
330
2
100
AcDbEntity
  8
0
370
    50
100
AcDbCircle
 10
638.9370490969879
 20
329.6838513952402
 30
0.0
 40
2.287194411137644
100
AcDbArc
 50
129.3012757462839
 51
170.9258357341908
  0
ARC
  5
B3427
330
2
100
AcDbEntity
  8
0
370
    50
100
AcDbCircle
 10
620.447787665984
 20
329.6838513952402
 30
0.0
 40
2.287194411137644
100
AcDbArc
 50
9.074164265809192
 51
50.69872425371604
  0
ARC
  5
B3428
330
2
100
AcDbEntity
  8
0
370
    50
100
AcDbCircle
 10
618.992810269234
 20
330.3265390050134
 30
0.0
 40
2.389111658866607
100
AcDbArc
 50
0.6485671353640875
 51
28.02427680835792
  0
ARC
  5
B3429
330
2
100
AcDbEntity
  8
0
370
    50
100
AcDbCircle
 10
628.1262918119149
 20
329.6833832583467
 30
0.0
 40
6.777739778636026
100
AcDbArc
 50
165.7192268264974
 51
194.2928675733201
  0
ARC
  5
B342A
330
2
100
AcDbEntity
  8
0
370
    50
100
AcDbCircle
 10
625.1859135648581
 20
329.1057160201134
 30
0.0
 40
2.651347860607344
100
AcDbArc
 50
123.190260631235
 51
204.4077516205311
  0
ARC
  5
B342B
330
2
100
AcDbEntity
  8
0
370
    50
100
AcDbCircle
 10
621.2644548794677
 20
328.068256766458
 30
0.0
 40
4.520240997170151
100
AcDbArc
 50
359.2628942031856
 51
46.83365835735709
  0
ARC
  5
B342C
330
2
100
AcDbEntity
  8
0
370
    50
100
AcDbCircle
 10
625.9824500997122
 20
328.3480334177727
 30
0.0
 40
3.718039605686624
100
AcDbArc
 50
354.7852674823101
 51
55.20779703090368
  0
ARC
  5
B342D
330
2
100
AcDbEntity
  8
0
370
    50
100
AcDbCircle
 10
630.5122981910129
 20
327.9518788612163
 30
0.0
 40
4.72833490403533
100
AcDbArc
 50
135.6427612473733
 51
179.2944147871884
  0
ARC
  5
B342E
330
2
100
AcDbEntity
  8
0
370
    50
100
AcDbCircle
 10
626.1073700258351
 20
328.3008214156486
 30
0.0
 40
3.58767589170057
100
AcDbArc
 50
355.7438113228196
 51
56.18478036828005
  0
ARC
  5
B342F
330
2
100
AcDbEntity
  8
0
370
    50
100
AcDbCircle
 10
633.1753046849347
 20
330.3606397190041
 30
0.0
 40
12.12246977476124
100
AcDbArc
 50
174.8487757151742
 51
191.1804092464649
  0
ARC
  5
B3430
330
2
100
AcDbEntity
  8
0
370
    50
100
AcDbCircle
 10
626.0124211554108
 20
328.3644352410565
 30
0.0
 40
3.687500000000005
100
AcDbArc
 50
354.8702869541784
 51
55.44481385306395
  0
ARC
  5
B3431
330
2
100
AcDbEntity
  8
0
370
    50
100
AcDbCircle
 10
626.1192998503106
 20
328.3231334188378
 30
0.0
 40
3.56249999999999
100
AcDbArc
 50
355.3537390211614
 51
56.14448822700739
  0
ARC
  5
B3432
330
2
100
AcDbEntity
  8
0
370
    50
100
AcDbCircle
 10
630.5338422446848
 20
327.9429371931231
 30
0.0
 40
4.750000000000038
100
AcDbArc
 50
135.7599852324061
 51
179.1590953619162
  0
ARC
  5
B3433
330
2
100
AcDbEntity
  8
0
370
    50
100
AcDbCircle
 10
621.2873187748271
 20
328.0745859415475
 30
0.0
 40
4.50000000000011
100
AcDbArc
 50
0.5636793367241183
 51
46.99085712135023
  0
ARC
  5
B3434
330
2
100
AcDbEntity
  8
0
370
    50
100
AcDbCircle
 10
620.1914676970126
 20
327.4124401208857
 30
0.0
 40
5.625000000000005
100
AcDbArc
 50
6.125331787925755
 51
43.58452103794471
  0
ARC
  5
B3435
330
2
100
AcDbEntity
  8
0
370
    50
100
AcDbCircle
 10
625.1650741669343
 20
329.1235818025616
 30
0.0
 40
2.625000000000007
100
AcDbArc
 50
123.0230767706314
 51
205.098855112864
  0
ARC
  5
B3436
330
2
100
AcDbEntity
  8
0
370
    50
100
AcDbCircle
 10
620.4264351537004
 20
329.657778588946
 30
0.0
 40
2.312500000000072
100
AcDbArc
 50
9.628645946501091
 51
55.85385193080262
  0
ARC
  5
B3437
330
2
100
AcDbEntity
  8
0
370
    50
100
AcDbCircle
 10
628.0921301574705
 20
329.6618859876538
 30
0.0
 40
6.749999999999999
100
AcDbArc
 50
165.4708614912095
 51
198.0003061714068
  0
ARC
  5
B3438
330
2
100
AcDbEntity
  8
0
370
    50
100
AcDbCircle
 10
620.2638973722975
 20
329.5506630156558
 30
0.0
 40
2.375000000000063
100
AcDbArc
 50
7.020508543829477
 51
53.26884837936694
  0
ARC
  5
B3439
330
2
100
AcDbEntity
  8
0
370
    50
100
AcDbCircle
 10
619.003902581457
 20
330.3849070547335
 30
0.0
 40
2.374999999999998
100
AcDbArc
 50
1.622710861710058
 51
26.43784700433758
  0
ARC
  5
B343A
330
2
100
AcDbEntity
  8
0
370
    50
100
AcDbCircle
 10
633.1975981153675
 20
330.2585762397134
 30
0.0
 40
12.12499999999997
100
AcDbArc
 50
174.3973805510685
 51
190.6868365479738
  0
ARC
  5
B343B
330
2
100
AcDbEntity
  8
0
370
    50
100
AcDbCircle
 10
640.3809341815149
 20
330.3849070547335
 30
0.0
 40
2.374999999999998
100
AcDbArc
 50
153.5621529956624
 51
178.3772891382899
  0
ARC
  5
B343C
330
2
100
AcDbEntity
  8
0
370
    50
100
AcDbCircle
 10
626.1872386476044
 20
330.2585762397134
 30
0.0
 40
12.12499999999997
100
AcDbArc
 50
349.3131634520261
 51
5.602619448931398
  0
ARC
  5
B343D
330
2
100
AcDbEntity
  8
0
370
    50
100
AcDbCircle
 10
639.1209393906745
 20
329.5506630156558
 30
0.0
 40
2.375000000000063
100
AcDbArc
 50
126.731151620633
 51
172.9794914561705
  0
ARC
  5
B343E
330
2
100
AcDbEntity
  8
0
370
    50
100
AcDbCircle
 10
631.2927066055014
 20
329.6618859876539
 30
0.0
 40
6.749999999999988
100
AcDbArc
 50
341.9996938285931
 51
14.52913850879043
  0
ARC
  5
B343F
330
2
100
AcDbEntity
  8
0
370
    50
100
AcDbCircle
 10
638.9584016092716
 20
329.657778588946
 30
0.0
 40
2.312500000000072
100
AcDbArc
 50
124.1461480691973
 51
170.3713540534989
  0
ARC
  5
B3440
330
2
100
AcDbEntity
  8
0
370
    50
100
AcDbCircle
 10
634.2197625960376
 20
329.1235818025616
 30
0.0
 40
2.625000000000011
100
AcDbArc
 50
334.901144887133
 51
56.97692322936858
  0
ARC
  5
B3441
330
2
100
AcDbEntity
  8
0
370
    50
100
AcDbCircle
 10
639.1933690659595
 20
327.4124401208857
 30
0.0
 40
5.625000000000005
100
AcDbArc
 50
136.4154789620552
 51
173.8746682120742
  0
ARC
  5
B3442
330
2
100
AcDbEntity
  8
0
370
    50
100
AcDbCircle
 10
638.0975179881448
 20
328.0745859415475
 30
0.0
 40
4.50000000000011
100
AcDbArc
 50
133.0091428786497
 51
179.4363206632759
  0
ARC
  5
B3443
330
2
100
AcDbEntity
  8
0
370
    50
100
AcDbCircle
 10
628.8509945182871
 20
327.9429371931231
 30
0.0
 40
4.750000000000038
100
AcDbArc
 50
0.8409046380837795
 51
44.24001476759389
  0
ARC
  5
B3444
330
2
100
AcDbEntity
  8
0
370
    50
100
AcDbCircle
 10
633.2655369126613
 20
328.3231334188378
 30
0.0
 40
3.56249999999999
100
AcDbArc
 50
123.8555117729926
 51
184.6462609788385
  0
ARC
  5
B3445
330
2
100
AcDbEntity
  8
0
370
    50
100
AcDbCircle
 10
633.3724156075611
 20
328.3644352410565
 30
0.0
 40
3.687500000000005
100
AcDbArc
 50
124.555186146936
 51
185.1297130458215
  0
ARC
  5
B3447
330
2
100
AcDbEntity
  8
PLINE
 62
     7
100
AcDbCircle
 10
630.5198322954942
 20
321.2458179070346
 30
0.0
 40
4.374999999999946
100
AcDbArc
 50
306.6261416991459
 51
0.8776328494623481
  0
ARC
  5
B3448
330
2
100
AcDbEntity
  8
0
100
AcDbCircle
 10
630.4989026048805
 20
321.2458179070347
 30
0.0
 40
4.375000000000001
100
AcDbArc
 50
306.7971000657923
 51
0.8776328494590918
  0
LINE
  5
B344E
330
2
100
AcDbEntity
  8
PLINE
 62
     7
370
    50
100
AcDbLine
 10
635.879918381486
 20
312.550346918686
 30
0.0
 11
629.692418381486
 21
312.550346918686
 31
0.0
  0
LINE
  5
B344F
330
2
100
AcDbEntity
  8
0
370
    50
100
AcDbLine
 10
635.879918381486
 20
312.550346918686
 30
0.0
 11
629.692418381486
 21
312.550346918686
 31
0.0
  0
ARC
  5
B3453
330
2
100
AcDbEntity
  8
PLINE
 62
     7
370
    50
100
AcDbCircle
 10
634.504918381486
 20
313.425346918686
 30
0.0
 40
0.7500000000000019
100
AcDbArc
 50
0.0
 51
89.20051876429154
  0
LINE
  5
B3454
330
2
100
AcDbEntity
  8
PLINE
 62
     7
370
    50
100
AcDbLine
 10
634.5153832267856
 20
314.3517739678431
 30
0.0
 11
634.5153832267932
 21
314.1752739064739
 31
0.0
  0
ARC
  5
B3455
330
2
100
AcDbEntity
  8
PLINE
 62
     7
100
AcDbCircle
 10
637.735240500776
 20
317.4052843059838
 30
0.0
 40
4.437500000000103
100
AcDbArc
 50
185.3978178824478
 51
223.4810798457855
  0
LINE
  5
B3456
330
2
100
AcDbEntity
  8
PLINE
 62
     7
370
    50
100
AcDbLine
 10
633.129918381486
 20
316.987846918686
 30
0.0
 11
633.3174183814861
 21
316.9878469186861
 31
0.0
  0
LINE
  5
B3457
330
2
100
AcDbEntity
  8
PLINE
 62
     7
370
    50
100
AcDbLine
 10
633.1299183814861
 20
317.7346819621144
 30
0.0
 11
633.129918381486
 21
316.987846918686
 31
0.0
  0
ARC
  5
B3459
330
2
100
AcDbEntity
  8
0
370
    50
100
AcDbCircle
 10
634.504918381486
 20
313.425346918686
 30
0.0
 40
0.75
100
AcDbArc
 50
0.0
 51
90.0
  0
LINE
  5
B345A
330
2
100
AcDbEntity
  8
0
370
    50
100
AcDbLine
 10
634.504918381486
 20
314.175346918686
 30
0.0
 11
634.504918381478
 21
314.3628469186945
 31
0.0
  0
ARC
  5
B345B
330
2
100
AcDbEntity
  8
0
100
AcDbCircle
 10
637.7352405007758
 20
317.4052843059838
 30
0.0
 40
4.4375
100
AcDbArc
 50
185.3978178824478
 51
223.2843619909345
  0
LINE
  5
B345C
330
2
100
AcDbEntity
  8
0
370
    50
100
AcDbLine
 10
633.129918381486
 20
317.737846918686
 30
0.0
 11
633.129918381486
 21
316.987846918686
 31
0.0
  0
ARC
  5
B3460
330
2
100
AcDbEntity
  8
0
370
    50
100
AcDbCircle
 10
629.7947753592833
 20
327.4855567797401
 30
0.0
 40
0.4275938292989867
100
AcDbArc
 50
20.29347136820767
 51
80.53912894563948
  0
LINE
  5
B3461
330
2
100
AcDbEntity
  8
0
370
    50
100
AcDbLine
 10
630.180745486935
 20
327.8090556258027
 30
0.0
 11
630.0141109174981
 21
327.9477680315759
 31
0.0
  0
ARC
  5
B3462
330
2
100
AcDbEntity
  8
0
370
    50
100
AcDbCircle
 10
629.6999478662513
 20
327.4097328892286
 30
0.0
 40
0.6250000000001354
100
AcDbArc
 50
39.71106395347344
 51
91.35653623109378
  0
ARC
  5
B3463
330
2
100
AcDbEntity
  8
0
370
    50
100
AcDbCircle
 10
629.7488735419704
 20
327.4097338663639
 30
0.0
 40
0.499999999999988
100
AcDbArc
 50
26.63143028838125
 51
95.61530522443737
  0
LINE
  5
B3464
330
2
100
AcDbEntity
  8
0
370
    50
100
AcDbLine
 10
629.6999491679977
 20
327.9073345151089
 30
0.0
 11
629.6988257424077
 21
328.4484354170159
 31
0.0
  0
LINE
  5
B3465
330
2
100
AcDbEntity
  8
0
370
    50
100
AcDbLine
 10
629.8650606692832
 20
327.9073345151089
 30
0.0
 11
629.6999491679977
 21
327.9073345151089
 31
0.0
  0
LINE
  5
B3466
330
2
100
AcDbEntity
  8
0
370
    50
100
AcDbLine
 10
629.7741946430298
 20
328.0345577242564
 30
0.0
 11
629.692418381486
 21
328.0345577242564
 31
0.0
  0
ARC
  5
B3467
330
2
100
AcDbEntity
  8
0
370
    50
100
AcDbCircle
 10
629.7741946430298
 20
327.6595577242563
 30
0.0
 40
0.375
100
AcDbArc
 50
50.2248270245958
 51
90.0
  0
LINE
  5
B3468
330
2
100
AcDbEntity
  8
0
370
    50
100
AcDbLine
 10
629.6106421199421
 20
328.0345577242564
 30
0.0
 11
629.692418381486
 21
328.0345577242564
 31
0.0
  0
LINE
  5
B3469
330
2
100
AcDbEntity
  8
0
370
    50
100
AcDbLine
 10
629.6848875949743
 20
327.9073345151089
 30
0.0
 11
629.6860110205642
 21
328.4484354170159
 31
0.0
  0
LINE
  5
B346A
330
2
100
AcDbEntity
  8
0
370
    50
100
AcDbLine
 10
629.6999491679977
 20
327.9073345151089
 30
0.0
 11
629.6988257424077
 21
328.4484354170159
 31
0.0
  0
LINE
  5
B346B
330
2
100
AcDbEntity
  8
0
370
    50
100
AcDbLine
 10
629.7741946430298
 20
328.0345577242564
 30
0.0
 11
629.692418381486
 21
328.0345577242564
 31
0.0
  0
ARC
  5
B346C
330
2
100
AcDbEntity
  8
0
370
    50
100
AcDbCircle
 10
633.2060648229149
 20
324.6379290024289
 30
0.0
 40
5.114401994093326
100
AcDbArc
 50
143.5672662406136
 51
181.1581297871387
  0
ARC
  5
B346D
330
2
100
AcDbEntity
  8
0
370
    50
100
AcDbCircle
 10
633.5322494284777
 20
324.3539989902143
 30
0.0
 40
5.442537717837882
100
AcDbArc
 50
142.9412042089248
 51
178.09883687056
  0
ARC
  5
B346E
330
2
100
AcDbEntity
  8
0
370
    50
100
AcDbCircle
 10
625.766721727967
 20
326.6713472155535
 30
0.0
 40
3.489536535798479
100
AcDbArc
 50
164.2139326722607
 51
217.7590321162749
  0
ARC
  5
B346F
330
2
100
AcDbEntity
  8
0
370
    50
100
AcDbCircle
 10
621.79957846307
 20
324.7704360514848
 30
0.0
 40
3.422281301509263
100
AcDbArc
 50
24.73640129384765
 51
61.40068958818458
  0
ARC
  5
B3470
330
2
100
AcDbEntity
  8
0
370
    50
100
AcDbCircle
 10
621.8540067379287
 20
324.9002023047351
 30
0.0
 40
3.130152413328202
100
AcDbArc
 50
8.253634317281759
 51
65.25947228302612
  0
ARC
  5
B3471
330
2
100
AcDbEntity
  8
0
370
    50
100
AcDbCircle
 10
627.7415984559009
 20
325.9293117354225
 30
0.0
 40
2.846893609874726
100
AcDbArc
 50
139.2394686179654
 51
209.3354134364793
  0
ARC
  5
B3472
330
2
100
AcDbEntity
  8
0
370
    50
100
AcDbCircle
 10
624.6481213653048
 20
324.8233945058099
 30
0.0
 40
3.456674844852567
100
AcDbArc
 50
355.2068250317253
 51
64.15601917977397
  0
ARC
  5
B3473
330
2
100
AcDbEntity
  8
0
370
    50
100
AcDbCircle
 10
624.6480789678834
 20
324.62734865816
 30
0.0
 40
3.445878195615566
100
AcDbArc
 50
358.4569473092428
 51
65.87954554925119
  0
ARC
  5
B3474
330
2
100
AcDbEntity
  8
0
370
    50
100
AcDbCircle
 10
629.6106421199421
 20
327.6595577242563
 30
0.0
 40
0.375
100
AcDbArc
 50
90.0
 51
129.7751729754041
  0
ARC
  5
B3475
330
2
100
AcDbEntity
  8
0
370
    50
100
AcDbCircle
 10
629.5239796419946
 20
327.4247752160432
 30
0.0
 40
0.5
100
AcDbArc
 50
129.7751729754041
 51
149.9354255844757
  0
LINE
  5
B3476
330
2
100
AcDbEntity
  8
0
370
    50
100
AcDbLine
 10
629.2040912760369
 20
327.8090556258027
 30
0.0
 11
629.3707258454738
 21
327.9477680315759
 31
0.0
  0
LINE
  5
B3477
330
2
100
AcDbEntity
  8
0
370
    50
100
AcDbLine
 10
629.6106421199421
 20
328.0345577242564
 30
0.0
 11
629.692418381486
 21
328.0345577242564
 31
0.0
  0
LINE
  5
B3478
330
2
100
AcDbEntity
  8
0
370
    50
100
AcDbLine
 10
625.6745713840888
 20
327.9317751815018
 30
0.0
 11
625.5852331552183
 21
327.7880456905536
 31
0.0
  0
LINE
  5
B3479
330
2
100
AcDbEntity
  8
0
370
    50
100
AcDbLine
 10
625.976724786873
 20
328.009044200477
 30
0.0
 11
625.8314954309761
 21
328.009044200477
 31
0.0
  0
LINE
  5
B347A
330
2
100
AcDbEntity
  8
0
370
    50
100
AcDbLine
 10
625.8314954309761
 20
328.009044200477
 30
0.0
 11
625.7900995341233
 21
328.009044200477
 31
0.0
  0
LINE
  5
B347B
330
2
100
AcDbEntity
  8
0
370
    50
100
AcDbLine
 10
625.976724786873
 20
328.009044200477
 30
0.0
 11
625.8165763732895
 21
328.009044200477
 31
0.0
  0
ARC
  5
B347C
330
2
100
AcDbEntity
  8
0
370
    50
100
AcDbCircle
 10
625.976724786873
 20
327.7590442004769
 30
0.0
 40
0.25
100
AcDbArc
 50
44.52458281227958
 51
90.0
  0
ARC
  5
B347D
330
2
100
AcDbEntity
  8
0
370
    50
100
AcDbCircle
 10
625.7900995341233
 20
327.8840442004769
 30
0.0
 40
0.125
100
AcDbArc
 50
90.0
 51
157.5518103135861
  0
ARC
  5
B347E
330
2
100
AcDbEntity
  8
0
370
    50
100
AcDbCircle
 10
622.7879338195227
 20
327.7601058177699
 30
0.0
 40
0.25
100
AcDbArc
 50
90.0
 51
141.379579765869
  0
ARC
  5
B347F
330
2
100
AcDbEntity
  8
0
370
    50
100
AcDbCircle
 10
622.9503103906226
 20
327.6351058177699
 30
0.0
 40
0.375
100
AcDbArc
 50
61.33362181994768
 51
90.0
  0
LINE
  5
B3480
330
2
100
AcDbEntity
  8
0
370
    50
100
AcDbLine
 10
622.7879338195227
 20
328.0101058177699
 30
0.0
 11
622.9503103906226
 21
328.0101058177699
 31
0.0
  0
ARC
  5
B3481
330
2
100
AcDbEntity
  8
0
370
    50
100
AcDbCircle
 10
622.9423494934605
 20
327.2120726260086
 30
0.0
 40
0.75
100
AcDbArc
 50
48.65832013969566
 51
61.33362181994768
  0
LINE
  5
B3482
330
2
100
AcDbEntity
  8
0
370
    50
100
AcDbLine
 10
624.9361162060462
 20
326.4131222062634
 30
0.0
 11
624.9416470088265
 21
326.4044454913648
 31
0.0
  0
LINE
  5
B3483
330
2
100
AcDbEntity
  8
0
370
    50
100
AcDbLine
 10
623.1302011513867
 20
327.9641412477644
 30
0.0
 11
623.3021310149887
 21
327.8701434859978
 31
0.0
  0
LINE
  5
B3484
330
2
100
AcDbEntity
  8
0
370
    50
100
AcDbLine
 10
622.5926093015475
 20
327.9161453405766
 30
0.0
 11
622.4623545492504
 21
327.753097247063
 31
0.0
  0
ARC
  5
B3485
330
2
100
AcDbEntity
  8
0
370
    50
100
AcDbCircle
 10
621.0536678770147
 20
326.7968540076556
 30
0.0
 40
0.75
100
AcDbArc
 50
35.53700050228858
 51
40.23785221999077
  0
ARC
  5
B3486
330
2
100
AcDbEntity
  8
0
370
    50
100
AcDbCircle
 10
621.0536678770147
 20
326.7968540076556
 30
0.0
 40
0.75
100
AcDbArc
 50
35.53700050228858
 51
40.23785221999077
  0
ARC
  5
B3487
330
2
100
AcDbEntity
  8
0
370
    50
100
AcDbCircle
 10
621.2051019214929
 20
326.9741604799021
 30
0.0
 40
0.75
100
AcDbArc
 50
34.32955029217188
 51
41.92033514604861
  0
LINE
  5
B3488
330
2
100
AcDbEntity
  8
0
370
    50
100
AcDbLine
 10
621.6639731334612
 20
327.2327754385965
 30
0.0
 11
622.291644030286
 21
326.354014220494
 31
0.0
  0
LINE
  5
B3489
330
2
100
AcDbEntity
  8
0
370
    50
100
AcDbLine
 10
621.172018381486
 20
327.8180513733102
 30
0.0
 11
621.6261949592877
 21
327.2813256167968
 31
0.0
  0
LINE
  5
B348A
330
2
100
AcDbEntity
  8
0
370
    50
100
AcDbLine
 10
621.8244575810971
 20
327.3971245054602
 30
0.0
 11
622.2777365717
 21
326.7333779661676
 31
0.0
  0
LINE
  5
B348B
330
2
100
AcDbEntity
  8
0
370
    50
100
AcDbLine
 10
621.2829010666938
 20
328.0101058177699
 30
0.0
 11
621.7631577780411
 21
327.4752329905952
 31
0.0
  0
ARC
  5
B348C
330
2
100
AcDbEntity
  8
0
370
    50
100
AcDbCircle
 10
622.9047939734049
 20
327.4720577242563
 30
0.0
 40
0.375
100
AcDbArc
 50
46.27237627395362
 51
90.0
  0
ARC
  5
B348D
330
2
100
AcDbEntity
  8
0
370
    50
100
AcDbCircle
 10
622.6576790672257
 20
327.5970577242564
 30
0.0
 40
0.25
100
AcDbArc
 50
90.0
 51
174.5820988094645
  0
LINE
  5
B348E
330
2
100
AcDbEntity
  8
0
370
    50
100
AcDbLine
 10
622.9047939734049
 20
327.8470577242563
 30
0.0
 11
622.6576790672257
 21
327.8470577242563
 31
0.0
  0
LINE
  5
B348F
330
2
100
AcDbEntity
  8
0
370
    50
100
AcDbLine
 10
622.6802679502971
 20
327.8470577242563
 30
0.0
 11
622.9047939734049
 21
327.8470577242563
 31
0.0
  0
LINE
  5
B3490
330
2
100
AcDbEntity
  8
0
370
    50
100
AcDbLine
 10
622.6576790672257
 20
327.8470577242563
 30
0.0
 11
622.6802679502971
 21
327.8470577242563
 31
0.0
  0
ARC
  5
B3491
330
2
100
AcDbEntity
  8
0
370
    50
100
AcDbCircle
 10
625.6913961822284
 20
327.7220577242563
 30
0.0
 40
0.125
100
AcDbArc
 50
90.0
 51
157.5518103135861
  0
ARC
  5
B3492
330
2
100
AcDbEntity
  8
0
370
    50
100
AcDbCircle
 10
625.8780214349781
 20
327.5970577242564
 30
0.0
 40
0.25
100
AcDbArc
 50
44.52458281227958
 51
90.0
  0
ARC
  5
B3493
330
2
100
AcDbEntity
  8
0
370
    50
100
AcDbCircle
 10
629.5900614036886
 20
327.4855567797401
 30
0.0
 40
0.4275938292989867
100
AcDbArc
 50
99.46087105436053
 51
159.7065286317923
  0
LINE
  5
B3494
330
2
100
AcDbEntity
  8
0
370
    50
100
AcDbLine
 10
625.8780214349781
 20
327.8470577242563
 30
0.0
 11
625.7178730213946
 21
327.8470577242563
 31
0.0
  0
LINE
  5
B3495
330
2
100
AcDbEntity
  8
0
370
    50
100
AcDbLine
 10
629.5197760936887
 20
327.9073345151089
 30
0.0
 11
629.6848875949743
 21
327.9073345151089
 31
0.0
  0
LINE
  5
B3496
330
2
100
AcDbEntity
  8
0
370
    50
100
AcDbLine
 10
625.7327920790812
 20
327.8470577242563
 30
0.0
 11
625.6913961822284
 21
327.8470577242563
 31
0.0
  0
LINE
  5
B3497
330
2
100
AcDbEntity
  8
0
370
    50
100
AcDbLine
 10
625.8780214349781
 20
327.8470577242563
 30
0.0
 11
625.7327920790812
 21
327.8470577242563
 31
0.0
  0
LINE
  5
B3498
330
2
100
AcDbEntity
  8
0
370
    50
100
AcDbLine
 10
629.6848875949743
 20
327.9073345151089
 30
0.0
 11
629.6860110205642
 21
328.4484354170159
 31
0.0
  0
ARC
  5
B3499
330
2
100
AcDbEntity
  8
0
370
    50
100
AcDbCircle
 10
632.5764729051207
 20
331.9958548653799
 30
0.0
 40
12.14560105552623
100
AcDbArc
 50
200.119340849481
 51
217.9810950769092
  0
LINE
  5
B349A
330
2
100
AcDbEntity
  8
0
370
    50
100
AcDbLine
 10
621.297018381486
 20
328.0345577242564
 30
0.0
 11
621.172018381486
 21
327.8180513733102
 31
0.0
  0
ARC
  5
B349B
330
2
100
AcDbEntity
  8
0
370
    50
100
AcDbCircle
 10
624.667964884198
 20
324.8304354219151
 30
0.0
 40
3.437499999999992
100
AcDbArc
 50
355.062241163826
 51
67.62108262297745
  0
LINE
  5
B349C
330
2
100
AcDbEntity
  8
0
370
    50
100
AcDbLine
 10
625.976724786873
 20
328.009044200477
 30
0.0
 11
625.7900995341233
 21
328.009044200477
 31
0.0
  0
ARC
  5
B349D
330
2
100
AcDbEntity
  8
0
370
    50
100
AcDbCircle
 10
625.7900995341227
 20
327.8840442004769
 30
0.0
 40
0.125
100
AcDbArc
 50
89.9999999997134
 51
157.5518103150437
  0
LINE
  5
B349E
330
2
100
AcDbEntity
  8
0
370
    50
100
AcDbLine
 10
625.674571384087
 20
327.9317751814989
 30
0.0
 11
625.5852331552183
 21
327.7880456905536
 31
0.0
  0
ARC
  5
B349F
330
2
100
AcDbEntity
  8
0
370
    50
100
AcDbCircle
 10
624.6566422161349
 20
324.6338600873566
 30
0.0
 40
3.437500000000008
100
AcDbArc
 50
358.3446115079676
 51
69.18753573960636
  0
ARC
  5
B34A0
330
2
100
AcDbEntity
  8
0
370
    50
100
AcDbCircle
 10
625.7784677876936
 20
327.5851525442238
 30
0.0
 40
0.2801878869892447
100
AcDbArc
 50
69.18753573960636
 51
133.6032727681738
  0
ARC
  5
B34A1
330
2
100
AcDbEntity
  8
0
370
    50
100
AcDbCircle
 10
627.775677893216
 20
325.9259026107184
 30
0.0
 40
2.874999999999981
100
AcDbArc
 50
139.631438693346
 51
208.9434433610902
  0
ARC
  5
B34A2
330
2
100
AcDbEntity
  8
0
370
    50
100
AcDbCircle
 10
629.6359632210015
 20
327.4097338663639
 30
0.0
 40
0.5000000000000049
100
AcDbArc
 50
84.38469477555615
 51
153.3685697116187
  0
ARC
  5
B34A3
330
2
100
AcDbEntity
  8
0
370
    50
100
AcDbCircle
 10
633.2172413025991
 20
324.4654253589403
 30
0.0
 40
5.125
100
AcDbArc
 50
141.812941156329
 51
179.2270999227118
  0
ARC
  5
B34A4
330
2
100
AcDbEntity
  8
0
370
    50
100
AcDbCircle
 10
629.6848888967206
 20
327.4097328892286
 30
0.0
 40
0.6250000000001354
100
AcDbArc
 50
88.64346376890621
 51
140.2889360465265
  0
ARC
  5
B34A5
330
2
100
AcDbEntity
  8
0
370
    50
100
AcDbCircle
 10
633.2169750717305
 20
324.621205465858
 30
0.0
 40
5.125000000000011
100
AcDbArc
 50
141.5362373185079
 51
180.968738818927
  0
ARC
  5
B34A6
330
2
100
AcDbEntity
  8
0
370
    50
100
AcDbCircle
 10
622.903811562662
 20
327.5183299041257
 30
0.0
 40
0.4999999999999984
100
AcDbArc
 50
63.07786660705367
 51
151.9959037712423
  0
ARC
  5
B34A7
330
2
100
AcDbEntity
  8
0
370
    50
100
AcDbCircle
 10
625.7876941296188
 20
326.6612562901307
 30
0.0
 40
3.499999999999984
100
AcDbArc
 50
161.8229391527619
 51
217.4182004947549
  0
ARC
  5
B34A8
330
2
100
AcDbEntity
  8
0
370
    50
100
AcDbCircle
 10
621.7653514357603
 20
324.8092099483931
 30
0.0
 40
3.43750000000002
100
AcDbArc
 50
23.91067673786732
 51
66.60628663073082
  0
ARC
  5
B34A9
330
2
100
AcDbEntity
  8
0
370
    50
100
AcDbCircle
 10
621.8588632043756
 20
324.9022905303345
 30
0.0
 40
3.125000000000019
100
AcDbArc
 50
10.32927946853886
 51
70.44583482595384
  0
ARC
  5
B34AA
330
2
100
AcDbEntity
  8
0
370
    50
100
AcDbCircle
 10
622.7601073850021
 20
327.4396996738527
 30
0.0
 40
0.4322901688591467
100
AcDbArc
 50
70.44583482595384
 51
133.5336151412327
  0
LINE
  5
B34AB
330
2
100
AcDbEntity
  8
0
370
    50
100
AcDbLine
 10
621.2829010666938
 20
328.0101058177699
 30
0.0
 11
621.172018381486
 21
327.8180513733102
 31
0.0
  0
ARC
  5
B34AC
330
2
100
AcDbEntity
  8
0
370
    50
100
AcDbCircle
 10
632.5582421758353
 20
331.9857285087173
 30
0.0
 40
12.12500000000001
100
AcDbArc
 50
200.104042368688
 51
217.9963935577009
  0
ARC
  5
B34AD
330
2
100
AcDbEntity
  8
0
370
    50
100
AcDbCircle
 10
612.3362030558165
 20
320.0128191090066
 30
0.0
 40
11.99999999999996
100
AcDbArc
 50
34.05901852819858
 51
41.79293628121084
  0
ARC
  5
B34AE
330
2
100
AcDbEntity
  8
0
370
    50
100
AcDbCircle
 10
612.2278996427086
 20
319.8178801259773
 30
0.0
 40
12.00000000000004
100
AcDbArc
 50
33.00265117754996
 51
41.81141189211
  0
ARC
  5
B34AF
330
2
100
AcDbEntity
  8
0
370
    50
100
AcDbCircle
 10
621.654920322766
 20
327.5702716934478
 30
0.0
 40
0.0184947227388997
100
AcDbArc
 50
108.8493054037377
 51
18.00030617139754
  0
ARC
  5
B34B2
330
2
100
AcDbEntity
  8
PLINE
 62
     7
370
    50
100
AcDbCircle
 10
633.7068356523514
 20
321.306551495358
 30
0.0
 40
1.187500000000067
100
AcDbArc
 50
0.3029195453643765
 51
69.42199331249089
  0
ARC
  5
B34B3
330
2
100
AcDbEntity
  8
PLINE
 62
     7
370
    50
100
AcDbCircle
 10
628.1076205158561
 20
333.0171350763553
 30
0.0
 40
12.18749999999956
100
AcDbArc
 50
299.5820719766577
 51
313.5493843547062
  0
LINE
  5
B34B4
330
2
100
AcDbEntity
  8
PLINE
 62
     7
370
    50
100
AcDbLine
 10
636.3816948282428
 20
324.5214345446468
 30
0.0
 11
636.5045585901937
 21
324.1838691330176
 31
0.0
  0
LINE
  5
B34B5
330
2
100
AcDbEntity
  8
0
370
    50
100
AcDbLine
 10
638.087818381486
 20
328.0345577242564
 30
0.0
 11
638.212818381486
 21
327.8180513733102
 31
0.0
  0
ARC
  5
B34B6
330
2
100
AcDbEntity
  8
0
370
    50
100
AcDbCircle
 10
626.8083638578514
 20
331.9958548653799
 30
0.0
 40
12.14560105552623
100
AcDbArc
 50
322.0189049230906
 51
339.880659150519
  0
LINE
  5
B34B7
330
2
100
AcDbEntity
  8
0
370
    50
100
AcDbLine
 10
633.5068153279938
 20
327.8470577242563
 30
0.0
 11
633.6520446838907
 21
327.8470577242563
 31
0.0
  0
LINE
  5
B34B8
330
2
100
AcDbEntity
  8
0
370
    50
100
AcDbLine
 10
633.6520446838907
 20
327.8470577242563
 30
0.0
 11
633.6934405807435
 21
327.8470577242563
 31
0.0
  0
LINE
  5
B34B9
330
2
100
AcDbEntity
  8
0
370
    50
100
AcDbLine
 10
633.5068153279938
 20
327.8470577242563
 30
0.0
 11
633.6669637415773
 21
327.8470577242563
 31
0.0
  0
ARC
  5
B34BA
330
2
100
AcDbEntity
  8
0
370
    50
100
AcDbCircle
 10
633.5068153279938
 20
327.5970577242564
 30
0.0
 40
0.25
100
AcDbArc
 50
90.0
 51
135.4754171877204
  0
ARC
  5
B34BB
330
2
100
AcDbEntity
  8
0
370
    50
100
AcDbCircle
 10
633.6934405807435
 20
327.7220577242563
 30
0.0
 40
0.125
100
AcDbArc
 50
22.44818968641384
 51
90.0
  0
LINE
  5
B34BC
330
2
100
AcDbEntity
  8
0
370
    50
100
AcDbLine
 10
636.7271576957461
 20
327.8470577242563
 30
0.0
 11
636.704568812675
 21
327.8470577242563
 31
0.0
  0
LINE
  5
B34BD
330
2
100
AcDbEntity
  8
0
370
    50
100
AcDbLine
 10
636.704568812675
 20
327.8470577242563
 30
0.0
 11
636.480042789567
 21
327.8470577242563
 31
0.0
  0
LINE
  5
B34BE
330
2
100
AcDbEntity
  8
0
370
    50
100
AcDbLine
 10
636.480042789567
 20
327.8470577242563
 30
0.0
 11
636.7271576957461
 21
327.8470577242563
 31
0.0
  0
ARC
  5
B34BF
330
2
100
AcDbEntity
  8
0
370
    50
100
AcDbCircle
 10
636.7271576957461
 20
327.5970577242564
 30
0.0
 40
0.25
100
AcDbArc
 50
5.417901190535425
 51
90.0
  0
ARC
  5
B34C0
330
2
100
AcDbEntity
  8
0
370
    50
100
AcDbCircle
 10
636.480042789567
 20
327.4720577242563
 30
0.0
 40
0.375
100
AcDbArc
 50
90.0
 51
133.7276237260463
  0
LINE
  5
B34C1
330
2
100
AcDbEntity
  8
0
370
    50
100
AcDbLine
 10
638.1019356962781
 20
328.0101058177699
 30
0.0
 11
637.6216789849308
 21
327.4752329905952
 31
0.0
  0
LINE
  5
B34C2
330
2
100
AcDbEntity
  8
0
370
    50
100
AcDbLine
 10
637.5603791818748
 20
327.3971245054602
 30
0.0
 11
637.1071001912719
 21
326.7333779661676
 31
0.0
  0
LINE
  5
B34C3
330
2
100
AcDbEntity
  8
0
370
    50
100
AcDbLine
 10
638.212818381486
 20
327.8180513733102
 30
0.0
 11
637.7586418036842
 21
327.2813256167968
 31
0.0
  0
LINE
  5
B34C4
330
2
100
AcDbEntity
  8
0
370
    50
100
AcDbLine
 10
637.7208636295107
 20
327.2327754385965
 30
0.0
 11
637.0931927326859
 21
326.354014220494
 31
0.0
  0
ARC
  5
B34C5
330
2
100
AcDbEntity
  8
0
370
    50
100
AcDbCircle
 10
638.179734841479
 20
326.9741604799021
 30
0.0
 40
0.75
100
AcDbArc
 50
138.0796648539513
 51
145.6704497078281
  0
ARC
  5
B34C6
330
2
100
AcDbEntity
  8
0
370
    50
100
AcDbCircle
 10
638.3311688859573
 20
326.7968540076556
 30
0.0
 40
0.75
100
AcDbArc
 50
139.7621477800092
 51
144.4629994977114
  0
ARC
  5
B34C7
330
2
100
AcDbEntity
  8
0
370
    50
100
AcDbCircle
 10
638.3311688859573
 20
326.7968540076556
 30
0.0
 40
0.75
100
AcDbArc
 50
139.7621477800092
 51
144.4629994977114
  0
LINE
  5
B34C8
330
2
100
AcDbEntity
  8
0
370
    50
100
AcDbLine
 10
636.7922274614245
 20
327.9161453405766
 30
0.0
 11
636.9224822137215
 21
327.753097247063
 31
0.0
  0
LINE
  5
B34C9
330
2
100
AcDbEntity
  8
0
370
    50
100
AcDbLine
 10
636.2546356115853
 20
327.9641412477644
 30
0.0
 11
636.0827057479832
 21
327.8701434859978
 31
0.0
  0
LINE
  5
B34CA
330
2
100
AcDbEntity
  8
0
370
    50
100
AcDbLine
 10
634.4487205569257
 20
326.4131222062634
 30
0.0
 11
634.4431897541455
 21
326.4044454913648
 31
0.0
  0
ARC
  5
B34CB
330
2
100
AcDbEntity
  8
0
370
    50
100
AcDbCircle
 10
636.4424872695116
 20
327.2120726260086
 30
0.0
 40
0.75
100
AcDbArc
 50
118.6663781800523
 51
131.3416798603043
  0
LINE
  5
B34CC
330
2
100
AcDbEntity
  8
0
370
    50
100
AcDbLine
 10
636.5969029434491
 20
328.0101058177699
 30
0.0
 11
636.4345263723495
 21
328.0101058177699
 31
0.0
  0
ARC
  5
B34CD
330
2
100
AcDbEntity
  8
0
370
    50
100
AcDbCircle
 10
636.4345263723495
 20
327.6351058177699
 30
0.0
 40
0.375
100
AcDbArc
 50
90.0
 51
118.6663781800523
  0
ARC
  5
B34CE
330
2
100
AcDbEntity
  8
0
370
    50
100
AcDbCircle
 10
636.5969029434491
 20
327.7601058177699
 30
0.0
 40
0.25
100
AcDbArc
 50
38.62042023413095
 51
90.0
  0
ARC
  5
B34CF
330
2
100
AcDbEntity
  8
0
370
    50
100
AcDbCircle
 10
633.5947372288487
 20
327.8840442004769
 30
0.0
 40
0.125
100
AcDbArc
 50
22.44818968641384
 51
90.0
  0
ARC
  5
B34D0
330
2
100
AcDbEntity
  8
0
370
    50
100
AcDbCircle
 10
633.4081119760989
 20
327.7590442004769
 30
0.0
 40
0.25
100
AcDbArc
 50
90.0
 51
135.4754171877204
  0
LINE
  5
B34D1
330
2
100
AcDbEntity
  8
0
370
    50
100
AcDbLine
 10
633.4081119760989
 20
328.009044200477
 30
0.0
 11
633.5682603896824
 21
328.009044200477
 31
0.0
  0
LINE
  5
B34D2
330
2
100
AcDbEntity
  8
0
370
    50
100
AcDbLine
 10
633.5533413319958
 20
328.009044200477
 30
0.0
 11
633.5947372288487
 21
328.009044200477
 31
0.0
  0
LINE
  5
B34D3
330
2
100
AcDbEntity
  8
0
370
    50
100
AcDbLine
 10
633.4081119760989
 20
328.009044200477
 30
0.0
 11
633.5533413319958
 21
328.009044200477
 31
0.0
  0
LINE
  5
B34D4
330
2
100
AcDbEntity
  8
0
370
    50
100
AcDbLine
 10
633.7102653788831
 20
327.9317751815018
 30
0.0
 11
633.7996036077536
 21
327.7880456905536
 31
0.0
  0
ARC
  5
B34D5
330
2
100
AcDbEntity
  8
0
370
    50
100
AcDbCircle
 10
629.8608571209773
 20
327.4247752160432
 30
0.0
 40
0.5
100
AcDbArc
 50
30.06457441552426
 51
50.2248270245958
  0
ARC
  5
B34D6
330
2
100
AcDbEntity
  8
0
370
    50
100
AcDbCircle
 10
634.7367577950885
 20
324.62734865816
 30
0.0
 40
3.445878195615566
100
AcDbArc
 50
114.1204544507488
 51
181.5430526907571
  0
ARC
  5
B34D7
330
2
100
AcDbEntity
  8
0
370
    50
100
AcDbCircle
 10
634.7367153976671
 20
324.8233945058099
 30
0.0
 40
3.456674844852567
100
AcDbArc
 50
115.843980820226
 51
184.7931749682746
  0
ARC
  5
B34D8
330
2
100
AcDbEntity
  8
0
370
    50
100
AcDbCircle
 10
631.643238307071
 20
325.9293117354225
 30
0.0
 40
2.846893609874726
100
AcDbArc
 50
330.6645865635206
 51
40.76053138203451
  0
ARC
  5
B34D9
330
2
100
AcDbEntity
  8
0
370
    50
100
AcDbCircle
 10
637.5308300250432
 20
324.9002023047351
 30
0.0
 40
3.130152413328202
100
AcDbArc
 50
114.7405277169738
 51
171.7463656827182
  0
ARC
  5
B34DA
330
2
100
AcDbEntity
  8
0
370
    50
100
AcDbCircle
 10
637.5852582999019
 20
324.7704360514848
 30
0.0
 40
3.422281301509263
100
AcDbArc
 50
118.5993104118154
 51
155.2635987061552
  0
ARC
  5
B34DB
330
2
100
AcDbEntity
  8
0
370
    50
100
AcDbCircle
 10
633.618115035005
 20
326.6713472155535
 30
0.0
 40
3.489536535798479
100
AcDbArc
 50
322.240967883725
 51
15.78606732773923
  0
ARC
  5
B34DC
330
2
100
AcDbEntity
  8
0
370
    50
100
AcDbCircle
 10
625.8525873344942
 20
324.3539989902143
 30
0.0
 40
5.442537717837882
100
AcDbArc
 50
1.901163129439992
 51
37.05879579107515
  0
ARC
  5
B34DD
330
2
100
AcDbEntity
  8
0
370
    50
100
AcDbCircle
 10
626.1787719400571
 20
324.6379290024289
 30
0.0
 40
5.114401994093326
100
AcDbArc
 50
358.8418702128612
 51
36.43273375938631
  0
ARC
  5
B34DE
330
2
100
AcDbEntity
  8
0
370
    50
100
AcDbCircle
 10
628.1076205158557
 20
333.0171350763555
 30
0.0
 40
12.18749999999996
100
AcDbArc
 50
299.5537570142306
 51
313.5493843547062
  0
LINE
  5
B34DF
330
2
100
AcDbEntity
  8
0
370
    50
100
AcDbLine
 10
636.3816948282487
 20
324.5214345446305
 30
0.0
 11
636.5045585901936
 21
324.1838691330176
 31
0.0
  0
ARC
  5
B34E0
330
2
100
AcDbEntity
  8
0
370
    50
100
AcDbCircle
 10
637.729916440206
 20
327.5702716934478
 30
0.0
 40
0.0184947227389311
100
AcDbArc
 50
161.999693828588
 51
71.15069459628284
  0
ARC
  5
B34E1
330
2
100
AcDbEntity
  8
0
370
    50
100
AcDbCircle
 10
647.1569371202634
 20
319.8178801259773
 30
0.0
 40
12.00000000000004
100
AcDbArc
 50
138.18858810789
 51
146.99734882245
  0
ARC
  5
B34E2
330
2
100
AcDbEntity
  8
0
370
    50
100
AcDbCircle
 10
647.0486337071554
 20
320.0128191090064
 30
0.0
 40
12.00000000000008
100
AcDbArc
 50
138.2070637187891
 51
145.9409814717987
  0
LINE
  5
B34E3
330
2
100
AcDbEntity
  8
0
370
    50
100
AcDbLine
 10
638.1019356962781
 20
328.0101058177699
 30
0.0
 11
638.212818381486
 21
327.8180513733102
 31
0.0
  0
ARC
  5
B34E4
330
2
100
AcDbEntity
  8
0
370
    50
100
AcDbCircle
 10
626.8265945871368
 20
331.9857285087173
 30
0.0
 40
12.12500000000001
100
AcDbArc
 50
322.003606442299
 51
339.8959576313119
  0
ARC
  5
B34E5
330
2
100
AcDbEntity
  8
0
370
    50
100
AcDbCircle
 10
637.5259735585963
 20
324.9022905303346
 30
0.0
 40
3.124999999999988
100
AcDbArc
 50
109.5541651740461
 51
169.6707205314611
  0
ARC
  5
B34E6
330
2
100
AcDbEntity
  8
0
370
    50
100
AcDbCircle
 10
636.6247293779698
 20
327.4396996738527
 30
0.0
 40
0.4322901688591735
100
AcDbArc
 50
46.46638485876723
 51
109.5541651740461
  0
ARC
  5
B34E7
330
2
100
AcDbEntity
  8
0
370
    50
100
AcDbCircle
 10
637.6194853272115
 20
324.8092099483931
 30
0.0
 40
3.43750000000002
100
AcDbArc
 50
113.3937133692691
 51
156.0893232621326
  0
ARC
  5
B34E8
330
2
100
AcDbEntity
  8
0
370
    50
100
AcDbCircle
 10
636.4810252003101
 20
327.5183299041257
 30
0.0
 40
0.4999999999999984
100
AcDbArc
 50
28.0040962287577
 51
116.9221333929463
  0
ARC
  5
B34E9
330
2
100
AcDbEntity
  8
0
370
    50
100
AcDbCircle
 10
633.597142633353
 20
326.6612562901307
 30
0.0
 40
3.499999999999984
100
AcDbArc
 50
322.5817995052449
 51
18.17706084723811
  0
ARC
  5
B34EA
330
2
100
AcDbEntity
  8
0
370
    50
100
AcDbCircle
 10
626.1678616912414
 20
324.621205465858
 30
0.0
 40
5.125000000000011
100
AcDbArc
 50
359.0312611810729
 51
38.46376268149211
  0
ARC
  5
B34EB
330
2
100
AcDbEntity
  8
0
370
    50
100
AcDbCircle
 10
626.1675954603729
 20
324.4654253589403
 30
0.0
 40
5.125
100
AcDbArc
 50
0.7729000772882232
 51
38.18705884367095
  0
ARC
  5
B34EC
330
2
100
AcDbEntity
  8
0
370
    50
100
AcDbCircle
 10
631.6091588697559
 20
325.9259026107184
 30
0.0
 40
2.874999999999981
100
AcDbArc
 50
331.0565566389096
 51
40.36856130665395
  0
ARC
  5
B34ED
330
2
100
AcDbEntity
  8
0
370
    50
100
AcDbCircle
 10
634.7281945468371
 20
324.6338600873566
 30
0.0
 40
3.437500000000008
100
AcDbArc
 50
110.8124642603936
 51
181.6553884920323
  0
ARC
  5
B34EE
330
2
100
AcDbEntity
  8
0
370
    50
100
AcDbCircle
 10
633.6063689752783
 20
327.5851525442238
 30
0.0
 40
0.280187886989208
100
AcDbArc
 50
46.39672723181913
 51
110.8124642603936
  0
ARC
  5
B34EF
330
2
100
AcDbEntity
  8
0
370
    50
100
AcDbCircle
 10
633.5947372288493
 20
327.8840442004769
 30
0.0
 40
0.125
100
AcDbArc
 50
22.44818968495625
 51
90.00000000028661
  0
LINE
  5
B34F0
330
2
100
AcDbEntity
  8
0
370
    50
100
AcDbLine
 10
633.7102653788851
 20
327.9317751814989
 30
0.0
 11
633.7996036077536
 21
327.7880456905536
 31
0.0
  0
LINE
  5
B34F1
330
2
100
AcDbEntity
  8
0
370
    50
100
AcDbLine
 10
633.4081119760989
 20
328.009044200477
 30
0.0
 11
633.5947372288487
 21
328.009044200477
 31
0.0
  0
ARC
  5
B34F2
330
2
100
AcDbEntity
  8
0
370
    50
100
AcDbCircle
 10
634.716871878774
 20
324.8304354219151
 30
0.0
 40
3.437499999999992
100
AcDbArc
 50
112.3789173770225
 51
184.9377588361739
  0
ARC
  5
B34F3
330
2
100
AcDbEntity
  8
0
370
    50
100
AcDbCircle
 10
619.8255868071023
 20
335.0494115619171
 30
0.0
 40
15.0494343229239
100
AcDbArc
 50
21.35915824732335
 51
30.64526815923475
  0
ARC
  5
B34F4
330
2
100
AcDbEntity
  8
0
370
    50
100
AcDbCircle
 10
634.807103984431
 20
340.4101574150249
 30
0.0
 40
5.114352221673937
100
AcDbArc
 50
154.4063408778308
 51
178.6062133767657
  0
ARC
  5
B34F5
330
2
100
AcDbEntity
  8
0
370
    50
100
AcDbCircle
 10
629.0298782793811
 20
340.6447850454499
 30
0.0
 40
2.592993236375224
100
AcDbArc
 50
357.5636404042668
 51
51.94910048463235
  0
ARC
  5
B34F6
330
2
100
AcDbEntity
  8
0
370
    50
100
AcDbCircle
 10
630.3429113151835
 20
340.4182882231959
 30
0.0
 40
2.766463521332018
100
AcDbArc
 50
2.408748350581715
 51
56.34861737861542
  0
ARC
  5
B34F7
330
2
100
AcDbEntity
  8
0
370
    50
100
AcDbCircle
 10
628.4140145290563
 20
338.9292933610365
 30
0.0
 40
5.630765059868997
100
AcDbArc
 50
16.56411747934758
 51
43.17856965099235
  0
ARC
  5
B34F8
330
2
100
AcDbEntity
  8
0
370
    50
100
AcDbCircle
 10
630.9708222339158
 20
338.9292933610365
 30
0.0
 40
5.630765059868997
100
AcDbArc
 50
136.8214303490076
 51
163.4358825206524
  0
ARC
  5
B34F9
330
2
100
AcDbEntity
  8
0
370
    50
100
AcDbCircle
 10
629.0419254477885
 20
340.4182882231959
 30
0.0
 40
2.766463521332018
100
AcDbArc
 50
123.6513826213845
 51
177.5912516494182
  0
ARC
  5
B34FA
330
2
100
AcDbEntity
  8
0
370
    50
100
AcDbCircle
 10
630.3549584835908
 20
340.6447850454499
 30
0.0
 40
2.592993236375224
100
AcDbArc
 50
128.0508995153676
 51
182.4363595957331
  0
ARC
  5
B34FB
330
2
100
AcDbEntity
  8
0
370
    50
100
AcDbCircle
 10
624.577732778541
 20
340.4101574150249
 30
0.0
 40
5.114352221673937
100
AcDbArc
 50
1.393786623234304
 51
25.59365912217208
  0
ARC
  5
B34FC
330
2
100
AcDbEntity
  8
0
370
    50
100
AcDbCircle
 10
619.8255868071023
 20
335.0494115619171
 30
0.0
 40
15.0494343229239
100
AcDbArc
 50
21.35915824732335
 51
30.64526815923475
  0
ARC
  5
B34FD
330
2
100
AcDbEntity
  8
0
370
    50
100
AcDbCircle
 10
639.5592499558696
 20
335.0494115619171
 30
0.0
 40
15.0494343229239
100
AcDbArc
 50
149.3547318407652
 51
158.6408417526766
  0
ARC
  5
B34FE
330
2
100
AcDbEntity
  8
0
370
    50
100
AcDbCircle
 10
624.5671441792552
 20
340.4076165441288
 30
0.0
 40
5.124999999999984
100
AcDbArc
 50
1.41930492915108
 51
25.56814081625431
  0
ARC
  5
B34FF
330
2
100
AcDbEntity
  8
0
370
    50
100
AcDbCircle
 10
630.3237777854044
 20
340.6591637480456
 30
0.0
 40
2.562500000000003
100
AcDbArc
 50
127.7000529247083
 51
182.7872061863988
  0
ARC
  5
B3500
330
2
100
AcDbEntity
  8
0
370
    50
100
AcDbCircle
 10
629.0258160768051
 20
340.4273574923863
 30
0.0
 40
2.750000000000022
100
AcDbArc
 50
123.4766988150127
 51
177.7659354557835
  0
ARC
  5
B3501
330
2
100
AcDbEntity
  8
0
370
    50
100
AcDbCircle
 10
630.965685006916
 20
338.9322439796064
 30
0.0
 40
5.625
100
AcDbArc
 50
136.8075407392756
 51
163.4497721303856
  0
ARC
  5
B3502
330
2
100
AcDbEntity
  8
0
370
    50
100
AcDbCircle
 10
639.5146727473312
 20
335.0711554507972
 30
0.0
 40
15.00000000000009
100
AcDbArc
 50
149.3393963386365
 51
158.6561772548026
  0
ARC
  5
B3503
330
2
100
AcDbEntity
  8
0
370
    50
100
AcDbCircle
 10
619.8701640156407
 20
335.0711554507972
 30
0.0
 40
15.00000000000009
100
AcDbArc
 50
21.34382274519731
 51
30.66060366136344
  0
ARC
  5
B3504
330
2
100
AcDbEntity
  8
0
370
    50
100
AcDbCircle
 10
628.4191517560559
 20
338.9322439796064
 30
0.0
 40
5.625
100
AcDbArc
 50
16.5502278696143
 51
43.19245926072432
  0
ARC
  5
B3505
330
2
100
AcDbEntity
  8
0
370
    50
100
AcDbCircle
 10
630.3590206861668
 20
340.4273574923864
 30
0.0
 40
2.749999999999998
100
AcDbArc
 50
2.234064544216429
 51
56.52330118498543
  0
ARC
  5
B3506
330
2
100
AcDbEntity
  8
0
370
    50
100
AcDbCircle
 10
634.8176925837167
 20
340.4076165441288
 30
0.0
 40
5.124999999999984
100
AcDbArc
 50
154.4318591837457
 51
178.5806950708489
  0
ARC
  5
B3507
330
2
100
AcDbEntity
  8
0
370
    50
100
AcDbCircle
 10
629.0610589775676
 20
340.6591637480456
 30
0.0
 40
2.562500000000008
100
AcDbArc
 50
357.2127938136044
 51
52.29994707529163
  0
ARC
  5
B3508
330
2
100
AcDbEntity
  8
0
370
    50
100
AcDbCircle
 10
629.692418381486
 20
340.0329289473825
 30
0.0
 40
0.5016287768738366
100
AcDbArc
 50
30.93218077256639
 51
90.0
  0
ARC
  5
B3509
330
2
100
AcDbEntity
  8
0
370
    50
100
AcDbCircle
 10
626.9278463538316
 20
337.619623816628
 30
0.0
 40
4.101172242394247
100
AcDbArc
 50
2.274421623907724
 51
40.04767829109403
  0
ARC
  5
B350A
330
2
100
AcDbEntity
  8
0
370
    50
100
AcDbCircle
 10
628.400710710041
 20
331.6821794450555
 30
0.0
 40
3.293838756253146
100
AcDbArc
 50
357.778885867606
 51
61.00527191928015
  0
ARC
  5
B350B
330
2
100
AcDbEntity
  8
0
370
    50
100
AcDbCircle
 10
633.9872610653478
 20
334.9551437477659
 30
0.0
 40
4.298229085396694
100
AcDbArc
 50
145.5146342714922
 51
182.2745243717677
  0
ARC
  5
B350C
330
2
100
AcDbEntity
  8
0
370
    50
100
AcDbCircle
 10
634.0048421367628
 20
334.8102015329849
 30
0.0
 40
4.312499999999996
100
AcDbArc
 50
143.8482250526612
 51
180.3407050823896
  0
ARC
  5
B350D
330
2
100
AcDbEntity
  8
0
370
    50
100
AcDbCircle
 10
634.0017062866766
 20
334.9509728683329
 30
0.0
 40
4.31249999999999
100
AcDbArc
 50
145.5776216209144
 51
182.2115370224024
  0
ARC
  5
B350E
330
2
100
AcDbEntity
  8
0
370
    50
100
AcDbCircle
 10
629.7043617109619
 20
334.0323312798452
 30
0.0
 40
0.6249999999999974
100
AcDbArc
 50
47.01752760274959
 51
91.00491358357194
  0
ARC
  5
B350F
330
2
100
AcDbEntity
  8
0
370
    50
100
AcDbCircle
 10
629.7286769822801
 20
334.1606103595944
 30
0.0
 40
0.6250000000000357
100
AcDbArc
 50
44.99306367199934
 51
93.32581101284992
  0
ARC
  5
B3510
330
2
100
AcDbEntity
  8
0
370
    50
100
AcDbCircle
 10
626.9037809510011
 20
337.6251768740453
 30
0.0
 40
4.125000000000004
100
AcDbArc
 50
2.214333018997525
 51
41.60782523388729
  0
ARC
  5
B3511
330
2
100
AcDbEntity
  8
0
370
    50
100
AcDbCircle
 10
629.6933416550106
 20
340.0345585766911
 30
0.0
 40
0.49999999999999
100
AcDbArc
 50
30.82638135985337
 51
90.10579941271201
  0
ARC
  5
B3512
330
2
100
AcDbEntity
  8
0
370
    50
100
AcDbCircle
 10
628.258471317067
 20
338.9303479748305
 30
0.0
 40
3.266226945673865
100
AcDbArc
 50
151.8671976810109
 51
175.9875515149811
  0
ARC
  5
B3513
330
2
100
AcDbEntity
  8
0
370
    50
100
AcDbCircle
 10
627.5133773222838
 20
339.1620366059834
 30
0.0
 40
2.398647219356786
100
AcDbArc
 50
145.2106381041712
 51
174.6994100739584
  0
ARC
  5
B3514
330
2
100
AcDbEntity
  8
0
370
    50
100
AcDbCircle
 10
629.3680198140021
 20
336.8221741875602
 30
0.0
 40
4.979008948394072
100
AcDbArc
 50
133.4680427726687
 51
168.8552593289037
  0
ARC
  5
B3515
330
2
100
AcDbEntity
  8
0
370
    50
100
AcDbCircle
 10
623.4235855640695
 20
339.4781018345033
 30
0.0
 40
3.08132448434415
100
AcDbArc
 50
359.3634000141527
 51
15.65871355617475
  0
ARC
  5
B3516
330
2
100
AcDbEntity
  8
0
370
    50
100
AcDbCircle
 10
626.1418260293153
 20
340.2845577242564
 30
0.0
 40
0.25
100
AcDbArc
 50
5.788501016852569
 51
142.7933166898059
  0
ARC
  5
B3517
330
2
100
AcDbEntity
  8
0
370
    50
100
AcDbCircle
 10
629.5726281808732
 20
337.5963383377777
 30
0.0
 40
3.579801287786994
100
AcDbArc
 50
130.6377646458966
 51
176.9861032678815
  0
ARC
  5
B3518
330
2
100
AcDbEntity
  8
0
370
    50
100
AcDbCircle
 10
627.6874672607513
 20
339.9704289473827
 30
0.0
 40
0.5625
100
AcDbArc
 50
90.0
 51
142.5018754812915
  0
ARC
  5
B3519
330
2
100
AcDbEntity
  8
0
370
    50
100
AcDbCircle
 10
620.9672467997732
 20
337.9850108897616
 30
0.0
 40
7.393738513000818
100
AcDbArc
 50
358.688705582186
 51
18.19897596286056
  0
ARC
  5
B351A
330
2
100
AcDbEntity
  8
0
370
    50
100
AcDbCircle
 10
627.6874672607513
 20
340.2204289473827
 30
0.0
 40
0.3125
100
AcDbArc
 50
13.65607137040516
 51
90.0
  0
ARC
  5
B351B
330
2
100
AcDbEntity
  8
0
370
    50
100
AcDbCircle
 10
632.2448309995752
 20
337.8001836456882
 30
0.0
 40
3.885813394506831
100
AcDbArc
 50
140.1376507974324
 51
180.2304026650532
  0
ARC
  5
B351C
330
2
100
AcDbEntity
  8
0
370
    50
100
AcDbCircle
 10
632.4569904091405
 20
337.619623816628
 30
0.0
 40
4.101172242394247
100
AcDbArc
 50
139.9523217089059
 51
177.7255783760922
  0
ARC
  5
B351D
330
2
100
AcDbEntity
  8
0
370
    50
100
AcDbCircle
 10
629.692418381486
 20
340.0329289473825
 30
0.0
 40
0.5016287768738366
100
AcDbArc
 50
90.0
 51
149.0678192274335
  0
ARC
  5
B351E
330
2
100
AcDbEntity
  8
0
370
    50
100
AcDbCircle
 10
629.692418381486
 20
340.0329289473827
 30
0.0
 40
0.4375
100
AcDbArc
 50
90.0
 51
148.9752718875708
  0
ARC
  5
B351F
330
2
100
AcDbEntity
  8
0
370
    50
100
AcDbCircle
 10
629.692418381486
 20
334.2709963013628
 30
0.0
 40
0.422308146570515
100
AcDbArc
 50
43.77907302745156
 51
90.0
  0
LINE
  5
B3520
330
2
100
AcDbEntity
  8
0
370
    50
100
AcDbLine
 10
624.120844097985
 20
337.7841303200153
 30
0.0
 11
623.7521643240922
 21
337.1444825174287
 31
0.0
  0
LINE
  5
B3521
330
2
100
AcDbEntity
  8
0
370
    50
100
AcDbLine
 10
624.3567451010284
 20
337.7466872465389
 30
0.0
 11
624.4147086027583
 21
337.7232625715244
 31
0.0
  0
LINE
  5
B3522
330
2
100
AcDbEntity
  8
0
370
    50
100
AcDbLine
 10
624.3010109647498
 20
337.7399944822491
 30
0.0
 11
624.3567451010284
 21
337.7466872465389
 31
0.0
  0
LINE
  5
B3523
330
2
100
AcDbEntity
  8
0
370
    50
100
AcDbLine
 10
624.2341300012153
 20
337.7121079643746
 30
0.0
 11
624.3010109647498
 21
337.7399944822491
 31
0.0
  0
LINE
  5
B3524
330
2
100
AcDbEntity
  8
0
370
    50
100
AcDbLine
 10
624.1765415944674
 20
337.6615446319466
 30
0.0
 11
624.2341300012153
 21
337.7121079643746
 31
0.0
  0
LINE
  5
B3525
330
2
100
AcDbEntity
  8
0
370
    50
100
AcDbLine
 10
624.2658173460378
 20
337.6990526884231
 30
0.0
 11
624.2928145396078
 21
337.6990526884231
 31
0.0
  0
LINE
  5
B3526
330
2
100
AcDbEntity
  8
0
370
    50
100
AcDbLine
 10
624.2658173460378
 20
337.6990526884231
 30
0.0
 11
624.3089723021214
 21
337.6990526884231
 31
0.0
  0
ARC
  5
B3527
330
2
100
AcDbEntity
  8
0
370
    50
100
AcDbCircle
 10
630.6125158750749
 20
331.882756529263
 30
0.0
 40
8.649249189853973
100
AcDbArc
 50
138.1912608668903
 51
160.3972085101659
  0
ARC
  5
B3528
330
2
100
AcDbEntity
  8
0
370
    50
100
AcDbCircle
 10
624.2658173460378
 20
337.574052688423
 30
0.0
 40
0.125
100
AcDbArc
 50
90.0
 51
143.305990377481
  0
ARC
  5
B3529
330
2
100
AcDbEntity
  8
0
370
    50
100
AcDbCircle
 10
622.3600852429155
 20
337.1107527274962
 30
0.0
 40
2.171167616256813
100
AcDbArc
 50
352.714971724103
 51
13.2314676729316
  0
ARC
  5
B352A
330
2
100
AcDbEntity
  8
0
370
    50
100
AcDbCircle
 10
622.9508082466013
 20
337.1568066965703
 30
0.0
 40
1.504534647311076
100
AcDbArc
 50
341.1135319924616
 51
17.10041964766609
  0
ARC
  5
B352B
330
2
100
AcDbEntity
  8
0
370
    50
100
AcDbCircle
 10
624.2658173460378
 20
337.574052688423
 30
0.0
 40
0.2105050358333074
100
AcDbArc
 50
9.19810151907928
 51
45.24490231338432
  0
LINE
  5
B352C
330
2
100
AcDbEntity
  8
0
370
    50
100
AcDbLine
 10
624.2658173460378
 20
337.6990526884231
 30
0.0
 11
624.2658173460378
 21
337.574052688423
 31
0.0
  0
ARC
  5
B352D
330
2
100
AcDbEntity
  8
0
370
    50
100
AcDbCircle
 10
624.2658173460378
 20
337.5770028971927
 30
0.0
 40
0.125
100
AcDbArc
 50
10.2338118209686
 51
77.52711576052238
  0
ARC
  5
B352E
330
2
100
AcDbEntity
  8
0
370
    50
100
AcDbCircle
 10
627.0976054174499
 20
334.61418766732
 30
0.0
 40
3.369216175986931
100
AcDbArc
 50
120.0471996210484
 51
177.1015068482611
  0
ARC
  5
B352F
330
2
100
AcDbEntity
  8
0
370
    50
100
AcDbCircle
 10
626.7965598949375
 20
334.884571313034
 30
0.0
 40
3.065492309872054
100
AcDbArc
 50
118.0894881218488
 51
181.8696421435058
  0
ARC
  5
B3530
330
2
100
AcDbEntity
  8
0
370
    50
100
AcDbCircle
 10
625.8438177537774
 20
337.0713047197495
 30
0.0
 40
0.713253004506818
100
AcDbArc
 50
90.0
 51
133.463913220894
  0
ARC
  5
B3531
330
2
100
AcDbEntity
  8
0
370
    50
100
AcDbCircle
 10
625.8438177537774
 20
337.0801344535625
 30
0.0
 40
0.625
100
AcDbArc
 50
90.0
 51
133.8805861995213
  0
ARC
  5
B3532
330
2
100
AcDbEntity
  8
0
370
    50
100
AcDbCircle
 10
619.6283655297904
 20
335.5648937876433
 30
0.0
 40
6.744012071979144
100
AcDbArc
 50
353.3555376811849
 51
16.69697564886083
  0
ARC
  5
B3533
330
2
100
AcDbEntity
  8
0
370
    50
100
AcDbCircle
 10
621.9436966425
 20
335.9106650553908
 30
0.0
 40
4.525722777338538
100
AcDbArc
 50
345.5920811020338
 51
21.00572385478697
  0
ARC
  5
B3534
330
2
100
AcDbEntity
  8
0
370
    50
100
AcDbCircle
 10
625.8438177537774
 20
337.449052688423
 30
0.0
 40
0.3355050358333074
100
AcDbArc
 50
14.4831884451755
 51
90.0
  0
ARC
  5
B3535
330
2
100
AcDbEntity
  8
0
370
    50
100
AcDbCircle
 10
625.8438177537774
 20
337.449052688423
 30
0.0
 40
0.25
100
AcDbArc
 50
12.34817223252955
 51
90.0
  0
ARC
  5
B3536
330
2
100
AcDbEntity
  8
0
370
    50
100
AcDbCircle
 10
629.9461957030261
 20
334.6702607100771
 30
0.0
 40
3.620920169246632
100
AcDbArc
 50
129.3403148416628
 51
178.1911160071475
  0
ARC
  5
B3537
330
2
100
AcDbEntity
  8
0
370
    50
100
AcDbCircle
 10
630.1702876498248
 20
334.4425996910467
 30
0.0
 40
3.858390981428153
100
AcDbArc
 50
129.2888011320319
 51
174.9153694730178
  0
ARC
  5
B3538
330
2
100
AcDbEntity
  8
0
370
    50
100
AcDbCircle
 10
628.3034857052501
 20
336.949052688423
 30
0.0
 40
0.75
100
AcDbArc
 50
90.0
 51
140.2277943165997
  0
ARC
  5
B3539
330
2
100
AcDbEntity
  8
0
370
    50
100
AcDbCircle
 10
628.3034857052501
 20
336.949052688423
 30
0.0
 40
0.83550503583335
100
AcDbArc
 50
90.0
 51
141.3690454330184
  0
ARC
  5
B353A
330
2
100
AcDbEntity
  8
0
370
    50
100
AcDbCircle
 10
625.3975756976242
 20
334.9551437477659
 30
0.0
 40
4.298229085396694
100
AcDbArc
 50
357.7254756282322
 51
34.48536572850772
  0
ARC
  5
B353B
330
2
100
AcDbEntity
  8
0
370
    50
100
AcDbCircle
 10
628.3034857052501
 20
337.074052688423
 30
0.0
 40
0.7105050358333074
100
AcDbArc
 50
26.2933142937333
 51
90.0
  0
ARC
  5
B353C
330
2
100
AcDbEntity
  8
0
370
    50
100
AcDbCircle
 10
628.3034857052501
 20
337.074052688423
 30
0.0
 40
0.625
100
AcDbArc
 50
26.63654307133291
 51
90.0
  0
ARC
  5
B353D
330
2
100
AcDbEntity
  8
0
370
    50
100
AcDbCircle
 10
623.5604772134458
 20
334.3961642646391
 30
0.0
 40
0.3887257161684232
100
AcDbArc
 50
92.46884422997958
 51
126.7455194147058
  0
LINE
  5
B353E
330
2
100
AcDbEntity
  8
0
370
    50
100
AcDbLine
 10
623.1147322130424
 20
334.4669328108997
 30
0.0
 11
623.3279174123944
 21
334.7076504141635
 31
0.0
  0
ARC
  5
B353F
330
2
100
AcDbEntity
  8
0
370
    50
100
AcDbCircle
 10
631.9015231183721
 20
333.7095999893689
 30
0.0
 40
9.736036375628318
100
AcDbArc
 50
174.167081460022
 51
184.6147282588114
  0
ARC
  5
B3540
330
2
100
AcDbEntity
  8
0
370
    50
100
AcDbCircle
 10
630.78335685723
 20
333.1507778157541
 30
0.0
 40
8.491197456141335
100
AcDbArc
 50
168.9066157826877
 51
179.9407560837061
  0
ARC
  5
B3541
330
2
100
AcDbEntity
  8
0
370
    50
100
AcDbCircle
 10
627.0271902957205
 20
331.0928529293697
 30
0.0
 40
5.16640525855829
100
AcDbArc
 50
139.2257171535724
 51
175.0954769611471
  0
ARC
  5
B3542
330
2
100
AcDbEntity
  8
0
370
    50
100
AcDbCircle
 10
623.5393615922439
 20
334.200105030429
 30
0.0
 40
0.5015049093598237
100
AcDbArc
 50
90.0
 51
129.0866322589872
  0
ARC
  5
B3543
330
2
100
AcDbEntity
  8
0
370
    50
100
AcDbCircle
 10
607.0529090623698
 20
331.4076686259934
 30
0.0
 40
17.09901079527413
100
AcDbArc
 50
0.3716250403112609
 51
10.41016428041874
  0
ARC
  5
B3544
330
2
100
AcDbEntity
  8
0
370
    50
100
AcDbCircle
 10
569.48535058346
 20
326.2801734316286
 30
0.0
 40
54.91814842827267
100
AcDbArc
 50
5.490266225428969
 51
8.593225740068653
  0
ARC
  5
B3545
330
2
100
AcDbEntity
  8
0
370
    50
100
AcDbCircle
 10
623.5393615922439
 20
334.4501050304291
 30
0.0
 40
0.3344526938273091
100
AcDbArc
 50
8.120955016603204
 51
90.0
  0
ARC
  5
B3546
330
2
100
AcDbEntity
  8
0
370
    50
100
AcDbCircle
 10
623.5393615922439
 20
334.4516099397893
 30
0.0
 40
0.25
100
AcDbArc
 50
7.896840708833424
 51
90.0
  0
ARC
  5
B3547
330
2
100
AcDbEntity
  8
0
370
    50
100
AcDbCircle
 10
627.5588701306665
 20
331.8324177783523
 30
0.0
 40
3.318929948532039
100
AcDbArc
 50
123.6531412486755
 51
156.429958981997
  0
ARC
  5
B3548
330
2
100
AcDbEntity
  8
0
370
    50
100
AcDbCircle
 10
627.5148545566913
 20
331.6321007466822
 30
0.0
 40
3.364708554048045
100
AcDbArc
 50
122.1605929407018
 51
181.6612394619394
  0
ARC
  5
B3549
330
2
100
AcDbEntity
  8
0
370
    50
100
AcDbCircle
 10
626.2179057137654
 20
334.0312725970255
 30
0.0
 40
0.6677800913992798
100
AcDbArc
 50
90.0
 51
137.719754834147
  0
ARC
  5
B354A
330
2
100
AcDbEntity
  8
0
370
    50
100
AcDbCircle
 10
626.2179057137654
 20
334.0345577242561
 30
0.0
 40
0.75
100
AcDbArc
 50
90.0
 51
131.632891220687
  0
ARC
  5
B354B
330
2
100
AcDbEntity
  8
0
370
    50
100
AcDbCircle
 10
623.4256109487902
 20
331.576745774013
 30
0.0
 40
4.267359546852514
100
AcDbArc
 50
359.4335521656411
 51
44.29928958293427
  0
ARC
  5
B354C
330
2
100
AcDbEntity
  8
0
370
    50
100
AcDbCircle
 10
623.7102583888206
 20
331.8006611983486
 30
0.0
 40
3.990102566786101
100
AcDbArc
 50
356.4633431774599
 51
44.51677666829749
  0
ARC
  5
B354D
330
2
100
AcDbEntity
  8
0
370
    50
100
AcDbCircle
 10
626.2179057137654
 20
334.3858168618597
 30
0.0
 40
0.3987408623965862
100
AcDbArc
 50
32.18265394697212
 51
90.0
  0
ARC
  5
B354E
330
2
100
AcDbEntity
  8
0
370
    50
100
AcDbCircle
 10
626.2179057137654
 20
334.3865526884247
 30
0.0
 40
0.3125
100
AcDbArc
 50
33.07537908307988
 51
90.0
  0
ARC
  5
B354F
330
2
100
AcDbEntity
  8
0
370
    50
100
AcDbCircle
 10
630.984126052931
 20
331.6821794450555
 30
0.0
 40
3.293838756253146
100
AcDbArc
 50
118.9947280807198
 51
182.221114132394
  0
ARC
  5
B3550
330
2
100
AcDbEntity
  8
0
370
    50
100
AcDbCircle
 10
629.692418381486
 20
334.2709963013628
 30
0.0
 40
0.422308146570515
100
AcDbArc
 50
90.0
 51
136.2209269725484
  0
LINE
  5
B3551
330
2
100
AcDbEntity
  8
0
370
    50
100
AcDbLine
 10
621.6117111891829
 20
331.5628562982608
 30
0.0
 11
621.562241158915
 21
331.3754164387338
 31
0.0
  0
LINE
  5
B3552
330
2
100
AcDbEntity
  8
0
370
    50
100
AcDbLine
 10
621.7244547284228
 20
331.5716232622837
 30
0.0
 11
621.6512958591463
 21
331.5716232622837
 31
0.0
  0
LINE
  5
B3553
330
2
100
AcDbEntity
  8
0
370
    50
100
AcDbLine
 10
621.7244547284228
 20
331.5716232622837
 30
0.0
 11
621.6512958591463
 21
331.5716232622837
 31
0.0
  0
ARC
  5
B3554
330
2
100
AcDbEntity
  8
0
370
    50
100
AcDbCircle
 10
621.6512958591463
 20
331.4778732622837
 30
0.0
 40
0.09375
100
AcDbArc
 50
90.0
 51
114.9758665237532
  0
ARC
  5
B3555
330
2
100
AcDbEntity
  8
0
370
    50
100
AcDbCircle
 10
621.7192554311647
 20
331.3795576391758
 30
0.0
 40
0.1921359838027398
100
AcDbArc
 50
22.71230493697052
 51
88.44935783286825
  0
ARC
  5
B3556
330
2
100
AcDbEntity
  8
0
370
    50
100
AcDbCircle
 10
627.6457690517897
 20
331.0545232787736
 30
0.0
 40
0.5
100
AcDbArc
 50
90.0
 51
133.2027212567731
  0
LINE
  5
B3557
330
2
100
AcDbEntity
  8
0
370
    50
100
AcDbLine
 10
627.3034781880689
 20
331.4189913358283
 30
0.0
 11
627.1308304291824
 21
331.2568488671952
 31
0.0
  0
LINE
  5
B3558
330
2
100
AcDbEntity
  8
0
370
    50
100
AcDbLine
 10
627.801643780582
 20
331.5545232787736
 30
0.0
 11
627.6457690517897
 21
331.5545232787736
 31
0.0
  0
ARC
  5
B3559
330
2
100
AcDbEntity
  8
0
370
    50
100
AcDbCircle
 10
627.801643780582
 20
331.1795232787736
 30
0.0
 40
0.375
100
AcDbArc
 50
36.27331375116594
 51
90.0
  0
ARC
  5
B355A
330
2
100
AcDbEntity
  8
0
370
    50
100
AcDbCircle
 10
627.4501118622022
 20
331.0597299516698
 30
0.0
 40
0.375
100
AcDbArc
 50
90.0
 51
148.1530892910571
  0
ARC
  5
B355B
330
2
100
AcDbEntity
  8
0
370
    50
100
AcDbCircle
 10
623.9420223170867
 20
331.1850933392975
 30
0.0
 40
0.25
100
AcDbArc
 50
90.0
 51
146.1037486944943
  0
LINE
  5
B355C
330
2
100
AcDbEntity
  8
0
370
    50
100
AcDbLine
 10
624.043242424805
 20
331.4350933392976
 30
0.0
 11
623.9420223170867
 21
331.4350933392975
 31
0.0
  0
LINE
  5
B355D
330
2
100
AcDbEntity
  8
0
370
    50
100
AcDbLine
 10
621.7244547284228
 20
331.4398692909761
 30
0.0
 11
621.6512958591463
 21
331.4398692909761
 31
0.0
  0
LINE
  5
B355E
330
2
100
AcDbEntity
  8
0
370
    50
100
AcDbLine
 10
621.7244547284228
 20
331.4398692909761
 30
0.0
 11
621.6512958591463
 21
331.4398692909761
 31
0.0
  0
LINE
  5
B355F
330
2
100
AcDbEntity
  8
0
370
    50
100
AcDbLine
 10
624.043242424805
 20
331.4350933392975
 30
0.0
 11
623.9420223170867
 21
331.4350933392975
 31
0.0
  0
ARC
  5
B3560
330
2
100
AcDbEntity
  8
0
370
    50
100
AcDbCircle
 10
635.6198920669173
 20
334.0395481259394
 30
0.0
 40
12.09338662244782
100
AcDbArc
 50
147.8749836510972
 51
161.9625333896111
  0
LINE
  5
B3561
330
2
100
AcDbEntity
  8
0
370
    50
100
AcDbLine
 10
625.554318381486
 20
340.5345577242564
 30
0.0
 11
625.3781260150887
 21
340.4704289473827
 31
0.0
  0
ARC
  5
B3562
330
2
100
AcDbEntity
  8
0
370
    50
100
AcDbCircle
 10
633.9367486515949
 20
330.9429376042031
 30
0.0
 40
12.10952620873334
100
AcDbArc
 50
146.0881075873407
 51
161.4790717781979
  0
ARC
  5
B3563
330
2
100
AcDbEntity
  8
0
370
    50
100
AcDbCircle
 10
633.9602706683473
 20
330.9780586017199
 30
0.0
 40
12.10952620873335
100
AcDbArc
 50
146.274693588921
 51
161.6790717781979
  0
ARC
  5
B3564
330
2
100
AcDbEntity
  8
0
370
    50
100
AcDbCircle
 10
633.9602706683473
 20
330.9780586017199
 30
0.0
 40
12.10952620873335
100
AcDbArc
 50
146.2881075873393
 51
161.6790717781979
  0
ARC
  5
B3565
330
2
100
AcDbEntity
  8
0
370
    50
100
AcDbCircle
 10
633.9602706683473
 20
330.9780586017199
 30
0.0
 40
12.10952620873335
100
AcDbArc
 50
146.2881075873393
 51
161.6790717781979
  0
ARC
  5
B3566
330
2
100
AcDbEntity
  8
0
370
    50
100
AcDbCircle
 10
633.9602706683473
 20
330.9780586017199
 30
0.0
 40
12.10952620873335
100
AcDbArc
 50
146.2881075873393
 51
161.6790717781979
  0
LINE
  5
B3567
330
2
100
AcDbEntity
  8
0
370
    50
100
AcDbLine
 10
624.122018381486
 20
337.7845577242563
 30
0.0
 11
623.8870952262894
 21
337.6990526884249
 31
0.0
  0
ARC
  5
B3568
330
2
100
AcDbEntity
  8
0
370
    50
100
AcDbCircle
 10
633.3451994797054
 20
329.9155480605502
 30
0.0
 40
12.11376612329955
100
AcDbArc
 50
156.7414034525409
 51
172.3194138118006
  0
LINE
  5
B3569
330
2
100
AcDbEntity
  8
0
370
    50
100
AcDbLine
 10
622.450818381486
 20
334.7845577242563
 30
0.0
 11
622.2158952262894
 21
334.6990526884249
 31
0.0
  0
LINE
  5
B356A
330
2
100
AcDbEntity
  8
0
370
    50
100
AcDbLine
 10
621.336718381486
 20
331.5345577242563
 30
0.0
 11
621.1017952262895
 21
331.4490526884249
 31
0.0
  0
ARC
  5
B356B
330
2
100
AcDbEntity
  8
0
370
    50
100
AcDbCircle
 10
627.6742430389743
 20
330.947559800462
 30
0.0
 40
0.6249999999999956
100
AcDbArc
 50
46.5624494593344
 51
150.260121793721
  0
ARC
  5
B356C
330
2
100
AcDbEntity
  8
0
370
    50
100
AcDbCircle
 10
627.6273668619938
 20
330.8772746703762
 30
0.0
 40
0.6249999999999872
100
AcDbArc
 50
40.30911456202546
 51
142.6041199149975
  0
ARC
  5
B356D
330
2
100
AcDbEntity
  8
0
370
    50
100
AcDbCircle
 10
624.0656860482642
 20
331.0386336222135
 30
0.0
 40
0.4374999999999942
100
AcDbArc
 50
48.28031722707944
 51
139.1981136494258
  0
ARC
  5
B356E
330
2
100
AcDbEntity
  8
0
370
    50
100
AcDbCircle
 10
623.9932814915604
 20
331.0309004583949
 30
0.0
 40
0.3764722690508333
100
AcDbArc
 50
43.58452103795155
 51
128.4259560603258
  0
LINE
  5
B356F
330
2
100
AcDbEntity
  8
0
370
    50
100
AcDbLine
 10
621.7244547284129
 20
331.5716232622837
 30
0.0
 11
621.6512958591463
 21
331.5716232622837
 31
0.0
  0
ARC
  5
B3570
330
2
100
AcDbEntity
  8
0
370
    50
100
AcDbCircle
 10
621.665492283394
 20
331.5107569206935
 30
0.0
 40
0.0624999999999958
100
AcDbArc
 50
103.1289138702566
 51
188.8665026977594
  0
LINE
  5
B3571
330
2
100
AcDbEntity
  8
0
370
    50
100
AcDbLine
 10
621.6037391492363
 20
331.5011236231435
 30
0.0
 11
621.5579939343759
 21
331.3552742532451
 31
0.0
  0
ARC
  5
B3572
330
2
100
AcDbEntity
  8
0
370
    50
100
AcDbCircle
 10
621.6260514003088
 20
331.3760607456532
 30
0.0
 40
0.0973827211959459
100
AcDbArc
 50
53.2688483793689
 51
137.12458250421
  0
ARC
  5
B3573
330
2
100
AcDbEntity
  8
0
370
    50
100
AcDbCircle
 10
619.2902763613774
 20
330.4641222268126
 30
0.0
 40
2.312499999999995
100
AcDbArc
 50
17.49775895922858
 51
27.57381803955264
  0
LINE
  5
B3574
330
2
100
AcDbEntity
  8
0
370
    50
100
AcDbLine
 10
621.3401115000683
 20
331.5345577242563
 30
0.0
 11
621.1069552215242
 21
331.430532980833
 31
0.0
  0
ARC
  5
B3575
330
2
100
AcDbEntity
  8
0
370
    50
100
AcDbCircle
 10
629.6561597806918
 20
334.1606103595944
 30
0.0
 40
0.6250000000000357
100
AcDbArc
 50
86.67418898715009
 51
135.0069363280006
  0
ARC
  5
B3576
330
2
100
AcDbEntity
  8
0
370
    50
100
AcDbCircle
 10
631.0605490729385
 20
331.7773456461843
 30
0.0
 40
3.375000000000011
100
AcDbArc
 50
123.1667061275684
 51
183.7855034606793
  0
ARC
  5
B3577
330
2
100
AcDbEntity
  8
0
370
    50
100
AcDbCircle
 10
629.68047505201
 20
334.0323312798452
 30
0.0
 40
0.6249999999999974
100
AcDbArc
 50
88.99508641642807
 51
132.9824723972504
  0
ARC
  5
B3578
330
2
100
AcDbEntity
  8
0
370
    50
100
AcDbCircle
 10
630.8866759855581
 20
331.751726435452
 30
0.0
 40
3.187500000000013
100
AcDbArc
 50
120.8036292633289
 51
183.5413305961895
  0
ARC
  5
B3579
330
2
100
AcDbEntity
  8
0
370
    50
100
AcDbCircle
 10
626.2311451648352
 20
334.4097915078821
 30
0.0
 40
0.3750000000000013
100
AcDbArc
 50
30.159394362355
 51
92.02325958466275
  0
ARC
  5
B357A
330
2
100
AcDbEntity
  8
0
370
    50
100
AcDbCircle
 10
626.2179057137654
 20
334.0345577242561
 30
0.0
 40
0.7499999999999716
100
AcDbArc
 50
90.0
 51
131.632891220687
  0
ARC
  5
B357B
330
2
100
AcDbEntity
  8
0
370
    50
100
AcDbCircle
 10
627.5537323521237
 20
331.8367225411213
 30
0.0
 40
3.312500000000009
100
AcDbArc
 50
123.6204297736709
 51
156.4626704570037
  0
ARC
  5
B357C
330
2
100
AcDbEntity
  8
0
370
    50
100
AcDbCircle
 10
623.7100356188279
 20
331.7867880154284
 30
0.0
 40
4.000000000000201
100
AcDbArc
 50
356.9195949530598
 51
44.65623499454277
  0
ARC
  5
B357D
330
2
100
AcDbEntity
  8
0
370
    50
100
AcDbCircle
 10
623.4542742842032
 20
331.5593877436966
 30
0.0
 40
4.250000000000114
100
AcDbArc
 50
0.1678568730444273
 51
46.57271191432948
  0
ARC
  5
B357E
330
2
100
AcDbEntity
  8
0
370
    50
100
AcDbCircle
 10
626.1803572097575
 20
334.3259372775305
 30
0.0
 40
0.3750000000000513
100
AcDbArc
 50
58.57659466781026
 51
84.25338127298015
  0
ARC
  5
B357F
330
2
100
AcDbEntity
  8
0
370
    50
100
AcDbCircle
 10
626.2308496747177
 20
334.0116745509525
 30
0.0
 40
0.6874999999999848
100
AcDbArc
 50
91.07880458942002
 51
134.9594457568077
  0
ARC
  5
B3580
330
2
100
AcDbEntity
  8
0
370
    50
100
AcDbCircle
 10
627.5259590247468
 20
331.6312717252034
 30
0.0
 40
3.374999999999993
100
AcDbArc
 50
121.8484566749248
 51
182.5858306467121
  0
ARC
  5
B3581
330
2
100
AcDbEntity
  8
0
370
    50
100
AcDbCircle
 10
607.0296237380079
 20
331.3906090546183
 30
0.0
 40
17.12499999999993
100
AcDbArc
 50
0.2957525079449672
 51
10.45222440960335
  0
ARC
  5
B3582
330
2
100
AcDbEntity
  8
0
370
    50
100
AcDbCircle
 10
623.5589364641641
 20
334.4726714078054
 30
0.0
 40
0.3125000000000053
100
AcDbArc
 50
4.529619690007224
 51
93.59133532659717
  0
ARC
  5
B3583
330
2
100
AcDbEntity
  8
0
370
    50
100
AcDbCircle
 10
569.3974119491088
 20
326.3144394034873
 30
0.0
 40
54.99999999999986
100
AcDbArc
 50
5.388080525648391
 51
8.54424205400824
  0
ARC
  5
B3584
330
2
100
AcDbEntity
  8
0
370
    50
100
AcDbCircle
 10
623.539361592244
 20
334.4516099397889
 30
0.0
 40
0.2499999999999956
100
AcDbArc
 50
7.896840708938445
 51
90.00000000001303
  0
ARC
  5
B3585
330
2
100
AcDbEntity
  8
0
370
    50
100
AcDbCircle
 10
623.5523669365039
 20
334.4097833107478
 30
0.0
 40
0.3749999999999951
100
AcDbArc
 50
91.98746877842561
 51
151.3865752832981
  0
ARC
  5
B3586
330
2
100
AcDbEntity
  8
0
370
    50
100
AcDbCircle
 10
623.516428285859
 20
334.2647114235883
 30
0.0
 40
0.4374999999999888
100
AcDbArc
 50
86.99523620507035
 51
132.0913960539182
  0
ARC
  5
B3587
330
2
100
AcDbEntity
  8
0
370
    50
100
AcDbCircle
 10
627.0727340499277
 20
331.1121616221041
 30
0.0
 40
5.18750000000002
100
AcDbArc
 50
137.9093746154176
 51
176.2245219143983
  0
LINE
  5
B3588
330
2
100
AcDbEntity
  8
0
370
    50
100
AcDbLine
 10
622.450818381486
 20
334.7845577242563
 30
0.0
 11
622.2158952262894
 21
334.6990526884248
 31
0.0
  0
ARC
  5
B3589
330
2
100
AcDbEntity
  8
0
370
    50
100
AcDbCircle
 10
631.9155441045212
 20
333.7094509306367
 30
0.0
 40
9.749999999999989
100
AcDbArc
 50
174.1745835993806
 51
184.6072261194521
  0
ARC
  5
B358A
330
2
100
AcDbEntity
  8
0
370
    50
100
AcDbCircle
 10
630.7921584747197
 20
333.1499184830131
 30
0.0
 40
8.500000000000042
100
AcDbArc
 50
168.9123469204311
 51
179.9350249459621
  0
ARC
  5
B358B
330
2
100
AcDbEntity
  8
0
370
    50
100
AcDbCircle
 10
633.3511746394167
 20
329.9010137774128
 30
0.0
 40
12.125
100
AcDbArc
 50
156.6894538731116
 51
172.2572658812731
  0
ARC
  5
B358C
330
2
100
AcDbEntity
  8
0
370
    50
100
AcDbCircle
 10
625.3831304762954
 20
334.9509728683329
 30
0.0
 40
4.31249999999999
100
AcDbArc
 50
357.7884629775975
 51
34.42237837908557
  0
ARC
  5
B358D
330
2
100
AcDbEntity
  8
0
370
    50
100
AcDbCircle
 10
628.3178726397843
 20
337.097208274475
 30
0.0
 40
0.687499999999993
100
AcDbArc
 50
25.09422948794911
 51
91.19908480578489
  0
ARC
  5
B358E
330
2
100
AcDbEntity
  8
0
370
    50
100
AcDbCircle
 10
625.3799946262091
 20
334.8102015329849
 30
0.0
 40
4.312499999999996
100
AcDbArc
 50
359.6592949176102
 51
36.15177494733873
  0
ARC
  5
B358F
330
2
100
AcDbEntity
  8
0
370
    50
100
AcDbCircle
 10
628.3034857052501
 20
337.074052688423
 30
0.0
 40
0.6250000000000023
100
AcDbArc
 50
26.63654307133291
 51
90.0
  0
ARC
  5
B3590
330
2
100
AcDbEntity
  8
0
370
    50
100
AcDbCircle
 10
628.3034857052503
 20
336.9490526884229
 30
0.0
 40
0.7500000000001137
100
AcDbArc
 50
90.0
 51
140.2277943165971
  0
ARC
  5
B3591
330
2
100
AcDbEntity
  8
0
370
    50
100
AcDbCircle
 10
630.1862060987213
 20
334.4341720479726
 30
0.0
 40
3.875000000000063
100
AcDbArc
 50
129.3920618325006
 51
174.8121087725607
  0
ARC
  5
B3592
330
2
100
AcDbEntity
  8
0
370
    50
100
AcDbCircle
 10
628.2923853123852
 20
336.9721335547005
 30
0.0
 40
0.8125000000003257
100
AcDbArc
 50
89.21719944747939
 51
142.1518459855773
  0
ARC
  5
B3593
330
2
100
AcDbEntity
  8
0
370
    50
100
AcDbCircle
 10
629.9502145469515
 20
334.6682802057764
 30
0.0
 40
3.625000000000249
100
AcDbArc
 50
129.3695974845454
 51
178.1618333645652
  0
ARC
  5
B3594
330
2
100
AcDbEntity
  8
0
370
    50
100
AcDbCircle
 10
619.6222748226313
 20
335.5643581083295
 30
0.0
 40
6.749999999999984
100
AcDbArc
 50
353.3660361470779
 51
16.68647713503846
  0
ARC
  5
B3595
330
2
100
AcDbEntity
  8
0
370
    50
100
AcDbCircle
 10
625.8438177537774
 20
337.449052688423
 30
0.0
 40
0.2499999999999863
100
AcDbArc
 50
12.34817223252637
 51
90.0
  0
ARC
  5
B3596
330
2
100
AcDbEntity
  8
0
370
    50
100
AcDbCircle
 10
621.6960513380108
 20
335.8410019100945
 30
0.0
 40
4.749999999999987
100
AcDbArc
 50
347.1494178342686
 51
23.02723172629066
  0
ARC
  5
B3597
330
2
100
AcDbEntity
  8
0
370
    50
100
AcDbCircle
 10
625.852656841394
 20
337.4721827564212
 30
0.0
 40
0.3125000000000131
100
AcDbArc
 50
46.55074856656771
 51
91.62083190086644
  0
ARC
  5
B3598
330
2
100
AcDbEntity
  8
0
370
    50
100
AcDbCircle
 10
625.8275602286063
 20
337.0742641699023
 30
0.0
 40
0.6250000000000288
100
AcDbArc
 50
88.50945175288009
 51
117.9459507860454
  0
ARC
  5
B3599
330
2
100
AcDbEntity
  8
0
370
    50
100
AcDbCircle
 10
627.1272483451689
 20
334.6243337225577
 30
0.0
 40
3.398328036341889
100
AcDbArc
 50
117.9459507860454
 51
177.2976229737995
  0
ARC
  5
B359A
330
2
100
AcDbEntity
  8
0
370
    50
100
AcDbCircle
 10
625.7995030977861
 20
337.0984874208143
 30
0.0
 40
0.6875000000000311
100
AcDbArc
 50
86.30428472262492
 51
134.1247359538597
  0
ARC
  5
B359B
330
2
100
AcDbEntity
  8
0
370
    50
100
AcDbCircle
 10
627.1072343286801
 20
334.7285234534248
 30
0.0
 40
3.375000000000013
100
AcDbArc
 50
121.9581084344455
 51
179.0486889652097
  0
ARC
  5
B359C
330
2
100
AcDbEntity
  8
0
370
    50
100
AcDbCircle
 10
624.2874245255407
 20
337.5855853632186
 30
0.0
 40
0.1875000000000028
100
AcDbArc
 50
6.773993698659281
 51
47.24628070854496
  0
ARC
  5
B359D
330
2
100
AcDbEntity
  8
0
370
    50
100
AcDbCircle
 10
624.3456334113939
 20
337.648547181209
 30
0.0
 40
0.1017534845201655
100
AcDbArc
 50
47.24628070855416
 51
116.0104345963456
  0
ARC
  5
B359E
330
2
100
AcDbEntity
  8
0
370
    50
100
AcDbCircle
 10
624.5991598302859
 20
337.1289811669347
 30
0.0
 40
0.6798750013876768
100
AcDbArc
 50
116.0104345963311
 51
128.4339229975374
  0
ARC
  5
B359F
330
2
100
AcDbEntity
  8
0
370
    50
100
AcDbCircle
 10
624.2635916870061
 20
337.5711155016337
 30
0.0
 40
0.1250000000000062
100
AcDbArc
 50
24.02182484680694
 51
83.88912256849687
  0
LINE
  5
B35A0
330
2
100
AcDbEntity
  8
0
370
    50
100
AcDbLine
 10
624.2677285465377
 20
337.6908174616464
 30
0.0
 11
624.2402193095735
 21
337.6862297026216
 31
0.0
  0
LINE
  5
B35A1
330
2
100
AcDbEntity
  8
0
370
    50
100
AcDbLine
 10
624.2402193095735
 20
337.6862297026216
 30
0.0
 11
624.1714462171631
 21
337.6541153894479
 31
0.0
  0
ARC
  5
B35A2
330
2
100
AcDbEntity
  8
0
370
    50
100
AcDbCircle
 10
630.591267559321
 20
331.8953757479397
 30
0.0
 40
8.625000000000017
100
AcDbArc
 50
138.1596464383336
 51
160.4288229387224
  0
LINE
  5
B35A3
330
2
100
AcDbEntity
  8
0
370
    50
100
AcDbLine
 10
623.8157050563757
 20
337.2262135861548
 30
0.0
 11
624.1208440979849
 21
337.7841303200153
 31
0.0
  0
LINE
  5
B35A4
330
2
100
AcDbEntity
  8
0
370
    50
100
AcDbLine
 10
624.1208440979849
 20
337.7841303200153
 30
0.0
 11
623.8870952262894
 21
337.6990526884249
 31
0.0
  0
ARC
  5
B35A5
330
2
100
AcDbEntity
  8
0
370
    50
100
AcDbCircle
 10
634.0674198125915
 20
331.1129600442592
 30
0.0
 40
12.125
100
AcDbArc
 50
147.0994234687361
 51
158.9222090412723
  0
ARC
  5
B35A6
330
2
100
AcDbEntity
  8
0
370
    50
100
AcDbCircle
 10
629.6914951079614
 20
340.0345585766911
 30
0.0
 40
0.49999999999999
100
AcDbArc
 50
89.89420058728148
 51
149.1736186401466
  0
ARC
  5
B35A7
330
2
100
AcDbEntity
  8
0
370
    50
100
AcDbCircle
 10
632.2340862911373
 20
337.8041898779469
 30
0.0
 40
3.875000000000005
100
AcDbArc
 50
140.0812918314755
 51
180.2902824158296
  0
ARC
  5
B35A8
330
2
100
AcDbEntity
  8
0
370
    50
100
AcDbCircle
 10
629.682555140567
 20
340.0330401426806
 30
0.0
 40
0.4375000000000038
100
AcDbArc
 50
88.70818295059894
 51
130.7863114961717
  0
ARC
  5
B35A9
330
2
100
AcDbEntity
  8
0
370
    50
100
AcDbCircle
 10
632.4810558119708
 20
337.6251768740453
 30
0.0
 40
4.125000000000004
100
AcDbArc
 50
138.3921747661126
 51
177.7856669810024
  0
ARC
  5
B35AA
330
2
100
AcDbEntity
  8
0
370
    50
100
AcDbCircle
 10
620.9624355610088
 20
338.0608166839679
 30
0.0
 40
7.374999999999997
100
AcDbArc
 50
357.8532642111499
 51
17.62782317700106
  0
ARC
  5
B35AB
330
2
100
AcDbEntity
  8
0
370
    50
100
AcDbCircle
 10
627.6874672607513
 20
340.2204289473827
 30
0.0
 40
0.3125000000000032
100
AcDbArc
 50
13.65607137040516
 51
90.0
  0
ARC
  5
B35AC
330
2
100
AcDbEntity
  8
0
370
    50
100
AcDbCircle
 10
627.6874672607513
 20
339.9704289473826
 30
0.0
 40
0.5625000000001848
100
AcDbArc
 50
90.00000000000651
 51
142.5018754812823
  0
ARC
  5
B35AD
330
2
100
AcDbEntity
  8
0
370
    50
100
AcDbCircle
 10
629.5557327026289
 20
337.6046475730207
 30
0.0
 40
3.562500000000107
100
AcDbArc
 50
130.5185988477641
 51
177.1052690660176
  0
ARC
  5
B35AE
330
2
100
AcDbEntity
  8
0
370
    50
100
AcDbCircle
 10
623.4424400183224
 20
339.4805877721358
 30
0.0
 40
3.062500000000025
100
AcDbArc
 50
359.3129747207007
 51
15.70913884962885
  0
ARC
  5
B35AF
330
2
100
AcDbEntity
  8
0
370
    50
100
AcDbCircle
 10
626.1418260293153
 20
340.2845577242564
 30
0.0
 40
0.2500000000000089
100
AcDbArc
 50
5.788501016852569
 51
142.7933166898059
  0
ARC
  5
B35B0
330
2
100
AcDbEntity
  8
0
370
    50
100
AcDbCircle
 10
629.387316537571
 20
336.8115488987354
 30
0.0
 40
4.999999999999958
100
AcDbArc
 50
133.5447628645253
 51
168.7785392370462
  0
ARC
  5
B35B1
330
2
100
AcDbEntity
  8
0
370
    50
100
AcDbCircle
 10
624.4078827327479
 20
337.7994417112753
 30
0.0
 40
0.0764843371848688
100
AcDbArc
 50
275.1201930506447
 51
348.778539237043
  0
ARC
  5
B35B2
330
2
100
AcDbEntity
  8
0
370
    50
100
AcDbCircle
 10
627.4905505895686
 20
339.1706388820208
 30
0.0
 40
2.374999999999945
100
AcDbArc
 50
145.0668706104444
 51
173.6351981083866
  0
LINE
  5
B35B3
330
2
100
AcDbEntity
  8
0
370
    50
100
AcDbLine
 10
625.5434759179617
 20
340.5306113902673
 30
0.0
 11
625.3781260150887
 21
340.4704289473827
 31
0.0
  0
ARC
  5
B35B4
330
2
100
AcDbEntity
  8
0
370
    50
100
AcDbCircle
 10
628.2425257365368
 20
338.9349439309245
 30
0.0
 40
3.249999999999931
100
AcDbArc
 50
151.8061003902931
 51
176.0370186128415
  0
ARC
  5
B35B5
330
2
100
AcDbEntity
  8
0
370
    50
100
AcDbCircle
 10
635.5938509615375
 20
334.0561581339138
 30
0.0
 40
12.06249999999998
100
AcDbArc
 50
147.8760239279923
 51
161.9955944502637
  0
ARC
  5
B35B6
330
2
100
AcDbEntity
  8
0
370
    50
100
AcDbCircle
 10
629.7022816224049
 20
340.0330401426806
 30
0.0
 40
0.4375000000000038
100
AcDbArc
 50
49.21368850382823
 51
91.29181704940107
  0
ARC
  5
B35B7
330
2
100
AcDbEntity
  8
0
370
    50
100
AcDbCircle
 10
629.692418381486
 20
340.0329289473827
 30
0.0
 40
0.4375
100
AcDbArc
 50
31.02472811242916
 51
90.0
  0
LINE
  5
B35B8
330
2
100
AcDbEntity
  8
0
370
    50
100
AcDbLine
 10
635.262818381486
 20
337.7845577242563
 30
0.0
 11
635.4977415366825
 21
337.6990526884249
 31
0.0
  0
LINE
  5
B35B9
330
2
100
AcDbEntity
  8
0
370
    50
100
AcDbLine
 10
633.830518381486
 20
340.5345577242564
 30
0.0
 11
634.0067107478834
 21
340.4704289473827
 31
0.0
  0
ARC
  5
B35BA
330
2
100
AcDbEntity
  8
0
370
    50
100
AcDbCircle
 10
623.7649446960546
 20
334.0395481259394
 30
0.0
 40
12.09338662244782
100
AcDbArc
 50
18.0374666103889
 51
32.12501634890278
  0
ARC
  5
B35BB
330
2
100
AcDbEntity
  8
0
370
    50
100
AcDbCircle
 10
631.0813510577218
 20
337.074052688423
 30
0.0
 40
0.625
100
AcDbArc
 50
90.0
 51
153.363456928667
  0
ARC
  5
B35BC
330
2
100
AcDbEntity
  8
0
370
    50
100
AcDbCircle
 10
631.0813510577218
 20
337.074052688423
 30
0.0
 40
0.7105050358333074
100
AcDbArc
 50
90.0
 51
153.7066857062783
  0
ARC
  5
B35BD
330
2
100
AcDbEntity
  8
0
370
    50
100
AcDbCircle
 10
631.0813510577218
 20
336.949052688423
 30
0.0
 40
0.83550503583335
100
AcDbArc
 50
38.63095456698149
 51
90.0
  0
ARC
  5
B35BE
330
2
100
AcDbEntity
  8
0
370
    50
100
AcDbCircle
 10
631.0813510577218
 20
336.949052688423
 30
0.0
 40
0.75
100
AcDbArc
 50
39.77220568340028
 51
90.0
  0
ARC
  5
B35BF
330
2
100
AcDbEntity
  8
0
370
    50
100
AcDbCircle
 10
633.5410190091945
 20
337.449052688423
 30
0.0
 40
0.25
100
AcDbArc
 50
90.0
 51
167.6518277674704
  0
ARC
  5
B35C0
330
2
100
AcDbEntity
  8
0
370
    50
100
AcDbCircle
 10
633.5410190091945
 20
337.449052688423
 30
0.0
 40
0.3355050358333074
100
AcDbArc
 50
90.0
 51
165.5168115548244
  0
ARC
  5
B35C1
330
2
100
AcDbEntity
  8
0
370
    50
100
AcDbCircle
 10
633.5410190091945
 20
337.0801344535625
 30
0.0
 40
0.625
100
AcDbArc
 50
46.11941380047867
 51
90.0
  0
ARC
  5
B35C2
330
2
100
AcDbEntity
  8
0
370
    50
100
AcDbCircle
 10
633.5410190091945
 20
337.0713047197495
 30
0.0
 40
0.713253004506818
100
AcDbArc
 50
46.53608677910593
 51
90.0
  0
ARC
  5
B35C3
330
2
100
AcDbEntity
  8
0
370
    50
100
AcDbCircle
 10
635.1190194169342
 20
337.5770028971927
 30
0.0
 40
0.125
100
AcDbArc
 50
102.4728842394776
 51
169.7661881790314
  0
LINE
  5
B35C4
330
2
100
AcDbEntity
  8
0
370
    50
100
AcDbLine
 10
635.1190194169342
 20
337.6990526884231
 30
0.0
 11
635.1190194169342
 21
337.574052688423
 31
0.0
  0
ARC
  5
B35C5
330
2
100
AcDbEntity
  8
0
370
    50
100
AcDbCircle
 10
635.1190194169342
 20
337.574052688423
 30
0.0
 40
0.2105050358333074
100
AcDbArc
 50
134.7550976866157
 51
170.8018984809207
  0
ARC
  5
B35C6
330
2
100
AcDbEntity
  8
0
370
    50
100
AcDbCircle
 10
635.1190194169342
 20
337.574052688423
 30
0.0
 40
0.125
100
AcDbArc
 50
36.69400962251898
 51
90.0
  0
LINE
  5
B35C7
330
2
100
AcDbEntity
  8
0
370
    50
100
AcDbLine
 10
635.1190194169342
 20
337.6990526884231
 30
0.0
 11
635.0758644608505
 21
337.6990526884231
 31
0.0
  0
LINE
  5
B35C8
330
2
100
AcDbEntity
  8
0
370
    50
100
AcDbLine
 10
635.1190194169341
 20
337.6990526884231
 30
0.0
 11
635.0920222233643
 21
337.6990526884231
 31
0.0
  0
LINE
  5
B35C9
330
2
100
AcDbEntity
  8
0
370
    50
100
AcDbLine
 10
635.2082951685047
 20
337.6615446319466
 30
0.0
 11
635.1507067617566
 21
337.7121079643746
 31
0.0
  0
LINE
  5
B35CA
330
2
100
AcDbEntity
  8
0
370
    50
100
AcDbLine
 10
635.1507067617566
 20
337.7121079643746
 30
0.0
 11
635.0838257982221
 21
337.7399944822491
 31
0.0
  0
LINE
  5
B35CB
330
2
100
AcDbEntity
  8
0
370
    50
100
AcDbLine
 10
635.0838257982221
 20
337.7399944822491
 30
0.0
 11
635.0280916619436
 21
337.7466872465389
 31
0.0
  0
LINE
  5
B35CC
330
2
100
AcDbEntity
  8
0
370
    50
100
AcDbLine
 10
635.0280916619436
 20
337.7466872465389
 30
0.0
 11
634.9701281602137
 21
337.7232625715244
 31
0.0
  0
ARC
  5
B35CD
330
2
100
AcDbEntity
  8
0
370
    50
100
AcDbCircle
 10
627.1400057633967
 20
337.8001836456882
 30
0.0
 40
3.885813394506831
100
AcDbArc
 50
359.7695973349467
 51
39.86234920256758
  0
ARC
  5
B35CE
330
2
100
AcDbEntity
  8
0
370
    50
100
AcDbCircle
 10
631.6973695022206
 20
340.2204289473827
 30
0.0
 40
0.3125
100
AcDbArc
 50
90.0
 51
166.3439286295948
  0
ARC
  5
B35CF
330
2
100
AcDbEntity
  8
0
370
    50
100
AcDbCircle
 10
638.4175899631989
 20
337.9850108897616
 30
0.0
 40
7.393738513000818
100
AcDbArc
 50
161.8010240371394
 51
181.3112944178139
  0
ARC
  5
B35D0
330
2
100
AcDbEntity
  8
0
370
    50
100
AcDbCircle
 10
631.6973695022206
 20
339.9704289473827
 30
0.0
 40
0.5625
100
AcDbArc
 50
37.49812451870849
 51
90.0
  0
ARC
  5
B35D1
330
2
100
AcDbEntity
  8
0
370
    50
100
AcDbCircle
 10
629.8122085820988
 20
337.5963383377777
 30
0.0
 40
3.579801287786994
100
AcDbArc
 50
3.013896732118467
 51
49.36223535410336
  0
ARC
  5
B35D2
330
2
100
AcDbEntity
  8
0
370
    50
100
AcDbCircle
 10
633.2430107336566
 20
340.2845577242564
 30
0.0
 40
0.25
100
AcDbArc
 50
37.20668331019412
 51
174.2114989831474
  0
ARC
  5
B35D3
330
2
100
AcDbEntity
  8
0
370
    50
100
AcDbCircle
 10
635.9612511989024
 20
339.4781018345033
 30
0.0
 40
3.08132448434415
100
AcDbArc
 50
164.3412864438252
 51
180.6365999858472
  0
ARC
  5
B35D4
330
2
100
AcDbEntity
  8
0
370
    50
100
AcDbCircle
 10
630.0168169489698
 20
336.8221741875602
 30
0.0
 40
4.979008948394072
100
AcDbArc
 50
11.14474067109623
 51
46.53195722733123
  0
ARC
  5
B35D5
330
2
100
AcDbEntity
  8
0
370
    50
100
AcDbCircle
 10
631.8714594406882
 20
339.1620366059834
 30
0.0
 40
2.398647219356786
100
AcDbArc
 50
5.300589926041522
 51
34.78936189582869
  0
ARC
  5
B35D6
330
2
100
AcDbEntity
  8
0
370
    50
100
AcDbCircle
 10
631.126365445905
 20
338.9303479748305
 30
0.0
 40
3.266226945673865
100
AcDbArc
 50
4.012448485018862
 51
28.13280231898903
  0
LINE
  5
B35D7
330
2
100
AcDbEntity
  8
0
370
    50
100
AcDbLine
 10
638.0481183814859
 20
331.5345577242563
 30
0.0
 11
638.2830415366825
 21
331.4490526884249
 31
0.0
  0
LINE
  5
B35D8
330
2
100
AcDbEntity
  8
0
370
    50
100
AcDbLine
 10
636.934018381486
 20
334.7845577242563
 30
0.0
 11
637.1689415366825
 21
334.6990526884249
 31
0.0
  0
ARC
  5
B35D9
330
2
100
AcDbEntity
  8
0
370
    50
100
AcDbCircle
 10
626.0396372832665
 20
329.9155480605502
 30
0.0
 40
12.11376612329955
100
AcDbArc
 50
7.68058618819938
 51
23.25859654745344
  0
LINE
  5
B35DA
330
2
100
AcDbEntity
  8
0
370
    50
100
AcDbLine
 10
635.262818381486
 20
337.7845577242563
 30
0.0
 11
635.4977415366825
 21
337.6990526884249
 31
0.0
  0
ARC
  5
B35DB
330
2
100
AcDbEntity
  8
0
370
    50
100
AcDbCircle
 10
625.4245660946248
 20
330.9780586017199
 30
0.0
 40
12.10952620873335
100
AcDbArc
 50
18.32092822180201
 51
33.71189241266071
  0
ARC
  5
B35DC
330
2
100
AcDbEntity
  8
0
370
    50
100
AcDbCircle
 10
625.4245660946248
 20
330.9780586017199
 30
0.0
 40
12.10952620873335
100
AcDbArc
 50
18.32092822180201
 51
33.71189241266071
  0
ARC
  5
B35DD
330
2
100
AcDbEntity
  8
0
370
    50
100
AcDbCircle
 10
625.4245660946248
 20
330.9780586017199
 30
0.0
 40
12.10952620873335
100
AcDbArc
 50
18.32092822180201
 51
33.71189241266071
  0
ARC
  5
B35DE
330
2
100
AcDbEntity
  8
0
370
    50
100
AcDbCircle
 10
625.4245660946248
 20
330.9780586017199
 30
0.0
 40
12.10952620873335
100
AcDbArc
 50
18.32092822180201
 51
33.72530641107898
  0
ARC
  5
B35DF
330
2
100
AcDbEntity
  8
0
370
    50
100
AcDbCircle
 10
625.4480881113771
 20
330.9429376042031
 30
0.0
 40
12.10952620873334
100
AcDbArc
 50
18.52092822180201
 51
33.91189241265929
  0
LINE
  5
B35E0
330
2
100
AcDbEntity
  8
0
370
    50
100
AcDbLine
 10
635.341594338167
 20
331.4350933392975
 30
0.0
 11
635.4428144458852
 21
331.4350933392975
 31
0.0
  0
LINE
  5
B35E1
330
2
100
AcDbEntity
  8
0
370
    50
100
AcDbLine
 10
637.6603820345491
 20
331.4398692909761
 30
0.0
 11
637.7335409038257
 21
331.4398692909761
 31
0.0
  0
LINE
  5
B35E2
330
2
100
AcDbEntity
  8
0
370
    50
100
AcDbLine
 10
637.6603820345491
 20
331.4398692909761
 30
0.0
 11
637.7335409038257
 21
331.4398692909761
 31
0.0
  0
LINE
  5
B35E3
330
2
100
AcDbEntity
  8
0
370
    50
100
AcDbLine
 10
635.341594338167
 20
331.4350933392976
 30
0.0
 11
635.4428144458852
 21
331.4350933392975
 31
0.0
  0
ARC
  5
B35E4
330
2
100
AcDbEntity
  8
0
370
    50
100
AcDbCircle
 10
635.4428144458852
 20
331.1850933392975
 30
0.0
 40
0.25
100
AcDbArc
 50
33.89625130550566
 51
90.0
  0
ARC
  5
B35E5
330
2
100
AcDbEntity
  8
0
370
    50
100
AcDbCircle
 10
631.9347249007697
 20
331.0597299516698
 30
0.0
 40
0.375
100
AcDbArc
 50
31.84691070894284
 51
90.0
  0
ARC
  5
B35E6
330
2
100
AcDbEntity
  8
0
370
    50
100
AcDbCircle
 10
631.58319298239
 20
331.1795232787736
 30
0.0
 40
0.375
100
AcDbArc
 50
90.0
 51
143.726686248834
  0
LINE
  5
B35E7
330
2
100
AcDbEntity
  8
0
370
    50
100
AcDbLine
 10
631.58319298239
 20
331.5545232787736
 30
0.0
 11
631.7390677111822
 21
331.5545232787736
 31
0.0
  0
LINE
  5
B35E8
330
2
100
AcDbEntity
  8
0
370
    50
100
AcDbLine
 10
632.081358574903
 20
331.4189913358283
 30
0.0
 11
632.2540063337896
 21
331.2568488671952
 31
0.0
  0
ARC
  5
B35E9
330
2
100
AcDbEntity
  8
0
370
    50
100
AcDbCircle
 10
631.7390677111822
 20
331.0545232787736
 30
0.0
 40
0.5
100
AcDbArc
 50
46.79727874322683
 51
90.0
  0
ARC
  5
B35EA
330
2
100
AcDbEntity
  8
0
370
    50
100
AcDbCircle
 10
637.6655813318073
 20
331.3795576391758
 30
0.0
 40
0.1921359838027398
100
AcDbArc
 50
91.55064216713174
 51
157.2876950630294
  0
ARC
  5
B35EB
330
2
100
AcDbEntity
  8
0
370
    50
100
AcDbCircle
 10
637.7335409038257
 20
331.4778732622837
 30
0.0
 40
0.09375
100
AcDbArc
 50
65.02413347624678
 51
90.0
  0
LINE
  5
B35EC
330
2
100
AcDbEntity
  8
0
370
    50
100
AcDbLine
 10
637.6603820345491
 20
331.5716232622837
 30
0.0
 11
637.7335409038257
 21
331.5716232622837
 31
0.0
  0
LINE
  5
B35ED
330
2
100
AcDbEntity
  8
0
370
    50
100
AcDbLine
 10
637.6603820345491
 20
331.5716232622837
 30
0.0
 11
637.7335409038257
 21
331.5716232622837
 31
0.0
  0
LINE
  5
B35EE
330
2
100
AcDbEntity
  8
0
370
    50
100
AcDbLine
 10
637.7731255737891
 20
331.5628562982608
 30
0.0
 11
637.8225956040568
 21
331.3754164387338
 31
0.0
  0
ARC
  5
B35EF
330
2
100
AcDbEntity
  8
0
370
    50
100
AcDbCircle
 10
633.1669310492066
 20
334.3865526884247
 30
0.0
 40
0.3125
100
AcDbArc
 50
90.0
 51
146.9246209169201
  0
ARC
  5
B35F0
330
2
100
AcDbEntity
  8
0
370
    50
100
AcDbCircle
 10
633.1669310492066
 20
334.3858168618597
 30
0.0
 40
0.3987408623965862
100
AcDbArc
 50
90.0
 51
147.8173460530278
  0
ARC
  5
B35F1
330
2
100
AcDbEntity
  8
0
370
    50
100
AcDbCircle
 10
635.6745783741513
 20
331.8006611983486
 30
0.0
 40
3.990102566786101
100
AcDbArc
 50
135.4832233317025
 51
183.5366568225401
  0
ARC
  5
B35F2
330
2
100
AcDbEntity
  8
0
370
    50
100
AcDbCircle
 10
635.9592258141817
 20
331.576745774013
 30
0.0
 40
4.267359546852514
100
AcDbArc
 50
135.7007104170657
 51
180.5664478343588
  0
ARC
  5
B35F3
330
2
100
AcDbEntity
  8
0
370
    50
100
AcDbCircle
 10
633.1669310492066
 20
334.0345577242561
 30
0.0
 40
0.75
100
AcDbArc
 50
48.36710877931292
 51
90.0
  0
ARC
  5
B35F4
330
2
100
AcDbEntity
  8
0
370
    50
100
AcDbCircle
 10
633.1669310492066
 20
334.0312725970255
 30
0.0
 40
0.6677800913992798
100
AcDbArc
 50
42.28024516585289
 51
90.0
  0
ARC
  5
B35F5
330
2
100
AcDbEntity
  8
0
370
    50
100
AcDbCircle
 10
631.8699822062807
 20
331.6321007466822
 30
0.0
 40
3.364708554048045
100
AcDbArc
 50
358.3387605380605
 51
57.83940705929818
  0
ARC
  5
B35F6
330
2
100
AcDbEntity
  8
0
370
    50
100
AcDbCircle
 10
631.8259666323056
 20
331.8324177783523
 30
0.0
 40
3.318929948532039
100
AcDbArc
 50
23.57004101799731
 51
56.34685875132447
  0
ARC
  5
B35F7
330
2
100
AcDbEntity
  8
0
370
    50
100
AcDbCircle
 10
635.845475170728
 20
334.4516099397893
 30
0.0
 40
0.25
100
AcDbArc
 50
90.0
 51
172.1031592911665
  0
ARC
  5
B35F8
330
2
100
AcDbEntity
  8
0
370
    50
100
AcDbCircle
 10
635.845475170728
 20
334.4501050304291
 30
0.0
 40
0.3344526938273091
100
AcDbArc
 50
90.0
 51
171.8790449833967
  0
ARC
  5
B35F9
330
2
100
AcDbEntity
  8
0
370
    50
100
AcDbCircle
 10
689.8994861795121
 20
326.2801734316286
 30
0.0
 40
54.91814842827267
100
AcDbArc
 50
171.4067742599313
 51
174.509733774571
  0
ARC
  5
B35FA
330
2
100
AcDbEntity
  8
0
370
    50
100
AcDbCircle
 10
652.3319277006022
 20
331.4076686259934
 30
0.0
 40
17.09901079527413
100
AcDbArc
 50
169.5898357195812
 51
179.6283749596887
  0
ARC
  5
B35FB
330
2
100
AcDbEntity
  8
0
370
    50
100
AcDbCircle
 10
635.845475170728
 20
334.200105030429
 30
0.0
 40
0.5015049093598237
100
AcDbArc
 50
50.91336774101274
 51
90.0
  0
ARC
  5
B35FC
330
2
100
AcDbEntity
  8
0
370
    50
100
AcDbCircle
 10
632.3576464672514
 20
331.0928529293697
 30
0.0
 40
5.16640525855829
100
AcDbArc
 50
4.904523038852861
 51
40.77428284642754
  0
ARC
  5
B35FD
330
2
100
AcDbEntity
  8
0
370
    50
100
AcDbCircle
 10
628.6014799057419
 20
333.1507778157541
 30
0.0
 40
8.491197456141335
100
AcDbArc
 50
0.0592439162938275
 51
11.09338421731226
  0
ARC
  5
B35FE
330
2
100
AcDbEntity
  8
0
370
    50
100
AcDbCircle
 10
627.4833136445998
 20
333.7095999893689
 30
0.0
 40
9.736036375628318
100
AcDbArc
 50
355.3852717411885
 51
5.832918539977995
  0
LINE
  5
B35FF
330
2
100
AcDbEntity
  8
0
370
    50
100
AcDbLine
 10
636.2701045499295
 20
334.4669328108997
 30
0.0
 11
636.0569193505775
 21
334.7076504141635
 31
0.0
  0
ARC
  5
B3600
330
2
100
AcDbEntity
  8
0
370
    50
100
AcDbCircle
 10
635.8243595495261
 20
334.3961642646391
 30
0.0
 40
0.3887257161684232
100
AcDbArc
 50
53.25448058529414
 51
87.5311557700204
  0
ARC
  5
B3601
330
2
100
AcDbEntity
  8
0
370
    50
100
AcDbCircle
 10
631.0813510577218
 20
337.074052688423
 30
0.0
 40
0.625
100
AcDbArc
 50
90.0
 51
153.363456928667
  0
ARC
  5
B3602
330
2
100
AcDbEntity
  8
0
370
    50
100
AcDbCircle
 10
631.0813510577218
 20
337.074052688423
 30
0.0
 40
0.7105050358333074
100
AcDbArc
 50
90.0
 51
153.7066857062783
  0
ARC
  5
B3603
330
2
100
AcDbEntity
  8
0
370
    50
100
AcDbCircle
 10
631.0813510577218
 20
336.949052688423
 30
0.0
 40
0.83550503583335
100
AcDbArc
 50
38.63095456698149
 51
90.0
  0
ARC
  5
B3604
330
2
100
AcDbEntity
  8
0
370
    50
100
AcDbCircle
 10
631.0813510577218
 20
336.949052688423
 30
0.0
 40
0.75
100
AcDbArc
 50
39.77220568340028
 51
90.0
  0
ARC
  5
B3605
330
2
100
AcDbEntity
  8
0
370
    50
100
AcDbCircle
 10
629.2145491131471
 20
334.4425996910467
 30
0.0
 40
3.858390981428153
100
AcDbArc
 50
5.084630526982171
 51
50.71119886796804
  0
ARC
  5
B3606
330
2
100
AcDbEntity
  8
0
370
    50
100
AcDbCircle
 10
629.4386410599458
 20
334.6702607100771
 30
0.0
 40
3.620920169246632
100
AcDbArc
 50
1.808883992852472
 51
50.65968515833719
  0
ARC
  5
B3607
330
2
100
AcDbEntity
  8
0
370
    50
100
AcDbCircle
 10
633.5410190091945
 20
337.449052688423
 30
0.0
 40
0.25
100
AcDbArc
 50
90.0
 51
167.6518277674704
  0
ARC
  5
B3608
330
2
100
AcDbEntity
  8
0
370
    50
100
AcDbCircle
 10
633.5410190091945
 20
337.449052688423
 30
0.0
 40
0.3355050358333074
100
AcDbArc
 50
90.0
 51
165.5168115548244
  0
ARC
  5
B3609
330
2
100
AcDbEntity
  8
0
370
    50
100
AcDbCircle
 10
637.4411401204719
 20
335.9106650553908
 30
0.0
 40
4.525722777338538
100
AcDbArc
 50
158.994276145213
 51
194.4079188979661
  0
ARC
  5
B360A
330
2
100
AcDbEntity
  8
0
370
    50
100
AcDbCircle
 10
639.7564712331816
 20
335.5648937876433
 30
0.0
 40
6.744012071979144
100
AcDbArc
 50
163.3030243511391
 51
186.644462318815
  0
ARC
  5
B360B
330
2
100
AcDbEntity
  8
0
370
    50
100
AcDbCircle
 10
633.5410190091945
 20
337.0801344535625
 30
0.0
 40
0.625
100
AcDbArc
 50
46.11941380047867
 51
90.0
  0
ARC
  5
B360C
330
2
100
AcDbEntity
  8
0
370
    50
100
AcDbCircle
 10
633.5410190091945
 20
337.0713047197495
 30
0.0
 40
0.713253004506818
100
AcDbArc
 50
46.53608677910593
 51
90.0
  0
ARC
  5
B360D
330
2
100
AcDbEntity
  8
0
370
    50
100
AcDbCircle
 10
632.5882768680344
 20
334.884571313034
 30
0.0
 40
3.065492309872054
100
AcDbArc
 50
358.1303578564941
 51
61.91051187815113
  0
ARC
  5
B360E
330
2
100
AcDbEntity
  8
0
370
    50
100
AcDbCircle
 10
632.2872313455221
 20
334.61418766732
 30
0.0
 40
3.369216175986931
100
AcDbArc
 50
2.898493151738809
 51
59.95280037895152
  0
ARC
  5
B360F
330
2
100
AcDbEntity
  8
0
370
    50
100
AcDbCircle
 10
635.1190194169341
 20
337.5770028971927
 30
0.0
 40
0.125
100
AcDbArc
 50
102.4728842394776
 51
169.7661881790314
  0
LINE
  5
B3610
330
2
100
AcDbEntity
  8
0
370
    50
100
AcDbLine
 10
635.1190194169341
 20
337.6990526884231
 30
0.0
 11
635.1190194169341
 21
337.574052688423
 31
0.0
  0
ARC
  5
B3611
330
2
100
AcDbEntity
  8
0
370
    50
100
AcDbCircle
 10
635.1190194169341
 20
337.574052688423
 30
0.0
 40
0.2105050358333074
100
AcDbArc
 50
134.7550976866157
 51
170.8018984809207
  0
ARC
  5
B3612
330
2
100
AcDbEntity
  8
0
370
    50
100
AcDbCircle
 10
636.4340285163706
 20
337.1568066965703
 30
0.0
 40
1.504534647311076
100
AcDbArc
 50
162.8995803523338
 51
198.8864680075383
  0
ARC
  5
B3613
330
2
100
AcDbEntity
  8
0
370
    50
100
AcDbCircle
 10
637.0247515200566
 20
337.1107527274962
 30
0.0
 40
2.171167616256813
100
AcDbArc
 50
166.7685323270684
 51
187.2850282758969
  0
ARC
  5
B3614
330
2
100
AcDbEntity
  8
0
370
    50
100
AcDbCircle
 10
635.1190194169341
 20
337.574052688423
 30
0.0
 40
0.125
100
AcDbArc
 50
36.69400962251898
 51
90.0
  0
ARC
  5
B3615
330
2
100
AcDbEntity
  8
0
370
    50
100
AcDbCircle
 10
628.772320887897
 20
331.882756529263
 30
0.0
 40
8.649249189853973
100
AcDbArc
 50
19.6027914898341
 51
41.80873913310961
  0
LINE
  5
B3616
330
2
100
AcDbEntity
  8
0
370
    50
100
AcDbLine
 10
635.1190194169341
 20
337.6990526884231
 30
0.0
 11
635.0758644608505
 21
337.6990526884231
 31
0.0
  0
LINE
  5
B3617
330
2
100
AcDbEntity
  8
0
370
    50
100
AcDbLine
 10
635.1190194169341
 20
337.6990526884231
 30
0.0
 11
635.0920222233643
 21
337.6990526884231
 31
0.0
  0
LINE
  5
B3618
330
2
100
AcDbEntity
  8
0
370
    50
100
AcDbLine
 10
635.2082951685047
 20
337.6615446319466
 30
0.0
 11
635.1507067617566
 21
337.7121079643746
 31
0.0
  0
LINE
  5
B3619
330
2
100
AcDbEntity
  8
0
370
    50
100
AcDbLine
 10
635.1507067617566
 20
337.7121079643746
 30
0.0
 11
635.0838257982221
 21
337.7399944822491
 31
0.0
  0
LINE
  5
B361A
330
2
100
AcDbEntity
  8
0
370
    50
100
AcDbLine
 10
635.0838257982221
 20
337.7399944822491
 30
0.0
 11
635.0280916619436
 21
337.7466872465389
 31
0.0
  0
LINE
  5
B361B
330
2
100
AcDbEntity
  8
0
370
    50
100
AcDbLine
 10
635.0280916619436
 20
337.7466872465389
 30
0.0
 11
634.9701281602137
 21
337.7232625715244
 31
0.0
  0
LINE
  5
B361C
330
2
100
AcDbEntity
  8
0
370
    50
100
AcDbLine
 10
635.2639926649871
 20
337.7841303200153
 30
0.0
 11
635.6326724388797
 21
337.1444825174287
 31
0.0
  0
LINE
  5
B361D
330
2
100
AcDbEntity
  8
0
370
    50
100
AcDbLine
 10
635.262818381486
 20
337.7845577242563
 30
0.0
 11
635.4977415366825
 21
337.6990526884249
 31
0.0
  0
ARC
  5
B361E
330
2
100
AcDbEntity
  8
0
370
    50
100
AcDbCircle
 10
625.4245660946248
 20
330.9780586017199
 30
0.0
 40
12.10952620873335
100
AcDbArc
 50
18.32092822180201
 51
33.71189241266071
  0
ARC
  5
B361F
330
2
100
AcDbEntity
  8
0
370
    50
100
AcDbCircle
 10
625.4245660946248
 20
330.9780586017199
 30
0.0
 40
12.10952620873335
100
AcDbArc
 50
18.32092822180201
 51
33.71189241266071
  0
ARC
  5
B3620
330
2
100
AcDbEntity
  8
0
370
    50
100
AcDbCircle
 10
625.4245660946248
 20
330.9780586017199
 30
0.0
 40
12.10952620873335
100
AcDbArc
 50
18.32092822180201
 51
33.72530641107898
  0
ARC
  5
B3621
330
2
100
AcDbEntity
  8
0
370
    50
100
AcDbCircle
 10
625.4480881113771
 20
330.9429376042031
 30
0.0
 40
12.10952620873334
100
AcDbArc
 50
18.52092822180201
 51
33.91189241265929
  0
LINE
  5
B3622
330
2
100
AcDbEntity
  8
0
370
    50
100
AcDbLine
 10
633.830518381486
 20
340.5345577242564
 30
0.0
 11
634.0067107478834
 21
340.4704289473827
 31
0.0
  0
ARC
  5
B3623
330
2
100
AcDbEntity
  8
0
370
    50
100
AcDbCircle
 10
623.7649446960546
 20
334.0395481259394
 30
0.0
 40
12.09338662244782
100
AcDbArc
 50
18.0374666103889
 51
32.12501634890278
  0
ARC
  5
B3624
330
2
100
AcDbEntity
  8
0
370
    50
100
AcDbCircle
 10
628.793569203651
 20
331.8953757479397
 30
0.0
 40
8.624999999999969
100
AcDbArc
 50
19.57117706127758
 51
41.84035356166634
  0
LINE
  5
B3625
330
2
100
AcDbEntity
  8
0
370
    50
100
AcDbLine
 10
635.1171082164342
 20
337.6908174616464
 30
0.0
 11
635.1446174533984
 21
337.6862297026216
 31
0.0
  0
LINE
  5
B3626
330
2
100
AcDbEntity
  8
0
370
    50
100
AcDbLine
 10
635.1446174533984
 20
337.6862297026216
 30
0.0
 11
635.2133905458088
 21
337.6541153894479
 31
0.0
  0
ARC
  5
B3627
330
2
100
AcDbEntity
  8
0
370
    50
100
AcDbCircle
 10
637.0413717111593
 20
337.1170702739923
 30
0.0
 40
2.187500000000012
100
AcDbArc
 50
166.9011953765101
 51
186.8584642515019
  0
ARC
  5
B3628
330
2
100
AcDbEntity
  8
0
370
    50
100
AcDbCircle
 10
636.4283001814357
 20
337.14230494615
 30
0.0
 40
1.499999999999985
100
AcDbArc
 50
161.3493258437236
 51
197.52243998805
  0
ARC
  5
B3629
330
2
100
AcDbEntity
  8
0
370
    50
100
AcDbCircle
 10
635.1212450759658
 20
337.5711155016337
 30
0.0
 40
0.1250000000000062
100
AcDbArc
 50
96.11087743150314
 51
155.978175153193
  0
ARC
  5
B362A
330
2
100
AcDbEntity
  8
0
370
    50
100
AcDbCircle
 10
635.0974122374314
 20
337.5855853632186
 30
0.0
 40
0.1875000000000028
100
AcDbArc
 50
132.753719291455
 51
173.2260063013407
  0
ARC
  5
B362B
330
2
100
AcDbEntity
  8
0
370
    50
100
AcDbCircle
 10
635.0392033515781
 20
337.648547181209
 30
0.0
 40
0.1017534845201655
100
AcDbArc
 50
63.98956540365432
 51
132.7537192914458
  0
ARC
  5
B362C
330
2
100
AcDbEntity
  8
0
370
    50
100
AcDbCircle
 10
634.785676932686
 20
337.1289811669347
 30
0.0
 40
0.6798750013876768
100
AcDbArc
 50
51.56607700246258
 51
63.98956540366888
  0
ARC
  5
B362D
330
2
100
AcDbEntity
  8
0
370
    50
100
AcDbCircle
 10
633.5572765343656
 20
337.0742641699023
 30
0.0
 40
0.6249999999999854
100
AcDbArc
 50
62.05404921395458
 51
91.49054824711992
  0
ARC
  5
B362E
330
2
100
AcDbEntity
  8
0
370
    50
100
AcDbCircle
 10
632.257588417803
 20
334.6243337225577
 30
0.0
 40
3.398328036341902
100
AcDbArc
 50
2.70237702620049
 51
62.05404921395458
  0
ARC
  5
B362F
330
2
100
AcDbEntity
  8
0
370
    50
100
AcDbCircle
 10
639.7625619403408
 20
335.5643581083295
 30
0.0
 40
6.749999999999984
100
AcDbArc
 50
163.3135228649615
 51
186.633963852922
  0
ARC
  5
B3630
330
2
100
AcDbEntity
  8
0
370
    50
100
AcDbCircle
 10
633.5410190091945
 20
337.449052688423
 30
0.0
 40
0.2499999999999863
100
AcDbArc
 50
90.0
 51
167.6518277674736
  0
ARC
  5
B3631
330
2
100
AcDbEntity
  8
0
370
    50
100
AcDbCircle
 10
629.4346222160204
 20
334.6682802057765
 30
0.0
 40
3.625000000000245
100
AcDbArc
 50
1.838166635434737
 51
50.63040251545453
  0
ARC
  5
B3632
330
2
100
AcDbEntity
  8
0
370
    50
100
AcDbCircle
 10
631.0813510577218
 20
336.9490526884229
 30
0.0
 40
0.7500000000001137
100
AcDbArc
 50
39.77220568340278
 51
89.99999999999349
  0
ARC
  5
B3633
330
2
100
AcDbEntity
  8
0
370
    50
100
AcDbCircle
 10
629.1986306642506
 20
334.4341720479726
 30
0.0
 40
3.875000000000063
100
AcDbArc
 50
5.187891227439264
 51
50.60793816749932
  0
ARC
  5
B3634
330
2
100
AcDbEntity
  8
0
370
    50
100
AcDbCircle
 10
631.0813510577218
 20
337.074052688423
 30
0.0
 40
0.6250000000000023
100
AcDbArc
 50
90.0
 51
153.363456928667
  0
ARC
  5
B3635
330
2
100
AcDbEntity
  8
0
370
    50
100
AcDbCircle
 10
626.0336621235552
 20
329.9010137774128
 30
0.0
 40
12.12499999999998
100
AcDbArc
 50
7.742734118726836
 51
23.31054612688841
  0
ARC
  5
B3636
330
2
100
AcDbEntity
  8
0
370
    50
100
AcDbCircle
 10
628.5926782882523
 20
333.1499184830131
 30
0.0
 40
8.500000000000042
100
AcDbArc
 50
0.0649750540378156
 51
11.08765307956885
  0
LINE
  5
B3637
330
2
100
AcDbEntity
  8
0
370
    50
100
AcDbLine
 10
636.934018381486
 20
334.7845577242563
 30
0.0
 11
637.1689415366825
 21
334.6990526884248
 31
0.0
  0
ARC
  5
B3638
330
2
100
AcDbEntity
  8
0
370
    50
100
AcDbCircle
 10
627.4692926584507
 20
333.7094509306367
 30
0.0
 40
9.749999999999989
100
AcDbArc
 50
355.3927738805478
 51
5.825416400619324
  0
ARC
  5
B3639
330
2
100
AcDbEntity
  8
0
370
    50
100
AcDbCircle
 10
632.3121027130444
 20
331.1121616221041
 30
0.0
 40
5.18750000000002
100
AcDbArc
 50
3.775478085601595
 51
42.09062538458238
  0
ARC
  5
B363A
330
2
100
AcDbEntity
  8
0
370
    50
100
AcDbCircle
 10
635.8684084771129
 20
334.2647114235883
 30
0.0
 40
0.4374999999999888
100
AcDbArc
 50
47.90860394608175
 51
93.00476379492966
  0
ARC
  5
B363B
330
2
100
AcDbEntity
  8
0
370
    50
100
AcDbCircle
 10
635.832469826468
 20
334.4097833107478
 30
0.0
 40
0.3749999999999951
100
AcDbArc
 50
28.61342471670186
 51
88.01253122157438
  0
ARC
  5
B363C
330
2
100
AcDbEntity
  8
0
370
    50
100
AcDbCircle
 10
689.9874248138631
 20
326.3144394034873
 30
0.0
 40
54.99999999999986
100
AcDbArc
 50
171.4557579459917
 51
174.6119194743515
  0
ARC
  5
B363D
330
2
100
AcDbEntity
  8
0
370
    50
100
AcDbCircle
 10
635.8454751707279
 20
334.4516099397888
 30
0.0
 40
0.2499999999999976
100
AcDbArc
 50
89.99999999998046
 51
172.1031592910583
  0
ARC
  5
B363E
330
2
100
AcDbEntity
  8
0
370
    50
100
AcDbCircle
 10
652.355213024964
 20
331.3906090546181
 30
0.0
 40
17.12499999999996
100
AcDbArc
 50
169.5477755903934
 51
179.7042474920517
  0
ARC
  5
B363F
330
2
100
AcDbEntity
  8
0
370
    50
100
AcDbCircle
 10
635.8259002988079
 20
334.4726714078054
 30
0.0
 40
0.3125000000000053
100
AcDbArc
 50
86.40866467340281
 51
175.4703803099927
  0
ARC
  5
B3640
330
2
100
AcDbEntity
  8
0
370
    50
100
AcDbCircle
 10
633.2044795532144
 20
334.3259372775306
 30
0.0
 40
0.3749999999999759
100
AcDbArc
 50
95.74661872701986
 51
121.4234053321969
  0
ARC
  5
B3641
330
2
100
AcDbEntity
  8
0
370
    50
100
AcDbCircle
 10
633.1539870882542
 20
334.0116745509525
 30
0.0
 40
0.6875000000000268
100
AcDbArc
 50
45.04055424319228
 51
88.92119541058649
  0
ARC
  5
B3642
330
2
100
AcDbEntity
  8
0
370
    50
100
AcDbCircle
 10
631.8588777382251
 20
331.6312717252034
 30
0.0
 40
3.374999999999996
100
AcDbArc
 50
357.4141693532843
 51
58.15154332506789
  0
ARC
  5
B3643
330
2
100
AcDbEntity
  8
0
370
    50
100
AcDbCircle
 10
635.9305624787687
 20
331.5593877436966
 30
0.0
 40
4.250000000000114
100
AcDbArc
 50
133.4272880856705
 51
179.8321431269555
  0
ARC
  5
B3644
330
2
100
AcDbEntity
  8
0
370
    50
100
AcDbCircle
 10
635.674801144144
 20
331.7867880154284
 30
0.0
 40
4.000000000000201
100
AcDbArc
 50
135.3437650054572
 51
183.0804050469402
  0
ARC
  5
B3645
330
2
100
AcDbEntity
  8
0
370
    50
100
AcDbCircle
 10
633.1669310492066
 20
334.0345577242561
 30
0.0
 40
0.7500000000000142
100
AcDbArc
 50
48.36710877931292
 51
90.0
  0
ARC
  5
B3646
330
2
100
AcDbEntity
  8
0
370
    50
100
AcDbCircle
 10
631.8311044108483
 20
331.8367225411213
 30
0.0
 40
3.312500000000009
100
AcDbArc
 50
23.53732954299622
 51
56.37957022632901
  0
ARC
  5
B3647
330
2
100
AcDbEntity
  8
0
370
    50
100
AcDbCircle
 10
633.1536915981367
 20
334.4097915078821
 30
0.0
 40
0.3750000000000013
100
AcDbArc
 50
87.97674041533726
 51
149.840605637645
  0
ARC
  5
B3648
330
2
100
AcDbEntity
  8
0
370
    50
100
AcDbCircle
 10
628.4981607774138
 20
331.751726435452
 30
0.0
 40
3.187500000000013
100
AcDbArc
 50
356.4586694038103
 51
59.19637073667108
  0
ARC
  5
B3649
330
2
100
AcDbEntity
  8
0
370
    50
100
AcDbCircle
 10
628.3242876900334
 20
331.7773456461843
 30
0.0
 40
3.375000000000011
100
AcDbArc
 50
356.2144965393206
 51
56.83329387243157
  0
ARC
  5
B364A
330
2
100
AcDbEntity
  8
0
370
    50
100
AcDbCircle
 10
640.0945604015946
 20
330.4641222268126
 30
0.0
 40
2.312499999999995
100
AcDbArc
 50
152.4261819604473
 51
162.5022410407714
  0
LINE
  5
B364B
330
2
100
AcDbEntity
  8
0
370
    50
100
AcDbLine
 10
638.0447252629036
 20
331.5345577242563
 30
0.0
 11
638.2778815414477
 21
331.430532980833
 31
0.0
  0
ARC
  5
B364C
330
2
100
AcDbEntity
  8
0
370
    50
100
AcDbCircle
 10
637.7587853626631
 20
331.3760607456532
 30
0.0
 40
0.0973827211959459
100
AcDbArc
 50
42.87541749579001
 51
126.731151620631
  0
LINE
  5
B364D
330
2
100
AcDbEntity
  8
0
370
    50
100
AcDbLine
 10
637.6603820345591
 20
331.5716232622837
 30
0.0
 11
637.7335409038257
 21
331.5716232622837
 31
0.0
  0
ARC
  5
B364E
330
2
100
AcDbEntity
  8
0
370
    50
100
AcDbCircle
 10
637.7193444795778
 20
331.5107569206935
 30
0.0
 40
0.0624999999999958
100
AcDbArc
 50
351.1334973022405
 51
76.87108612974332
  0
LINE
  5
B364F
330
2
100
AcDbEntity
  8
0
370
    50
100
AcDbLine
 10
637.7810976137356
 20
331.5011236231435
 30
0.0
 11
637.8268428285961
 21
331.3552742532451
 31
0.0
  0
ARC
  5
B3650
330
2
100
AcDbEntity
  8
0
370
    50
100
AcDbCircle
 10
635.3915552714116
 20
331.0309004583949
 30
0.0
 40
0.3764722690508333
100
AcDbArc
 50
51.57404393967411
 51
136.4154789620484
  0
ARC
  5
B3651
330
2
100
AcDbEntity
  8
0
370
    50
100
AcDbCircle
 10
635.3191507147077
 20
331.0386336222135
 30
0.0
 40
0.4374999999999942
100
AcDbArc
 50
40.80188635057417
 51
131.7196827729205
  0
ARC
  5
B3652
330
2
100
AcDbEntity
  8
0
370
    50
100
AcDbCircle
 10
631.7574699009781
 20
330.8772746703762
 30
0.0
 40
0.6249999999999872
100
AcDbArc
 50
37.3958800850025
 51
139.6908854379745
  0
ARC
  5
B3653
330
2
100
AcDbEntity
  8
0
370
    50
100
AcDbCircle
 10
631.7105937239976
 20
330.947559800462
 30
0.0
 40
0.6249999999999956
100
AcDbArc
 50
29.7398782062789
 51
133.4375505406655
  0
LINE
  5
B3654
330
2
100
AcDbEntity
  8
0
370
    50
100
AcDbLine
 10
635.5691317065962
 20
337.2262135861548
 30
0.0
 11
635.2639926649871
 21
337.7841303200153
 31
0.0
  0
LINE
  5
B3655
330
2
100
AcDbEntity
  8
0
370
    50
100
AcDbLine
 10
635.2639926649871
 20
337.7841303200153
 30
0.0
 11
635.4977415366825
 21
337.6990526884249
 31
0.0
  0
ARC
  5
B3656
330
2
100
AcDbEntity
  8
0
370
    50
100
AcDbCircle
 10
625.3174169503804
 20
331.112960044259
 30
0.0
 40
12.125
100
AcDbArc
 50
21.07779095872769
 51
32.90057653126386
  0
ARC
  5
B3657
330
2
100
AcDbEntity
  8
0
370
    50
100
AcDbCircle
 10
637.6887854249611
 20
335.8410019100945
 30
0.0
 40
4.749999999999987
100
AcDbArc
 50
156.9727682737093
 51
192.8505821657314
  0
ARC
  5
B3658
330
2
100
AcDbEntity
  8
0
370
    50
100
AcDbCircle
 10
633.5321799215779
 20
337.4721827564212
 30
0.0
 40
0.3125000000000028
100
AcDbArc
 50
88.37916809913355
 51
133.4492514334392
  0
ARC
  5
B3659
330
2
100
AcDbEntity
  8
0
370
    50
100
AcDbCircle
 10
633.5853336651858
 20
337.0984874208143
 30
0.0
 40
0.687500000000033
100
AcDbArc
 50
45.87526404614715
 51
93.69571527737509
  0
ARC
  5
B365A
330
2
100
AcDbEntity
  8
0
370
    50
100
AcDbCircle
 10
632.2776024342918
 20
334.7285234534249
 30
0.0
 40
3.374999999999989
100
AcDbArc
 50
0.951311034790277
 51
58.04189156555449
  0
ARC
  5
B365B
330
2
100
AcDbEntity
  8
0
370
    50
100
AcDbCircle
 10
631.0924514505867
 20
336.9721335547005
 30
0.0
 40
0.8125000000003257
100
AcDbArc
 50
37.84815401442262
 51
90.7828005525206
  0
ARC
  5
B365C
330
2
100
AcDbEntity
  8
0
370
    50
100
AcDbCircle
 10
631.0813510577218
 20
337.074052688423
 30
0.0
 40
0.6250000000000023
100
AcDbArc
 50
90.0
 51
153.363456928667
  0
ARC
  5
B365D
330
2
100
AcDbEntity
  8
0
370
    50
100
AcDbCircle
 10
623.7909858014344
 20
334.0561581339138
 30
0.0
 40
12.06249999999998
100
AcDbArc
 50
18.00440554973626
 51
32.12397607200765
  0
LINE
  5
B365E
330
2
100
AcDbEntity
  8
0
370
    50
100
AcDbLine
 10
633.8413608450103
 20
340.5306113902673
 30
0.0
 11
634.0067107478834
 21
340.4704289473827
 31
0.0
  0
ARC
  5
B365F
330
2
100
AcDbEntity
  8
0
370
    50
100
AcDbCircle
 10
631.1423110264353
 20
338.9349439309245
 30
0.0
 40
3.249999999999958
100
AcDbArc
 50
3.962981387158442
 51
28.19389960970689
  0
ARC
  5
B3660
330
2
100
AcDbEntity
  8
0
370
    50
100
AcDbCircle
 10
631.8942861734033
 20
339.1706388820208
 30
0.0
 40
2.374999999999945
100
AcDbArc
 50
6.364801891613367
 51
34.93312938955558
  0
ARC
  5
B3661
330
2
100
AcDbEntity
  8
0
370
    50
100
AcDbCircle
 10
629.9975202254009
 20
336.8115488987354
 30
0.0
 40
4.999999999999958
100
AcDbArc
 50
11.2214607629538
 51
46.4552371354746
  0
ARC
  5
B3662
330
2
100
AcDbEntity
  8
0
370
    50
100
AcDbCircle
 10
634.976954030224
 20
337.7994417112753
 30
0.0
 40
0.0764843371848688
100
AcDbArc
 50
191.2214607629569
 51
264.8798069493552
  0
ARC
  5
B3663
330
2
100
AcDbEntity
  8
0
370
    50
100
AcDbCircle
 10
635.9423967446494
 20
339.4805877721358
 30
0.0
 40
3.062500000000025
100
AcDbArc
 50
164.2908611503711
 51
180.6870252792992
  0
ARC
  5
B3664
330
2
100
AcDbEntity
  8
0
370
    50
100
AcDbCircle
 10
633.2430107336566
 20
340.2845577242564
 30
0.0
 40
0.2500000000000089
100
AcDbArc
 50
37.20668331019412
 51
174.2114989831474
  0
ARC
  5
B3665
330
2
100
AcDbEntity
  8
0
370
    50
100
AcDbCircle
 10
631.6973695022205
 20
339.9704289473826
 30
0.0
 40
0.5625000000001848
100
AcDbArc
 50
37.49812451871761
 51
89.99999999998697
  0
ARC
  5
B3666
330
2
100
AcDbEntity
  8
0
370
    50
100
AcDbCircle
 10
629.8291040603431
 20
337.6046475730207
 30
0.0
 40
3.562500000000107
100
AcDbArc
 50
2.894730933982394
 51
49.48140115223587
  0
ARC
  5
B3667
330
2
100
AcDbEntity
  8
0
370
    50
100
AcDbCircle
 10
638.4224012019632
 20
338.0608166839679
 30
0.0
 40
7.374999999999972
100
AcDbArc
 50
162.3721768229989
 51
182.14673578885
  0
ARC
  5
B3668
330
2
100
AcDbEntity
  8
0
370
    50
100
AcDbCircle
 10
631.6973695022206
 20
340.2204289473827
 30
0.0
 40
0.3125000000000032
100
AcDbArc
 50
90.0
 51
166.3439286295948
  0
ARC
  5
B3669
330
2
100
AcDbEntity
  8
0
370
    50
100
AcDbCircle
 10
627.1507504718345
 20
337.8041898779469
 30
0.0
 40
3.875000000000005
100
AcDbArc
 50
359.7097175841703
 51
39.9187081685244
  0
LINE
  5
B366A
330
2
100
AcDbEntity
  8
0
370
    50
100
AcDbLine
 10
635.1171082164342
 20
337.6908174616464
 30
0.0
 11
635.1446174533984
 21
337.6862297026216
 31
0.0
  0
LINE
  5
B366B
330
2
100
AcDbEntity
  8
0
370
    50
100
AcDbLine
 10
635.1446174533984
 20
337.6862297026216
 30
0.0
 11
635.2133905458088
 21
337.6541153894479
 31
0.0
  0
ARC
  5
B366C
330
2
100
AcDbEntity
  8
0
370
    50
100
AcDbCircle
 10
635.0974122374314
 20
337.5855853632186
 30
0.0
 40
0.1875000000000028
100
AcDbArc
 50
132.753719291455
 51
173.2260063013407
  0
ARC
  5
B366D
330
2
100
AcDbEntity
  8
0
370
    50
100
AcDbCircle
 10
635.0392033515781
 20
337.648547181209
 30
0.0
 40
0.1017534845201655
100
AcDbArc
 50
63.98956540365432
 51
132.7537192914458
  0
ARC
  5
B366E
330
2
100
AcDbEntity
  8
0
370
    50
100
AcDbCircle
 10
634.785676932686
 20
337.1289811669347
 30
0.0
 40
0.6798750013876768
100
AcDbArc
 50
51.56607700246258
 51
63.98956540366888
  0
ARC
  5
B366F
330
2
100
AcDbEntity
  8
0
370
    50
100
AcDbCircle
 10
631.0924514505867
 20
336.9721335547005
 30
0.0
 40
0.8125000000003257
100
AcDbArc
 50
37.84815401442262
 51
90.7828005525206
  0
ARC
  5
B3670
330
2
100
AcDbEntity
  8
0
370
    50
100
AcDbCircle
 10
631.0813510577218
 20
337.074052688423
 30
0.0
 40
0.6250000000000023
100
AcDbArc
 50
90.0
 51
153.363456928667
  0
ARC
  5
B3671
330
2
100
AcDbEntity
  8
0
370
    50
100
AcDbCircle
 10
631.0669641231876
 20
337.097208274475
 30
0.0
 40
0.687499999999993
100
AcDbArc
 50
88.8009151942151
 51
154.9057705120508
  0
ARC
  5
B3674
330
2
100
AcDbEntity
  8
0
 62
     7
370
    50
100
AcDbCircle
 10
627.9311517095497
 20
343.0431632297881
 30
0.0
 40
2.474520123772419
100
AcDbArc
 50
353.933989332526
 51
36.6364940310173
  0
ARC
  5
B3676
330
2
100
AcDbEntity
  8
0
 62
     7
370
    50
100
AcDbCircle
 10
627.8973280816727
 20
343.065701706166
 30
0.0
 40
2.500000000000004
100
AcDbArc
 50
354.1193363975222
 51
36.21381895015003
  0
ARC
  5
B3678
330
2
100
AcDbEntity
  8
0
 62
     7
370
    50
100
AcDbCircle
 10
629.692418381486
 20
344.4095577242573
 30
0.0
 40
0.25
100
AcDbArc
 50
26.16540352524835
 51
90.0
  0
LINE
  5
B3679
330
2
100
AcDbEntity
  8
0
370
    50
100
AcDbLine
 10
628.0368182071039
 20
344.6582150365977
 30
0.0
 11
627.9937420341541
 21
344.6582150365977
 31
0.0
  0
ARC
  5
B367A
330
2
100
AcDbEntity
  8
0
370
    50
100
AcDbCircle
 10
625.7412781478789
 20
344.8901449222826
 30
0.0
 40
2.054223003276411
100
AcDbArc
 50
342.0242855005797
 51
353.5549467842084
  0
ARC
  5
B367B
330
2
100
AcDbEntity
  8
0
370
    50
100
AcDbCircle
 10
621.978914823577
 20
345.75348919267
 30
0.0
 40
5.798643039973225
100
AcDbArc
 50
341.7982263003283
 51
348.6953423195646
  0
ARC
  5
B367C
330
2
100
AcDbEntity
  8
0
370
    50
100
AcDbCircle
 10
632.4033933492231
 20
341.0028667346927
 30
0.0
 40
5.727704245920015
100
AcDbArc
 50
140.3432140311293
 51
161.8765478623627
  0
ARC
  5
B367D
330
2
100
AcDbEntity
  8
0
370
    50
100
AcDbCircle
 10
623.6836169244862
 20
344.4661246093275
 30
0.0
 40
4.404471549192475
100
AcDbArc
 50
350.1483967050544
 51
1.64530135086157
  0
ARC
  5
B367E
330
2
100
AcDbEntity
  8
0
370
    50
100
AcDbCircle
 10
628.0239328220816
 20
344.5970577242563
 30
0.0
 40
0.0625
100
AcDbArc
 50
355.8968490279727
 51
146.2255444636462
  0
ARC
  5
B367F
330
2
100
AcDbEntity
  8
0
 62
     7
370
    50
100
AcDbCircle
 10
625.6654508639582
 20
343.5329805214014
 30
0.0
 40
3.410697092859849
100
AcDbArc
 50
2.95349201137396
 51
16.53910004208087
  0
ARC
  5
B3680
330
2
100
AcDbEntity
  8
0
370
    50
100
AcDbCircle
 10
631.0436874537741
 20
342.3350697272214
 30
0.0
 40
3.319805101916769
100
AcDbArc
 50
137.5563619771071
 51
172.2184865617412
  0
ARC
  5
B3681
330
2
100
AcDbEntity
  8
0
 62
     7
370
    50
100
AcDbCircle
 10
625.6654508639582
 20
343.5329805214014
 30
0.0
 40
3.410697092859849
100
AcDbArc
 50
347.3242105956678
 51
347.8690528492085
  0
ARC
  5
B3682
330
2
100
AcDbEntity
  8
0
370
    50
100
AcDbCircle
 10
628.7502567193012
 20
344.4720577242563
 30
0.0
 40
0.1875
100
AcDbArc
 50
9.778385051116039
 51
146.5209490575294
  0
ARC
  5
B3683
330
2
100
AcDbEntity
  8
0
 62
     7
370
    50
100
AcDbCircle
 10
631.4536850534222
 20
343.0431632297881
 30
0.0
 40
2.474520123772419
100
AcDbArc
 50
143.36350596898
 51
186.066010667474
  0
ARC
  5
B3684
330
2
100
AcDbEntity
  8
0
 62
     7
370
    50
100
AcDbCircle
 10
629.692418381486
 20
344.4095577242573
 30
0.0
 40
0.25
100
AcDbArc
 50
90.0
 51
153.8345964747428
  0
LINE
  5
B3685
330
2
100
AcDbEntity
  8
0
370
    50
100
AcDbLine
 10
626.6116260150886
 20
342.7204289473827
 30
0.0
 11
626.4674360446344
 21
342.3093862576344
 31
0.0
  0
ARC
  5
B3686
330
2
100
AcDbEntity
  8
0
370
    50
100
AcDbCircle
 10
629.5543743294425
 20
341.2876356762683
 30
0.0
 40
3.160523789553691
100
AcDbArc
 50
151.8877799890562
 51
156.5372271452331
  0
ARC
  5
B3687
330
2
100
AcDbEntity
  8
0
370
    50
100
AcDbCircle
 10
614.9205347226386
 20
345.263287576397
 30
0.0
 40
12.30247029216613
100
AcDbArc
 50
344.7309552083621
 51
347.9491546386725
  0
ARC
  5
B3688
330
2
100
AcDbEntity
  8
0
370
    50
100
AcDbCircle
 10
626.8824816997549
 20
342.7128024611604
 30
0.0
 40
0.0717112569094738
100
AcDbArc
 50
345.4462817687962
 51
104.332450928671
  0
ARC
  5
B3689
330
2
100
AcDbEntity
  8
0
370
    50
100
AcDbCircle
 10
626.9083583383799
 20
341.9948024386187
 30
0.0
 40
1.137780688665199
100
AcDbArc
 50
342.5884896206111
 51
36.80834751950136
  0
ARC
  5
B368A
330
2
100
AcDbEntity
  8
0
370
    50
100
AcDbCircle
 10
627.6494736101061
 20
342.5970577242557
 30
0.0
 40
0.1875
100
AcDbArc
 50
25.06542754822376
 51
138.5564418314332
  0
ARC
  5
B368B
330
2
100
AcDbEntity
  8
0
 62
     7
370
    50
100
AcDbCircle
 10
628.9551341004534
 20
342.5345577242568
 30
0.0
 40
0.25
100
AcDbArc
 50
19.85931591880736
 51
142.5218007473694
  0
LINE
  5
B368C
330
2
100
AcDbEntity
  8
0
370
    50
100
AcDbLine
 10
627.7825183814861
 20
344.6595577242563
 30
0.0
 11
628.870552684862
 21
346.2292390182383
 31
0.0
  0
ARC
  5
B368D
330
2
100
AcDbEntity
  8
0
 62
     7
370
    50
100
AcDbCircle
 10
629.692418381486
 20
345.6595577242564
 30
0.0
 40
1.0
100
AcDbArc
 50
90.0
 51
145.2719955959791
  0
ARC
  5
B368E
330
2
100
AcDbEntity
  8
0
370
    50
100
AcDbCircle
 10
643.3912574735892
 20
335.7991982641889
 30
0.0
 40
18.02951967441174
100
AcDbArc
 50
150.7208551069175
 51
157.2311720590567
  0
LINE
  5
B368F
330
2
100
AcDbEntity
  8
0
370
    50
100
AcDbLine
 10
627.7825183814861
 20
344.6595577242563
 30
0.0
 11
627.6650568038877
 21
344.6168052063406
 31
0.0
  0
LINE
  5
B3690
330
2
100
AcDbEntity
  8
0
370
    50
100
AcDbLine
 10
626.7667089445888
 20
342.7768745175636
 30
0.0
 11
626.6116260150886
 21
342.7204289473827
 31
0.0
  0
ARC
  5
B3691
330
2
100
AcDbEntity
  8
0
 62
     7
370
    50
100
AcDbCircle
 10
628.9551341004534
 20
342.5345577242568
 30
0.0
 40
0.2500000000000123
100
AcDbArc
 50
19.85931591879902
 51
142.5218007473629
  0
ARC
  5
B3692
330
2
100
AcDbEntity
  8
0
370
    50
100
AcDbCircle
 10
626.9219631527047
 20
341.9979770864862
 30
0.0
 40
1.12500000000008
100
AcDbArc
 50
349.1755372739981
 51
37.09403456777709
  0
ARC
  5
B3693
330
2
100
AcDbEntity
  8
0
370
    50
100
AcDbCircle
 10
627.6494736101061
 20
342.5970577242557
 30
0.0
 40
0.1874999999999953
100
AcDbArc
 50
25.06542754822376
 51
138.5564418314332
  0
ARC
  5
B3694
330
2
100
AcDbEntity
  8
0
370
    50
100
AcDbCircle
 10
614.9107843980917
 20
345.265654908991
 30
0.0
 40
12.31250000000001
100
AcDbArc
 50
344.7580039930867
 51
347.9478540242657
  0
ARC
  5
B3695
330
2
100
AcDbEntity
  8
0
370
    50
100
AcDbCircle
 10
626.9014822435662
 20
342.7317297691769
 30
0.0
 40
0.0625000000000043
100
AcDbArc
 50
323.7606803112935
 51
126.0180523861805
  0
LINE
  5
B3696
330
2
100
AcDbEntity
  8
0
370
    50
100
AcDbLine
 10
626.6552604319752
 20
342.5462258533499
 30
0.0
 11
626.7667089445886
 21
342.7768745175636
 31
0.0
  0
LINE
  5
B3697
330
2
100
AcDbEntity
  8
0
370
    50
100
AcDbLine
 10
626.7667089445886
 20
342.7768745175636
 30
0.0
 11
626.6116260150886
 21
342.7204289473827
 31
0.0
  0
LINE
  5
B3698
330
2
100
AcDbEntity
  8
0
370
    50
100
AcDbLine
 10
626.6116260150886
 20
342.7204289473827
 30
0.0
 11
626.4674360446342
 21
342.3093862576342
 31
0.0
  0
ARC
  5
B3699
330
2
100
AcDbEntity
  8
0
 62
     7
370
    50
100
AcDbCircle
 10
629.6821907486405
 20
344.4097670208145
 30
0.0
 40
0.2499999999999963
100
AcDbArc
 50
87.65534487333331
 51
147.8768018226675
  0
ARC
  5
B369A
330
2
100
AcDbEntity
  8
0
 62
     7
370
    50
100
AcDbCircle
 10
631.4875086812993
 20
343.065701706166
 30
0.0
 40
2.500000000000004
100
AcDbArc
 50
143.7861810498499
 51
185.8806636024777
  0
ARC
  5
B369B
330
2
100
AcDbEntity
  8
0
 62
     7
370
    50
100
AcDbCircle
 10
625.6388646342088
 20
343.528360320321
 30
0.0
 40
3.437500000000059
100
AcDbArc
 50
3.230232762121034
 51
16.4867754797658
  0
ARC
  5
B369C
330
2
100
AcDbEntity
  8
0
370
    50
100
AcDbCircle
 10
628.7502567193012
 20
344.4720577242563
 30
0.0
 40
0.1875000000000132
100
AcDbArc
 50
9.778385051109619
 51
146.5209490575294
  0
ARC
  5
B369D
330
2
100
AcDbEntity
  8
0
370
    50
100
AcDbCircle
 10
631.0367575288313
 20
342.3383177962604
 30
0.0
 40
3.31249999999999
100
AcDbArc
 50
137.5169273251642
 51
172.2579212136835
  0
ARC
  5
B369E
330
2
100
AcDbEntity
  8
0
370
    50
100
AcDbCircle
 10
619.2758154374419
 20
344.7823234013666
 30
0.0
 40
8.812500000000019
100
AcDbArc
 50
353.0274012353681
 51
358.7662968205443
  0
ARC
  5
B369F
330
2
100
AcDbEntity
  8
0
370
    50
100
AcDbCircle
 10
628.0248220159291
 20
344.6039906441819
 30
0.0
 40
0.0624999999999953
100
AcDbArc
 50
349.4858110411854
 51
119.8201895595452
  0
ARC
  5
B36A0
330
2
100
AcDbEntity
  8
0
370
    50
100
AcDbCircle
 10
632.4232627597905
 20
340.9919027011361
 30
0.0
 40
5.750000000000051
100
AcDbArc
 50
140.385457503795
 51
161.8343043896993
  0
ARC
  5
B36A1
330
2
100
AcDbEntity
  8
0
370
    50
100
AcDbCircle
 10
625.7331436166317
 20
344.8918707096416
 30
0.0
 40
2.062499999999968
100
AcDbArc
 50
342.5112771333483
 51
353.5326736140969
  0
LINE
  5
B36A2
330
2
100
AcDbEntity
  8
0
370
    50
100
AcDbLine
 10
627.7825183814859
 20
344.6595577242562
 30
0.0
 11
627.6650568038877
 21
344.6168052063406
 31
0.0
  0
ARC
  5
B36A3
330
2
100
AcDbEntity
  8
0
370
    50
100
AcDbCircle
 10
643.3646911947416
 20
335.8121768783806
 30
0.0
 40
17.99999999999998
100
AcDbArc
 50
150.7155327260858
 51
157.2100120343053
  0
ARC
  5
B36A4
330
2
100
AcDbEntity
  8
0
370
    50
100
AcDbCircle
 10
621.9654904539416
 20
345.7570243399114
 30
0.0
 40
5.812499999999899
100
AcDbArc
 50
341.8064575454669
 51
348.687111074427
  0
ARC
  5
B36A5
330
2
100
AcDbEntity
  8
0
 62
     7
370
    50
100
AcDbCircle
 10
629.692418381486
 20
345.6595577242562
 30
0.0
 40
1.000000000000014
100
AcDbArc
 50
90.0
 51
145.2719955959791
  0
LINE
  5
B36A6
330
2
100
AcDbEntity
  8
0
370
    50
100
AcDbLine
 10
628.870552684862
 20
346.2292390182383
 30
0.0
 11
627.7825183814858
 21
344.6595577242562
 31
0.0
  0
ARC
  5
B36A7
330
2
100
AcDbEntity
  8
0
 62
     7
370
    50
100
AcDbCircle
 10
629.7026460143314
 20
344.4097670208145
 30
0.0
 40
0.2499999999999963
100
AcDbArc
 50
32.12319817733246
 51
92.3446551266667
  0
LINE
  5
B36A8
330
2
100
AcDbEntity
  8
0
370
    50
100
AcDbLine
 10
632.6181278183833
 20
342.7768745175636
 30
0.0
 11
632.7732107478833
 21
342.7204289473827
 31
0.0
  0
LINE
  5
B36A9
330
2
100
AcDbEntity
  8
0
 62
     7
370
    50
100
AcDbLine
 10
631.602318381486
 20
344.6595577242563
 30
0.0
 11
631.7197799590842
 21
344.6168052063406
 31
0.0
  0
ARC
  5
B36AA
330
2
100
AcDbEntity
  8
0
370
    50
100
AcDbCircle
 10
615.9935792893828
 20
335.7991982641889
 30
0.0
 40
18.02951967441174
100
AcDbArc
 50
22.76882794094323
 51
29.2791448930825
  0
LINE
  5
B36AB
330
2
100
AcDbEntity
  8
0
 62
     7
370
    50
100
AcDbLine
 10
631.602318381486
 20
344.6595577242563
 30
0.0
 11
630.5142840781098
 21
346.2292390182383
 31
0.0
  0
ARC
  5
B36AC
330
2
100
AcDbEntity
  8
0
 62
     7
370
    50
100
AcDbCircle
 10
630.4297026625185
 20
342.5345577242568
 30
0.0
 40
0.25
100
AcDbArc
 50
37.47819925263051
 51
160.1406840811926
  0
ARC
  5
B36AD
330
2
100
AcDbEntity
  8
0
 62
     7
370
    50
100
AcDbCircle
 10
631.7353631528658
 20
342.5970577242557
 30
0.0
 40
0.1875
100
AcDbArc
 50
41.44355816856672
 51
154.9345724517819
  0
ARC
  5
B36AE
330
2
100
AcDbEntity
  8
0
370
    50
100
AcDbCircle
 10
632.476478424592
 20
341.9948024386187
 30
0.0
 40
1.137780688665199
100
AcDbArc
 50
143.1916524804986
 51
197.4115103793889
  0
ARC
  5
B36AF
330
2
100
AcDbEntity
  8
0
370
    50
100
AcDbCircle
 10
632.5023550632171
 20
342.7128024611604
 30
0.0
 40
0.0717112569094738
100
AcDbArc
 50
75.66754907132899
 51
194.5537182312037
  0
ARC
  5
B36B0
330
2
100
AcDbEntity
  8
0
370
    50
100
AcDbCircle
 10
644.4643020403333
 20
345.263287576397
 30
0.0
 40
12.30247029216613
100
AcDbArc
 50
192.0508453613273
 51
195.2690447916378
  0
ARC
  5
B36B1
330
2
100
AcDbEntity
  8
0
370
    50
100
AcDbCircle
 10
629.8304624335294
 20
341.2876356762683
 30
0.0
 40
3.160523789553691
100
AcDbArc
 50
23.46277285476684
 51
28.11222001094377
  0
LINE
  5
B36B2
330
2
100
AcDbEntity
  8
0
370
    50
100
AcDbLine
 10
632.7732107478833
 20
342.7204289473827
 30
0.0
 11
632.9174007183377
 21
342.3093862576344
 31
0.0
  0
ARC
  5
B36B3
330
2
100
AcDbEntity
  8
0
 62
     7
370
    50
100
AcDbCircle
 10
630.6345800436708
 20
344.4720577242563
 30
0.0
 40
0.1875
100
AcDbArc
 50
33.47905094247053
 51
170.2216149488839
  0
ARC
  5
B36B4
330
2
100
AcDbEntity
  8
0
 62
     7
370
    50
100
AcDbCircle
 10
633.7193858990137
 20
343.5329805214014
 30
0.0
 40
3.410697092859849
100
AcDbArc
 50
192.1309471507914
 51
192.6757894043321
  0
ARC
  5
B36B5
330
2
100
AcDbEntity
  8
0
 62
     7
370
    50
100
AcDbCircle
 10
628.3411493091979
 20
342.3350697272214
 30
0.0
 40
3.319805101916769
100
AcDbArc
 50
7.781513438258768
 51
42.44363802289282
  0
ARC
  5
B36B6
330
2
100
AcDbEntity
  8
0
 62
     7
370
    50
100
AcDbCircle
 10
633.7193858990137
 20
343.5329805214014
 30
0.0
 40
3.410697092859849
100
AcDbArc
 50
163.4608999579191
 51
177.046507988626
  0
ARC
  5
B36B7
330
2
100
AcDbEntity
  8
0
 62
     7
370
    50
100
AcDbCircle
 10
631.3609039408905
 20
344.5970577242563
 30
0.0
 40
0.0625
100
AcDbArc
 50
33.77445553635371
 51
184.1031509720272
  0
ARC
  5
B36B8
330
2
100
AcDbEntity
  8
0
 62
     7
370
    50
100
AcDbCircle
 10
635.7012198384857
 20
344.4661246093275
 30
0.0
 40
4.404471549192475
100
AcDbArc
 50
178.3546986491384
 51
189.8516032949455
  0
ARC
  5
B36B9
330
2
100
AcDbEntity
  8
0
370
    50
100
AcDbCircle
 10
626.9814434137487
 20
341.0028667346927
 30
0.0
 40
5.727704245920015
100
AcDbArc
 50
18.12345213763726
 51
39.65678596887068
  0
ARC
  5
B36BA
330
2
100
AcDbEntity
  8
0
 62
     7
370
    50
100
AcDbCircle
 10
637.405921939395
 20
345.75348919267
 30
0.0
 40
5.798643039973225
100
AcDbArc
 50
191.3046576804353
 51
198.2017736996716
  0
ARC
  5
B36BB
330
2
100
AcDbEntity
  8
0
 62
     7
370
    50
100
AcDbCircle
 10
633.6435586150931
 20
344.8901449222826
 30
0.0
 40
2.054223003276411
100
AcDbArc
 50
186.4450532157915
 51
197.9757144994203
  0
LINE
  5
B36BC
330
2
100
AcDbEntity
  8
0
 62
     7
370
    50
100
AcDbLine
 10
631.348018555868
 20
344.6582150365977
 30
0.0
 11
631.3910947288179
 21
344.6582150365977
 31
0.0
  0
LINE
  5
B36BD
330
2
100
AcDbEntity
  8
0
370
    50
100
AcDbLine
 10
632.597018381486
 20
342.7845577242564
 30
0.0
 11
632.7732107478833
 21
342.7204289473827
 31
0.0
  0
LINE
  5
B36BE
330
2
100
AcDbEntity
  8
0
 62
     7
370
    50
100
AcDbLine
 10
631.602318381486
 20
344.6595577242563
 30
0.0
 11
631.7197799590842
 21
344.6168052063406
 31
0.0
  0
ARC
  5
B36BF
330
2
100
AcDbEntity
  8
0
370
    50
100
AcDbCircle
 10
615.9935792893828
 20
335.7991982641889
 30
0.0
 40
18.02951967441174
100
AcDbArc
 50
22.76882794094323
 51
29.2791448930825
  0
LINE
  5
B36C0
330
2
100
AcDbEntity
  8
0
 62
     7
370
    50
100
AcDbLine
 10
631.602318381486
 20
344.6595577242563
 30
0.0
 11
630.5142840781098
 21
346.2292390182383
 31
0.0
  0
LINE
  5
B36C1
330
2
100
AcDbEntity
  8
0
 62
     7
370
    50
100
AcDbLine
 10
630.5142840781098
 20
346.2292390182383
 30
0.0
 11
631.6023183814861
 21
344.6595577242562
 31
0.0
  0
ARC
  5
B36C2
330
2
100
AcDbEntity
  8
0
 62
     7
370
    50
100
AcDbCircle
 10
637.4193463090303
 20
345.7570243399114
 30
0.0
 40
5.812499999999899
100
AcDbArc
 50
191.312888925573
 51
198.193542454533
  0
ARC
  5
B36C3
330
2
100
AcDbEntity
  8
0
 62
     7
370
    50
100
AcDbCircle
 10
633.6516931463402
 20
344.8918707096416
 30
0.0
 40
2.062499999999968
100
AcDbArc
 50
186.4673263859031
 51
197.4887228666516
  0
LINE
  5
B36C4
330
2
100
AcDbEntity
  8
0
 62
     7
370
    50
100
AcDbLine
 10
631.602318381486
 20
344.6595577242562
 30
0.0
 11
631.7197799590842
 21
344.6168052063406
 31
0.0
  0
ARC
  5
B36C5
330
2
100
AcDbEntity
  8
0
370
    50
100
AcDbCircle
 10
616.0201455682303
 20
335.8121768783806
 30
0.0
 40
17.99999999999998
100
AcDbArc
 50
22.78998796569461
 51
29.28446727391418
  0
ARC
  5
B36C6
330
2
100
AcDbEntity
  8
0
 62
     7
370
    50
100
AcDbCircle
 10
640.1090213255301
 20
344.7823234013666
 30
0.0
 40
8.812500000000019
100
AcDbArc
 50
181.2337031794557
 51
186.9725987646318
  0
ARC
  5
B36C7
330
2
100
AcDbEntity
  8
0
 62
     7
370
    50
100
AcDbCircle
 10
631.3600147470427
 20
344.6039906441819
 30
0.0
 40
0.0625000000000206
100
AcDbArc
 50
60.17981044046208
 51
190.5141889587984
  0
ARC
  5
B36C8
330
2
100
AcDbEntity
  8
0
370
    50
100
AcDbCircle
 10
626.9615740031814
 20
340.9919027011362
 30
0.0
 40
5.750000000000019
100
AcDbArc
 50
18.16569561030061
 51
39.61454249620489
  0
ARC
  5
B36C9
330
2
100
AcDbEntity
  8
0
 62
     7
370
    50
100
AcDbCircle
 10
630.6345800436708
 20
344.4720577242563
 30
0.0
 40
0.1875000000000132
100
AcDbArc
 50
33.47905094247053
 51
170.2216149488903
  0
ARC
  5
B36CA
330
2
100
AcDbEntity
  8
0
 62
     7
370
    50
100
AcDbCircle
 10
628.3480792341406
 20
342.3383177962604
 30
0.0
 40
3.31249999999999
100
AcDbArc
 50
7.742078786316444
 51
42.48307267483578
  0
ARC
  5
B36CB
330
2
100
AcDbEntity
  8
0
 62
     7
370
    50
100
AcDbCircle
 10
633.7459721287631
 20
343.528360320321
 30
0.0
 40
3.437500000000059
100
AcDbArc
 50
163.5132245202342
 51
176.7697672378789
  0
LINE
  5
B36CC
330
2
100
AcDbEntity
  8
0
370
    50
100
AcDbLine
 10
632.7295763309968
 20
342.5462258533499
 30
0.0
 11
632.6181278183833
 21
342.7768745175636
 31
0.0
  0
LINE
  5
B36CD
330
2
100
AcDbEntity
  8
0
370
    50
100
AcDbLine
 10
632.6181278183833
 20
342.7768745175636
 30
0.0
 11
632.7732107478833
 21
342.7204289473827
 31
0.0
  0
LINE
  5
B36CE
330
2
100
AcDbEntity
  8
0
370
    50
100
AcDbLine
 10
632.7732107478833
 20
342.7204289473827
 30
0.0
 11
632.9174007183377
 21
342.3093862576342
 31
0.0
  0
ARC
  5
B36CF
330
2
100
AcDbEntity
  8
0
370
    50
100
AcDbCircle
 10
644.4740523648803
 20
345.265654908991
 30
0.0
 40
12.31250000000001
100
AcDbArc
 50
192.0521459757343
 51
195.2419960069132
  0
ARC
  5
B36D0
330
2
100
AcDbEntity
  8
0
370
    50
100
AcDbCircle
 10
632.4833545194059
 20
342.7317297691769
 30
0.0
 40
0.0625000000000043
100
AcDbArc
 50
53.98194761381942
 51
216.2393196887064
  0
ARC
  5
B36D1
330
2
100
AcDbEntity
  8
0
370
    50
100
AcDbCircle
 10
632.4628736102673
 20
341.9979770864863
 30
0.0
 40
1.125000000000057
100
AcDbArc
 50
142.9059654322229
 51
190.8244627260018
  0
ARC
  5
B36D2
330
2
100
AcDbEntity
  8
0
 62
     7
370
    50
100
AcDbCircle
 10
631.7353631528658
 20
342.5970577242557
 30
0.0
 40
0.1875000000000014
100
AcDbArc
 50
41.44355816856672
 51
154.9345724517732
  0
ARC
  5
B36D3
330
2
100
AcDbEntity
  8
0
 62
     7
370
    50
100
AcDbCircle
 10
630.4297026625185
 20
342.5345577242568
 30
0.0
 40
0.2500000000000123
100
AcDbArc
 50
37.47819925263707
 51
160.1406840812009
  0
DIMENSION
  5
B36D5
330
2
100
AcDbEntity
  8
PLINE
 62
     7
100
AcDbDimension
  2
*D2
 10
635.879918381486
 20
307.3141447811711
 30
0.0
 11
629.7532426352724
 21
307.3141447811711
 31
0.0
 70
   161
 71
     5
 42
-1.0
  3
STANDARD
100
AcDbAlignedDimension
 13
623.504918381486
 23
312.550346918686
 33
0.0
 14
635.879918381486
 24
312.550346918686
 34
0.0
1001
ACAD
1000
DSTYLE
1002
{
1070
   287
1070
     4
1070
    40
1040
1.5
1070
    73
1070
     1
1070
    74
1070
     1
1070
    77
1070
     0
1070
   147
1040
0.5
1070
   279
1070
     1
1070
   288
1070
     1
1070
   289
1070
     3
1002
}
  0
DIMENSION
  5
B36E3
330
2
100
AcDbEntity
  8
PLINE
 62
     7
100
AcDbDimension
  2
*D3
 10
636.5045585901935
 20
304.112841303604
 30
0.0
 11
629.8600019817937
 21
304.112841303604
 31
0.0
 70
   161
 71
     5
 42
-1.0
  3
STANDARD
100
AcDbAlignedDimension
 13
622.8802781727783
 23
324.1838691330176
 33
0.0
 14
636.5045585901935
 24
324.1838691330174
 34
0.0
1001
ACAD
1000
DSTYLE
1002
{
1070
   287
1070
     4
1070
    40
1040
1.5
1070
    73
1070
     1
1070
    74
1070
     1
1070
    77
1070
     0
1070
   147
1040
0.5
1070
   279
1070
     1
1070
   288
1070
     1
1070
   289
1070
     3
1002
}
  0
DIMENSION
  5
B36F1
330
2
100
AcDbEntity
  8
PLINE
 62
     7
100
AcDbDimension
  2
*D4
 10
638.3315119313238
 20
353.7330604909425
 30
0.0
 11
629.4329627600937
 21
353.7330604909425
 31
0.0
 70
   160
 71
     5
 42
-1.0
  3
STANDARD
100
AcDbAlignedDimension
 13
621.0528352417473
 23
330.3634750293531
 33
0.0
 14
638.3315119313238
 24
330.4696253901381
 34
0.0
100
AcDbRotatedDimension
1001
ACAD
1000
DSTYLE
1002
{
1070
   287
1070
     4
1070
    40
1040
1.5
1070
    73
1070
     1
1070
    74
1070
     1
1070
    77
1070
     0
1070
   147
1040
0.5
1070
   279
1070
     1
1070
   288
1070
     1
1070
   289
1070
     3
1002
}
  0
DIMENSION
  5
B36FF
330
2
100
AcDbEntity
  8
PLINE
 62
     7
100
AcDbDimension
  2
*D5
 10
648.6497717913449
 20
324.5345577242563
 30
0.0
 11
648.6497717913449
 21
318.3052911887555
 31
0.0
 70
   160
 71
     5
 42
-1.0
  3
STANDARD
100
AcDbAlignedDimension
 13
635.879918381486
 23
312.550346918686
 33
0.0
 14
636.3769183814861
 24
324.5345577242564
 34
0.0
 50
90.0
100
AcDbRotatedDimension
1001
ACAD
1000
DSTYLE
1002
{
1070
   287
1070
     4
1070
    40
1040
1.5
1070
    73
1070
     1
1070
    74
1070
     1
1070
    77
1070
     0
1070
   147
1040
0.5
1070
   279
1070
     1
1070
   288
1070
     1
1070
   289
1070
     3
1002
}
  0
DIMENSION
  5
B370D
330
2
100
AcDbEntity
  8
PLINE
 62
     7
100
AcDbDimension
  2
*D6
 10
648.6497717913449
 20
346.6595577242563
 30
0.0
 11
648.6497717913449
 21
334.7386542136676
 31
0.0
 70
   160
 71
     5
 42
-1.0
  3
STANDARD
100
AcDbAlignedDimension
 13
636.3816948282617
 23
324.5214345446472
 33
0.0
 14
629.692418381486
 24
346.6595577242563
 34
0.0
 50
90.0
100
AcDbRotatedDimension
1001
ACAD
1000
DSTYLE
1002
{
1070
   287
1070
     4
1070
    40
1040
1.5
1070
    73
1070
     1
1070
    74
1070
     1
1070
    77
1070
     0
1070
   147
1040
0.5
1070
   279
1070
     1
1070
   288
1070
     1
1070
   289
1070
     3
1002
}
  0
LINE
  5
B371C
330
2
100
AcDbEntity
  8
0
 62
     1
100
AcDbLine
 10
643.8455699924359
 20
308.836124782714
 30
0.0
 11
657.5573675686173
 21
308.8361247827141
 31
0.0
  0
LINE
  5
B372A
330
2
100
AcDbEntity
  8
0
 62
     1
100
AcDbLine
 10
657.5573675686174
 20
307.6611176244263
 30
0.0
 11
657.5573675686174
 21
310.011131941002
 31
0.0
  0
ATTDEF
  5
B372B
330
2
100
AcDbEntity
  8
A1
 62
     1
100
AcDbText
 10
658.2876130922341
 20
308.2352712362443
 30
0.0
 40
1.5
  1

100
AcDbAttributeDefinition
  3
ADD LINK NUMBER (WMF)
  2
TS1561
 70
     0
  0
SOLID
  5
B372C
330
2
100
AcDbEntity
  8
PLINE
 62
     1
100
AcDbTrace
 10
634.8366149439164
 20
318.6369377223154
 30
0.0
 11
635.0222511001146
 21
318.8043868713486
 31
0.0
 12
634.4270855749159
 22
319.2775707654267
 32
0.0
 13
634.4270855749159
 23
319.2775707654267
 33
0.0
  0
LINE
  5
B372D
330
2
100
AcDbEntity
  8
PLINE
 62
     1
100
AcDbLine
 10
634.9294330220155
 20
318.720662296832
 30
0.0
 11
636.1760620190521
 21
317.3386342808567
 31
0.0
  0
LINE
  5
B3733
330
2
100
AcDbEntity
  8
PLINE
 62
     1
100
AcDbLine
 10
636.8513193227944
 20
316.5900358494206
 30
0.0
 11
640.2667483778905
 21
312.8036498019756
 31
0.0
  0
LINE
  5
B3734
330
2
100
AcDbEntity
  8
PLINE
 62
     1
100
AcDbLine
 10
640.7394743707031
 20
312.2795800366329
 30
0.0
 11
643.8455699924359
 21
308.8361247827141
 31
0.0
  0
LINE
  5
B373A
330
2
100
AcDbEntity
  8
0
 62
     1
100
AcDbLine
 10
638.8762046343424
 20
341.7004463462831
 30
0.0
 11
647.6338290426349
 21
341.7004463462831
 31
0.0
  0
INSERT
  5
B37F4
330
2
100
AcDbEntity
  8
PLINE
 62
     7
100
AcDbBlockReference
 66
     1
  2
PROFILE LOGO
 10
626.5963280668465
 20
316.4517977965469
 30
0.0
  0
ATTRIB
  5
B37F5
330
B37F4
100
AcDbEntity
  8
A1
 62
    22
100
AcDbText
 10
626.8808741624622
 20
314.7734995476405
 30
0.0
 40
0.2126953125
  1
4125
 72
     1
 11
627.2744584721274
 21
314.7734995476405
 31
0.0
100
AcDbAttribute
  2
XXXX
 70
     0
  0
SEQEND
  5
B37F6
330
B37F4
100
AcDbEntity
  8
PLINE
 62
     7
  0
INSERT
  5
B3877
330
2
100
AcDbEntity
  8
PLINE
 62
     7
100
AcDbBlockReference
 66
     1
  2
TSFORMB
 10
589.0767736505733
 20
289.1787498603459
 30
0.0
 41
0.9408000000000001
 42
0.9408000000000001
 43
0.9408000000000001
  0
ATTRIB
  5
B3878
330
B3877
100
AcDbEntity
  8
A1
 62
     1
100
AcDbText
 10
620.2628671320887
 20
290.0409781487086
 30
0.0
 40
0.96487469568
  1
FINIAL AND PEDESTAL
 72
     1
 11
627.8943353133707
 21
290.0409781487086
 31
0.0
100
AcDbAttribute
  2
XXXXXX
 70
     0
  0
ATTRIB
  5
B3879
330
B3877
100
AcDbEntity
  8
A1
 62
     1
100
AcDbText
 10
604.8643592412815
 20
290.9427674571686
 30
0.0
 40
0.7902720000000003
  1
TSD025
 72
     2
 11
609.3545156013099
 21
290.9427674571686
 31
0.0
100
AcDbAttribute
  2
XXXXXX
 70
     0
  0
ATTRIB
  5
B387A
330
B3877
100
AcDbEntity
  8
A1
 62
     1
100
AcDbText
 10
595.4709859591069
 20
292.1121292649118
 30
0.0
 40
5.768985600000001
  1
TSD025
  7
barcoder
 72
     1
 11
601.167859239107
 21
292.1121292649118
 31
0.0
100
AcDbAttribute
  2
BARCODE
 70
     0
  0
ATTRIB
  5
B387B
330
B3877
100
AcDbEntity
  8
A1
 62
     1
100
AcDbText
 10
676.8502852545089
 20
358.2334852259132
 30
0.0
 40
1.9559232
  1
TSD025
 72
     1
 11
682.406853750044
 21
358.2334852259132
 31
0.0
100
AcDbAttribute
  2
TS00XX
 70
     0
  0
ATTRIB
  5
B387C
330
B3877
100
AcDbEntity
  8
A1
 62
     1
100
AcDbText
 10
681.729855310789
 20
298.6610772142329
 30
0.0
 40
0.8890560000000002
  1
379.50"
 72
     1
 11
684.2631293348854
 21
298.6610772142329
 31
0.0
100
AcDbAttribute
  2
XXXXX
 70
     0
  0
ATTRIB
  5
B387D
330
B3877
100
AcDbEntity
  8
A1
 62
     1
100
AcDbText
 10
682.0300830336184
 20
295.9708917898214
 30
0.0
 40
0.8890560000000002
  1
342.60
 72
     1
 11
684.2309849528247
 21
295.9708917898214
 31
0.0
100
AcDbAttribute
  2
XXXXX
 70
     0
  0
SEQEND
  5
B387E
330
B3877
100
AcDbEntity
  8
PLINE
 62
     7
  0
LINE
  5
B38F7
330
2
100
AcDbEntity
  8
0
 62
     1
100
AcDbLine
 10
649.7261516592052
 20
341.7004463462832
 30
0.0
 11
657.454855616934
 21
341.7004463462831
 31
0.0
  0
SOLID
  5
B38F8
330
2
100
AcDbEntity
  8
PLINE
 62
     1
100
AcDbTrace
 10
634.0815352301461
 20
341.5675679773278
 30
0.0
 11
634.0805619606396
 21
341.8175660828136
 31
0.0
 12
633.3310542789356
 22
341.689647221551
 32
0.0
 13
633.3310542789356
 23
341.689647221551
 33
0.0
  0
LINE
  5
B38F9
330
2
100
AcDbEntity
  8
PLINE
 62
     1
100
AcDbLine
 10
634.0810485953928
 20
341.6925670300707
 30
0.0
 11
637.5675798036091
 21
341.7061404709659
 31
0.0
  0
ATTDEF
  5
B390A
330
2
100
AcDbEntity
  8
A1
 62
     1
100
AcDbText
 10
660.7269135662486
 20
355.8825903248258
 30
0.0
 40
1.6
  1

100
AcDbAttributeDefinition
  3
ADD LINK NUMBER (WMF)
  2
TSD025
 70
     0
  0
MTEXT
  5
B390B
330
2
100
AcDbEntity
  8
0
 62
     1
100
AcDbMText
 10
660.7890456158086
 20
354.6869499688021
 30
0.0
 40
1.6
 41
0.0
 71
     1
 72
     1
  1
TannerStone
 73
     1
 44
1.0
1001
ACAD
1000
MTEXTBEGIN
1070
    73
1070
     1
1070
    44
1040
1.0
1070
    74
1070
     0
1000
MTEXTEND
  0
MTEXT
  5
B390C
330
2
100
AcDbEntity
  8
0
 62
     1
100
AcDbMText
 10
660.913433467566
 20
352.2594938626776
 30
0.0
 40
1.181879999999999
 41
0.0
 71
     1
 72
     1
  1
1-800-789-4841
 73
     1
 44
1.0
1001
ACAD
1000
MTEXTBEGIN
1070
    73
1070
     1
1070
    44
1040
1.0
1070
    74
1070
     0
1000
MTEXTEND
  0
LINE
  5
B390D
330
2
100
AcDbEntity
  8
0
 62
     1
100
AcDbLine
 10
650.6326921164871
 20
355.2701598055532
 30
0.0
 11
674.5198230258377
 21
355.2701598055532
 31
0.0
  0
LINE
  5
B390E
330
2
100
AcDbEntity
  8
0
 62
     1
100
AcDbLine
 10
659.9479850077242
 20
350.4897157227122
 30
0.0
 11
659.9479850077242
 21
357.776841743234
 31
0.0
  0
SOLID
  5
B390F
330
2
100
AcDbEntity
  8
PLINE
 62
     1
100
AcDbTrace
 10
630.6870582623266
 20
346.7857392752302
 30
0.0
 11
630.5905279074339
 21
347.016351266645
 31
0.0
 12
629.9469571106357
 22
346.61145420626
 32
0.0
 13
629.9469571106357
 23
346.61145420626
 33
0.0
  0
LINE
  5
B3910
330
2
100
AcDbEntity
  8
PLINE
 62
     1
100
AcDbLine
 10
630.6387930848802
 20
346.9010452709376
 30
0.0
 11
637.3789259494368
 21
349.722353102533
 31
0.0
  0
LINE
  5
B3912
330
2
100
AcDbEntity
  8
PLINE
 62
     7
370
    50
100
AcDbLine
 10
629.6927144909219
 20
346.6443574753118
 30
0.0
 11
629.9404545473964
 21
346.6134040708325
 31
0.0
  0
LINE
  5
B3913
330
2
100
AcDbEntity
  8
PLINE
 62
     7
370
    50
100
AcDbLine
 10
629.9404545473964
 20
346.6134040708325
 30
0.0
 11
630.2501282412785
 21
346.5205450331682
 31
0.0
  0
LINE
  5
B3914
330
2
100
AcDbEntity
  8
PLINE
 62
     7
370
    50
100
AcDbLine
 10
630.2501282412785
 20
346.5205450331682
 30
0.0
 11
630.4359346603455
 21
346.3348269578393
 31
0.0
  0
LINE
  5
B3915
330
2
100
AcDbEntity
  8
PLINE
 62
     7
370
    50
100
AcDbLine
 10
630.4359346603455
 20
346.3348269578393
 30
0.0
 11
631.612699469696
 21
344.6943165085854
 31
0.0
  0
LINE
  5
B3916
330
2
100
AcDbEntity
  8
PLINE
 62
     7
370
    50
100
AcDbLine
 10
631.612699469696
 20
344.6943165085854
 30
0.0
 11
631.6746349427183
 21
344.6633631041061
 31
0.0
  0
LINE
  5
B3917
330
2
100
AcDbEntity
  8
PLINE
 62
     7
370
    50
100
AcDbLine
 10
631.6746349427183
 20
344.6633631041061
 30
0.0
 11
631.7365685801259
 21
344.5085984332565
 31
0.0
  0
LINE
  5
B3918
330
2
100
AcDbEntity
  8
PLINE
 62
     7
370
    50
100
AcDbLine
 10
631.7365685801259
 20
344.5085984332565
 30
0.0
 11
632.1081795826451
 21
343.9514430314966
 31
0.0
  0
LINE
  5
B3919
330
2
100
AcDbEntity
  8
PLINE
 62
     7
370
    50
100
AcDbLine
 10
632.1081795826451
 20
343.9514430314966
 30
0.0
 11
632.6036596955944
 21
342.775228946338
 31
0.0
  0
LINE
  5
B391A
330
2
100
AcDbEntity
  8
PLINE
 62
     7
370
    50
100
AcDbLine
 10
632.6036596955944
 20
342.775228946338
 30
0.0
 11
632.7894642790465
 21
342.7133221373797
 31
0.0
  0
LINE
  5
B391B
330
2
100
AcDbEntity
  8
PLINE
 62
     7
370
    50
100
AcDbLine
 10
632.7894642790465
 20
342.7133221373797
 30
0.0
 11
632.9752688624987
 21
342.4347450243865
 31
0.0
  0
LINE
  5
B391C
330
2
100
AcDbEntity
  8
PLINE
 62
     7
370
    50
100
AcDbLine
 10
632.9752688624987
 20
342.4347450243865
 30
0.0
 11
633.4088135024256
 21
341.506154647742
 31
0.0
  0
LINE
  5
B391D
330
2
100
AcDbEntity
  8
PLINE
 62
     7
370
    50
100
AcDbLine
 10
633.4088135024256
 20
341.506154647742
 30
0.0
 11
633.7804245049449
 21
340.5466108666185
 31
0.0
  0
LINE
  5
B391E
330
2
100
AcDbEntity
  8
PLINE
 62
     7
370
    50
100
AcDbLine
 10
633.7804245049449
 20
340.5466108666185
 30
0.0
 11
634.0281645614193
 21
340.4537518289539
 31
0.0
  0
LINE
  5
B391F
330
2
100
AcDbEntity
  8
PLINE
 62
     7
370
    50
100
AcDbLine
 10
634.0281645614193
 20
340.4537518289539
 30
0.0
 11
634.5236446743686
 21
339.6180193142008
 31
0.0
  0
LINE
  5
B3920
330
2
100
AcDbEntity
  8
PLINE
 62
     7
370
    50
100
AcDbLine
 10
634.5236446743686
 20
339.6180193142008
 30
0.0
 11
634.8642870225692
 21
338.8751470128852
 31
0.0
  0
LINE
  5
B3921
330
2
100
AcDbEntity
  8
PLINE
 62
     7
370
    50
100
AcDbLine
 10
634.8642870225692
 20
338.8751470128852
 30
0.0
 11
635.297831662496
 21
337.7608373851387
 31
0.0
  0
LINE
  5
B3922
330
2
100
AcDbEntity
  8
PLINE
 62
     7
370
    50
100
AcDbLine
 10
635.297831662496
 20
337.7608373851387
 30
0.0
 11
635.5146049002667
 21
337.6370261187683
 31
0.0
  0
LINE
  5
B3923
330
2
100
AcDbEntity
  8
PLINE
 62
     7
370
    50
100
AcDbLine
 10
635.5146049002667
 20
337.6370261187683
 30
0.0
 11
635.8862140671712
 21
337.1417775259669
 31
0.0
  0
LINE
  5
B3924
330
2
100
AcDbEntity
  8
PLINE
 62
     7
370
    50
100
AcDbLine
 10
635.8862140671712
 20
337.1417775259669
 30
0.0
 11
636.3816941801204
 21
336.120326935885
 31
0.0
  0
LINE
  5
B3925
330
2
100
AcDbEntity
  8
PLINE
 62
     7
370
    50
100
AcDbLine
 10
636.3816941801204
 20
336.120326935885
 30
0.0
 11
636.9081429473879
 21
334.7583935996242
 31
0.0
  0
LINE
  5
B3926
330
2
100
AcDbEntity
  8
PLINE
 62
     7
370
    50
100
AcDbLine
 10
636.9081429473879
 20
334.7583935996242
 30
0.0
 11
637.1868498225662
 21
334.6345823332537
 31
0.0
  0
LINE
  5
B3927
330
2
100
AcDbEntity
  8
PLINE
 62
     7
370
    50
100
AcDbLine
 10
637.1868498225662
 20
334.6345823332537
 30
0.0
 11
637.7442654085378
 21
332.994071884
 31
0.0
  0
LINE
  5
B3928
330
2
100
AcDbEntity
  8
PLINE
 62
     7
370
    50
100
AcDbLine
 10
637.7442654085378
 20
332.994071884
 30
0.0
 11
637.9920054650124
 21
331.6011851432601
 31
0.0
  0
LINE
  5
B3929
330
2
100
AcDbEntity
  8
PLINE
 62
     7
370
    50
100
AcDbLine
 10
637.9920054650124
 20
331.6011851432601
 30
0.0
 11
638.2397455214868
 21
331.4773727011165
 31
0.0
  0
LINE
  5
B392A
330
2
100
AcDbEntity
  8
PLINE
 62
     7
370
    50
100
AcDbLine
 10
638.2397455214868
 20
331.4773727011165
 30
0.0
 11
638.3016791588945
 21
330.4249698823284
 31
0.0
  0
LINE
  5
B392B
330
2
100
AcDbEntity
  8
PLINE
 62
     7
370
    50
100
AcDbLine
 10
638.3016791588945
 20
330.4249698823284
 30
0.0
 11
638.2397455214868
 21
328.9701775084033
 31
0.0
  0
LINE
  5
B392C
330
2
100
AcDbEntity
  8
PLINE
 62
     7
370
    50
100
AcDbLine
 10
638.2397455214868
 20
328.9701775084033
 30
0.0
 11
638.0849077567384
 21
328.0106337272798
 31
0.0
  0
LINE
  5
B392D
330
2
100
AcDbEntity
  8
PLINE
 62
     7
370
    50
100
AcDbLine
 10
638.0849077567384
 20
328.0106337272798
 30
0.0
 11
638.2087768671683
 21
327.8249156519509
 31
0.0
  0
LINE
  5
B392E
330
2
100
AcDbEntity
  8
PLINE
 62
     7
370
    50
100
AcDbLine
 10
638.2087768671683
 20
327.8249156519509
 30
0.0
 11
637.4345898790409
 21
326.0915461650327
 31
0.0
  0
LINE
  5
B392F
330
2
100
AcDbEntity
  8
PLINE
 62
     7
370
    50
100
AcDbLine
 10
637.4345898790409
 20
326.0915461650327
 30
0.0
 11
636.3816948282615
 21
324.5214345446468
 31
0.0
  0
LINE
  5
B3930
330
2
100
AcDbEntity
  8
PLINE
 62
     7
370
    50
100
AcDbLine
 10
636.3816948282615
 20
324.5214345446468
 30
0.0
 11
636.5045585901937
 21
324.1838691330176
 31
0.0
  0
ARC
  5
B3931
330
2
100
AcDbEntity
  8
PLINE
 62
     7
370
    50
100
AcDbCircle
 10
628.107620515856
 20
333.0171350763553
 30
0.0
 40
12.18749999999967
100
AcDbArc
 50
299.5820719766587
 51
313.5493843547072
  0
ARC
  5
B3932
330
2
100
AcDbEntity
  8
PLINE
 62
     7
370
    50
100
AcDbCircle
 10
633.7068356523515
 20
321.3065514953579
 30
0.0
 40
1.187500000000053
100
AcDbArc
 50
0.3029195453702009
 51
69.4219933124965
  0
ARC
  5
B3933
330
2
100
AcDbEntity
  8
PLINE
 62
     7
370
    50
100
AcDbCircle
 10
630.5198322954942
 20
321.2458179070346
 30
0.0
 40
4.374999999999946
100
AcDbArc
 50
306.6261416991455
 51
0.8776328494621591
  0
LINE
  5
B3934
330
2
100
AcDbEntity
  8
PLINE
 62
     7
370
    50
100
AcDbLine
 10
633.1299183814861
 20
317.7346819621144
 30
0.0
 11
633.129918381486
 21
316.987846918686
 31
0.0
  0
LINE
  5
B3935
330
2
100
AcDbEntity
  8
PLINE
 62
     7
370
    50
100
AcDbLine
 10
633.129918381486
 20
316.987846918686
 30
0.0
 11
633.3174183814861
 21
316.9878469186861
 31
0.0
  0
ARC
  5
B3936
330
2
100
AcDbEntity
  8
PLINE
 62
     7
370
    50
100
AcDbCircle
 10
637.735240500776
 20
317.4052843059837
 30
0.0
 40
4.4375000000001
100
AcDbArc
 50
185.3978178824465
 51
223.4810798457853
  0
LINE
  5
B3937
330
2
100
AcDbEntity
  8
PLINE
 62
     7
370
    50
100
AcDbLine
 10
634.5153832267856
 20
314.3517739678431
 30
0.0
 11
634.5153832267932
 21
314.1752739064739
 31
0.0
  0
ARC
  5
B3938
330
2
100
AcDbEntity
  8
PLINE
 62
     7
370
    50
100
AcDbCircle
 10
634.5049183814859
 20
313.425346918686
 30
0.0
 40
0.7500000000000035
100
AcDbArc
 50
0.0
 51
89.20051876428065
  0
LINE
  5
B3939
330
2
100
AcDbEntity
  8
PLINE
 62
     7
370
    50
100
AcDbLine
 10
635.254918381486
 20
313.425346918686
 30
0.0
 11
635.879918381486
 21
313.425346918686
 31
0.0
  0
LINE
  5
B393A
330
2
100
AcDbEntity
  8
PLINE
 62
     7
370
    50
100
AcDbLine
 10
635.879918381486
 20
313.425346918686
 30
0.0
 11
635.879918381486
 21
312.550346918686
 31
0.0
  0
LINE
  5
B393B
330
2
100
AcDbEntity
  8
PLINE
 62
     7
370
    50
100
AcDbLine
 10
635.879918381486
 20
312.550346918686
 30
0.0
 11
629.692418381486
 21
312.550346918686
 31
0.0
  0
LINE
  5
B393C
330
2
100
AcDbEntity
  8
PLINE
 62
     7
370
    50
100
AcDbLine
 10
629.692418381486
 20
312.550346918686
 30
0.0
 11
623.504918381486
 21
312.550346918686
 31
0.0
  0
LINE
  5
B393D
330
2
100
AcDbEntity
  8
PLINE
 62
     7
370
    50
100
AcDbLine
 10
623.504918381486
 20
312.550346918686
 30
0.0
 11
623.504918381486
 21
313.425346918686
 31
0.0
  0
LINE
  5
B393E
330
2
100
AcDbEntity
  8
PLINE
 62
     7
370
    50
100
AcDbLine
 10
623.504918381486
 20
313.425346918686
 30
0.0
 11
624.129918381486
 21
313.425346918686
 31
0.0
  0
ARC
  5
B393F
330
2
100
AcDbEntity
  8
PLINE
 62
     7
370
    50
100
AcDbCircle
 10
624.8799183814861
 20
313.425346918686
 30
0.0
 40
0.7500000000001137
100
AcDbArc
 50
90.79948123571936
 51
180.0
  0
LINE
  5
B3940
330
2
100
AcDbEntity
  8
PLINE
 62
     7
370
    50
100
AcDbLine
 10
624.8694535361789
 20
314.1752739064739
 30
0.0
 11
624.8694535361864
 21
314.3517739678431
 31
0.0
  0
ARC
  5
B3941
330
2
100
AcDbEntity
  8
PLINE
 62
     7
370
    50
100
AcDbCircle
 10
621.649596262196
 20
317.4052843059837
 30
0.0
 40
4.437500000000075
100
AcDbArc
 50
316.5189201542147
 51
354.6021821175534
  0
LINE
  5
B3942
330
2
100
AcDbEntity
  8
PLINE
 62
     7
370
    50
100
AcDbLine
 10
626.0674183814859
 20
316.9878469186861
 30
0.0
 11
626.2549183814861
 21
316.987846918686
 31
0.0
  0
LINE
  5
B3943
330
2
100
AcDbEntity
  8
PLINE
 62
     7
370
    50
100
AcDbLine
 10
626.2549183814861
 20
316.987846918686
 30
0.0
 11
626.2549183814859
 21
317.7346819621144
 31
0.0
  0
ARC
  5
B3944
330
2
100
AcDbEntity
  8
PLINE
 62
     7
370
    50
100
AcDbCircle
 10
628.8650044674779
 20
321.2458179070346
 30
0.0
 40
4.374999999999959
100
AcDbArc
 50
179.1223671505378
 51
233.3738583008544
  0
ARC
  5
B3945
330
2
100
AcDbEntity
  8
PLINE
 62
     7
370
    50
100
AcDbCircle
 10
625.6780011106205
 20
321.3065514953579
 30
0.0
 40
1.187500000000025
100
AcDbArc
 50
110.5780066875035
 51
179.6970804546297
  0
ARC
  5
B3946
330
2
100
AcDbEntity
  8
PLINE
 62
     7
370
    50
100
AcDbCircle
 10
631.2772162471161
 20
333.0171350763553
 30
0.0
 40
12.18749999999967
100
AcDbArc
 50
226.4506156452926
 51
240.4179280233413
  0
LINE
  5
B3947
330
2
100
AcDbEntity
  8
PLINE
 62
     7
370
    50
100
AcDbLine
 10
622.8802781727783
 20
324.1838691330176
 30
0.0
 11
623.0031419347105
 21
324.5214345446468
 31
0.0
  0
LINE
  5
B3948
330
2
100
AcDbEntity
  8
PLINE
 62
     7
370
    50
100
AcDbLine
 10
623.0031419347105
 20
324.5214345446468
 30
0.0
 11
621.9502468839311
 21
326.0915461650327
 31
0.0
  0
LINE
  5
B3949
330
2
100
AcDbEntity
  8
PLINE
 62
     7
370
    50
100
AcDbLine
 10
621.9502468839311
 20
326.0915461650327
 30
0.0
 11
621.1760598958037
 21
327.8249156519509
 31
0.0
  0
LINE
  5
B394A
330
2
100
AcDbEntity
  8
PLINE
 62
     7
370
    50
100
AcDbLine
 10
621.1760598958037
 20
327.8249156519509
 30
0.0
 11
621.2999290062336
 21
328.0106337272798
 31
0.0
  0
LINE
  5
B394B
330
2
100
AcDbEntity
  8
PLINE
 62
     7
370
    50
100
AcDbLine
 10
621.2999290062336
 20
328.0106337272798
 30
0.0
 11
621.1450912414853
 21
328.9701775084033
 31
0.0
  0
LINE
  5
B394C
330
2
100
AcDbEntity
  8
PLINE
 62
     7
370
    50
100
AcDbLine
 10
621.1450912414853
 20
328.9701775084033
 30
0.0
 11
621.0831576040775
 21
330.4249698823284
 31
0.0
  0
LINE
  5
B394D
330
2
100
AcDbEntity
  8
PLINE
 62
     7
370
    50
100
AcDbLine
 10
621.0831576040775
 20
330.4249698823284
 30
0.0
 11
621.1450912414853
 21
331.4773727011165
 31
0.0
  0
LINE
  5
B394E
330
2
100
AcDbEntity
  8
PLINE
 62
     7
370
    50
100
AcDbLine
 10
621.1450912414853
 20
331.4773727011165
 30
0.0
 11
621.3928312979597
 21
331.6011851432601
 31
0.0
  0
LINE
  5
B394F
330
2
100
AcDbEntity
  8
PLINE
 62
     7
370
    50
100
AcDbLine
 10
621.3928312979597
 20
331.6011851432601
 30
0.0
 11
621.6405713544343
 21
332.994071884
 31
0.0
  0
LINE
  5
B3950
330
2
100
AcDbEntity
  8
PLINE
 62
     7
370
    50
100
AcDbLine
 10
621.6405713544343
 20
332.994071884
 30
0.0
 11
622.1979869404058
 21
334.6345823332537
 31
0.0
  0
LINE
  5
B3951
330
2
100
AcDbEntity
  8
PLINE
 62
     7
370
    50
100
AcDbLine
 10
622.1979869404058
 20
334.6345823332537
 30
0.0
 11
622.4766938155842
 21
334.7583935996242
 31
0.0
  0
LINE
  5
B3952
330
2
100
AcDbEntity
  8
PLINE
 62
     7
370
    50
100
AcDbLine
 10
622.4766938155842
 20
334.7583935996242
 30
0.0
 11
623.0031425828517
 21
336.120326935885
 31
0.0
  0
LINE
  5
B3953
330
2
100
AcDbEntity
  8
PLINE
 62
     7
370
    50
100
AcDbLine
 10
623.0031425828517
 20
336.120326935885
 30
0.0
 11
623.4986226958008
 21
337.1417775259669
 31
0.0
  0
LINE
  5
B3954
330
2
100
AcDbEntity
  8
PLINE
 62
     7
370
    50
100
AcDbLine
 10
623.4986226958008
 20
337.1417775259669
 30
0.0
 11
623.8702318627054
 21
337.6370261187683
 31
0.0
  0
LINE
  5
B3955
330
2
100
AcDbEntity
  8
PLINE
 62
     7
370
    50
100
AcDbLine
 10
623.8702318627054
 20
337.6370261187683
 30
0.0
 11
624.087005100476
 21
337.7608373851387
 31
0.0
  0
LINE
  5
B3956
330
2
100
AcDbEntity
  8
PLINE
 62
     7
370
    50
100
AcDbLine
 10
624.087005100476
 20
337.7608373851387
 30
0.0
 11
624.5205497404029
 21
338.8751470128852
 31
0.0
  0
LINE
  5
B3957
330
2
100
AcDbEntity
  8
PLINE
 62
     7
370
    50
100
AcDbLine
 10
624.5205497404029
 20
338.8751470128852
 30
0.0
 11
624.8611920886035
 21
339.6180193142008
 31
0.0
  0
LINE
  5
B3958
330
2
100
AcDbEntity
  8
PLINE
 62
     7
370
    50
100
AcDbLine
 10
624.8611920886035
 20
339.6180193142008
 30
0.0
 11
625.3566722015527
 21
340.4537518289539
 31
0.0
  0
LINE
  5
B3959
330
2
100
AcDbEntity
  8
PLINE
 62
     7
370
    50
100
AcDbLine
 10
625.3566722015527
 20
340.4537518289539
 30
0.0
 11
625.6044122580272
 21
340.5466108666185
 31
0.0
  0
LINE
  5
B395A
330
2
100
AcDbEntity
  8
PLINE
 62
     7
370
    50
100
AcDbLine
 10
625.6044122580272
 20
340.5466108666185
 30
0.0
 11
625.9760232605465
 21
341.506154647742
 31
0.0
  0
LINE
  5
B395B
330
2
100
AcDbEntity
  8
PLINE
 62
     7
370
    50
100
AcDbLine
 10
625.9760232605465
 20
341.506154647742
 30
0.0
 11
626.4095679004733
 21
342.4347450243865
 31
0.0
  0
LINE
  5
B395C
330
2
100
AcDbEntity
  8
PLINE
 62
     7
370
    50
100
AcDbLine
 10
626.4095679004733
 20
342.4347450243865
 30
0.0
 11
626.5953724839255
 21
342.7133221373797
 31
0.0
  0
LINE
  5
B395D
330
2
100
AcDbEntity
  8
PLINE
 62
     7
370
    50
100
AcDbLine
 10
626.5953724839255
 20
342.7133221373797
 30
0.0
 11
626.7811770673777
 21
342.775228946338
 31
0.0
  0
LINE
  5
B395E
330
2
100
AcDbEntity
  8
PLINE
 62
     7
370
    50
100
AcDbLine
 10
626.7811770673777
 20
342.775228946338
 30
0.0
 11
627.276657180327
 21
343.9514430314966
 31
0.0
  0
LINE
  5
B395F
330
2
100
AcDbEntity
  8
PLINE
 62
     7
370
    50
100
AcDbLine
 10
627.276657180327
 20
343.9514430314966
 30
0.0
 11
627.648268182846
 21
344.5085984332565
 31
0.0
  0
LINE
  5
B3960
330
2
100
AcDbEntity
  8
PLINE
 62
     7
370
    50
100
AcDbLine
 10
627.648268182846
 20
344.5085984332565
 30
0.0
 11
627.7102018202538
 21
344.6633631041061
 31
0.0
  0
LINE
  5
B3961
330
2
100
AcDbEntity
  8
PLINE
 62
     7
370
    50
100
AcDbLine
 10
627.7102018202538
 20
344.6633631041061
 30
0.0
 11
627.772137293276
 21
344.6943165085854
 31
0.0
  0
LINE
  5
B3962
330
2
100
AcDbEntity
  8
PLINE
 62
     7
370
    50
100
AcDbLine
 10
627.772137293276
 20
344.6943165085854
 30
0.0
 11
628.9489021026265
 21
346.3348269578393
 31
0.0
  0
LINE
  5
B3963
330
2
100
AcDbEntity
  8
PLINE
 62
     7
370
    50
100
AcDbLine
 10
628.9489021026265
 20
346.3348269578393
 30
0.0
 11
629.1347085216934
 21
346.5205450331682
 31
0.0
  0
LINE
  5
B3964
330
2
100
AcDbEntity
  8
PLINE
 62
     7
370
    50
100
AcDbLine
 10
629.1347085216934
 20
346.5205450331682
 30
0.0
 11
629.4443822155756
 21
346.6134040708325
 31
0.0
  0
LINE
  5
B3965
330
2
100
AcDbEntity
  8
PLINE
 62
     7
370
    50
100
AcDbLine
 10
629.4443822155756
 20
346.6134040708325
 30
0.0
 11
629.6921222720502
 21
346.6443574753118
 31
0.0
  0
LINE
  5
B3966
330
2
100
AcDbEntity
  8
0
370
    50
100
AcDbLine
 10
633.6249408896435
 20
322.4924855196541
 30
0.0
 11
625.13173758727
 21
322.4924855196543
 31
0.0
  0
LINE
  5
B3967
330
2
100
AcDbEntity
  8
0
370
    50
100
AcDbLine
 10
633.1194535361792
 20
317.7424855196542
 30
0.0
 11
626.244453536179
 21
317.7424855196542
 31
0.0
  0
LINE
  5
B3968
330
2
100
AcDbEntity
  8
0
370
    50
100
AcDbLine
 10
626.2549183814861
 20
316.987846918686
 30
0.0
 11
633.3174183814862
 21
316.9878469186861
 31
0.0
  0
LINE
  5
B3969
330
2
100
AcDbEntity
  8
0
370
    50
100
AcDbLine
 10
634.504918381478
 20
314.3628469186945
 30
0.0
 11
624.8799183814781
 21
314.3628469186777
 31
0.0
  0
LINE
  5
B396A
330
2
100
AcDbEntity
  8
0
370
    50
100
AcDbLine
 10
624.8694535361789
 20
314.175346918686
 30
0.0
 11
634.504918381486
 21
314.175346918686
 31
0.0
  0
LINE
  5
B396B
330
2
100
AcDbEntity
  8
0
370
    50
100
AcDbLine
 10
624.129918381486
 20
313.425346918686
 30
0.0
 11
635.879918381486
 21
313.425346918686
 31
0.0
  0
LINE
  5
B396C
330
2
100
AcDbEntity
  8
PLINE
 62
     7
370
    50
100
AcDbLine
 10
636.3769183814861
 20
324.5345577242563
 30
0.0
 11
623.0031419347105
 21
324.5214345446469
 31
0.0
  0
LINE
  5
B396D
330
2
100
AcDbEntity
  8
0
370
    50
100
AcDbLine
 10
636.5045585901936
 20
324.1838691330176
 30
0.0
 11
622.8802781727783
 21
324.1838691330176
 31
0.0
  0
ARC
  5
B396E
330
2
100
AcDbEntity
  8
0
370
    50
100
AcDbCircle
 10
633.6859059617378
 20
321.306551495358
 30
0.0
 40
1.187500000000025
100
AcDbArc
 50
0.3029195453674584
 51
92.94280217533772
  0
LINE
  5
B39D8
330
2
100
AcDbEntity
  8
PLINE
 62
     1
100
AcDbLine
 10
639.2654202830721
 20
350.512008342971
 30
0.0
 11
650.6326921164871
 21
355.2701598055532
 31
0.0
  0
ENDSEC
  0
SECTION
  2
OBJECTS
  0
DICTIONARY
  5
8
330
0
100
AcDbDictionary
281
     1
  3
ACAD_GROUP
350
21
  3
ACAD_LAYOUT
350
C
  3
ACAD_MLINESTYLE
350
22
  3
ACAD_PLOTSETTINGS
350
23
  3
ACAD_PLOTSTYLENAME
350
7
  3
ACAD_VBA
350
B387F
  3
ASE_INDEX_DICTIONARY
350
B11B7
  3
DWGPROPS
350
B3888
  0
DICTIONARY
  5
3
330
2
100
AcDbDictionary
280
     1
281
     1
  3
ACAD_LAYOUTSELFREF
360
B3A01
  0
DICTIONARY
  5
B38B4
330
D
100
AcDbDictionary
280
     1
281
     1
  3
ACAD_LAYOUTSELFREF
360
B3A04
  0
DICTIONARY
  5
21
102
{ACAD_REACTORS
330
8
102
}
330
8
100
AcDbDictionary
281
     1
  0
DICTIONARY
  5
C
102
{ACAD_REACTORS
330
8
102
}
330
8
100
AcDbDictionary
281
     1
  3
Layout1
350
10
  3
Model
350
B
  0
DICTIONARY
  5
22
102
{ACAD_REACTORS
330
8
102
}
330
8
100
AcDbDictionary
281
     1
  3
STANDARD
350
25
  0
DICTIONARY
  5
23
102
{ACAD_REACTORS
330
8
102
}
330
8
100
AcDbDictionary
281
     1
  0
ACDBDICTIONARYWDFLT
  5
7
102
{ACAD_REACTORS
330
8
102
}
330
8
100
AcDbDictionary
281
     1
  3
Normal
350
6
100
AcDbDictionaryWithDefault
340
6
  0
DICTIONARY
  5
B387F
102
{ACAD_REACTORS
330
8
102
}
330
8
100
AcDbDictionary
281
     1
  3
VBAProject
350
B3880
  0
DICTIONARY
  5
B11B7
102
{ACAD_REACTORS
330
8
102
}
330
8
100
AcDbDictionary
281
     1
  3
ASEBlockHierarchyIndexRecord
350
B11B9
1001
DCO15
1040
1363000110.79
  0
XRECORD
  5
B3888
102
{ACAD_REACTORS
330
8
102
}
330
8
100
AcDbXrecord
280
     1
  1
DWGPROPS COOKIE
  2

  3

  4

  6

  7

  8
catalog
  9

300
=
301
=
302
=
303
=
304
=
305
=
306
=
307
=
308
=
309
=
 40
2.515520138888888
 41
2451085.66483831
 42
2451642.668941551
  1

 90
        0
  0
XRECORD
  5
B3A01
102
{ACAD_REACTORS
330
3
102
}
330
3
100
AcDbXrecord
280
     1
340
2
  0
XRECORD
  5
B3A04
102
{ACAD_REACTORS
330
B38B4
102
}
330
B38B4
100
AcDbXrecord
280
     1
340
D
  0
LAYOUT
  5
10
102
{ACAD_REACTORS
330
C
102
}
330
C
100
AcDbPlotSettings
  1

  2
None
  4

  6

 40
0.0
 41
0.0
 42
0.0
 43
0.0
 44
0.0
 45
0.0
 46
0.0
 47
0.0
 48
0.0
 49
0.0
140
0.0
141
0.0
142
1.0
143
1.0
 70
   688
 72
     0
 73
     0
 74
     5
  7

 75
    16
147
1.0
148
0.0
149
0.0
100
AcDbLayout
  1
Layout1
 70
     1
 71
     1
 10
0.0
 20
0.0
 11
12.0
 21
9.0
 12
0.0
 22
0.0
 32
0.0
 14
1.000000000000000E+20
 24
1.000000000000000E+20
 34
1.000000000000000E+20
 15
-1.000000000000000E+20
 25
-1.000000000000000E+20
 35
-1.000000000000000E+20
146
0.0
 13
0.0
 23
0.0
 33
0.0
 16
1.0
 26
0.0
 36
0.0
 17
0.0
 27
1.0
 37
0.0
 76
     0
330
D
  0
LAYOUT
  5
B
102
{ACAD_REACTORS
330
C
102
}
330
C
100
AcDbPlotSettings
  1

  2
HP LaserJet 5.pc3
  4
Letter
  6

 40
7.143749713897705
 41
6.381738662719726
 42
7.14373779296875
 43
6.381744384765625
 44
215.8999938964843
 45
279.3999938964843
 46
0.0
 47
0.0
 48
652.7901709987953
 49
253.8830946244845
140
751.3695416165002
141
327.2165288644845
142
1.0
143
9.39590440601828
 70
 11952
 72
     0
 73
     1
 74
     1
  7

 75
     0
147
0.1064293501495692
148
-14943.35644515132
149
-7286.776601933929
100
AcDbLayout
  1
Model
 70
     1
 71
     0
 10
0.0
 20
0.0
 11
12.0
 21
9.0
 12
0.0
 22
0.0
 32
0.0
 14
0.0
 24
0.0
 34
0.0
 15
0.0
 25
0.0
 35
0.0
146
0.0
 13
0.0
 23
0.0
 33
0.0
 16
1.0
 26
0.0
 36
0.0
 17
0.0
 27
1.0
 37
0.0
 76
     0
330
2
  0
MLINESTYLE
  5
25
102
{ACAD_REACTORS
330
22
102
}
330
22
100
AcDbMlineStyle
  2
STANDARD
 70
     0
  3

 62
   256
 51
90.0
 52
90.0
 71
     2
 49
0.5
 62
   256
  6
BYLAYER
 49
-0.5
 62
   256
  6
BYLAYER
  0
ACDBPLACEHOLDER
  5
6
102
{ACAD_REACTORS
330
7
102
}
330
7
  0
VBA_PROJECT
  5
B3880
102
{ACAD_REACTORS
330
B387F
102
}
330
B387F
100
AcDbVbaProject
 90
     7680
310
D0CF11E0A1B11AE1000000000000000000000000000000003E000300FEFF0900060000000000000000000000010000000100000000000000001000000200000001000000FEFFFFFF0000000000000000FFFFFFFFFFFFFFFFFFFFFFFFFFFFFFFFFFFFFFFFFFFFFFFFFFFFFFFFFFFFFFFFFFFFFFFFFFFFFFFFFFFFFFFFFFFFFF
310
FFFFFFFFFFFFFFFFFFFFFFFFFFFFFFFFFFFFFFFFFFFFFFFFFFFFFFFFFFFFFFFFFFFFFFFFFFFFFFFFFFFFFFFFFFFFFFFFFFFFFFFFFFFFFFFFFFFFFFFFFFFFFFFFFFFFFFFFFFFFFFFFFFFFFFFFFFFFFFFFFFFFFFFFFFFFFFFFFFFFFFFFFFFFFFFFFFFFFFFFFFFFFFFFFFFFFFFFFFFFFFFFFFFFFFFFFFFFFFFFFFFFFFFFFFFFFF
310
FFFFFFFFFFFFFFFFFFFFFFFFFFFFFFFFFFFFFFFFFFFFFFFFFFFFFFFFFFFFFFFFFFFFFFFFFFFFFFFFFFFFFFFFFFFFFFFFFFFFFFFFFFFFFFFFFFFFFFFFFFFFFFFFFFFFFFFFFFFFFFFFFFFFFFFFFFFFFFFFFFFFFFFFFFFFFFFFFFFFFFFFFFFFFFFFFFFFFFFFFFFFFFFFFFFFFFFFFFFFFFFFFFFFFFFFFFFFFFFFFFFFFFFFFFFFFF
310
FFFFFFFFFFFFFFFFFFFFFFFFFFFFFFFFFFFFFFFFFFFFFFFFFFFFFFFFFFFFFFFFFFFFFFFFFFFFFFFFFFFFFFFFFFFFFFFFFFFFFFFFFFFFFFFFFFFFFFFFFFFFFFFFFFFFFFFFFFFFFFFFFFFFFFFFFFFFFFFFFFFFFFFFFFFFFFFFFFFFFFFFFFFFFFFFFFFFFFFFFFFFFFFFFFFFFFFFFFFFFFFFFFFFFFFFFFFFFFFFFFFFFFFFFFFFFF
310
FFFFFFFFFDFFFFFF04000000FEFFFFFF050000000D000000060000000700000008000000090000000A0000000B0000000C000000FEFFFFFFFEFFFFFFFFFFFFFFFFFFFFFFFFFFFFFFFFFFFFFFFFFFFFFFFFFFFFFFFFFFFFFFFFFFFFFFFFFFFFFFFFFFFFFFFFFFFFFFFFFFFFFFFFFFFFFFFFFFFFFFFFFFFFFFFFFFFFFFFFFFFF
310
FFFFFFFFFFFFFFFFFFFFFFFFFFFFFFFFFFFFFFFFFFFFFFFFFFFFFFFFFFFFFFFFFFFFFFFFFFFFFFFFFFFFFFFFFFFFFFFFFFFFFFFFFFFFFFFFFFFFFFFFFFFFFFFFFFFFFFFFFFFFFFFFFFFFFFFFFFFFFFFFFFFFFFFFFFFFFFFFFFFFFFFFFFFFFFFFFFFFFFFFFFFFFFFFFFFFFFFFFFFFFFFFFFFFFFFFFFFFFFFFFFFFFFFFFFFFFF
310
FFFFFFFFFFFFFFFFFFFFFFFFFFFFFFFFFFFFFFFFFFFFFFFFFFFFFFFFFFFFFFFFFFFFFFFFFFFFFFFFFFFFFFFFFFFFFFFFFFFFFFFFFFFFFFFFFFFFFFFFFFFFFFFFFFFFFFFFFFFFFFFFFFFFFFFFFFFFFFFFFFFFFFFFFFFFFFFFFFFFFFFFFFFFFFFFFFFFFFFFFFFFFFFFFFFFFFFFFFFFFFFFFFFFFFFFFFFFFFFFFFFFFFFFFFFFFF
310
FFFFFFFFFFFFFFFFFFFFFFFFFFFFFFFFFFFFFFFFFFFFFFFFFFFFFFFFFFFFFFFFFFFFFFFFFFFFFFFFFFFFFFFFFFFFFFFFFFFFFFFFFFFFFFFFFFFFFFFFFFFFFFFFFFFFFFFFFFFFFFFFFFFFFFFFFFFFFFFFFFFFFFFFFFFFFFFFFFFFFFFFFFFFFFFFFFFFFFFFFFFFFFFFFFFFFFFFFFFFFFFFFFFFFFFFFFFFFFFFFFFFFFFFFFFFFF
310
FFFFFFFFFFFFFFFF52006F006F007400200045006E00740072007900000000000000000000000000000000000000000000000000000000000000000000000000000000000000000016000500FFFFFFFFFFFFFFFF010000000000000000000000000000000000000000000000000000000000000080522C4EE3AEBF01030000
310
00C0100000000000005600420041005F00500072006F006A0065006300740000000000000000000000000000000000000000000000000000000000000000000000000000000000000018000101FFFFFFFF0800000006000000000000000000000000000000000000000000000080522C4EE3AEBF0180522C4EE3AEBF010000
310
000000000000000000005600420041000000000000000000000000000000000000000000000000000000000000000000000000000000000000000000000000000000000000000000000008000100FFFFFFFFFFFFFFFF04000000000000000000000000000000000000000000000080522C4EE3AEBF0180522C4EE3AEBF0100
310
00000000000000000000006400690072000000000000000000000000000000000000000000000000000000000000000000000000000000000000000000000000000000000000000000000008000200FFFFFFFFFFFFFFFFFFFFFFFF000000000000000000000000000000000000000000000000000000000000000000000000
310
00000000F90100000000000001000000020000000300000004000000050000000600000007000000FEFFFFFF090000000A0000000B0000000C0000000D0000000E0000000F0000001000000011000000120000001300000014000000150000001600000017000000FEFFFFFF190000001A0000001B0000001C0000001D0000
310
001E0000001F000000200000002100000022000000230000002400000025000000260000002700000028000000290000002A0000002B0000002C0000002D0000002E0000002F000000300000003100000032000000330000003400000035000000360000003700000038000000390000003A0000003B000000FEFFFFFF3D00
310
00003E0000003F00000040000000FEFFFFFFFEFFFFFFFEFFFFFFFFFFFFFFFFFFFFFFFFFFFFFFFFFFFFFFFFFFFFFFFFFFFFFFFFFFFFFFFFFFFFFFFFFFFFFFFFFFFFFFFFFFFFFFFFFFFFFFFFFFFFFFFFFFFFFFFFFFFFFFFFFFFFFFFFFFFFFFFFFFFFFFFFFFFFFFFFFFFFFFFFFFFFFFFFFFFFFFFFFFFFFFFFFFFFFFFFFFFFFFFF
310
FFFFFFFFFFFFFFFFFFFFFFFFFFFFFFFFFFFFFFFFFFFFFFFFFFFFFFFFFFFFFFFFFFFFFFFFFFFFFFFFFFFFFFFFFFFFFFFFFFFFFFFFFFFFFFFFFFFFFFFFFFFFFFFFFFFFFFFFFFFFFFFFFFFFFFFFFFFFFFFFFFFFFFFFFFFFFFFFFFFFFFFFFFFFFFFFFFFFFFFFFFFFFFFFFFFFFFFFFFFFFFFFFFFFFFFFFFFFFFFFFFFFFFFFFFFFFF
310
FFFFFFFFFFFFFFFFFFFFFFFFFFFFFFFF01F5B1800100040000000100302A020290090070140648030082020064E40404000B001C004143414450726F6A10656374050038000040D5021406020A3D020A07027401140A080612090212C0C8BF382834000C024A3C020A16000101727374646F6C653E0102197300740064006F
310
00006C0065000D00660500255C00032A5C477B3000303032303433302D3B0008040443000A020E011230300034367D23322E3023003023433A5C57494E00444F57535C5359530054454D5C5354444F004C45322E544C4223010008204175746F6D613074696F6E005E00011600020780024D53466F726D10733E000E010600
310
53000246004572006D007300682F007A800970800101463600354238343236302D00344131382D31314400312D384439372D348034343535333534014803174604332E545744234D006963726F736F66748A20023D200060204F6201B000204C69627261727947003900011E50300090001372038001015038393136374580
310
30362D35343239275081804A505C5642455C8528044558A728E12E450D8F00E01A10852E02608C284D0BB481940F828F01002213C2015093198291546800697344726177696E44671A0D04320016C030541000680069805D4400721000610077C0026E006744001C4006000048420131C1C2941F0300001E42020105A22C42
310
1956932242082B420102104201000000000000005400680069007300440072006100770069006E006700000000000000000000000000000000000000000000000000000000000000000000000000000000000000180002010300000005000000FFFFFFFF000000000000000000000000000000000000000000000000000000
310
00000000000000000008000000D0030000000000005F005600420041005F00500052004F004A00450043005400000000000000000000000000000000000000000000000000000000000000000000000000000000001A000200FFFFFFFFFFFFFFFFFFFFFFFF0000000000000000000000000000000000000000000000000000
310
0000000000000000000018000000EA08000000000000500052004F004A004500430054000000000000000000000000000000000000000000000000000000000000000000000000000000000000000000000000000000100002010200000007000000FFFFFFFF00000000000000000000000000000000000000000000000000
310
00000000000000000000003C0000002601000000000000500052004F004A0045004300540077006D000000000000000000000000000000000000000000000000000000000000000000000000000000000000000000000014000200FFFFFFFFFFFFFFFFFFFFFFFF000000000000000000000000000000000000000000000000
310
0000000000000000000000004100000026000000000000000116010000B600FFFF010100000000FFFFFFFF00000000FFFFFFFFFFFF0000000000000000000000000000000000000000000000000000000000000000000000000000000000000000000000000000000010000000030000000500000007000000FFFFFFFFFFFF
310
FFFF010108000000FFFFFFFF78000000DE000000AF020000F5010000FFFFFFFF0000000001000000509356930000FFFF2300000088000000080000000000000000000000000000000000000000000000000000000000000000FFFF0000CB020000D6000000D60000001F0300000000FFFFFFFF00000000DF00FFFF00000000
310
0C00FFFFFFFFFFFFFFFFFFFFFFFFFFFFFFFFFFFFFFFFFFFFFFFFFFFFFFFFFFFFFFFFFFFFFFFFFFFFFFFFFFFFFFFFFFFFFFFFFFFFFFFFFFFFFFFFFFFFFFFFFFFFFFFFFFFFFFFFFFFFFFFFFFFFFFFFFFFFFFFFFFFFFFFFFFFFFFFFFFFFFFFFFFFFFFFFFFFFFFFFFFFFFFFFFFFFFFFFFFFFFFFFFFFFFFFFFFFFFFFFFFFFFFFFFF
310
FFFFFF280000000200534CFFFFFFFF000001005310FFFFFFFF000001005394FFFFFFFF00000000023CFFFFFFFF0000FFFF01010000000001004E0030007B00380045003700350044003900310033002D0033004400320031002D0031003100440032002D0038003500430034002D0030003800300030003000390041003000
310
43003600320036007D00000000000000DF00000000FFFFFFFF0101380000000281FEFFFFFFFFFFFFFFFFFF280000000000FFFF0000000000000000FFFFFFFFFFFFFFFF303034361D00000024000000FFFFFFFF480000000000FFFF00000100000000000000FFFFFFFFFFFFFFFFFFFFFFFF00000000FFFFFFFFFFFFFFFFFFFF
310
FFFFFFFFFFFF00000000FFFFFFFFFFFFFFFFFFFFFFFFFFFFFFFF0000000001000000FFFFFFFFFFFFFFFF00000000FFFFFFFFFFFFFFFFFFFFFFFFFFFFFFFFFFFFFFFFFFFFFFFFFFFFFFFFFFFF4D450000FFFFFFFFFFFF00000000FFFF00000000FFFF0101000000000000000000000000000000000000000000000000000000
310
00000000000000000000000000000000000000000000000000000000000000000000000000FECA01000000FFFFFFFF010108000000FFFFFFFF7800000001ADB000417474726962757400652056425F4E616D0065203D2022546869007344726177696E6788220D0A0A88426173028800307B3845373544390031332D334432
310
312D00313144322D38354300342D303830303039804130433632367D0D7C00437265617461626C41018646616C73650CBC508072656465636C610006444964008A5472750D22452078706F7365141C5465006D706C6174654465187269760224116543757360746F6D697A0488033200000000000000000000000000000000
310
0000000000000000000000000000000000000000000000000000000000000000CC615E00000100FF0904000009040000E4040100000000000000000001000400020016012A005C0047007B00300030003000320030003400450046002D0030003000300030002D0030003000300030002D0043003000300030002D00300030
310
0030003000300030003000300030003000340036007D00230033002E00300023003900230043003A005C00500052004F004700520041004D002000460049004C00450053005C0043004F004D004D004F004E002000460049004C00450053005C004D004900430052004F0053004F0046005400200053004800410052004500
310
44005C005600420041005C005600420041003300330032002E0044004C004C002300560069007300750061006C00200042006100730069006300200046006F00720020004100700070006C00690063006100740069006F006E007300000000000000000000000000CE002A005C0047007B0043003000390034004300310045
310
0032002D0035003700430036002D0031003100440032002D0038003500450033002D003000380030003000300039004100300043003600320036007D00230031002E00310023003000230043003A005C00500072006F006700720061006D002000460069006C00650073005C004D00440054005C0041004300410044002E00
310
54004C00420023004100750074006F00430041004400200032003000300030002000540079007000650020004C00690062007200610072007900000000000000000000000000B8002A005C0047007B00300030003000320030003400330030002D0030003000300030002D0030003000300030002D0043003000300030002D
310
003000300030003000300030003000300030003000340036007D00230032002E00300023003000230043003A005C00570049004E0044004F00570053005C00530059005300540045004D005C005300540044004F004C00450032002E0054004C00420023004F004C00450020004100750074006F006D006100740069006F00
310
6E00000000000000000000000000E0002A005C0047007B00360035004200380034003200360030002D0034004100310038002D0031003100440031002D0038004400390037002D003400340034003500350033003500340030003000300030007D00230032002E00300023003000230043003A005C00570049004E0044004F
310
00570053005C00530059005300540045004D005C004D00530046006F0072006D0073002E0054005700440023004D006900630072006F0073006F0066007400200046006F0072006D007300200032002E00300020004F0062006A0065006300740020004C00690062007200610072007900000000000000000000000100E400
310
2A005C0047007B00380039003100360037004500300036002D0035003400320039002D0031003100440031002D0038004400390037002D003400340034003500350033003500340030003000300030007D00230032002E00300023003000230043003A005C00570049004E0044004F00570053005C00540045004D0050005C
310
005600420045005C004D00530046006F0072006D0073002E0045005800440023004D006900630072006F0073006F0066007400200046006F0072006D007300200032002E00300020004F0062006A0065006300740020004C006900620072006100720079000000000000000000000001000000E12E450D8FE01A10852E0260
310
8C4D0BB400000100020003000402000006020100080200001002FFFFFFFFFFFF00000000FFFF0000C0C8BF383400FFFFFFFFFFFFFFFFFFFFFFFFFFFFFFFFFFFFFFFFFFFFFFFFFFFFFFFFFFFFFFFFFFFFFFFFFFFFFFFFFFFF0000FFFFFFFFFFFFFFFFFFFFFFFFFFFFFFFFFFFFFFFF0100000000000000000000000000000000
310
0000005093010016005400680069007300440072006100770069006E0067000A003334333862666338633003002A44011302FFFF569300000000000000020000001F030000FFFFFFFFFFFF010120020000FFFFFFFFFFFFFFFFFFFFFFFFFFFFFFFFFFFFFFFFFFFFFFFFFFFFFFFFFFFFFFFFFFFFFFFFFFFFFFFFFFFFFFFFFFFF
310
FFFFFFFFFFFFFFFFFFFFFFFFFFFFFFFFFFFFFFFFFFFFFFFFFFFFFFFFFFFFFFFFFFFFFFFFFFFFFFFFFFFFFFFFFFFFFFFFFFFFFFFFFFFFFFFFFFFFFFFFFFFFFFFFFFFFFFFFFFFFFFFFFFFFFFFFFFFFFFFFFFFFFFFFFFFFFFFFFFFFFFFFFFFFFFFFFFFFFFFFFFFFFFFFFFFFFFFFFFFFFFFFFFFFFFFFFFFFFFFFFFFFFFFFFFFFFF
310
FFFFFFFFFFFFFFFFFFFFFFFFFFFFFFFFFFFFFFFFFFFFFFFFFFFFFFFFFFFFFFFFFFFFFFFFFFFFFFFFFFFFFFFFFFFFFFFFFFFFFFFFFFFFFFFFFFFFFFFFFFFFFFFFFFFFFFFFFFFFFFFFFFFFFFFFFFFFFFFFFFFFFFFFFFFFFFFFFFFFFFFFFFFFFFFFFFFFFFFFFFFFFFFFFFFFFFFFFFFFFFFFFFFFFFFFFFFFFFFFFFFFFFFFFFFFFF
310
FFFFFFFFFFFFFFFFFFFFFFFFFFFFFFFFFFFFFFFFFFFFFFFFFFFFFFFFFFFFFFFFFFFFFFFFFFFFFFFF00020000FFFFFFFFFFFFFFFFFFFFFFFFFFFFFFFFFFFFFFFFFFFFFFFFFFFFFFFFFFFFFFFFFFFFFFFFFFFFFFFFFFFFFFFFFFFFFFFFFFFFFFFFFFFFFFFFFFFFFFFFFFFFFFFFFFFFFFFFFFFFFFFFFFFFFFFFFFFFFFFFFFFFFF
310
FFFFFFFFFFFFFFFFFFFFFFFFFFFFFFFFFFFFFFFFFFFFFFFFFFFFFFFFFFFFFFFFFFFFFFFFFFFFFFFFFFFFFFFFFFFFFFFFFFFFFFFFFFFFFFFFFFFFFFFFFFFFFFFFFFFFFFFFFFFFFFFFFFFFFFFFFFFFFFFFFFFFFFFFFF5E93ED3BD2F0D3118DA400A0C981A35FFFFFFFFF01000000FFFFFFFF600000008000000000000B010C00
310
FF008825000007044175746F43414422F810000304564241F7E21000050457696E3136C17E1000050457696E3332077F100003044D6163B3B21000080450726F6A656374310A17100006047374646F6C659360100007004D53466F726D73430F10000B044143414450726F6A656374A6D410000B045468697344726177696E
310
67B935100009800000FF03FFFF5F4576616C7561746518D910000C0441636164446F63756D656E741B5A100002FFFF0101480000001002FFFFFFFF130200000100FFFFFFFFFFFFFFFFFFFFFFFF00020100FFFF02020000FFFFFFFFFFFFFFFFFFFFFFFFFFFFFFFFFFFFFFFFFFFFFFFFFFFF0C020200FFFF0E020300FFFF0100
310
0C0000000100120000000000000000000000000000000000000000000000000000000000000000000000000000000000000049443D227B33424544393336342D463044322D313144332D384441342D3030413043393831413335467D220D0A446F63756D656E743D5468697344726177696E672F264830303030303030300D
310
0A4E616D653D224143414450726F6A656374220D0A48656C70436F6E7465787449443D2230220D0A434D473D2234453443393544433642324336323330363233303632333036323330220D0A4450423D2234393442393232373933323739333237220D0A47433D223434343639464441363144343632443436323242220D0A
310
0D0A5B486F737420457874656E64657220496E666F5D0D0A264830303030303030313D7B33383332443634302D434639302D313143462D384534332D3030413043393131303035417D3B5642453B264830303030303030300D0A00000000000000000000000000000000000000000000000000005468697344726177696E67
310
005400680069007300440072006100770069006E0067000000000000000000000000000000000000000000000000000000000000000F00000000000000000000000000000000000000000000000000000000000000000000000000000000000000000000000000000000000000000000000000000000000000000000000000
310
00000000000000000000000000000000000000000000000000000000000000000000000000000000000000000000000000000000000000000000000000000000000000000000000000000000000000000000000000000000000000000000000000000000000000000000000000000000000000000000000000000000000000
310
00000000000000000000000000000000000000000000000000000000000000000000000000000000000000000000000000000000000000000000000000000000000000000000000000000000000000000000000000000000000000000000000000000000000000000000000000000000000000000000000000000000000000
310
00000000000000000000000000000000000000000000000000000000000000000000000000000000000000000000000000000000000000005600420041005F00500072006F006A006500630074005F00560065007200730069006F006E00000000000000000000000000000000000000000000000000000028000200FFFFFF
310
FFFFFFFFFFFFFFFFFF0000000000000000000000000000000000000000000000000000000000000000000000004200000008000000000000000000000000000000000000000000000000000000000000000000000000000000000000000000000000000000000000000000000000000000000000000000000000000000FFFF
310
FFFFFFFFFFFFFFFFFFFF0000000000000000000000000000000000000000000000000000000000000000000000000000000000000000000000000000000000000000000000000000000000000000000000000000000000000000000000000000000000000000000000000000000000000000000000000000000000000000FF
310
FFFFFFFFFFFFFFFFFFFFFF0000000000000000000000000000000000000000000000000000000000000000000000000000000000000000000000000000000000000000000000000000000000000000000000000000000000000000000000000000000000000000000000000000000000000000000000000000000000000000
310
FFFFFFFFFFFFFFFFFFFFFFFF000000000000000000000000000000000000000000000000000000000000000000000000000000000000000000000000
  0
XRECORD
  5
B11B9
102
{ACAD_REACTORS
330
B11B7
102
}
330
B11B7
100
AcDbXrecord
280
     1
330
92A34
330
92A35
330
92A36
330
92A37
330
92A38
330
92A39
330
92A3A
330
92A3B
330
92A3C
330
92A3D
330
92A57
330
92A58
330
92A72
330
92A8C
330
92A8D
330
92A8E
330
92A8F
330
92A90
330
92A91
330
92A92
330
92A93
330
92A94
330
92A95
330
92A96
330
92A97
330
92A98
330
92A99
330
92A9A
330
92A9B
330
92A9C
330
92A9D
330
92A9E
330
92A9F
330
92AA0
330
92AA1
330
92AA2
330
92AA3
330
92AA4
330
92AA5
330
92AA6
330
92AA7
330
92AA8
330
92AA9
330
92AAA
330
92AAB
330
92AAC
330
92AAD
330
92AAE
330
92AAF
330
92AB0
330
92AB1
330
92AB2
330
92AB3
330
92AB4
330
92AB5
330
92AB6
330
92AB7
330
92AB8
330
92AB9
330
92ABA
330
92ABB
330
92ABC
330
92ABD
330
92ABE
330
92ABF
330
92AC0
330
92AC1
330
92AC2
330
92AC3
330
92AC4
330
92AC5
330
92AC6
330
92AC7
330
92AC8
330
92AC9
330
92ACA
330
92ACB
330
92ACC
330
92ACD
330
92ACE
330
92ACF
330
92AD0
330
92AD1
330
92AD2
330
92AD3
330
92AD4
330
92AD5
330
92AD6
330
92AD7
330
92AD8
330
92AD9
330
92ADA
330
92ADB
330
92ADC
330
92ADD
330
92ADE
330
92ADF
330
92AE0
330
92AE1
330
92AE2
330
92AE3
330
92AE4
330
92AE5
330
92AE6
330
92AE7
330
92AE8
330
92AE9
330
92AEA
330
92AEB
330
92AEC
330
92AED
330
92AEE
330
0
330
0
330
0
330
0
330
0
330
0
330
0
  0
ENDSEC
  0
EOF
