  0
SECTION
  2
HEADER
  9
$ACADVER
  1
AC1015
  9
$ACADMAINTVER
 70
     6
  9
$DWGCODEPAGE
  3
ANSI_1252
  9
$INSBASE
 10
0.0
 20
0.0
 30
0.0
  9
$EXTMIN
 10
245.000072138155
 20
21.77558689011505
 30
0.0
  9
$EXTMAX
 10
642.4720944687412
 20
317.4559937457948
 30
0.0
  9
$LIMMIN
 10
0.0
 20
0.0
  9
$LIMMAX
 10
12.0
 20
9.0
  9
$ORTHOMODE
 70
     0
  9
$REGENMODE
 70
     1
  9
$FILLMODE
 70
     1
  9
$QTEXTMODE
 70
     0
  9
$MIRRTEXT
 70
     0
  9
$LTSCALE
 40
1.0
  9
$ATTMODE
 70
     2
  9
$TEXTSIZE
 40
3.0
  9
$TRACEWID
 40
0.05
  9
$TEXTSTYLE
  7
STANDARD
  9
$CLAYER
  8
A1
  9
$CELTYPE
  6
BYLAYER
  9
$CECOLOR
 62
     7
  9
$CELTSCALE
 40
1.0
  9
$DISPSILH
 70
     0
  9
$DIMSCALE
 40
6.0
  9
$DIMASZ
 40
0.5
  9
$DIMEXO
 40
1.0
  9
$DIMDLI
 40
0.0625
  9
$DIMRND
 40
0.0
  9
$DIMDLE
 40
0.0
  9
$DIMEXE
 40
0.25
  9
$DIMTP
 40
0.0
  9
$DIMTM
 40
0.0
  9
$DIMTXT
 40
1.0
  9
$DIMCEN
 40
0.0
  9
$DIMTSZ
 40
0.0
  9
$DIMTOL
 70
     0
  9
$DIMLIM
 70
     0
  9
$DIMTIH
 70
     1
  9
$DIMTOH
 70
     1
  9
$DIMSE1
 70
     0
  9
$DIMSE2
 70
     0
  9
$DIMTAD
 70
     0
  9
$DIMZIN
 70
     0
  9
$DIMBLK
  1

  9
$DIMASO
 70
     1
  9
$DIMSHO
 70
     1
  9
$DIMPOST
  1
"
  9
$DIMAPOST
  1

  9
$DIMALT
 70
     0
  9
$DIMALTD
 70
     0
  9
$DIMALTF
 40
25.4
  9
$DIMLFAC
 40
1.0
  9
$DIMTOFL
 70
     0
  9
$DIMTVP
 40
0.0
  9
$DIMTIX
 70
     0
  9
$DIMSOXD
 70
     0
  9
$DIMSAH
 70
     0
  9
$DIMBLK1
  1

  9
$DIMBLK2
  1

  9
$DIMSTYLE
  2
STANDARD
  9
$DIMCLRD
 70
     0
  9
$DIMCLRE
 70
     0
  9
$DIMCLRT
 70
     0
  9
$DIMTFAC
 40
0.125
  9
$DIMGAP
 40
0.5
  9
$DIMJUST
 70
     0
  9
$DIMSD1
 70
     0
  9
$DIMSD2
 70
     0
  9
$DIMTOLJ
 70
     1
  9
$DIMTZIN
 70
     0
  9
$DIMALTZ
 70
     2
  9
$DIMALTTZ
 70
     2
  9
$DIMUPT
 70
     1
  9
$DIMDEC
 70
     4
  9
$DIMTDEC
 70
     4
  9
$DIMALTU
 70
     2
  9
$DIMALTTD
 70
     0
  9
$DIMTXSTY
  7
STANDARD
  9
$DIMAUNIT
 70
     0
  9
$DIMADEC
 70
     0
  9
$DIMALTRND
 40
0.0
  9
$DIMAZIN
 70
     0
  9
$DIMDSEP
 70
    46
  9
$DIMATFIT
 70
     1
  9
$DIMFRAC
 70
     2
  9
$DIMLDRBLK
  1

  9
$DIMLUNIT
 70
     5
  9
$DIMLWD
 70
    -2
  9
$DIMLWE
 70
    -2
  9
$DIMTMOVE
 70
     1
  9
$LUNITS
 70
     5
  9
$LUPREC
 70
     4
  9
$SKETCHINC
 40
0.1
  9
$FILLETRAD
 40
0.0
  9
$AUNITS
 70
     0
  9
$AUPREC
 70
     1
  9
$MENU
  1
acad
  9
$ELEVATION
 40
0.0
  9
$PELEVATION
 40
0.0
  9
$THICKNESS
 40
0.0
  9
$LIMCHECK
 70
     0
  9
$CHAMFERA
 40
0.75
  9
$CHAMFERB
 40
0.75
  9
$CHAMFERC
 40
0.0
  9
$CHAMFERD
 40
0.0
  9
$SKPOLY
 70
     0
  9
$TDCREATE
 40
2451085.664838310
  9
$TDUCREATE
 40
2451085.831504977
  9
$TDUPDATE
 40
2451660.599293634
  9
$TDUUPDATE
 40
2451660.765960300
  9
$TDINDWG
 40
2.6873694444
  9
$TDUSRTIMER
 40
2.6873694444
  9
$USRTIMER
 70
     1
  9
$ANGBASE
 50
0.0
  9
$ANGDIR
 70
     0
  9
$PDMODE
 70
     0
  9
$PDSIZE
 40
0.0
  9
$PLINEWID
 40
0.0
  9
$SPLFRAME
 70
     0
  9
$SPLINETYPE
 70
     6
  9
$SPLINESEGS
 70
     8
  9
$HANDSEED
  5
3B84
  9
$SURFTAB1
 70
     6
  9
$SURFTAB2
 70
     6
  9
$SURFTYPE
 70
     6
  9
$SURFU
 70
     6
  9
$SURFV
 70
     6
  9
$UCSBASE
  2

  9
$UCSNAME
  2

  9
$UCSORG
 10
0.0
 20
0.0
 30
0.0
  9
$UCSXDIR
 10
1.0
 20
0.0
 30
0.0
  9
$UCSYDIR
 10
0.0
 20
1.0
 30
0.0
  9
$UCSORTHOREF
  2

  9
$UCSORTHOVIEW
 70
     0
  9
$UCSORGTOP
 10
0.0
 20
0.0
 30
0.0
  9
$UCSORGBOTTOM
 10
0.0
 20
0.0
 30
0.0
  9
$UCSORGLEFT
 10
0.0
 20
0.0
 30
0.0
  9
$UCSORGRIGHT
 10
0.0
 20
0.0
 30
0.0
  9
$UCSORGFRONT
 10
0.0
 20
0.0
 30
0.0
  9
$UCSORGBACK
 10
0.0
 20
0.0
 30
0.0
  9
$PUCSBASE
  2

  9
$PUCSNAME
  2

  9
$PUCSORG
 10
0.0
 20
0.0
 30
0.0
  9
$PUCSXDIR
 10
1.0
 20
0.0
 30
0.0
  9
$PUCSYDIR
 10
0.0
 20
1.0
 30
0.0
  9
$PUCSORTHOREF
  2

  9
$PUCSORTHOVIEW
 70
     0
  9
$PUCSORGTOP
 10
0.0
 20
0.0
 30
0.0
  9
$PUCSORGBOTTOM
 10
0.0
 20
0.0
 30
0.0
  9
$PUCSORGLEFT
 10
0.0
 20
0.0
 30
0.0
  9
$PUCSORGRIGHT
 10
0.0
 20
0.0
 30
0.0
  9
$PUCSORGFRONT
 10
0.0
 20
0.0
 30
0.0
  9
$PUCSORGBACK
 10
0.0
 20
0.0
 30
0.0
  9
$USERI1
 70
     0
  9
$USERI2
 70
     0
  9
$USERI3
 70
     0
  9
$USERI4
 70
     0
  9
$USERI5
 70
     0
  9
$USERR1
 40
0.0
  9
$USERR2
 40
0.0
  9
$USERR3
 40
0.0
  9
$USERR4
 40
0.0
  9
$USERR5
 40
0.0
  9
$WORLDVIEW
 70
     1
  9
$SHADEDGE
 70
     1
  9
$SHADEDIF
 70
    70
  9
$TILEMODE
 70
     1
  9
$MAXACTVP
 70
    16
  9
$PINSBASE
 10
0.0
 20
0.0
 30
0.0
  9
$PLIMCHECK
 70
     0
  9
$PEXTMIN
 10
1.000000000000000E+20
 20
1.000000000000000E+20
 30
1.000000000000000E+20
  9
$PEXTMAX
 10
-1.000000000000000E+20
 20
-1.000000000000000E+20
 30
-1.000000000000000E+20
  9
$PLIMMIN
 10
0.0
 20
0.0
  9
$PLIMMAX
 10
12.0
 20
9.0
  9
$UNITMODE
 70
     0
  9
$VISRETAIN
 70
     0
  9
$PLINEGEN
 70
     0
  9
$PSLTSCALE
 70
     1
  9
$TREEDEPTH
 70
  3020
  9
$CMLSTYLE
  2
STANDARD
  9
$CMLJUST
 70
     0
  9
$CMLSCALE
 40
1.0
  9
$PROXYGRAPHICS
 70
     1
  9
$MEASUREMENT
 70
     0
  9
$CELWEIGHT
370
    -1
  9
$ENDCAPS
280
     0
  9
$JOINSTYLE
280
     0
  9
$LWDISPLAY
290
     0
  9
$INSUNITS
 70
     0
  9
$HYPERLINKBASE
  1

  9
$STYLESHEET
  1

  9
$XEDIT
290
     1
  9
$CEPSNTYPE
380
     0
  9
$PSTYLEMODE
290
     1
  9
$FINGERPRINTGUID
  2
{A6232B84-9B2E-11D3-8DA4-00A0C981A35F}
  9
$VERSIONGUID
  2
{5FEFA9C3-F333-11D3-8DA4-00A0C981A35F}
  9
$EXTNAMES
290
     1
  9
$PSVPSCALE
 40
0.0
  9
$OLESTARTUP
290
     0
  0
ENDSEC
  0
SECTION
  2
CLASSES
  0
CLASS
  1
DICTIONARYVAR
  2
AcDbDictionaryVar
  3
AutoCAD 2000
 90
    32768
280
     0
281
     0
  0
CLASS
  1
LWPOLYLINE
  2
AcDbPolyline
  3
AutoCAD 2000
 90
    32768
280
     0
281
     1
  0
CLASS
  1
RASTERVARIABLES
  2
AcDbRasterVariables
  3
ISM
 90
    32768
280
     0
281
     0
  0
CLASS
  1
ACDBDICTIONARYWDFLT
  2
AcDbDictionaryWithDefault
  3
AutoCAD 2000
 90
        0
280
     0
281
     0
  0
CLASS
  1
ACDBPLACEHOLDER
  2
AcDbPlaceHolder
  3
AutoCAD 2000
 90
        0
280
     0
281
     0
  0
CLASS
  1
LAYOUT
  2
AcDbLayout
  3
AutoCAD 2000
 90
        0
280
     0
281
     0
  0
CLASS
  1
ACME_DOCUMENT
  2
AcMeDbDoc
  3
AcMeServices
 90
    32768
280
     1
281
     0
  0
CLASS
  1
ACMESCOPE
  2
AcMeScope
  3
AcMeServices
 90
    32768
280
     1
281
     0
  0
CLASS
  1
ACMECOMMANDHISTORY
  2
AcMeCommandHistory
  3
AcMeServices
 90
    32768
280
     1
281
     0
  0
CLASS
  1
ACIMSYSVARMAN
  2
AcImSysVarManager
  3
AcMeServices
 90
    32768
280
     1
281
     0
  0
CLASS
  1
ACIMREALSYSVAR
  2
AcImRealSysVar
  3
AcMeServices
 90
    32768
280
     1
281
     0
  0
CLASS
  1
ACIMINTSYSVAR
  2
AcImIntSysVar
  3
AcMeServices
 90
    32768
280
     1
281
     0
  0
CLASS
  1
ACMEDRAWINGMAN
  2
AcMeDrawingMan
  3
AcMeServices
 90
    32768
280
     1
281
     0
  0
CLASS
  1
ACMEVIEW
  2
AcMeView
  3
AcMeServices
 90
    32768
280
     1
281
     0
  0
CLASS
  1
ACDBENTITYCACHE
  2
AcMeEntityCache
  3
AcMeServices
 90
    32768
280
     1
281
     0
  0
CLASS
  1
GSMANAGER
  2
AcMeGSManager
  3
AcMeServices
 90
    32768
280
     1
281
     0
  0
CLASS
  1
AmdtInternalReactor
  2
AmdtInternalReactor
  3
AcMeServices
 90
    32768
280
     1
281
     0
  0
CLASS
  1
ACMESTATEMGR
  2
AcMeStateMgr
  3
AcMeServices
 90
    32768
280
     1
281
     0
  0
CLASS
  1
ACGREFMASTER
  2
AcGrefMaster
  3
AcAttribServices
 90
    32768
280
     1
281
     0
  0
CLASS
  1
AM_DRAWING_MGR
  2
AcDmDwgMgr
  3
AcMechDwgViewMgmt
 90
    32768
280
     1
281
     0
  0
CLASS
  1
AM_DWG_DOCUMENT
  2
AcDmDwgDocument
  3
AcMechDwgViewMgmt
 90
    32768
280
     1
281
     0
  0
CLASS
  1
AM_DWG_SHEET
  2
AcDmSheet
  3
AcMechDwgViewMgmt
 90
    32768
280
     1
281
     0
  0
CLASS
  1
AM_VIEWDIMPARMAP
  2
AcDmViewDimParMap
  3
AcMechDwgViewMgmt
 90
    32768
280
     1
281
     0
  0
CLASS
  1
AM_DWGMGR_NAME
  2
AcDmDwgMgrName
  3
AcMechDwgViewMgmt
 90
    32768
280
     1
281
     0
  0
CLASS
  1
ACME_DATABASE
  2
AcMeDbDatabase
  3
AcMeServices
 90
    32768
280
     1
281
     0
  0
CLASS
  1
ACRFINSADJUSTERMGR
  2
AcRfInsAdjusterMgr
  3
AcMeServices
 90
    32768
280
     1
281
     0
  0
CLASS
  1
ACGREFMASTER
  2
AcGrefacadMaster
  3
AcGrefServices
 90
    32768
280
     1
281
     0
  0
CLASS
  1
AMDTMENUSTATEMGR
  2
AmdtMenuStateMgr
  3
McadcomServices
 90
    32768
280
     1
281
     0
  0
CLASS
  1
AMDTMCOMMENUSTATE
  2
AmdtMcomMenuState
  3
McadcomServices
 90
    32768
280
     1
281
     0
  0
CLASS
  1
ASAPP
  2
AcAsAppObject
  3
AutoSurfServices
 90
    32768
280
     1
281
     0
  0
CLASS
  1
IM_STATIC_MAN
  2
AcImStaticVarManager
  3
AcMeServices
 90
    32768
280
     1
281
     0
  0
CLASS
  1
ACIMSTRSYSVAR
  2
AcImStrSysVar
  3
AcMeServices
 90
    32768
280
     1
281
     0
  0
CLASS
  1
ACIMDBLSTATICVAR
  2
AcImDblStaticVar
  3
AcMeServices
 90
    32768
280
     1
281
     0
  0
CLASS
  1
ACIMSTRSTATICVAR
  2
AcImStrStaticVar
  3
AcMeServices
 90
    32768
280
     1
281
     0
  0
CLASS
  1
ACIMINTSTATICVAR
  2
AcImIntStaticVar
  3
AcMeServices
 90
    32768
280
     1
281
     0
  0
CLASS
  1
ACADGREFMODULE
  2
AcAdGrefModule
  3
AdGrefServices
 90
    32768
280
     1
281
     0
  0
CLASS
  1
AMIMASTER
  2
AmiMaster
  3
AmiServices
 90
    32768
280
     1
281
     0
  0
CLASS
  1
ACASGREFMASTER
  2
AcAsGrefMaster
  3
AutoSurfResolverServices
 90
    32768
280
     1
281
     0
  0
CLASS
  1
MAPIAMMOUDLE
  2
MApiAmModule
  3
MApiAmServices
 90
    32768
280
     1
281
     0
  0
CLASS
  1
AMDTDMMENUSTATE
  2
AmdtDmMenuState
  3
AcMechDwgViewMgmt
 90
    32768
280
     1
281
     0
  0
CLASS
  1
AMDTADMENUSTATE
  2
AmdtAdMenuState
  3
DesignerServices
 90
    32768
280
     1
281
     0
  0
CLASS
  1
ADAPPL
  2
AcAdAppl
  3
DesignerServices
 90
    32768
280
     1
281
     0
  0
CLASS
  1
DEPMGR
  2
AcAdDepMgr
  3
DesignerServices
 90
    32768
280
     1
281
     0
  0
CLASS
  1
PARAMMGR
  2
AcAdParamMgr
  3
DesignerServices
 90
    32768
280
     1
281
     0
  0
CLASS
  1
PARAMSCOPE
  2
AcAdParamScope
  3
DesignerServices
 90
    32768
280
     1
281
     0
  0
CLASS
  1
NAMEDAPPL
  2
AcAdNamedAppl
  3
DesignerServices
 90
    32768
280
     1
281
     0
  0
CLASS
  1
ADHNTMPLT
  2
AdHoleNoteTemplateMgr
  3
DesignerServices
 90
    32768
280
     1
281
     0
  0
CLASS
  1
AM_HNTEMPLATE_MGR_NAME
  2
AdHoleNoteTemplateMgrName
  3
DesignerServices
 90
    32768
280
     1
281
     0
  0
CLASS
  1
AMDTAMMENUSTATE
  2
AmdtAmMenuState
  3
DesignerAssemblies
 90
    32768
280
     1
281
     0
  0
CLASS
  1
ACAMPROJECT
  2
AcAmProject
  3
DesignerAssemblies
 90
    32768
280
     1
281
     0
  0
CLASS
  1
ACAMGRCOMPDEF
  2
AcAmGrCompDef
  3
DesignerAssemblies
 90
    32768
280
     1
281
     0
  0
CLASS
  1
ACCMCONTEXT
  2
AcCmContext
  3
DesignerAssemblies
 90
    32768
280
     1
281
     0
  0
CLASS
  1
ACAMCOMPDEF
  2
AcAmCompDef
  3
DesignerAssemblies
 90
    32768
280
     1
281
     0
  0
CLASS
  1
ACAMCOMPDEFMGR
  2
AcAmCompDefMgr
  3
DesignerAssemblies
 90
    32768
280
     1
281
     0
  0
CLASS
  1
AMCONTEXTMGR
  2
AcAmContextMgr
  3
DesignerAssemblies
 90
    32768
280
     1
281
     0
  0
CLASS
  1
ACAMCONTEXTMODELER
  2
AcAmContextModeler
  3
DesignerAssemblies
 90
    32768
280
     1
281
     0
  0
CLASS
  1
MAPIADMODULE
  2
MApiAdModule
  3
MApiAdServices
 90
    32768
280
     1
281
     0
  0
CLASS
  1
ACMDATADICTIONARY
  2
AcmDataDictionary
  3
"AcmSymBB|Product Description: AutoCAD Mechanical 2000|Company: Autodesk"
 90
    32768
280
     1
281
     0
  0
CLASS
  1
ACMDATAENTRYBLOCK
  2
AcmDataEntryBlock
  3
"AcmSymBB|Product Description: AutoCAD Mechanical 2000|Company: Autodesk"
 90
    32768
280
     1
281
     0
  0
CLASS
  1
AMDTBROWSERDBTAB
  2
AmdtBrowserDbTab
  3
McadcomServices
 90
    32768
280
     1
281
     0
  0
CLASS
  1
CBROWSERAPPOBJECT
  2
CBrowserAppObject
  3
McadcomServices
 90
    32768
280
     1
281
     0
  0
CLASS
  1
DM_PLACEHOLDER
  2
AcDmSelsetPlaceholder
  3
AcMechDwgViewMgmt
 90
    32768
280
     1
281
     0
  0
CLASS
  1
CATALOGSTATE
  2
AcAmCatalogState
  3
DesignerAssemblies
 90
    32768
280
     1
281
     0
  0
CLASS
  1
ACAMGRCOMPDEFSET
  2
AcAmGrCompDefSet
  3
DesignerAssemblies
 90
    32768
280
     1
281
     0
  0
CLASS
  1
AMGOBJPROPCFG
  2
AmgObjPropCfg
  3
"AmgLay|Product Description: AutoCAD Mechanical 2000|Company: Autodesk"
 90
    32769
280
     1
281
     0
  0
CLASS
  1
LAYER_INDEX
  2
AcDbLayerIndex
  3
AutoCAD 2000
 90
    32768
280
     0
281
     0
  0
CLASS
  1
IDBUFFER
  2
AcDbIdBuffer
  3
AutoCAD 2000
 90
    32768
280
     0
281
     0
  0
CLASS
  1
ACRFATTGENMGR
  2
AcRfAttGeneralMgr
  3
AcAttribServices
 90
    32768
280
     1
281
     0
  0
CLASS
  1
PLOTSETTINGS
  2
AcDbPlotSettings
  3
AutoCAD 2000
 90
    32768
280
     0
281
     0
  0
CLASS
  1
VBA_PROJECT
  2
AcDbVbaProject
  3
acadvba
 90
        0
280
     0
281
     0
  0
CLASS
  1
LONG_TRANSACTION
  2
AcDbLongTransaction
  3
AutoCAD 2000
 90
    32768
280
     0
281
     0
  0
CLASS
  1
LWPOLYLINE
  2
AcDbPolyline
  3
AutoCAD 2000
 90
    32768
280
     0
281
     1
  0
CLASS
  1
HATCH
  2
AcDbHatch
  3
AutoCAD 2000
 90
    32768
280
     0
281
     1
  0
CLASS
  1
XRECORD
  2
AcDbXrecord
  3
AutoCAD 2000
 90
    32768
280
     0
281
     0
  0
ENDSEC
  0
SECTION
  2
TABLES
  0
TABLE
  2
VPORT
  5
1B
330
0
100
AcDbSymbolTable
 70
     2
  0
VPORT
  5
3B83
330
1B
100
AcDbSymbolTableRecord
100
AcDbViewportTableRecord
  2
*Active
 70
     0
 10
0.0
 20
0.0
 11
1.0
 21
1.0
 12
508.193218639859
 22
146.8167747862629
 13
0.0
 23
0.0
 14
1.0
 24
1.0
 15
0.0
 25
0.0
 16
0.0
 26
0.0
 36
1.0
 17
-64.46234487877643
 27
33.0238264231553
 37
6.148717398612387
 40
318.4132741507199
 41
1.413068844807467
 42
50.0
 43
-6.148717398612387
 44
-6.148717398612387
 50
0.0
 51
0.0
 71
     0
 72
 20000
 73
     1
 74
     1
 75
     0
 76
     0
 77
     0
 78
     2
281
     0
 65
     1
110
0.0
120
0.0
130
0.0
111
1.0
121
0.0
131
0.0
112
0.0
122
1.0
132
0.0
 79
     0
146
0.0
  0
ENDTAB
  0
TABLE
  2
LTYPE
  5
16
330
0
100
AcDbSymbolTable
 70
     1
  0
LTYPE
  5
17
330
16
100
AcDbSymbolTableRecord
100
AcDbLinetypeTableRecord
  2
BYBLOCK
 70
     0
  3

 72
    65
 73
     0
 40
0.0
  0
LTYPE
  5
18
330
16
100
AcDbSymbolTableRecord
100
AcDbLinetypeTableRecord
  2
BYLAYER
 70
     0
  3

 72
    65
 73
     0
 40
0.0
  0
LTYPE
  5
9
330
16
100
AcDbSymbolTableRecord
100
AcDbLinetypeTableRecord
  2
CONTINUOUS
 70
     0
  3
Solid line
 72
    65
 73
     0
 40
0.0
  0
ENDTAB
  0
TABLE
  2
LAYER
  5
11
330
0
100
AcDbSymbolTable
 70
     4
  0
LAYER
  5
5
330
11
100
AcDbSymbolTableRecord
100
AcDbLayerTableRecord
  2
0
 70
     0
 62
     7
  6
CONTINUOUS
370
    -3
390
6
  0
LAYER
  5
24
330
11
100
AcDbSymbolTableRecord
100
AcDbLayerTableRecord
  2
A1
 70
     0
 62
     7
  6
CONTINUOUS
370
    -3
390
6
  0
LAYER
  5
1225
330
11
100
AcDbSymbolTableRecord
100
AcDbLayerTableRecord
  2
DEFPOINTS
 70
     0
 62
     7
  6
CONTINUOUS
290
     0
370
    -3
390
6
  0
LAYER
  5
3AC1
330
11
100
AcDbSymbolTableRecord
100
AcDbLayerTableRecord
  2
LINEWORK
 70
     0
 62
    41
  6
CONTINUOUS
370
    -3
390
6
  0
ENDTAB
  0
TABLE
  2
STYLE
  5
12
330
0
100
AcDbSymbolTable
 70
     3
  0
STYLE
  5
13
330
12
100
AcDbSymbolTableRecord
100
AcDbTextStyleTableRecord
  2
STANDARD
 70
     0
 40
0.0
 41
1.0
 50
0.0
 71
     0
 42
3.0
  3
unvr55w.ttf
  4

1001
ACAD
1000
Univers
1071
       34
  0
STYLE
  5
3AC2
330
12
100
AcDbSymbolTableRecord
100
AcDbTextStyleTableRecord
  2
ROMANC
 70
     0
 40
0.0
 41
1.0
 50
0.0
 71
     0
 42
0.5
  3
TIMESBD.TTF
  4

1001
ACAD
1000
Times New Roman
1071
 33554450
  0
STYLE
  5
3AC3
330
12
100
AcDbSymbolTableRecord
100
AcDbTextStyleTableRecord
  2
barcoder
 70
     0
 40
0.0
 41
1.0
 50
0.0
 71
     0
 42
4.5625
  3
cw_barcd.ttf
  4

1001
ACAD
1000
Barcoder
1071
 33554434
  0
ENDTAB
  0
TABLE
  2
VIEW
  5
19
330
0
100
AcDbSymbolTable
 70
     0
  0
ENDTAB
  0
TABLE
  2
UCS
  5
1A
330
0
100
AcDbSymbolTable
 70
     0
  0
ENDTAB
  0
TABLE
  2
APPID
  5
1D
330
0
100
AcDbSymbolTable
 70
     1
  0
APPID
  5
14
330
1D
100
AcDbSymbolTableRecord
100
AcDbRegAppTableRecord
  2
ACAD
 70
     0
  0
ENDTAB
  0
TABLE
  2
DIMSTYLE
  5
1E
330
0
100
AcDbSymbolTable
 70
     1
100
AcDbDimStyleTable
 71
     0
  0
DIMSTYLE
105
1F
102
{ACAD_REACTORS
330
3948
330
3956
330
3965
330
3973
330
3981
330
398B
330
399B
102
}
330
1E
100
AcDbSymbolTableRecord
100
AcDbDimStyleTableRecord
  2
STANDARD
 70
     0
  3
"
 41
0.5
 42
1.0
 43
0.0625
 44
0.25
 73
     0
 74
     0
 77
     3
140
1.0
141
0.0
146
0.125
147
0.125
171
     0
274
     0
276
     2
277
     5
285
     2
286
     2
289
     0
340
13
  0
ENDTAB
  0
TABLE
  2
BLOCK_RECORD
  5
1
330
0
100
AcDbSymbolTable
 70
     9
  0
BLOCK_RECORD
  5
2
102
{ACAD_XDICTIONARY
360
3
102
}
330
1
100
AcDbSymbolTableRecord
100
AcDbBlockTableRecord
  2
*MODEL_SPACE
340
B
  0
BLOCK_RECORD
  5
D
102
{ACAD_XDICTIONARY
360
3B30
102
}
330
1
100
AcDbSymbolTableRecord
100
AcDbBlockTableRecord
  2
*PAPER_SPACE
340
10
  0
BLOCK_RECORD
  5
3949
330
1
100
AcDbSymbolTableRecord
100
AcDbBlockTableRecord
  2
*D0
340
0
  0
BLOCK_RECORD
  5
3957
330
1
100
AcDbSymbolTableRecord
100
AcDbBlockTableRecord
  2
*D1
340
0
  0
BLOCK_RECORD
  5
3966
330
1
100
AcDbSymbolTableRecord
100
AcDbBlockTableRecord
  2
*D2
340
0
  0
BLOCK_RECORD
  5
3974
330
1
100
AcDbSymbolTableRecord
100
AcDbBlockTableRecord
  2
*D3
340
0
  0
BLOCK_RECORD
  5
3982
330
1
100
AcDbSymbolTableRecord
100
AcDbBlockTableRecord
  2
*D4
340
0
  0
BLOCK_RECORD
  5
398C
330
1
100
AcDbSymbolTableRecord
100
AcDbBlockTableRecord
  2
*D5
340
0
  0
BLOCK_RECORD
  5
399C
330
1
100
AcDbSymbolTableRecord
100
AcDbBlockTableRecord
  2
*D6
340
0
  0
BLOCK_RECORD
  5
3A38
330
1
100
AcDbSymbolTableRecord
100
AcDbBlockTableRecord
  2
PROFILE LOGO
340
0
102
{BLKREFS
331
3A53
331
3A56
102
}
  0
BLOCK_RECORD
  5
3AC4
330
1
100
AcDbSymbolTableRecord
100
AcDbBlockTableRecord
  2
TSFORMB
340
0
102
{BLKREFS
331
3AF2
102
}
  0
ENDTAB
  0
ENDSEC
  0
SECTION
  2
BLOCKS
  0
BLOCK
  5
4
330
2
100
AcDbEntity
  8
0
100
AcDbBlockBegin
  2
*MODEL_SPACE
 70
     2
 10
0.0
 20
0.0
 30
0.0
  3
*MODEL_SPACE
  1

  0
ENDBLK
  5
A
330
2
100
AcDbEntity
  8
0
100
AcDbBlockEnd
  0
BLOCK
  5
E
330
D
100
AcDbEntity
 67
     1
  8
0
100
AcDbBlockBegin
  2
*PAPER_SPACE
 70
     0
 10
0.0
 20
0.0
 30
0.0
  3
*PAPER_SPACE
  1

  0
ENDBLK
  5
F
330
D
100
AcDbEntity
 67
     1
  8
0
100
AcDbBlockEnd
  0
BLOCK
  5
3954
330
3949
100
AcDbEntity
  8
0
 62
     7
100
AcDbBlockBegin
  2
*D0
 70
     1
 10
0.0
 20
0.0
 30
0.0
  3
*D0
  1

  0
LINE
  5
3B36
330
3949
100
AcDbEntity
  8
A1
 62
     0
100
AcDbLine
 10
472.6821141590753
 20
120.3407468262435
 30
0.0
 11
522.2506015487047
 21
120.3407468262435
 31
0.0
  0
LINE
  5
3B37
330
3949
100
AcDbEntity
  8
A1
 62
     0
100
AcDbLine
 10
428.9946141590753
 20
250.7782468262435
 30
0.0
 11
522.2506015487047
 21
250.7782468262435
 31
0.0
  0
LINE
  5
3B38
330
3949
100
AcDbEntity
  8
A1
 62
     0
100
AcDbLine
 10
520.7506015487047
 20
123.3407468262435
 30
0.0
 11
520.7506015487047
 21
178.2762110707231
 31
0.0
  0
LINE
  5
3B39
330
3949
100
AcDbEntity
  8
A1
 62
     0
100
AcDbLine
 10
520.7506015487047
 20
247.7782468262435
 30
0.0
 11
520.7506015487047
 21
190.8162535937565
 31
0.0
  0
MTEXT
  5
3B3A
330
3949
100
AcDbEntity
  8
A1
 62
     0
100
AcDbMText
 10
520.7506015487047
 20
184.5462323322399
 30
0.0
 40
6.0
 41
0.0
 71
     5
 72
     1
  1
\A1;130 7/16"
 73
     1
 44
1.0
  0
SOLID
  5
3B3B
330
3949
100
AcDbEntity
  8
A1
 62
     0
100
AcDbTrace
 10
520.2506015487046
 20
123.3407468262435
 30
0.0
 11
521.2506015487047
 21
123.3407468262435
 31
0.0
 12
520.7506015487047
 22
120.3407468262435
 32
0.0
 13
520.7506015487047
 23
120.3407468262435
 33
0.0
  0
SOLID
  5
3B3C
330
3949
100
AcDbEntity
  8
A1
 62
     0
100
AcDbTrace
 10
520.2506015487046
 20
247.7782468262435
 30
0.0
 11
521.2506015487047
 21
247.7782468262435
 31
0.0
 12
520.7506015487047
 22
250.7782468262435
 32
0.0
 13
520.7506015487047
 23
250.7782468262435
 33
0.0
  0
POINT
  5
3B3D
330
3949
100
AcDbEntity
  8
DEFPOINTS
 62
     0
100
AcDbPoint
 10
466.6821141590753
 20
120.3407468262435
 30
0.0
  0
POINT
  5
3B3E
330
3949
100
AcDbEntity
  8
DEFPOINTS
 62
     0
100
AcDbPoint
 10
422.9946141590753
 20
250.7782468262435
 30
0.0
  0
POINT
  5
3B3F
330
3949
100
AcDbEntity
  8
DEFPOINTS
 62
     0
100
AcDbPoint
 10
520.7506015487047
 20
250.7782468262435
 30
0.0
  0
ENDBLK
  5
3955
330
3949
100
AcDbEntity
  8
0
 62
     7
100
AcDbBlockEnd
  0
BLOCK
  5
3962
330
3957
100
AcDbEntity
  8
0
 62
     7
100
AcDbBlockBegin
  2
*D1
 70
     1
 10
0.0
 20
0.0
 30
0.0
  3
*D1
  1

  0
LINE
  5
3B40
330
3957
100
AcDbEntity
  8
A1
 62
     0
100
AcDbLine
 10
367.3071141590753
 20
120.3407468262435
 30
0.0
 11
340.3467705792544
 21
120.3407468262435
 31
0.0
  0
LINE
  5
3B41
330
3957
100
AcDbEntity
  8
A1
 62
     0
100
AcDbLine
 10
411.9946141590753
 20
237.7782468262435
 30
0.0
 11
340.3467705792545
 21
237.7782468262435
 31
0.0
  0
LINE
  5
3B42
330
3957
100
AcDbEntity
  8
A1
 62
     0
100
AcDbLine
 10
341.8467705792544
 20
123.3407468262435
 30
0.0
 11
341.8467705792545
 21
171.8895539891714
 31
0.0
  0
LINE
  5
3B43
330
3957
100
AcDbEntity
  8
A1
 62
     0
100
AcDbLine
 10
341.8467705792545
 20
234.7782468262435
 30
0.0
 11
341.8467705792545
 21
184.4295965122047
 31
0.0
  0
MTEXT
  5
3B44
330
3957
100
AcDbEntity
  8
A1
 62
     0
100
AcDbMText
 10
341.8467705792545
 20
178.1595752506881
 30
0.0
 40
6.0
 41
0.0
 71
     5
 72
     1
  1
\A1;117 7/16"
 73
     1
 44
1.0
  0
SOLID
  5
3B45
330
3957
100
AcDbEntity
  8
A1
 62
     0
100
AcDbTrace
 10
341.3467705792545
 20
123.3407468262435
 30
0.0
 11
342.3467705792544
 21
123.3407468262435
 31
0.0
 12
341.8467705792544
 22
120.3407468262435
 32
0.0
 13
341.8467705792544
 23
120.3407468262435
 33
0.0
  0
SOLID
  5
3B46
330
3957
100
AcDbEntity
  8
A1
 62
     0
100
AcDbTrace
 10
341.3467705792545
 20
234.7782468262435
 30
0.0
 11
342.3467705792545
 21
234.7782468262435
 31
0.0
 12
341.8467705792545
 22
237.7782468262435
 32
0.0
 13
341.8467705792545
 23
237.7782468262435
 33
0.0
  0
POINT
  5
3B47
330
3957
100
AcDbEntity
  8
DEFPOINTS
 62
     0
100
AcDbPoint
 10
373.3071141590753
 20
120.3407468262435
 30
0.0
  0
POINT
  5
3B48
330
3957
100
AcDbEntity
  8
DEFPOINTS
 62
     0
100
AcDbPoint
 10
417.9946141590753
 20
237.7782468262435
 30
0.0
  0
POINT
  5
3B49
330
3957
100
AcDbEntity
  8
DEFPOINTS
 62
     0
100
AcDbPoint
 10
341.8467705792545
 20
237.7782468262435
 30
0.0
  0
ENDBLK
  5
3963
330
3957
100
AcDbEntity
  8
0
 62
     7
100
AcDbBlockEnd
  0
BLOCK
  5
3971
330
3966
100
AcDbEntity
  8
0
 62
     7
100
AcDbBlockBegin
  2
*D2
 70
     1
 10
0.0
 20
0.0
 30
0.0
  3
*D2
  1

  0
LINE
  5
3B4A
330
3966
100
AcDbEntity
  8
A1
 62
     0
100
AcDbLine
 10
373.3071141590753
 20
114.3407468262435
 30
0.0
 11
373.3071141590753
 21
81.21453666376487
 31
0.0
  0
LINE
  5
3B4B
330
3966
100
AcDbEntity
  8
A1
 62
     0
100
AcDbLine
 10
466.6821141590753
 20
114.3407468262435
 30
0.0
 11
466.6821141590753
 21
81.21453666376487
 31
0.0
  0
LINE
  5
3B4C
330
3966
100
AcDbEntity
  8
A1
 62
     0
100
AcDbLine
 10
376.3071141590753
 20
82.71453666376487
 30
0.0
 11
401.9499460647491
 21
82.71453666376487
 31
0.0
  0
LINE
  5
3B4D
330
3966
100
AcDbEntity
  8
A1
 62
     0
100
AcDbLine
 10
463.6821141590753
 20
82.71453666376487
 30
0.0
 11
440.7692231731828
 21
82.71453666376487
 31
0.0
  0
MTEXT
  5
3B4E
330
3966
100
AcDbEntity
  8
A1
 62
     0
100
AcDbMText
 10
421.359584618966
 20
82.71453666376487
 30
0.0
 40
6.0
 41
0.0
 71
     5
 72
     1
  1
\A1;93 3/8"
 73
     1
 44
1.0
  0
SOLID
  5
3B4F
330
3966
100
AcDbEntity
  8
A1
 62
     0
100
AcDbTrace
 10
376.3071141590753
 20
83.21453666376488
 30
0.0
 11
376.3071141590753
 21
82.21453666376488
 31
0.0
 12
373.3071141590753
 22
82.71453666376487
 32
0.0
 13
373.3071141590753
 23
82.71453666376487
 33
0.0
  0
SOLID
  5
3B50
330
3966
100
AcDbEntity
  8
A1
 62
     0
100
AcDbTrace
 10
463.6821141590753
 20
83.21453666376488
 30
0.0
 11
463.6821141590753
 21
82.21453666376488
 31
0.0
 12
466.6821141590753
 22
82.71453666376487
 32
0.0
 13
466.6821141590753
 23
82.71453666376487
 33
0.0
  0
POINT
  5
3B51
330
3966
100
AcDbEntity
  8
DEFPOINTS
 62
     0
100
AcDbPoint
 10
373.3071141590753
 20
120.3407468262435
 30
0.0
  0
POINT
  5
3B52
330
3966
100
AcDbEntity
  8
DEFPOINTS
 62
     0
100
AcDbPoint
 10
466.6821141590753
 20
120.3407468262435
 30
0.0
  0
POINT
  5
3B53
330
3966
100
AcDbEntity
  8
DEFPOINTS
 62
     0
100
AcDbPoint
 10
466.6821141590753
 20
82.71453666376487
 30
0.0
  0
ENDBLK
  5
3972
330
3966
100
AcDbEntity
  8
0
 62
     7
100
AcDbBlockEnd
  0
BLOCK
  5
397F
330
3974
100
AcDbEntity
  8
0
 62
     7
100
AcDbBlockBegin
  2
*D3
 70
     1
 10
0.0
 20
0.0
 30
0.0
  3
*D3
  1

  0
LINE
  5
3B54
330
3974
100
AcDbEntity
  8
A1
 62
     0
100
AcDbLine
 10
453.6821141590754
 20
114.3407468262435
 30
0.0
 11
453.6821141590754
 21
98.60043604362875
 31
0.0
  0
LINE
  5
3B55
330
3974
100
AcDbEntity
  8
A1
 62
     0
100
AcDbLine
 10
386.3071141590753
 20
114.3407468262435
 30
0.0
 11
386.3071141590753
 21
98.60043604362875
 31
0.0
  0
LINE
  5
3B56
330
3974
100
AcDbEntity
  8
A1
 62
     0
100
AcDbLine
 10
450.6821141590753
 20
100.1004360436287
 30
0.0
 11
440.7692231731828
 21
100.1004360436287
 31
0.0
  0
LINE
  5
3B57
330
3974
100
AcDbEntity
  8
A1
 62
     0
100
AcDbLine
 10
389.3071141590753
 20
100.1004360436287
 30
0.0
 11
401.9499460647491
 21
100.1004360436287
 31
0.0
  0
MTEXT
  5
3B58
330
3974
100
AcDbEntity
  8
A1
 62
     0
100
AcDbMText
 10
421.359584618966
 20
100.1004360436287
 30
0.0
 40
6.0
 41
0.0
 71
     5
 72
     1
  1
\A1;67 3/8"
 73
     1
 44
1.0
  0
SOLID
  5
3B59
330
3974
100
AcDbEntity
  8
A1
 62
     0
100
AcDbTrace
 10
450.6821141590753
 20
100.6004360436287
 30
0.0
 11
450.6821141590753
 21
99.60043604362875
 31
0.0
 12
453.6821141590754
 22
100.1004360436287
 32
0.0
 13
453.6821141590754
 23
100.1004360436287
 33
0.0
  0
SOLID
  5
3B5A
330
3974
100
AcDbEntity
  8
A1
 62
     0
100
AcDbTrace
 10
389.3071141590753
 20
100.6004360436287
 30
0.0
 11
389.3071141590753
 21
99.60043604362875
 31
0.0
 12
386.3071141590753
 22
100.1004360436287
 32
0.0
 13
386.3071141590753
 23
100.1004360436287
 33
0.0
  0
POINT
  5
3B5B
330
3974
100
AcDbEntity
  8
DEFPOINTS
 62
     0
100
AcDbPoint
 10
453.6821141590754
 20
120.3407468262435
 30
0.0
  0
POINT
  5
3B5C
330
3974
100
AcDbEntity
  8
DEFPOINTS
 62
     0
100
AcDbPoint
 10
386.3071141590753
 20
120.3407468262435
 30
0.0
  0
POINT
  5
3B5D
330
3974
100
AcDbEntity
  8
DEFPOINTS
 62
     0
100
AcDbPoint
 10
386.3071141590753
 20
100.1004360436287
 30
0.0
  0
ENDBLK
  5
3980
330
3974
100
AcDbEntity
  8
0
 62
     7
100
AcDbBlockEnd
  0
BLOCK
  5
3989
330
3982
100
AcDbEntity
  8
0
 62
     7
100
AcDbBlockBegin
  2
*D4
 70
     1
 10
0.0
 20
0.0
 30
0.0
  3
*D4
  1

  0
LINE
  5
3B5E
330
3982
100
AcDbEntity
  8
A1
 62
     0
100
AcDbLine
 10
451.9447649996493
 20
243.0905867375344
 30
0.0
 11
448.9447649996493
 21
243.0905867375344
 31
0.0
  0
LINE
  5
3B5F
330
3982
100
AcDbEntity
  8
A1
 62
     0
100
AcDbLine
 10
448.9447649996493
 20
243.0905867375344
 30
0.0
 11
441.8619507350721
 21
233.5490605478753
 31
0.0
  0
MTEXT
  5
3B60
330
3982
100
AcDbEntity
  8
A1
 62
     0
100
AcDbMText
 10
479.5145736459994
 20
243.0905867375344
 30
0.0
 40
6.0
 41
0.0
 71
     5
 72
     1
  1
\A1;R33 11/16"
 73
     1
 44
1.0
  0
SOLID
  5
3B61
330
3982
100
AcDbEntity
  8
A1
 62
     0
100
AcDbTrace
 10
441.4604745685082
 20
233.8470821707169
 30
0.0
 11
442.2634269016361
 21
233.2510389250338
 31
0.0
 12
440.0738209980231
 22
231.1402035484915
 32
0.0
 13
440.0738209980231
 23
231.1402035484915
 33
0.0
  0
POINT
  5
3B62
330
3982
100
AcDbEntity
  8
DEFPOINTS
 62
     0
100
AcDbPoint
 10
440.0738209980231
 20
231.1402035484915
 30
0.0
  0
POINT
  5
3B63
330
3982
100
AcDbEntity
  8
DEFPOINTS
 62
     0
100
AcDbPoint
 10
419.9946141590754
 20
204.0907468262436
 30
0.0
  0
ENDBLK
  5
398A
330
3982
100
AcDbEntity
  8
0
 62
     7
100
AcDbBlockEnd
  0
BLOCK
  5
3999
330
398C
100
AcDbEntity
  8
0
 62
     7
100
AcDbBlockBegin
  2
*D5
 70
     1
 10
0.0
 20
0.0
 30
0.0
  3
*D5
  1

  0
LINE
  5
3B64
330
398C
100
AcDbEntity
  8
A1
 62
     0
100
AcDbLine
 10
453.6821141590754
 20
114.3407468262435
 30
0.0
 11
453.6821141590754
 21
98.60043604362875
 31
0.0
  0
LINE
  5
3B65
330
398C
100
AcDbEntity
  8
A1
 62
     0
100
AcDbLine
 10
466.6821141590753
 20
114.3407468262435
 30
0.0
 11
466.6821141590753
 21
98.60043604362875
 31
0.0
  0
LINE
  5
3B66
330
398C
100
AcDbEntity
  8
A1
 62
     0
100
AcDbLine
 10
450.6821141590753
 20
100.1004360436287
 30
0.0
 11
447.6821141590753
 21
100.1004360436287
 31
0.0
  0
LINE
  5
3B67
330
398C
100
AcDbEntity
  8
A1
 62
     0
100
AcDbLine
 10
469.6821141590753
 20
100.1004360436287
 30
0.0
 11
472.6821141590753
 21
100.1004360436287
 31
0.0
  0
LINE
  5
3B68
330
398C
100
AcDbEntity
  8
A1
 62
     0
100
AcDbLine
 10
480.0623824146856
 20
100.1004360436287
 30
0.0
 11
466.6821141590753
 21
100.1004360436287
 31
0.0
  0
MTEXT
  5
3B69
330
398C
100
AcDbEntity
  8
A1
 62
     0
100
AcDbMText
 10
490.5783285521768
 20
100.1004360436287
 30
0.0
 40
6.0
 41
0.0
 71
     5
 72
     1
  1
\A1;13"
 73
     1
 44
1.0
  0
LINE
  5
3B6A
330
398C
100
AcDbEntity
  8
A1
 62
     0
100
AcDbLine
 10
453.6821141590754
 20
100.1004360436287
 30
0.0
 11
466.6821141590753
 21
100.1004360436287
 31
0.0
  0
SOLID
  5
3B6B
330
398C
100
AcDbEntity
  8
A1
 62
     0
100
AcDbTrace
 10
450.6821141590753
 20
100.6004360436287
 30
0.0
 11
450.6821141590753
 21
99.60043604362875
 31
0.0
 12
453.6821141590754
 22
100.1004360436287
 32
0.0
 13
453.6821141590754
 23
100.1004360436287
 33
0.0
  0
SOLID
  5
3B6C
330
398C
100
AcDbEntity
  8
A1
 62
     0
100
AcDbTrace
 10
469.6821141590753
 20
100.6004360436287
 30
0.0
 11
469.6821141590753
 21
99.60043604362875
 31
0.0
 12
466.6821141590753
 22
100.1004360436287
 32
0.0
 13
466.6821141590753
 23
100.1004360436287
 33
0.0
  0
POINT
  5
3B6D
330
398C
100
AcDbEntity
  8
DEFPOINTS
 62
     0
100
AcDbPoint
 10
453.6821141590754
 20
120.3407468262435
 30
0.0
  0
POINT
  5
3B6E
330
398C
100
AcDbEntity
  8
DEFPOINTS
 62
     0
100
AcDbPoint
 10
466.6821141590753
 20
120.3407468262435
 30
0.0
  0
POINT
  5
3B6F
330
398C
100
AcDbEntity
  8
DEFPOINTS
 62
     0
100
AcDbPoint
 10
466.6821141590753
 20
100.1004360436287
 30
0.0
  0
ENDBLK
  5
399A
330
398C
100
AcDbEntity
  8
0
 62
     7
100
AcDbBlockEnd
  0
BLOCK
  5
39A9
330
399C
100
AcDbEntity
  8
0
 62
     7
100
AcDbBlockBegin
  2
*D6
 70
     1
 10
0.0
 20
0.0
 30
0.0
  3
*D6
  1

  0
LINE
  5
3B70
330
399C
100
AcDbEntity
  8
A1
 62
     0
100
AcDbLine
 10
566.6782885370694
 20
114.3407468262435
 30
0.0
 11
566.6782885370694
 21
98.95525041658709
 31
0.0
  0
LINE
  5
3B71
330
399C
100
AcDbEntity
  8
A1
 62
     0
100
AcDbLine
 10
571.3032885370694
 20
114.3407468262435
 30
0.0
 11
571.3032885370694
 21
98.95525041658709
 31
0.0
  0
LINE
  5
3B72
330
399C
100
AcDbEntity
  8
A1
 62
     0
100
AcDbLine
 10
563.6782885370694
 20
100.455250416587
 30
0.0
 11
560.6782885370694
 21
100.455250416587
 31
0.0
  0
LINE
  5
3B73
330
399C
100
AcDbEntity
  8
A1
 62
     0
100
AcDbLine
 10
574.3032885370694
 20
100.455250416587
 30
0.0
 11
577.3032885370694
 21
100.455250416587
 31
0.0
  0
LINE
  5
3B74
330
399C
100
AcDbEntity
  8
A1
 62
     0
100
AcDbLine
 10
579.2456714749241
 20
100.455250416587
 30
0.0
 11
571.3032885370694
 21
100.455250416587
 31
0.0
  0
MTEXT
  5
3B75
330
399C
100
AcDbEntity
  8
A1
 62
     0
100
AcDbMText
 10
595.2938642460085
 20
100.455250416587
 30
0.0
 40
6.0
 41
0.0
 71
     5
 72
     1
  1
\A1;4 5/8"
 73
     1
 44
1.0
  0
LINE
  5
3B76
330
399C
100
AcDbEntity
  8
A1
 62
     0
100
AcDbLine
 10
566.6782885370694
 20
100.455250416587
 30
0.0
 11
571.3032885370694
 21
100.455250416587
 31
0.0
  0
SOLID
  5
3B77
330
399C
100
AcDbEntity
  8
A1
 62
     0
100
AcDbTrace
 10
563.6782885370694
 20
100.955250416587
 30
0.0
 11
563.6782885370694
 21
99.95525041658709
 31
0.0
 12
566.6782885370694
 22
100.455250416587
 32
0.0
 13
566.6782885370694
 23
100.455250416587
 33
0.0
  0
SOLID
  5
3B78
330
399C
100
AcDbEntity
  8
A1
 62
     0
100
AcDbTrace
 10
574.3032885370694
 20
100.955250416587
 30
0.0
 11
574.3032885370694
 21
99.95525041658709
 31
0.0
 12
571.3032885370694
 22
100.455250416587
 32
0.0
 13
571.3032885370694
 23
100.455250416587
 33
0.0
  0
POINT
  5
3B79
330
399C
100
AcDbEntity
  8
DEFPOINTS
 62
     0
100
AcDbPoint
 10
566.6782885370694
 20
120.3407468262435
 30
0.0
  0
POINT
  5
3B7A
330
399C
100
AcDbEntity
  8
DEFPOINTS
 62
     0
100
AcDbPoint
 10
571.3032885370694
 20
120.3407468262435
 30
0.0
  0
POINT
  5
3B7B
330
399C
100
AcDbEntity
  8
DEFPOINTS
 62
     0
100
AcDbPoint
 10
571.3032885370694
 20
100.455250416587
 30
0.0
  0
ENDBLK
  5
39AA
330
399C
100
AcDbEntity
  8
0
 62
     7
100
AcDbBlockEnd
  0
BLOCK
  5
3A51
330
3A38
100
AcDbEntity
  8
0
 62
     7
100
AcDbBlockBegin
  2
PROFILE LOGO
 70
     2
 10
0.0
 20
0.0
 30
0.0
  3
PROFILE LOGO
  1

  0
LINE
  5
3A39
330
3A38
100
AcDbEntity
  8
0
 62
    22
100
AcDbLine
 10
0.7459516636765642
 20
-0.415894330395318
 30
0.0
 11
0.74595166367655
 21
-1.12746688439163
 31
0.0
  0
LINE
  5
3A3A
330
3A38
100
AcDbEntity
  8
0
 62
    22
100
AcDbLine
 10
0.5841942848079072
 20
-0.415894330395318
 30
0.0
 11
0.5841942848079072
 21
-1.12746688439163
 31
0.0
  0
HATCH
  5
3A3B
330
3A38
100
AcDbEntity
  8
0
 62
    22
100
AcDbHatch
 10
0.0
 20
0.0
 30
0.0
210
0.0
220
0.0
230
1.0
  2
LINE
 70
     0
 71
     0
 91
        1
 92
       33
 93
       38
 72
     1
 10
1.115683196411978
 20
-0.1706330859717084
 11
0.2177636962628071
 21
-0.1706330859717084
 72
     1
 10
0.2177636962628213
 20
-0.1706330859717084
 11
0.2078601968792952
 21
-0.4246889457533243
 72
     1
 10
0.2078601968792952
 20
-0.4246889457533243
 11
0.2375709173007294
 21
-0.4246889457533243
 72
     1
 10
0.2375709173007294
 20
-0.4246889457533243
 11
0.2441732502230991
 21
-0.3817964654080939
 72
     1
 10
0.2441732502230991
 20
-0.3817964654080939
 11
0.254076749606611
 21
-0.3422032805409501
 72
     1
 10
0.2540767496066252
 20
-0.3422032805409501
 11
0.2738837483736916
 21
-0.3092090964125091
 72
     1
 10
0.2738837483736916
 20
-0.3092090964125091
 11
0.2969919136019428
 21
-0.2861130719066693
 72
     1
 10
0.296991913601957
 20
-0.2861130719066764
 11
0.3267026340234338
 21
-0.2663164794731259
 72
     1
 10
0.3267026340234196
 20
-0.2663164794731259
 11
0.356413132174012
 21
-0.2498193191118219
 72
     1
 10
0.356413132174012
 20
-0.2498193191118148
 11
0.3828224638634481
 21
-0.243220591561446
 72
     1
 10
0.3828224638634623
 20
-0.243220591561446
 11
0.4092320178237401
 21
-0.243220591561446
 72
     1
 10
0.4092320178237401
 20
-0.243220591561446
 11
0.4719541805861525
 21
-0.2465198870395469
 72
     1
 10
0.4719541805861525
 20
-0.2465198870395469
 11
0.514869566852326
 21
-0.2729153436176332
 72
     1
 10
0.514869566852326
 20
-0.2729153436176332
 11
0.5742905631535394
 21
-0.3389038484686964
 72
     1
 10
0.5742905631535394
 20
-0.3389038484687106
 11
0.5907966177302626
 21
-0.3916947616248691
 72
     1
 10
0.5907966177302768
 20
-0.3916947616248691
 11
0.5907966177302768
 21
-1.157161773041991
 72
     1
 10
0.5907966177302768
 20
-1.157161773041984
 11
0.5643870637699991
 21
-1.203353685459461
 72
     1
 10
0.5643870637699849
 20
-1.203353685459468
 11
0.4983637345463876
 21
-1.226449709965308
 72
     1
 10
0.4983637345464019
 20
-1.226449709965301
 11
0.4389425159743326
 21
-1.226449709965301
 72
     1
 10
0.4389425159743326
 20
-1.226449709965301
 11
0.4323401830519913
 21
-1.249545734471119
 72
     1
 10
0.4323401830520055
 20
-1.249545734471134
 11
0.8945045989712809
 21
-1.249545734471134
 72
     1
 10
0.8945045989712667
 20
-1.249545734471134
 11
0.8945045989712667
 21
-1.226449709965315
 72
     1
 10
0.8945045989712667
 20
-1.226449709965301
 11
0.8152763816321311
 21
-1.226449709965301
 72
     1
 10
0.8152763816321311
 20
-1.226449709965301
 11
0.7525539965988913
 21
-1.186856661692324
 72
     1
 10
0.7525539965988913
 20
-1.186856661692324
 11
0.7426504972153794
 21
-1.140664612680659
 72
     1
 10
0.7426504972153652
 20
-1.140664612680673
 11
0.7393493307541803
 21
-0.394994193697137
 72
     1
 10
0.7393493307541803
 20
-0.394994193697137
 11
0.7558551630600619
 21
-0.3389038484687106
 72
     1
 10
0.7558551630600761
 20
-0.3389038484687106
 11
0.7987705493262496
 21
-0.2828136398344298
 72
     1
 10
0.7987705493262496
 20
-0.2828136398344227
 11
0.8614929343594894
 21
-0.2498193191118148
 72
     1
 10
0.8614929343594894
 20
-0.2498193191118148
 11
0.9374197629665985
 21
-0.2399211594891923
 72
     1
 10
0.9374197629665985
 20
-0.2399211594891923
 11
1.010045647383407
 21
-0.2663164794731117
 72
     1
 10
1.010045647383407
 20
-0.2663164794731259
 11
1.056262200110722
 21
-0.3092090964125234
 72
     1
 10
1.056262200110722
 20
-0.3092090964125091
 11
1.085972698261343
 21
-0.361999872974522
 72
     1
 10
1.085972698261358
 20
-0.3619998729745291
 11
1.092575031183727
 21
-0.4246889457533243
 72
     1
 10
1.092575031183727
 20
-0.4246889457533243
 11
1.115683196411993
 21
-0.4246889457533243
 72
     1
 10
1.115683196411978
 20
-0.4246889457533243
 11
1.109080863489609
 21
-0.17723195011623
 72
     1
 10
1.109080863489609
 20
-0.17723195011623
 11
1.109080863489609
 21
-0.1739325180439621
 72
     1
 10
1.109080863489609
 20
-0.1739325180439621
 11
1.105779697028424
 21
-0.1739325180439621
 97
        0
 75
     0
 76
     1
 52
0.0
 41
0.078125
 77
     0
 78
     1
 53
0.0
 43
-28.182772630023
 44
-32.9923404580304
 45
0.0
 46
0.009765625
 79
     0
 98
        1
 10
-28.182772630023
 20
-32.9923404580304
  0
LWPOLYLINE
  5
3A3C
330
3A38
100
AcDbEntity
  8
0
 62
    22
100
AcDbPolyline
 90
        4
 70
     1
 43
0.0
 10
0.0262955969727301
 20
-0.0287577800528069
 10
1.307151517972869
 20
-0.0287577800528069
 10
1.307151517972869
 20
-1.731261997456265
 10
0.0262955969727301
 20
-1.731261997456265
  0
LINE
  5
3A3D
330
3A38
100
AcDbEntity
  8
0
 62
    22
100
AcDbLine
 10
0.0262955969727443
 20
-1.4112176328236
 30
0.0
 11
1.307151517972869
 21
-1.4112176328236
 31
0.0
  0
ATTDEF
  5
3A3E
330
3A38
100
AcDbEntity
  8
A1
 62
    22
100
AcDbText
 10
0.6781304052809105
 20
-1.678298248906529
 30
0.0
 40
0.2126953125
  1

 72
     1
 11
0.6781304052809105
 21
-1.678298248906529
 31
0.0
100
AcDbAttributeDefinition
  3
ADD STONE MARKER
  2
XXXX
 70
     0
  0
LINE
  5
3A3F
330
3A38
100
AcDbEntity
  8
0
 62
    22
100
AcDbLine
 10
0.7464576960363587
 20
-1.129021462591367
 30
0.0
 11
0.74595166367655
 21
-1.12746688439163
 31
0.0
  0
ARC
  5
3A40
330
3A38
100
AcDbEntity
  8
0
 62
    22
100
AcDbCircle
 10
0.8421255873066684
 20
-1.127299146756172
 30
0.0
 40
0.0956833935014068
100
AcDbArc
 50
181.0313885659746
 51
269.7936990713142
  0
LINE
  5
3A41
330
3A38
100
AcDbEntity
  8
0
 62
    22
100
AcDbLine
 10
0.9011069318936506
 20
-1.22315027789304
 30
0.0
 11
0.841781067510368
 21
-1.22315027789304
 31
0.0
  0
LINE
  5
3A42
330
3A38
100
AcDbEntity
  8
0
 62
    22
100
AcDbLine
 10
0.9011069318936506
 20
-1.256144598615648
 30
0.0
 11
0.9011069318936506
 21
-1.22315027789304
 31
0.0
  0
ARC
  5
3A43
330
3A38
100
AcDbEntity
  8
0
 62
    22
100
AcDbCircle
 10
0.4880203611777887
 20
-1.127299146756172
 30
0.0
 40
0.0956833935014068
100
AcDbArc
 50
270.2063009286848
 51
358.9686114340253
  0
LINE
  5
3A44
330
3A38
100
AcDbEntity
  8
0
 62
    22
100
AcDbLine
 10
0.4290390165908207
 20
-1.256144598615648
 30
0.0
 11
0.4290390165908207
 21
-1.22315027789304
 31
0.0
  0
LINE
  5
3A45
330
3A38
100
AcDbEntity
  8
0
 62
    22
100
AcDbLine
 10
0.4290390165908207
 20
-1.22315027789304
 30
0.0
 11
0.4883648809740891
 21
-1.22315027789304
 31
0.0
  0
LINE
  5
3A46
330
3A38
100
AcDbEntity
  8
0
 62
    22
100
AcDbLine
 10
0.5836882524480984
 20
-1.129021462591367
 30
0.0
 11
0.5841942848079072
 21
-1.12746688439163
 31
0.0
  0
LINE
  5
3A47
330
3A38
100
AcDbEntity
  8
0
 62
    22
100
AcDbLine
 10
0.4290390165908207
 20
-1.256144598615648
 30
0.0
 11
0.9011069318936506
 21
-1.256144598615648
 31
0.0
  0
LINE
  5
3A48
330
3A38
100
AcDbEntity
  8
0
 62
    22
100
AcDbLine
 10
1.085512597630156
 20
-0.415894330395318
 30
0.0
 11
1.085512597630156
 21
-0.4280723832374847
 31
0.0
  0
ARC
  5
3A49
330
3A38
100
AcDbEntity
  8
0
 62
    22
100
AcDbCircle
 10
0.9138550451562537
 20
-0.4147906495365632
 30
0.0
 40
0.1716611005230106
100
AcDbArc
 50
359.6316189828552
 51
90.00081606717127
  0
ARC
  5
3A4A
330
3A38
100
AcDbEntity
  8
0
 62
    22
100
AcDbCircle
 10
0.9180888683309831
 20
-0.4147906495365632
 30
0.0
 40
0.1716611005230106
100
AcDbArc
 50
89.99918393282873
 51
180.3683810171443
  0
LINE
  5
3A4B
330
3A38
100
AcDbEntity
  8
0
 62
    22
100
AcDbLine
 10
0.2078601968792952
 20
-0.427988377825578
 30
0.0
 11
0.2441732502230991
 21
-0.427988377825578
 31
0.0
  0
LINE
  5
3A4C
330
3A38
100
AcDbEntity
  8
0
 62
    22
100
AcDbLine
 10
0.2446333508543006
 20
-0.415894330395318
 30
0.0
 11
0.2446333508543006
 21
-0.4280723832374847
 31
0.0
  0
ARC
  5
3A4D
330
3A38
100
AcDbEntity
  8
0
 62
    22
100
AcDbCircle
 10
0.4162909033282176
 20
-0.4147906495365632
 30
0.0
 40
0.1716611005230106
100
AcDbArc
 50
89.99918393282873
 51
180.3683810171443
  0
LINE
  5
3A4E
330
3A38
100
AcDbEntity
  8
0
 62
    22
100
AcDbLine
 10
0.2144627520724782
 20
-0.1706330859717156
 30
0.0
 11
0.2078601968792952
 21
-0.427988377825578
 31
0.0
  0
ARC
  5
3A4F
330
3A38
100
AcDbEntity
  8
0
 62
    22
100
AcDbCircle
 10
0.4120570801534882
 20
-0.4147906495365632
 30
0.0
 40
0.1716611005230106
100
AcDbArc
 50
359.6316189828552
 51
90.00081606717127
  0
LWPOLYLINE
  5
3A50
330
3A38
100
AcDbEntity
  8
0
 62
    22
100
AcDbPolyline
 90
        4
 70
     0
 43
0.0
 10
0.224366029185191
 20
-0.1706330859717084
 10
1.115683196411978
 20
-0.1706330859717084
 10
1.122285751605161
 20
-0.427988377825578
 10
1.085972698261358
 20
-0.427988377825578
  0
ENDBLK
  5
3A52
330
3A38
100
AcDbEntity
  8
0
 62
     7
100
AcDbBlockEnd
  0
BLOCK
  5
3AF0
330
3AC4
100
AcDbEntity
  8
0
 62
     7
100
AcDbBlockBegin
  2
TSFORMB
 70
     2
 10
0.0
 20
0.0
 30
0.0
  3
TSFORMB
  1

  0
LINE
  5
3AC5
330
3AC4
100
AcDbEntity
  8
0
100
AcDbLine
 10
105.9925392881563
 20
78.84810849484797
 30
0.0
 11
105.9925392881563
 21
70.31072004936999
 31
0.0
  0
LINE
  5
3AC6
330
3AC4
100
AcDbEntity
  8
0
100
AcDbLine
 10
105.9925392881563
 20
0.0
 30
0.0
 11
105.9925392881563
 21
78.84810849484797
 31
0.0
  0
LINE
  5
3AC7
330
3AC4
100
AcDbEntity
  8
0
100
AcDbLine
 10
0.0
 20
0.0
 30
0.0
 11
105.9925392881563
 21
0.0
 31
0.0
  0
LINE
  5
3AC8
330
3AC4
100
AcDbEntity
  8
0
100
AcDbLine
 10
0.0
 20
78.84810849484797
 30
0.0
 11
0.0
 21
0.0
 31
0.0
  0
LINE
  5
3AC9
330
3AC4
100
AcDbEntity
  8
0
100
AcDbLine
 10
56.87404547169354
 20
0.0
 30
0.0
 11
56.87404547169354
 21
12.46470592426129
 31
0.0
  0
TEXT
  5
3ACA
330
3AC4
100
AcDbEntity
  8
0
 62
     7
100
AcDbText
 10
39.28098221173831
 20
10.97304845086642
 30
0.0
 40
0.8085000000000002
  1
LEGEND
100
AcDbText
  0
TEXT
  5
3ACB
330
3AC4
100
AcDbEntity
  8
0
 62
     7
100
AcDbText
 10
38.18320344075362
 20
3.401999220949562
 30
0.0
 40
0.8400000000000002
  1
CATEGORY
 72
     1
 11
41.47652732452399
 21
3.401999220949562
 31
0.0
100
AcDbText
  0
LINE
  5
3ACC
330
3AC4
100
AcDbEntity
  8
0
 62
     7
100
AcDbLine
 10
26.78791925899645
 20
8.549200111339303
 30
0.0
 11
29.32320076794366
 21
8.549200111339303
 31
0.0
  0
TEXT
  5
3ACD
330
3AC4
100
AcDbEntity
  8
0
 62
     7
100
AcDbText
 10
30.56536100380196
 20
8.165961840384341
 30
0.0
 40
1.05
  1
- Unfinished Side
100
AcDbText
  0
LINE
  5
3ACE
330
3AC4
100
AcDbEntity
  8
0
100
AcDbLine
 10
25.9704997615305
 20
0.0
 30
0.0
 11
25.9704997615305
 21
12.46470592426129
 31
0.0
  0
ATTDEF
  5
3ACF
330
3AC4
100
AcDbEntity
  8
A1
 62
     1
100
AcDbText
 10
41.26016333205519
 20
0.916484150045278
 30
0.0
 40
1.025589599999999
  1

 72
     1
 11
41.26016333205519
 21
0.916484150045278
 31
0.0
100
AcDbAttributeDefinition
  3
ADD CATEGORY NAMES
  2
XXXXXX
 70
     0
  0
ATTDEF
  5
3AD0
330
3AC4
100
AcDbEntity
  8
A1
 62
     1
100
AcDbText
 10
21.55372231158242
 20
1.875018704105684
 30
0.0
 40
0.8400000000000002
  1

 72
     2
 11
21.55372231158242
 21
1.875018704105684
 31
0.0
100
AcDbAttributeDefinition
  3
ADD BARCODE TEXT
  2
XXXXXX
 70
     0
  0
LINE
  5
3AD1
330
3AC4
100
AcDbEntity
  8
0
 62
     7
100
AcDbLine
 10
25.9704997615305
 20
12.46470592426129
 30
0.0
 11
0.0
 21
12.46470592426129
 31
0.0
  0
ATTDEF
  5
3AD2
330
3AC4
100
AcDbEntity
  8
A1
 62
     1
100
AcDbText
 10
12.85191920549937
 20
3.11796280247222
 30
0.0
 40
6.132000000000001
  1

  7
barcoder
 72
     1
 11
12.85191920549937
 21
3.11796280247222
 31
0.0
100
AcDbAttributeDefinition
  3
ADD BARCODE NUMBER
  2
BARCODE
 70
     0
  0
LINE
  5
3AD3
330
3AC4
100
AcDbEntity
  8
0
 62
     7
100
AcDbLine
 10
56.87404547169354
 20
10.31505184057846
 30
0.0
 11
25.9704997615305
 21
10.31505184057846
 31
0.0
  0
LINE
  5
3AD4
330
3AC4
100
AcDbEntity
  8
0
 62
     7
100
AcDbLine
 10
56.87404547169354
 20
2.864660228904256
 30
0.0
 11
25.9704997615305
 21
2.864660228904256
 31
0.0
  0
LINE
  5
3AD5
330
3AC4
100
AcDbEntity
  8
0
 62
     7
100
AcDbLine
 10
56.87404547169354
 20
4.753491724833224
 30
0.0
 11
25.9704997615305
 21
4.753491724833224
 31
0.0
  0
LINE
  5
3AD6
330
3AC4
100
AcDbEntity
  8
0
100
AcDbLine
 10
92.45878286761296
 20
70.31072004936999
 30
0.0
 11
92.45878286761296
 21
78.84810849484797
 31
0.0
  0
ATTDEF
  5
3AD7
330
3AC4
100
AcDbEntity
  8
A1
 62
     1
100
AcDbText
 10
99.20289126219257
 20
73.40001633244828
 30
0.0
 40
2.079
  1

 72
     1
 11
99.20289126219257
 21
73.40001633244828
 31
0.0
100
AcDbAttributeDefinition
  3
ADD PAGE NUMBER
  2
TS00XX
 70
     0
  0
LINE
  5
3AD8
330
3AC4
100
AcDbEntity
  8
0
100
AcDbLine
 10
105.9925392881563
 20
70.31072004936999
 30
0.0
 11
92.45878286761296
 21
70.31072004936999
 31
0.0
  0
LINE
  5
3AD9
330
3AC4
100
AcDbEntity
  8
0
100
AcDbLine
 10
105.9925392881563
 20
78.84810849484797
 30
0.0
 11
0.0
 21
78.84810849484797
 31
0.0
  0
TEXT
  5
3ADA
330
3AC4
100
AcDbEntity
  8
0
 62
     7
100
AcDbText
 10
101.0916707105178
 20
4.784832420392319
 30
0.0
 40
0.8459472656250001
  1
1:1
100
AcDbText
  0
ARC
  5
3ADB
330
3AC4
100
AcDbEntity
  8
0
 62
     7
100
AcDbCircle
 10
92.02173719823599
 20
7.854684255185304
 30
0.0
 40
0.5838368232859321
100
AcDbArc
 50
297.5553548372056
 51
304.8408806463489
  0
LINE
  5
3ADC
330
3AC4
100
AcDbEntity
  8
0
 62
     7
100
AcDbLine
 10
96.44018670993672
 20
6.648784575743377
 30
0.0
 11
95.62662822118033
 21
6.648784575743377
 31
0.0
  0
ARC
  5
3ADD
330
3AC4
100
AcDbEntity
  8
0
 62
     7
100
AcDbCircle
 10
92.02173719823599
 20
7.854684255185304
 30
0.0
 40
0.5838368232859408
100
AcDbArc
 50
304.8408806463489
 51
297.5553548372056
  0
TEXT
  5
3ADE
330
3AC4
100
AcDbEntity
  8
0
 62
     7
100
AcDbText
 10
91.5997577365548
 20
7.487990433787842
 30
0.0
 40
0.7875000000000002
  1
R
  7
ROMANC
 72
     1
 11
92.02565639984959
 21
7.487990433787842
 31
0.0
100
AcDbText
  0
LINE
  5
3ADF
330
3AC4
100
AcDbEntity
  8
0
100
AcDbLine
 10
96.44018670993649
 20
0.0
 30
0.0
 11
96.44018670993695
 21
12.46470592426129
 31
0.0
  0
TEXT
  5
3AE0
330
3AC4
100
AcDbEntity
  8
0
100
AcDbText
 10
57.83820509574335
 20
4.931128255646488
 30
0.0
 40
1.111564440985976
  1
ARCHITECTURAL CONCRETE CO., INC.
 41
1.25
 72
     4
 11
76.69038922088157
 21
5.404193065577089
 31
0.0
100
AcDbText
  0
TEXT
  5
3AE1
330
3AC4
100
AcDbEntity
  8
0
100
AcDbText
 10
64.01730751652124
 20
0.6790765005606179
 30
0.0
 40
0.6552430415498756
  1
PHONE: 1-800-789-4841  FAX : 770-463-2635
 41
1.1875
 72
     4
 11
76.73327742292065
 21
1.005769257279496
 31
0.0
100
AcDbText
  0
TEXT
  5
3AE2
330
3AC4
100
AcDbEntity
  8
0
 62
     7
100
AcDbText
 10
61.23651428794109
 20
7.899354841769707
 30
0.0
 40
3.572100000000002
  1
TannerStone
  7
ROMANC
 72
     1
 11
75.92109734429948
 21
7.899354841769707
 31
0.0
100
AcDbText
  0
TEXT
  5
3AE3
330
3AC4
100
AcDbEntity
  8
0
100
AcDbText
 10
61.57240842020546
 20
1.964543484004154
 30
0.0
 40
0.6552430415498756
  1
http://TannerStone.com ~ Email:Sales@TannerStone.com 
 41
1.1875
 72
     4
 11
77.08342119362362
 21
2.259193880788984
 31
0.0
100
AcDbText
  0
TEXT
  5
3AE4
330
3AC4
100
AcDbEntity
  8
0
100
AcDbText
 10
59.98363509556096
 20
3.260563711198551
 30
0.0
 40
0.74899296216962
  1
101 JOHNSTON CIRCLE, PALMETTO, GEORGIA 30268
 41
1.1875
 72
     4
 11
76.85158629384147
 21
3.579323650094977
 31
0.0
100
AcDbText
  0
LINE
  5
3AE5
330
3AC4
100
AcDbEntity
  8
0
100
AcDbLine
 10
56.87404547169354
 20
6.648784575743377
 30
0.0
 11
105.9925392881563
 21
6.648784575743377
 31
0.0
  0
LINE
  5
3AE6
330
3AC4
100
AcDbEntity
  8
0
 62
     7
100
AcDbLine
 10
96.44018670993682
 20
9.556745250002336
 30
0.0
 11
105.9925392881563
 21
9.556745250002336
 31
0.0
  0
TEXT
  5
3AE7
330
3AC4
100
AcDbEntity
  8
0
 62
     7
100
AcDbText
 10
96.66995560986686
 20
8.813345575893606
 30
0.0
 40
0.5414062500000001
  1
LBS/LINEAR FEET:
100
AcDbText
  0
LINE
  5
3AE8
330
3AC4
100
AcDbEntity
  8
LINEWORK
 62
     7
100
AcDbLine
 10
96.40991550469017
 20
3.757904136908962
 30
0.0
 11
105.9622680829099
 21
3.757904136909189
 31
0.0
  0
TEXT
  5
3AE9
330
3AC4
100
AcDbEntity
  8
0
 62
     7
100
AcDbText
 10
98.85330873086445
 20
1.524519923848686
 30
0.0
 40
0.8459472656250001
  1
1-1-2000
100
AcDbText
  0
TEXT
  5
3AEA
330
3AC4
100
AcDbEntity
  8
0
 62
     7
100
AcDbText
 10
96.68542089784603
 20
5.927566558083469
 30
0.0
 40
0.5414062500000001
  1
SCALE:
100
AcDbText
  0
TEXT
  5
3AEB
330
3AC4
100
AcDbEntity
  8
0
 62
     7
100
AcDbText
 10
96.74158717246577
 20
2.97910930546476
 30
0.0
 40
0.5414062500000001
  1
DATE:
100
AcDbText
  0
TEXT
  5
3AEC
330
3AC4
100
AcDbEntity
  8
0
 62
     7
100
AcDbText
 10
96.70022651293084
 20
11.66518473255649
 30
0.0
 40
0.5414062500000001
  1
PROFILE AREA:
100
AcDbText
  0
ATTDEF
  5
3AED
330
3AC4
100
AcDbEntity
  8
A1
 62
     1
100
AcDbText
 10
101.1759733039033
 20
10.07900441527107
 30
0.0
 40
0.9450000000000002
  1

 72
     1
 11
101.1759733039033
 21
10.07900441527107
 31
0.0
100
AcDbAttributeDefinition
  3
ADD PROFILE AREA
  2
XXXXX
 70
     0
  0
ATTDEF
  5
3AEE
330
3AC4
100
AcDbEntity
  8
A1
 62
     1
100
AcDbText
 10
101.1418062311347
 20
7.21953861551384
 30
0.0
 40
0.9450000000000002
  1

 72
     1
 11
101.1418062311347
 21
7.21953861551384
 31
0.0
100
AcDbAttributeDefinition
  3
ADD #/LF
  2
XXXXX
 70
     0
  0
LINE
  5
3AEF
330
3AC4
100
AcDbEntity
  8
0
100
AcDbLine
 10
25.9704997615305
 20
12.46470592426129
 30
0.0
 11
105.9925392881563
 21
12.46470592426129
 31
0.0
  0
ENDBLK
  5
3AF1
330
3AC4
100
AcDbEntity
  8
0
 62
     7
100
AcDbBlockEnd
  0
ENDSEC
  0
SECTION
  2
ENTITIES
  0
ARC
  5
3252
330
2
100
AcDbEntity
  8
0
100
AcDbCircle
 10
419.9946141590753
 20
204.0907468262435
 30
0.0
 40
33.6875
100
AcDbArc
 50
0.0
 51
41.39525856271661
  0
ARC
  5
3254
330
2
100
AcDbEntity
  8
0
100
AcDbCircle
 10
419.9946141590753
 20
204.0907468262435
 30
0.0
 40
43.93749999999999
100
AcDbArc
 50
0.0
 51
41.46965444948178
  0
LINE
  5
3266
330
2
100
AcDbEntity
  8
0
  6
ByBlock
100
AcDbLine
 10
417.9946141590753
 20
237.7782468262435
 30
0.0
 11
421.9946141590753
 21
237.7782468262435
 31
0.0
  0
LINE
  5
3267
330
2
100
AcDbEntity
  8
0
  6
ByBlock
100
AcDbLine
 10
416.9946141590753
 20
250.7782468262435
 30
0.0
 11
422.9946141590753
 21
250.7782468262435
 31
0.0
  0
LINE
  5
3268
330
2
100
AcDbEntity
  8
0
  6
ByBlock
100
AcDbLine
 10
416.9946141590753
 20
250.7782468262435
 30
0.0
 11
417.9946141590753
 21
237.7782468262435
 31
0.0
  0
LINE
  5
3269
330
2
100
AcDbEntity
  8
0
  6
ByBlock
100
AcDbLine
 10
421.9946141590753
 20
237.7782468262435
 30
0.0
 11
422.9946141590753
 21
250.7782468262435
 31
0.0
  0
LINE
  5
326A
330
2
100
AcDbEntity
  8
0
  6
ByBlock
100
AcDbLine
 10
423.4946141590753
 20
237.7782468262435
 30
0.0
 11
424.4946141590753
 21
248.1532468262435
 31
0.0
  0
LINE
  5
326B
330
2
100
AcDbEntity
  8
0
  6
ByBlock
100
AcDbLine
 10
421.9946141590753
 20
237.7782468262435
 30
0.0
 11
423.4946141590753
 21
237.7782468262435
 31
0.0
  0
LINE
  5
326C
330
2
100
AcDbEntity
  8
0
  6
ByBlock
100
AcDbLine
 10
415.4946141590754
 20
248.1532468262435
 30
0.0
 11
417.1965372359984
 21
248.1532468262435
 31
0.0
  0
LINE
  5
326D
330
2
100
AcDbEntity
  8
0
  6
ByBlock
100
AcDbLine
 10
416.4946141590753
 20
237.7782468262435
 30
0.0
 11
415.4946141590754
 21
248.1532468262435
 31
0.0
  0
LINE
  5
326E
330
2
100
AcDbEntity
  8
0
  6
ByBlock
100
AcDbLine
 10
417.9946141590753
 20
237.7782468262435
 30
0.0
 11
416.4946141590753
 21
237.7782468262435
 31
0.0
  0
LINE
  5
326F
330
2
100
AcDbEntity
  8
0
  6
ByBlock
100
AcDbLine
 10
422.7926910821522
 20
248.1532468262435
 30
0.0
 11
424.4946141590753
 21
248.1532468262435
 31
0.0
  0
LINE
  5
3274
330
2
100
AcDbEntity
  8
0
  6
ByBlock
100
AcDbLine
 10
416.1392107504252
 20
237.5569016816578
 30
0.0
 11
415.1556857772638
 21
247.7609732782062
 31
0.0
  0
LINE
  5
3275
330
2
100
AcDbEntity
  8
0
  6
ByBlock
100
AcDbLine
 10
423.8500175677256
 20
237.5569016816578
 30
0.0
 11
424.8335425408868
 21
247.7609732782062
 31
0.0
  0
ARC
  5
3276
330
2
100
AcDbEntity
  8
0
100
AcDbCircle
 10
419.9946141590753
 20
204.0907468262435
 30
0.0
 40
43.93749999999999
100
AcDbArc
 50
96.32292960904749
 51
138.0413331458272
  0
ARC
  5
3277
330
2
100
AcDbEntity
  8
0
100
AcDbCircle
 10
419.9946141590753
 20
204.0907468262435
 30
0.0
 40
33.6875
100
AcDbArc
 50
96.5716786963466
 51
137.9669372590659
  0
ARC
  5
3278
330
2
100
AcDbEntity
  8
0
100
AcDbCircle
 10
419.9946141590753
 20
204.0907468262435
 30
0.0
 40
34.4375
100
AcDbArc
 50
1.247919632141224
 51
41.40220386817204
  0
ARC
  5
3279
330
2
100
AcDbEntity
  8
0
100
AcDbCircle
 10
419.9946141590753
 20
204.0907468262435
 30
0.0
 40
43.1875
100
AcDbArc
 50
0.9950563208062529
 51
41.46540829506234
  0
ARC
  5
327A
330
2
100
AcDbEntity
  8
0
100
AcDbCircle
 10
419.9946141590753
 20
204.0907468262435
 30
0.0
 40
43.1875
100
AcDbArc
 50
96.32292960904749
 51
138.0370869914065
  0
ARC
  5
327B
330
2
100
AcDbEntity
  8
0
100
AcDbCircle
 10
419.9946141590753
 20
204.0907468262435
 30
0.0
 40
34.4375
100
AcDbArc
 50
96.5716786963466
 51
137.9738825645169
  0
LINE
  5
327C
330
2
100
AcDbEntity
  8
0
100
AcDbLine
 10
453.6821141590754
 20
204.0907468262435
 30
0.0
 11
463.9321141590754
 21
204.0907468262435
 31
0.0
  0
LINE
  5
327D
330
2
100
AcDbEntity
  8
0
100
AcDbLine
 10
453.6821141590754
 20
203.7157468262435
 30
0.0
 11
466.6821141590753
 21
203.7157468262435
 31
0.0
  0
LINE
  5
327E
330
2
100
AcDbEntity
  8
0
100
AcDbLine
 10
453.6821141590754
 20
203.7157468262435
 30
0.0
 11
453.6821141590754
 21
191.7157468262435
 31
0.0
  0
LINE
  5
327F
330
2
100
AcDbEntity
  8
0
100
AcDbLine
 10
453.6821141590754
 20
191.7157468262435
 30
0.0
 11
466.6821141590753
 21
191.7157468262435
 31
0.0
  0
LINE
  5
3280
330
2
100
AcDbEntity
  8
0
100
AcDbLine
 10
466.6821141590753
 20
191.7157468262435
 30
0.0
 11
466.6821141590753
 21
203.7157468262435
 31
0.0
  0
LINE
  5
3281
330
2
100
AcDbEntity
  8
0
100
AcDbLine
 10
454.4321141590753
 20
192.4657468262435
 30
0.0
 11
465.9321141590753
 21
192.4657468262435
 31
0.0
  0
LINE
  5
3282
330
2
100
AcDbEntity
  8
0
100
AcDbLine
 10
454.4321141590753
 20
202.9657468262435
 30
0.0
 11
454.4321141590753
 21
192.4657468262435
 31
0.0
  0
LINE
  5
3283
330
2
100
AcDbEntity
  8
0
100
AcDbLine
 10
465.9321141590753
 20
192.4657468262435
 30
0.0
 11
465.9321141590753
 21
202.9657468262435
 31
0.0
  0
LINE
  5
3284
330
2
100
AcDbEntity
  8
0
100
AcDbLine
 10
454.4321141590753
 20
202.9657468262435
 30
0.0
 11
465.9321141590753
 21
202.9657468262435
 31
0.0
  0
LINE
  5
3285
330
2
100
AcDbEntity
  8
0
100
AcDbLine
 10
453.6821141590754
 20
191.7157468262435
 30
0.0
 11
454.4321141590753
 21
192.4657468262435
 31
0.0
  0
LINE
  5
3286
330
2
100
AcDbEntity
  8
0
100
AcDbLine
 10
454.4321141590753
 20
202.9657468262435
 30
0.0
 11
453.6821141590754
 21
203.7157468262435
 31
0.0
  0
LINE
  5
3287
330
2
100
AcDbEntity
  8
0
100
AcDbLine
 10
465.9321141590753
 20
202.9657468262435
 30
0.0
 11
466.6821141590753
 21
203.7157468262435
 31
0.0
  0
LINE
  5
3288
330
2
100
AcDbEntity
  8
0
100
AcDbLine
 10
465.9321141590753
 20
192.4657468262435
 30
0.0
 11
466.6821141590753
 21
191.7157468262435
 31
0.0
  0
LINE
  5
3289
330
2
100
AcDbEntity
  8
0
100
AcDbLine
 10
454.4239462212865
 20
204.8407468262435
 30
0.0
 11
463.175601366989
 21
204.8407468262435
 31
0.0
  0
LINE
  5
328A
330
2
100
AcDbEntity
  8
0
100
AcDbLine
 10
463.9321141590754
 20
204.0907468262435
 30
0.0
 11
463.175601366989
 21
204.8407468262435
 31
0.0
  0
LINE
  5
328B
330
2
100
AcDbEntity
  8
0
100
AcDbLine
 10
453.6821141590754
 20
204.0907468262435
 30
0.0
 11
454.4239462212865
 21
204.8407468262435
 31
0.0
  0
LINE
  5
328C
330
2
100
AcDbEntity
  8
0
100
AcDbLine
 10
386.3071141590753
 20
204.0907468262435
 30
0.0
 11
385.5652820968643
 21
204.8407468262435
 31
0.0
  0
LINE
  5
328D
330
2
100
AcDbEntity
  8
0
100
AcDbLine
 10
376.0571141590753
 20
204.0907468262435
 30
0.0
 11
376.8136269511617
 21
204.8407468262435
 31
0.0
  0
LINE
  5
328E
330
2
100
AcDbEntity
  8
0
100
AcDbLine
 10
385.5652820968643
 20
204.8407468262435
 30
0.0
 11
376.8136269511617
 21
204.8407468262435
 31
0.0
  0
LINE
  5
328F
330
2
100
AcDbEntity
  8
0
100
AcDbLine
 10
386.3071141590753
 20
204.0907468262435
 30
0.0
 11
376.0571141590753
 21
204.0907468262435
 31
0.0
  0
LINE
  5
3290
330
2
100
AcDbEntity
  8
0
100
AcDbLine
 10
374.0571141590753
 20
192.4657468262435
 30
0.0
 11
373.3071141590753
 21
191.7157468262435
 31
0.0
  0
LINE
  5
3291
330
2
100
AcDbEntity
  8
0
100
AcDbLine
 10
374.0571141590753
 20
202.9657468262435
 30
0.0
 11
373.3071141590753
 21
203.7157468262435
 31
0.0
  0
LINE
  5
3292
330
2
100
AcDbEntity
  8
0
100
AcDbLine
 10
385.5571141590753
 20
202.9657468262435
 30
0.0
 11
386.3071141590753
 21
203.7157468262435
 31
0.0
  0
LINE
  5
3293
330
2
100
AcDbEntity
  8
0
100
AcDbLine
 10
386.3071141590753
 20
191.7157468262435
 30
0.0
 11
385.5571141590753
 21
192.4657468262435
 31
0.0
  0
LINE
  5
3294
330
2
100
AcDbEntity
  8
0
100
AcDbLine
 10
385.5571141590753
 20
202.9657468262435
 30
0.0
 11
374.0571141590753
 21
202.9657468262435
 31
0.0
  0
LINE
  5
3295
330
2
100
AcDbEntity
  8
0
100
AcDbLine
 10
374.0571141590753
 20
192.4657468262435
 30
0.0
 11
374.0571141590753
 21
202.9657468262435
 31
0.0
  0
LINE
  5
3296
330
2
100
AcDbEntity
  8
0
100
AcDbLine
 10
385.5571141590753
 20
202.9657468262435
 30
0.0
 11
385.5571141590753
 21
192.4657468262435
 31
0.0
  0
LINE
  5
3297
330
2
100
AcDbEntity
  8
0
100
AcDbLine
 10
385.5571141590753
 20
192.4657468262435
 30
0.0
 11
374.0571141590753
 21
192.4657468262435
 31
0.0
  0
LINE
  5
3298
330
2
100
AcDbEntity
  8
0
100
AcDbLine
 10
373.3071141590753
 20
191.7157468262435
 30
0.0
 11
373.3071141590753
 21
203.7157468262435
 31
0.0
  0
LINE
  5
3299
330
2
100
AcDbEntity
  8
0
100
AcDbLine
 10
386.3071141590753
 20
191.7157468262435
 30
0.0
 11
373.3071141590753
 21
191.7157468262435
 31
0.0
  0
LINE
  5
329A
330
2
100
AcDbEntity
  8
0
100
AcDbLine
 10
386.3071141590753
 20
203.7157468262435
 30
0.0
 11
386.3071141590753
 21
191.7157468262435
 31
0.0
  0
LINE
  5
329B
330
2
100
AcDbEntity
  8
0
100
AcDbLine
 10
386.3071141590753
 20
203.7157468262435
 30
0.0
 11
373.3071141590753
 21
203.7157468262435
 31
0.0
  0
LINE
  5
329C
330
2
100
AcDbEntity
  8
0
100
AcDbLine
 10
453.6821141590754
 20
191.3407468262435
 30
0.0
 11
463.9321141590754
 21
191.3407468262435
 31
0.0
  0
LINE
  5
329D
330
2
100
AcDbEntity
  8
0
100
AcDbLine
 10
453.6821141590754
 20
191.3407468262435
 30
0.0
 11
453.6821141590754
 21
168.2157468262435
 31
0.0
  0
LINE
  5
329E
330
2
100
AcDbEntity
  8
0
100
AcDbLine
 10
454.4321141590753
 20
190.5907468262435
 30
0.0
 11
454.4321141590753
 21
168.2157468262435
 31
0.0
  0
LINE
  5
329F
330
2
100
AcDbEntity
  8
0
100
AcDbLine
 10
463.9321141590754
 20
191.3407468262435
 30
0.0
 11
463.9321141590754
 21
168.2157468262435
 31
0.0
  0
LINE
  5
32A0
330
2
100
AcDbEntity
  8
0
100
AcDbLine
 10
463.1821141590753
 20
190.5907468262435
 30
0.0
 11
463.1821141590753
 21
168.2157468262435
 31
0.0
  0
LINE
  5
32A1
330
2
100
AcDbEntity
  8
0
100
AcDbLine
 10
454.4321141590753
 20
190.5907468262435
 30
0.0
 11
463.1821141590753
 21
190.5907468262435
 31
0.0
  0
LINE
  5
32A2
330
2
100
AcDbEntity
  8
0
100
AcDbLine
 10
463.1821141590753
 20
190.5907468262435
 30
0.0
 11
463.9321141590754
 21
191.3407468262435
 31
0.0
  0
LINE
  5
32A3
330
2
100
AcDbEntity
  8
0
100
AcDbLine
 10
454.4321141590753
 20
190.5907468262435
 30
0.0
 11
453.6821141590754
 21
191.3407468262435
 31
0.0
  0
LINE
  5
32A4
330
2
100
AcDbEntity
  8
0
100
AcDbLine
 10
385.5571141590753
 20
190.5907468262435
 30
0.0
 11
386.3071141590753
 21
191.3407468262435
 31
0.0
  0
LINE
  5
32A5
330
2
100
AcDbEntity
  8
0
100
AcDbLine
 10
376.8071141590753
 20
190.5907468262435
 30
0.0
 11
376.0571141590753
 21
191.3407468262435
 31
0.0
  0
LINE
  5
32A6
330
2
100
AcDbEntity
  8
0
100
AcDbLine
 10
385.5571141590753
 20
190.5907468262435
 30
0.0
 11
376.8071141590753
 21
190.5907468262435
 31
0.0
  0
LINE
  5
32A7
330
2
100
AcDbEntity
  8
0
100
AcDbLine
 10
376.8071141590753
 20
190.5907468262435
 30
0.0
 11
376.8071141590753
 21
168.2157468262435
 31
0.0
  0
LINE
  5
32A8
330
2
100
AcDbEntity
  8
0
100
AcDbLine
 10
376.0571141590753
 20
191.3407468262435
 30
0.0
 11
376.0571141590753
 21
168.2157468262435
 31
0.0
  0
LINE
  5
32A9
330
2
100
AcDbEntity
  8
0
100
AcDbLine
 10
385.5571141590753
 20
190.5907468262435
 30
0.0
 11
385.5571141590753
 21
168.2157468262435
 31
0.0
  0
LINE
  5
32AA
330
2
100
AcDbEntity
  8
0
100
AcDbLine
 10
386.3071141590753
 20
191.3407468262435
 30
0.0
 11
386.3071141590753
 21
168.2157468262435
 31
0.0
  0
LINE
  5
32AB
330
2
100
AcDbEntity
  8
0
100
AcDbLine
 10
386.3071141590753
 20
191.3407468262435
 30
0.0
 11
376.0571141590753
 21
191.3407468262435
 31
0.0
  0
LINE
  5
32AD
330
2
100
AcDbEntity
  8
0
100
AcDbLine
 10
465.9321141590753
 20
143.5907468262435
 30
0.0
 11
466.6821141590753
 21
144.3407468262435
 31
0.0
  0
LINE
  5
32AE
330
2
100
AcDbEntity
  8
0
100
AcDbLine
 10
454.4321141590753
 20
143.5907468262435
 30
0.0
 11
453.6821141590754
 21
144.3407468262435
 31
0.0
  0
LINE
  5
32AF
330
2
100
AcDbEntity
  8
0
100
AcDbLine
 10
454.4321141590753
 20
143.5907468262435
 30
0.0
 11
465.9321141590753
 21
143.5907468262435
 31
0.0
  0
LINE
  5
32B0
330
2
100
AcDbEntity
  8
0
100
AcDbLine
 10
465.9321141590753
 20
120.3407468262435
 30
0.0
 11
465.9321141590753
 21
143.5907468262435
 31
0.0
  0
LINE
  5
32B1
330
2
100
AcDbEntity
  8
0
100
AcDbLine
 10
454.4321141590753
 20
143.5907468262435
 30
0.0
 11
454.4321141590753
 21
120.3407468262435
 31
0.0
  0
LINE
  5
32B2
330
2
100
AcDbEntity
  8
0
100
AcDbLine
 10
466.6821141590753
 20
120.3407468262435
 30
0.0
 11
466.6821141590753
 21
144.3407468262435
 31
0.0
  0
LINE
  5
32B3
330
2
100
AcDbEntity
  8
0
100
AcDbLine
 10
453.6821141590754
 20
120.3407468262435
 30
0.0
 11
466.6821141590753
 21
120.3407468262435
 31
0.0
  0
LINE
  5
32B4
330
2
100
AcDbEntity
  8
0
100
AcDbLine
 10
453.6821141590754
 20
144.3407468262435
 30
0.0
 11
453.6821141590754
 21
120.3407468262435
 31
0.0
  0
LINE
  5
32B5
330
2
100
AcDbEntity
  8
0
100
AcDbLine
 10
453.6821141590754
 20
144.3407468262435
 30
0.0
 11
466.6821141590753
 21
144.3407468262435
 31
0.0
  0
LINE
  5
32B6
330
2
100
AcDbEntity
  8
0
100
AcDbLine
 10
453.6821141590754
 20
144.7157468262435
 30
0.0
 11
463.9321141590754
 21
144.7157468262435
 31
0.0
  0
LINE
  5
32B7
330
2
100
AcDbEntity
  8
0
100
AcDbLine
 10
454.4321141590753
 20
145.4657468262435
 30
0.0
 11
453.6821141590754
 21
144.7157468262435
 31
0.0
  0
LINE
  5
32B8
330
2
100
AcDbEntity
  8
0
100
AcDbLine
 10
463.1821141590753
 20
145.4657468262435
 30
0.0
 11
463.9321141590754
 21
144.7157468262435
 31
0.0
  0
LINE
  5
32B9
330
2
100
AcDbEntity
  8
0
100
AcDbLine
 10
454.4321141590753
 20
145.4657468262435
 30
0.0
 11
463.1821141590753
 21
145.4657468262435
 31
0.0
  0
LINE
  5
32BA
330
2
100
AcDbEntity
  8
0
100
AcDbLine
 10
453.6821141590754
 20
144.7157468262435
 30
0.0
 11
463.9321141590754
 21
144.7157468262435
 31
0.0
  0
LINE
  5
32BB
330
2
100
AcDbEntity
  8
0
100
AcDbLine
 10
453.6821141590754
 20
168.2157468262435
 30
0.0
 11
463.9321141590754
 21
168.2157468262435
 31
0.0
  0
LINE
  5
32BC
330
2
100
AcDbEntity
  8
0
100
AcDbLine
 10
453.6821141590754
 20
167.8407468262435
 30
0.0
 11
463.9321141590754
 21
167.8407468262435
 31
0.0
  0
LINE
  5
32BD
330
2
100
AcDbEntity
  8
0
100
AcDbLine
 10
463.1821141590753
 20
167.8407468262435
 30
0.0
 11
463.1821141590753
 21
145.4657468262435
 31
0.0
  0
LINE
  5
32BE
330
2
100
AcDbEntity
  8
0
100
AcDbLine
 10
463.9321141590754
 20
167.8407468262435
 30
0.0
 11
463.9321141590754
 21
144.7157468262435
 31
0.0
  0
LINE
  5
32BF
330
2
100
AcDbEntity
  8
0
100
AcDbLine
 10
454.4321141590753
 20
167.8407468262435
 30
0.0
 11
454.4321141590753
 21
145.4657468262435
 31
0.0
  0
LINE
  5
32C0
330
2
100
AcDbEntity
  8
0
100
AcDbLine
 10
453.6821141590754
 20
167.8407468262435
 30
0.0
 11
453.6821141590754
 21
144.7157468262435
 31
0.0
  0
LINE
  5
32C1
330
2
100
AcDbEntity
  8
0
100
AcDbLine
 10
386.3071141590753
 20
167.8407468262435
 30
0.0
 11
386.3071141590753
 21
144.7157468262435
 31
0.0
  0
LINE
  5
32C2
330
2
100
AcDbEntity
  8
0
100
AcDbLine
 10
385.5571141590753
 20
167.8407468262435
 30
0.0
 11
385.5571141590753
 21
145.4657468262435
 31
0.0
  0
LINE
  5
32C3
330
2
100
AcDbEntity
  8
0
100
AcDbLine
 10
376.0571141590753
 20
167.8407468262435
 30
0.0
 11
376.0571141590753
 21
144.7157468262435
 31
0.0
  0
LINE
  5
32C4
330
2
100
AcDbEntity
  8
0
100
AcDbLine
 10
376.8071141590753
 20
167.8407468262435
 30
0.0
 11
376.8071141590753
 21
145.4657468262435
 31
0.0
  0
LINE
  5
32C5
330
2
100
AcDbEntity
  8
0
100
AcDbLine
 10
386.3071141590753
 20
167.8407468262435
 30
0.0
 11
376.0571141590753
 21
167.8407468262435
 31
0.0
  0
LINE
  5
32C6
330
2
100
AcDbEntity
  8
0
100
AcDbLine
 10
386.3071141590753
 20
168.2157468262435
 30
0.0
 11
376.0571141590753
 21
168.2157468262435
 31
0.0
  0
LINE
  5
32C7
330
2
100
AcDbEntity
  8
0
100
AcDbLine
 10
386.3071141590753
 20
144.7157468262435
 30
0.0
 11
376.0571141590753
 21
144.7157468262435
 31
0.0
  0
LINE
  5
32C8
330
2
100
AcDbEntity
  8
0
100
AcDbLine
 10
386.3071141590753
 20
144.7157468262435
 30
0.0
 11
376.0571141590753
 21
144.7157468262435
 31
0.0
  0
LINE
  5
32C9
330
2
100
AcDbEntity
  8
0
100
AcDbLine
 10
386.3071141590753
 20
144.3407468262435
 30
0.0
 11
373.3071141590753
 21
144.3407468262435
 31
0.0
  0
LINE
  5
32CA
330
2
100
AcDbEntity
  8
0
100
AcDbLine
 10
386.3071141590753
 20
144.3407468262435
 30
0.0
 11
386.3071141590753
 21
120.3407468262435
 31
0.0
  0
LINE
  5
32CB
330
2
100
AcDbEntity
  8
0
100
AcDbLine
 10
386.3071141590753
 20
120.3407468262435
 30
0.0
 11
373.3071141590753
 21
120.3407468262435
 31
0.0
  0
LINE
  5
32CC
330
2
100
AcDbEntity
  8
0
100
AcDbLine
 10
373.3071141590753
 20
120.3407468262435
 30
0.0
 11
373.3071141590753
 21
144.3407468262435
 31
0.0
  0
LINE
  5
32CD
330
2
100
AcDbEntity
  8
0
100
AcDbLine
 10
385.5571141590753
 20
143.5907468262435
 30
0.0
 11
385.5571141590753
 21
120.3407468262435
 31
0.0
  0
LINE
  5
32CE
330
2
100
AcDbEntity
  8
0
100
AcDbLine
 10
374.0571141590753
 20
120.3407468262435
 30
0.0
 11
374.0571141590753
 21
143.5907468262435
 31
0.0
  0
LINE
  5
32CF
330
2
100
AcDbEntity
  8
0
100
AcDbLine
 10
385.5571141590753
 20
143.5907468262435
 30
0.0
 11
374.0571141590753
 21
143.5907468262435
 31
0.0
  0
LINE
  5
32D0
330
2
100
AcDbEntity
  8
0
100
AcDbLine
 10
374.0571141590753
 20
143.5907468262435
 30
0.0
 11
373.3071141590753
 21
144.3407468262435
 31
0.0
  0
POINT
  5
32DA
330
2
100
AcDbEntity
  8
DEFPOINTS
  6
ByBlock
 62
     0
100
AcDbPoint
 10
465.6821141590753
 20
144.7157468262435
 30
0.0
  0
LINE
  5
32EB
330
2
100
AcDbEntity
  8
0
100
AcDbLine
 10
445.0162937380577
 20
226.6465267350992
 30
0.0
 11
452.6677405218221
 21
233.4671101126337
 31
0.0
  0
LINE
  5
32EC
330
2
100
AcDbEntity
  8
0
100
AcDbLine
 10
445.2658243127931
 20
226.3665990796733
 30
0.0
 11
452.9172710965577
 21
233.1871824572079
 31
0.0
  0
ARC
  5
32ED
330
2
100
AcDbEntity
  8
0
100
AcDbCircle
 10
419.9946141590753
 20
204.0907468262435
 30
0.0
 40
33.6875
100
AcDbArc
 50
42.03306274093408
 51
83.42832130365341
  0
ARC
  5
32EE
330
2
100
AcDbEntity
  8
0
100
AcDbCircle
 10
419.9946141590753
 20
204.0907468262435
 30
0.0
 40
34.4375
100
AcDbArc
 50
42.02611743548307
 51
83.42832130365341
  0
ARC
  5
32EF
330
2
100
AcDbEntity
  8
0
100
AcDbCircle
 10
419.9946141590753
 20
204.0907468262435
 30
0.0
 40
43.1875
100
AcDbArc
 50
41.96291300859344
 51
83.6770703909525
  0
ARC
  5
32F0
330
2
100
AcDbEntity
  8
0
100
AcDbCircle
 10
419.9946141590753
 20
204.0907468262435
 30
0.0
 40
43.93749999999999
100
AcDbArc
 50
41.95866685417279
 51
83.6770703909525
  0
LINE
  5
32F1
330
2
100
AcDbEntity
  8
0
100
AcDbLine
 10
394.7234040053576
 20
226.3665990796733
 30
0.0
 11
387.0719572215931
 21
233.1871824572079
 31
0.0
  0
LINE
  5
32F2
330
2
100
AcDbEntity
  8
0
100
AcDbLine
 10
394.972934580093
 20
226.6465267350992
 30
0.0
 11
387.3214877963285
 21
233.4671101126337
 31
0.0
  0
ARC
  5
32F3
330
2
100
AcDbEntity
  8
0
100
AcDbCircle
 10
419.9946141590753
 20
204.0907468262435
 30
0.0
 40
33.6875
100
AcDbArc
 50
138.6047414372834
 51
180.0
  0
ARC
  5
32F4
330
2
100
AcDbEntity
  8
0
100
AcDbCircle
 10
419.9946141590753
 20
204.0907468262435
 30
0.0
 40
34.4375
100
AcDbArc
 50
138.5977961318279
 51
178.7520803678587
  0
ARC
  5
32F5
330
2
100
AcDbEntity
  8
0
100
AcDbCircle
 10
419.9946141590753
 20
204.0907468262435
 30
0.0
 40
43.1875
100
AcDbArc
 50
138.5345917049376
 51
179.0049436791937
  0
ARC
  5
32F6
330
2
100
AcDbEntity
  8
0
100
AcDbCircle
 10
419.9946141590753
 20
204.0907468262435
 30
0.0
 40
43.93749999999999
100
AcDbArc
 50
138.5303455505182
 51
180.0
  0
LINE
  5
33A6
330
2
100
AcDbEntity
  8
0
100
AcDbLine
 10
385.5571141590753
 20
143.5907468262435
 30
0.0
 11
386.3071141590753
 21
144.3407468262435
 31
0.0
  0
LINE
  5
33A7
330
2
100
AcDbEntity
  8
0
100
AcDbLine
 10
385.5571141590753
 20
145.4657468262435
 30
0.0
 11
376.8071141590753
 21
145.4657468262435
 31
0.0
  0
LINE
  5
33A8
330
2
100
AcDbEntity
  8
0
100
AcDbLine
 10
376.0571141590753
 20
144.7157468262435
 30
0.0
 11
376.8071141590753
 21
145.4657468262435
 31
0.0
  0
LINE
  5
33A9
330
2
100
AcDbEntity
  8
0
100
AcDbLine
 10
386.3071141590753
 20
144.7157468262435
 30
0.0
 11
385.5571141590753
 21
145.4657468262435
 31
0.0
  0
LINE
  5
33C5
330
2
100
AcDbEntity
  8
0
100
AcDbLine
 10
571.3032885370694
 20
120.3407468262435
 30
0.0
 11
566.6782885370694
 21
120.3407468262435
 31
0.0
  0
LINE
  5
33C6
330
2
100
AcDbEntity
  8
0
100
AcDbLine
 10
566.6782885370694
 20
120.3407468262435
 30
0.0
 11
566.6782885370694
 21
144.3407468262435
 31
0.0
  0
LINE
  5
33C7
330
2
100
AcDbEntity
  8
0
100
AcDbLine
 10
570.9282885370694
 20
250.7782468262435
 30
0.0
 11
566.6782885370694
 21
250.7782468262435
 31
0.0
  0
LINE
  5
33C8
330
2
100
AcDbEntity
  8
0
100
AcDbLine
 10
570.4282885370694
 20
204.0907468262435
 30
0.0
 11
566.6782885370694
 21
204.0907468262435
 31
0.0
  0
LINE
  5
33C9
330
2
100
AcDbEntity
  8
0
100
AcDbLine
 10
570.5532885370693
 20
203.7157468262435
 30
0.0
 11
566.6782885370694
 21
203.7157468262435
 31
0.0
  0
LINE
  5
33CA
330
2
100
AcDbEntity
  8
0
100
AcDbLine
 10
566.6782885370694
 20
204.0907468262435
 30
0.0
 11
566.6782885370694
 21
247.7609732782062
 31
0.0
  0
LINE
  5
33CB
330
2
100
AcDbEntity
  8
0
100
AcDbLine
 10
570.4282885370694
 20
247.7609732782062
 30
0.0
 11
566.6782885370694
 21
247.7609732782062
 31
0.0
  0
LINE
  5
33CC
330
2
100
AcDbEntity
  8
0
100
AcDbLine
 10
571.1782885370694
 20
204.8407468262435
 30
0.0
 11
571.1782885370694
 21
233.1871824572079
 31
0.0
  0
LINE
  5
33CD
330
2
100
AcDbEntity
  8
0
100
AcDbLine
 10
571.3032885370694
 20
120.3407468262435
 30
0.0
 11
571.3032885370694
 21
143.5907468262435
 31
0.0
  0
LINE
  5
33CE
330
2
100
AcDbEntity
  8
0
100
AcDbLine
 10
570.4282885370694
 20
248.1532468262435
 30
0.0
 11
566.6782885370694
 21
248.1532468262435
 31
0.0
  0
LINE
  5
33CF
330
2
100
AcDbEntity
  8
0
100
AcDbLine
 10
566.6782885370694
 20
237.7782468262435
 30
0.0
 11
566.6782885370694
 21
250.7782468262435
 31
0.0
  0
LINE
  5
33D0
330
2
100
AcDbEntity
  8
0
100
AcDbLine
 10
570.4282885370694
 20
247.7609732782062
 30
0.0
 11
570.4282885370694
 21
248.1532468262435
 31
0.0
  0
LINE
  5
33D1
330
2
100
AcDbEntity
  8
0
100
AcDbLine
 10
570.9282885370694
 20
247.2609732782061
 30
0.0
 11
570.9282885370694
 21
250.7782468262435
 31
0.0
  0
LINE
  5
33D2
330
2
100
AcDbEntity
  8
0
100
AcDbLine
 10
571.1782885370694
 20
247.0109732782062
 30
0.0
 11
570.4282885370694
 21
247.7609732782062
 31
0.0
  0
LINE
  5
33D3
330
2
100
AcDbEntity
  8
0
100
AcDbLine
 10
570.4282885370694
 20
247.7609732782062
 30
0.0
 11
570.4282885370694
 21
233.4671101126337
 31
0.0
  0
LINE
  5
33D4
330
2
100
AcDbEntity
  8
0
100
AcDbLine
 10
571.1782885370694
 20
204.8407468262435
 30
0.0
 11
570.4282885370694
 21
204.0907468262435
 31
0.0
  0
LINE
  5
33D5
330
2
100
AcDbEntity
  8
0
100
AcDbLine
 10
571.3032885370694
 20
202.9657468262435
 30
0.0
 11
570.5532885370693
 21
203.7157468262435
 31
0.0
  0
LINE
  5
33D6
330
2
100
AcDbEntity
  8
0
100
AcDbLine
 10
570.5532885370693
 20
203.7157468262435
 30
0.0
 11
570.5532885370693
 21
191.7157468262435
 31
0.0
  0
LINE
  5
33D7
330
2
100
AcDbEntity
  8
0
100
AcDbLine
 10
570.5532885370693
 20
191.7157468262435
 30
0.0
 11
566.6782885370694
 21
191.7157468262435
 31
0.0
  0
LINE
  5
33D8
330
2
100
AcDbEntity
  8
0
100
AcDbLine
 10
570.5532885370693
 20
191.3407468262435
 30
0.0
 11
566.6782885370694
 21
191.3407468262435
 31
0.0
  0
LINE
  5
33D9
330
2
100
AcDbEntity
  8
0
100
AcDbLine
 10
571.3032885370694
 20
168.2157468262435
 30
0.0
 11
566.6782885370694
 21
168.2157468262435
 31
0.0
  0
LINE
  5
33DA
330
2
100
AcDbEntity
  8
0
100
AcDbLine
 10
571.3032885370694
 20
167.8407468262435
 30
0.0
 11
566.6782885370694
 21
167.8407468262435
 31
0.0
  0
LINE
  5
33DB
330
2
100
AcDbEntity
  8
0
100
AcDbLine
 10
570.5532885370693
 20
144.7157468262435
 30
0.0
 11
566.6782885370694
 21
144.7157468262435
 31
0.0
  0
LINE
  5
33DC
330
2
100
AcDbEntity
  8
0
100
AcDbLine
 10
570.5532885370693
 20
144.3407468262435
 30
0.0
 11
566.6782885370694
 21
144.3407468262435
 31
0.0
  0
LINE
  5
33DD
330
2
100
AcDbEntity
  8
0
100
AcDbLine
 10
566.6782885370694
 20
144.7157468262435
 30
0.0
 11
566.6782885370694
 21
167.8407468262435
 31
0.0
  0
LINE
  5
33DE
330
2
100
AcDbEntity
  8
0
100
AcDbLine
 10
571.3032885370694
 20
145.4657468262435
 30
0.0
 11
571.3032885370694
 21
167.8407468262435
 31
0.0
  0
LINE
  5
33DF
330
2
100
AcDbEntity
  8
0
100
AcDbLine
 10
570.5532885370693
 20
144.3407468262435
 30
0.0
 11
571.3032885370694
 21
143.5907468262435
 31
0.0
  0
LINE
  5
33E0
330
2
100
AcDbEntity
  8
0
100
AcDbLine
 10
570.5532885370693
 20
144.7157468262435
 30
0.0
 11
571.3032885370694
 21
145.4657468262435
 31
0.0
  0
LINE
  5
33E1
330
2
100
AcDbEntity
  8
0
100
AcDbLine
 10
566.6782885370694
 20
168.2157468262435
 30
0.0
 11
566.6782885370694
 21
191.3407468262435
 31
0.0
  0
LINE
  5
33E2
330
2
100
AcDbEntity
  8
0
100
AcDbLine
 10
570.5532885370693
 20
167.8407468262435
 30
0.0
 11
570.5532885370693
 21
144.7157468262435
 31
0.0
  0
LINE
  5
33E3
330
2
100
AcDbEntity
  8
0
100
AcDbLine
 10
571.3032885370694
 20
168.2157468262435
 30
0.0
 11
571.3032885370694
 21
190.5907468262435
 31
0.0
  0
LINE
  5
33E4
330
2
100
AcDbEntity
  8
0
100
AcDbLine
 10
566.6782885370694
 20
191.7157468262435
 30
0.0
 11
566.6782885370694
 21
203.7157468262435
 31
0.0
  0
LINE
  5
33E5
330
2
100
AcDbEntity
  8
0
100
AcDbLine
 10
570.5532885370693
 20
191.3407468262435
 30
0.0
 11
570.5532885370693
 21
168.2157468262435
 31
0.0
  0
LINE
  5
33E6
330
2
100
AcDbEntity
  8
0
100
AcDbLine
 10
571.3032885370694
 20
192.4657468262435
 30
0.0
 11
571.3032885370694
 21
202.9657468262435
 31
0.0
  0
LINE
  5
33E7
330
2
100
AcDbEntity
  8
0
100
AcDbLine
 10
570.5532885370693
 20
191.3407468262435
 30
0.0
 11
571.3032885370694
 21
190.5907468262435
 31
0.0
  0
LINE
  5
33E8
330
2
100
AcDbEntity
  8
0
100
AcDbLine
 10
570.5532885370693
 20
191.7157468262435
 30
0.0
 11
571.3032885370694
 21
192.4657468262435
 31
0.0
  0
LINE
  5
33E9
330
2
100
AcDbEntity
  8
0
100
AcDbLine
 10
570.5532885370693
 20
144.3407468262435
 30
0.0
 11
570.5532885370693
 21
120.3407468262435
 31
0.0
  0
LINE
  5
33ED
330
2
100
AcDbEntity
  8
0
100
AcDbLine
 10
571.1782885370694
 20
233.1871824572079
 30
0.0
 11
566.6782885370694
 21
233.1871824572079
 31
0.0
  0
LINE
  5
33EE
330
2
100
AcDbEntity
  8
0
100
AcDbLine
 10
571.1782885370694
 20
233.4671101126337
 30
0.0
 11
566.6782885370694
 21
233.4671101126337
 31
0.0
  0
LINE
  5
33EF
330
2
100
AcDbEntity
  8
0
100
AcDbLine
 10
571.1782885370694
 20
233.1871824572079
 30
0.0
 11
571.1782885370694
 21
247.0109732782062
 31
0.0
  0
LINE
  5
33F0
330
2
100
AcDbEntity
  8
0
100
AcDbLine
 10
570.4282885370694
 20
233.1871824572079
 30
0.0
 11
570.4282885370694
 21
204.0907468262435
 31
0.0
  0
DIMENSION
  5
3948
330
2
100
AcDbEntity
  8
A1
 62
     7
100
AcDbDimension
  2
*D0
 10
520.7506015487047
 20
250.7782468262435
 30
0.0
 11
520.7506015487047
 21
184.5462323322399
 31
0.0
 70
   160
 71
     5
 42
-1.0
  3
STANDARD
100
AcDbAlignedDimension
 13
466.6821141590753
 23
120.3407468262435
 33
0.0
 14
422.9946141590753
 24
250.7782468262435
 34
0.0
 50
90.0
100
AcDbRotatedDimension
1001
ACAD
1000
DSTYLE
1002
{
1070
    40
1040
6.0
1070
    73
1070
     1
1070
    74
1070
     1
1070
    77
1070
     0
1070
   147
1040
0.5
1070
   279
1070
     1
1070
   288
1070
     1
1070
   289
1070
     3
1002
}
  0
DIMENSION
  5
3956
330
2
100
AcDbEntity
  8
A1
 62
     7
100
AcDbDimension
  2
*D1
 10
341.8467705792545
 20
237.7782468262435
 30
0.0
 11
341.8467705792545
 21
178.1595752506881
 31
0.0
 70
   160
 71
     5
 42
-1.0
  3
STANDARD
100
AcDbAlignedDimension
 13
373.3071141590753
 23
120.3407468262435
 33
0.0
 14
417.9946141590753
 24
237.7782468262435
 34
0.0
 50
90.0
100
AcDbRotatedDimension
1001
ACAD
1000
DSTYLE
1002
{
1070
    40
1040
6.0
1070
    73
1070
     1
1070
    74
1070
     1
1070
    77
1070
     0
1070
   147
1040
0.5
1070
   279
1070
     1
1070
   288
1070
     1
1070
   289
1070
     3
1002
}
  0
DIMENSION
  5
3965
330
2
100
AcDbEntity
  8
A1
 62
     7
100
AcDbDimension
  2
*D2
 10
466.6821141590753
 20
82.71453666376487
 30
0.0
 11
421.359584618966
 21
82.71453666376487
 31
0.0
 70
   161
 71
     5
 42
-1.0
  3
STANDARD
100
AcDbAlignedDimension
 13
373.3071141590753
 23
120.3407468262435
 33
0.0
 14
466.6821141590753
 24
120.3407468262435
 34
0.0
1001
ACAD
1000
DSTYLE
1002
{
1070
    40
1040
6.0
1070
    73
1070
     1
1070
    74
1070
     1
1070
    77
1070
     0
1070
   147
1040
0.5
1070
   279
1070
     1
1070
   288
1070
     1
1070
   289
1070
     3
1002
}
  0
DIMENSION
  5
3973
330
2
100
AcDbEntity
  8
A1
 62
     7
100
AcDbDimension
  2
*D3
 10
386.3071141590753
 20
100.1004360436287
 30
0.0
 11
421.359584618966
 21
100.1004360436287
 31
0.0
 70
   161
 71
     5
 42
-1.0
  3
STANDARD
100
AcDbAlignedDimension
 13
453.6821141590754
 23
120.3407468262435
 33
0.0
 14
386.3071141590753
 24
120.3407468262435
 34
0.0
1001
ACAD
1000
DSTYLE
1002
{
1070
    40
1040
6.0
1070
    73
1070
     1
1070
    74
1070
     1
1070
    77
1070
     0
1070
   147
1040
0.5
1070
   279
1070
     1
1070
   288
1070
     1
1070
   289
1070
     3
1002
}
  0
DIMENSION
  5
3981
330
2
100
AcDbEntity
  8
A1
 62
     7
100
AcDbDimension
  2
*D4
 10
419.9946141590754
 20
204.0907468262436
 30
0.0
 11
448.9447649996493
 21
243.0905867375343
 31
0.0
 70
   164
 71
     5
 42
-1.0
  3
STANDARD
100
AcDbRadialDimension
 15
440.0738209980231
 25
231.1402035484915
 35
0.0
 40
0.0
1001
ACAD
1000
DSTYLE
1002
{
1070
    40
1040
6.0
1070
    73
1070
     1
1070
    74
1070
     1
1070
    77
1070
     0
1070
   147
1040
0.5
1070
   279
1070
     1
1070
   288
1070
     1
1070
   289
1070
     3
1002
}
  0
DIMENSION
  5
398B
330
2
100
AcDbEntity
  8
A1
 62
     7
100
AcDbDimension
  2
*D5
 10
466.6821141590753
 20
100.1004360436287
 30
0.0
 11
490.5783285521768
 21
100.1004360436287
 31
0.0
 70
   161
 71
     5
 42
-1.0
  3
STANDARD
100
AcDbAlignedDimension
 13
453.6821141590754
 23
120.3407468262435
 33
0.0
 14
466.6821141590753
 24
120.3407468262435
 34
0.0
1001
ACAD
1000
DSTYLE
1002
{
1070
    40
1040
6.0
1070
    73
1070
     1
1070
    74
1070
     1
1070
    77
1070
     0
1070
   147
1040
0.5
1070
   279
1070
     1
1070
   288
1070
     1
1070
   289
1070
     3
1002
}
  0
DIMENSION
  5
399B
330
2
100
AcDbEntity
  8
A1
 62
     7
100
AcDbDimension
  2
*D6
 10
571.3032885370694
 20
100.455250416587
 30
0.0
 11
595.2938642460085
 21
100.455250416587
 31
0.0
 70
   161
 71
     5
 42
-1.0
  3
STANDARD
100
AcDbAlignedDimension
 13
566.6782885370694
 23
120.3407468262435
 33
0.0
 14
571.3032885370694
 24
120.3407468262435
 34
0.0
1001
ACAD
1000
DSTYLE
1002
{
1070
    40
1040
6.0
1070
    73
1070
     1
1070
    74
1070
     1
1070
    77
1070
     0
1070
   147
1040
0.5
1070
   279
1070
     1
1070
   288
1070
     1
1070
   289
1070
     3
1002
}
  0
INSERT
  5
3A53
330
2
100
AcDbEntity
  8
A1
 62
     7
100
AcDbBlockReference
 66
     1
  2
PROFILE LOGO
 10
374.7771445336243
 20
124.1568440034112
 30
0.0
 41
1.799999999999999
 42
1.799999999999999
 43
1.799999999999999
  0
ATTRIB
  5
3A54
330
3A53
100
AcDbEntity
  8
A1
 62
    22
100
AcDbText
 10
375.3260931944065
 20
121.1359071553794
 30
0.0
 40
0.3828515625
  1
E000
 72
     1
 11
375.9977792631299
 21
121.1359071553794
 31
0.0
100
AcDbAttribute
  2
XXXX
 70
     0
  0
SEQEND
  5
3A55
330
3A53
100
AcDbEntity
  8
A1
 62
     7
  0
INSERT
  5
3A56
330
2
100
AcDbEntity
  8
A1
 62
     7
100
AcDbBlockReference
 66
     1
  2
PROFILE LOGO
 10
567.5264989408547
 20
124.1568440034112
 30
0.0
 41
1.799999999999999
 42
1.799999999999999
 43
1.799999999999999
  0
ATTRIB
  5
3A57
330
3A56
100
AcDbEntity
  8
A1
 62
    22
100
AcDbText
 10
568.075447601637
 20
121.1359071553794
 30
0.0
 40
0.3828515625
  1
E000
 72
     1
 11
568.7471336703604
 21
121.1359071553794
 31
0.0
100
AcDbAttribute
  2
XXXX
 70
     0
  0
SEQEND
  5
3A58
330
3A56
100
AcDbEntity
  8
A1
 62
     7
  0
ATTDEF
  5
3A68
330
2
100
AcDbEntity
  8
A1
 62
     1
100
AcDbText
 10
549.0950735546626
 20
279.907675939496
 30
0.0
 40
6.0
  1

100
AcDbAttributeDefinition
  3
ADD LINK NUMBER (WMF)
  2
TSE000
 70
     0
  0
MTEXT
  5
3A69
330
2
100
AcDbEntity
  8
0
 62
     1
100
AcDbMText
 10
549.3280687405128
 20
275.4240246044072
 30
0.0
 40
6.0
 41
0.0
 71
     1
 72
     1
  1
TannerStone
 73
     1
 44
1.0
1001
ACAD
1000
MTEXTBEGIN
1070
    73
1070
     1
1070
    44
1040
1.0
1070
    74
1070
     0
1000
MTEXTEND
  0
MTEXT
  5
3A6A
330
2
100
AcDbEntity
  8
0
 62
     1
100
AcDbMText
 10
549.7945231846032
 20
266.3210642064403
 30
0.0
 40
4.432049999999999
 41
0.0
 71
     1
 72
     1
  1
1-800-789-4841
 73
     1
 44
1.0
1001
ACAD
1000
MTEXTBEGIN
1070
    73
1070
     1
1070
    44
1040
1.0
1070
    74
1070
     0
1000
MTEXTEND
  0
LINE
  5
3A6B
330
2
100
AcDbEntity
  8
0
 62
     1
100
AcDbLine
 10
511.2417431180574
 20
277.6110614922241
 30
0.0
 11
600.8184840281217
 21
277.6110614922241
 31
0.0
  0
LINE
  5
3A6C
330
2
100
AcDbEntity
  8
0
 62
     1
100
AcDbLine
 10
546.1740914601961
 20
259.6843961815702
 30
0.0
 11
546.1740914601961
 21
287.0111187585269
 31
0.0
  0
SOLID
  5
3A70
330
2
100
AcDbEntity
  8
A1
 62
     1
100
AcDbTrace
 10
421.7552576203111
 20
253.4459642530949
 30
0.0
 11
420.8111018869429
 21
253.7754637996013
 31
0.0
 12
420.2946811141075
 22
250.7782468262435
 32
0.0
 13
420.2946811141075
 23
250.7782468262435
 33
0.0
  0
LINE
  5
3A71
330
2
100
AcDbEntity
  8
A1
 62
     1
100
AcDbLine
 10
421.283179753627
 20
253.6107140263481
 30
0.0
 11
427.3940394662317
 21
271.120914858601
 31
0.0
  0
LINE
  5
3A72
330
2
100
AcDbEntity
  8
A1
 62
     1
100
AcDbLine
 10
427.3940394662317
 20
271.120914858601
 30
0.0
 11
511.2417431180574
 21
277.6110614922241
 31
0.0
  0
INSERT
  5
3AF2
330
2
100
AcDbEntity
  8
A1
 62
     7
100
AcDbBlockReference
 66
     1
  2
TSFORMB
 10
245.000072138155
 20
21.77558689011505
 30
0.0
 41
3.75
 42
3.75
 43
3.75
  0
ATTRIB
  5
3AF3
330
3AF2
100
AcDbEntity
  8
A1
 62
     1
100
AcDbText
 10
385.050522320109
 20
25.21240245278483
 30
0.0
 40
3.845960999999999
  1
ENTRANCE
 72
     1
 11
399.725684633362
 21
25.21240245278483
 31
0.0
100
AcDbAttribute
  2
XXXXXX
 70
     0
  0
ATTRIB
  5
3AF4
330
3AF2
100
AcDbEntity
  8
A1
 62
     1
100
AcDbText
 10
308.795099197801
 20
28.80690703051135
 30
0.0
 40
3.15
  1
TSE000
 72
     2
 11
325.8265308065891
 21
28.80690703051135
 31
0.0
100
AcDbAttribute
  2
XXXXXX
 70
     0
  0
ATTRIB
  5
3AF5
330
3AF2
100
AcDbEntity
  8
A1
 62
     1
100
AcDbText
 10
270.4872066587777
 20
33.46794739938587
 30
0.0
 40
22.995
  1
TSE000
  7
barcoder
 72
     1
 11
293.1947691587777
 21
33.46794739938587
 31
0.0
100
AcDbAttribute
  2
BARCODE
 70
     0
  0
ATTRIB
  5
3AF6
330
3AF2
100
AcDbEntity
  8
A1
 62
     1
100
AcDbText
 10
595.934517755502
 20
297.025648136796
 30
0.0
 40
7.796250000000002
  1
TSE000
 72
     1
 11
617.0109143713773
 21
297.025648136796
 31
0.0
100
AcDbAttribute
  2
TS00XX
 70
     0
  0
ATTRIB
  5
3AF7
330
3AF2
100
AcDbEntity
  8
A1
 62
     1
100
AcDbText
 10
624.4099720277927
 20
59.57185344738156
 30
0.0
 40
3.543750000000001
  1

 72
     1
 11
624.4099720277927
 21
59.57185344738156
 31
0.0
100
AcDbAttribute
  2
XXXXX
 70
     0
  0
ATTRIB
  5
3AF8
330
3AF2
100
AcDbEntity
  8
A1
 62
     1
100
AcDbText
 10
624.2818455049103
 20
48.84885669829194
 30
0.0
 40
3.543750000000001
  1

 72
     1
 11
624.2818455049103
 21
48.84885669829194
 31
0.0
100
AcDbAttribute
  2
XXXXX
 70
     0
  0
SEQEND
  5
3AF9
330
3AF2
100
AcDbEntity
  8
A1
 62
     7
  0
ENDSEC
  0
SECTION
  2
OBJECTS
  0
DICTIONARY
  5
8
330
0
100
AcDbDictionary
281
     1
  3
ACAD_GROUP
350
21
  3
ACAD_LAYOUT
350
C
  3
ACAD_MLINESTYLE
350
22
  3
ACAD_PLOTSETTINGS
350
23
  3
ACAD_PLOTSTYLENAME
350
7
  3
ACAD_VBA
350
3AFA
  3
DWGPROPS
350
3B04
  0
DICTIONARY
  5
3
330
2
100
AcDbDictionary
280
     1
281
     1
  3
ACAD_LAYOUTSELFREF
360
3B2D
  0
DICTIONARY
  5
3B30
330
D
100
AcDbDictionary
280
     1
281
     1
  3
ACAD_LAYOUTSELFREF
360
3B31
  0
DICTIONARY
  5
21
102
{ACAD_REACTORS
330
8
102
}
330
8
100
AcDbDictionary
281
     1
  0
DICTIONARY
  5
C
102
{ACAD_REACTORS
330
8
102
}
330
8
100
AcDbDictionary
281
     1
  3
Layout1
350
10
  3
Model
350
B
  0
DICTIONARY
  5
22
102
{ACAD_REACTORS
330
8
102
}
330
8
100
AcDbDictionary
281
     1
  3
STANDARD
350
25
  0
DICTIONARY
  5
23
102
{ACAD_REACTORS
330
8
102
}
330
8
100
AcDbDictionary
281
     1
  0
ACDBDICTIONARYWDFLT
  5
7
102
{ACAD_REACTORS
330
8
102
}
330
8
100
AcDbDictionary
281
     1
  3
Normal
350
6
100
AcDbDictionaryWithDefault
340
6
  0
DICTIONARY
  5
3AFA
102
{ACAD_REACTORS
330
8
102
}
330
8
100
AcDbDictionary
281
     1
  3
VBAProject
350
3AFB
  0
XRECORD
  5
3B04
102
{ACAD_REACTORS
330
8
102
}
330
8
100
AcDbXrecord
280
     1
  1
DWGPROPS COOKIE
  2

  3

  4

  6

  7

  8
catalog
  9

300
=
301
=
302
=
303
=
304
=
305
=
306
=
307
=
308
=
309
=
 40
2.685720949074073
 41
2451085.66483831
 42
2451642.673122685
  1

 90
        0
  0
XRECORD
  5
3B2D
102
{ACAD_REACTORS
330
3
102
}
330
3
100
AcDbXrecord
280
     1
340
2
  0
XRECORD
  5
3B31
102
{ACAD_REACTORS
330
3B30
102
}
330
3B30
100
AcDbXrecord
280
     1
340
D
  0
LAYOUT
  5
10
102
{ACAD_REACTORS
330
C
102
}
330
C
100
AcDbPlotSettings
  1

  2
None
  4

  6

 40
0.0
 41
0.0
 42
0.0
 43
0.0
 44
0.0
 45
0.0
 46
0.0
 47
0.0
 48
0.0
 49
0.0
140
0.0
141
0.0
142
1.0
143
1.0
 70
   688
 72
     0
 73
     0
 74
     5
  7

 75
    16
147
1.0
148
0.0
149
0.0
100
AcDbLayout
  1
Layout1
 70
     1
 71
     1
 10
0.0
 20
0.0
 11
12.0
 21
9.0
 12
0.0
 22
0.0
 32
0.0
 14
1.000000000000000E+20
 24
1.000000000000000E+20
 34
1.000000000000000E+20
 15
-1.000000000000000E+20
 25
-1.000000000000000E+20
 35
-1.000000000000000E+20
146
0.0
 13
0.0
 23
0.0
 33
0.0
 16
1.0
 26
0.0
 36
0.0
 17
0.0
 27
1.0
 37
0.0
 76
     0
330
D
  0
LAYOUT
  5
B
102
{ACAD_REACTORS
330
C
102
}
330
C
100
AcDbPlotSettings
  1

  2
HP LaserJet 5.pc3
  4
Letter
  6

 40
7.143749713897705
 41
6.381738662719726
 42
7.14373779296875
 43
6.381744384765625
 44
215.8999938964843
 45
279.3999938964843
 46
0.0
 47
0.0
 48
603.4899851506333
 49
199.8350450038278
140
671.3252102950534
141
250.2978344405305
142
1.0
143
44.53191426697756
 70
 11952
 72
     0
 73
     1
 74
     1
  7

 75
     0
147
0.0224558053804919
148
-5976.39537829983
149
311.5283636087993
100
AcDbLayout
  1
Model
 70
     1
 71
     0
 10
0.0
 20
0.0
 11
12.0
 21
9.0
 12
0.0
 22
0.0
 32
0.0
 14
0.0
 24
0.0
 34
0.0
 15
0.0
 25
0.0
 35
0.0
146
0.0
 13
0.0
 23
0.0
 33
0.0
 16
1.0
 26
0.0
 36
0.0
 17
0.0
 27
1.0
 37
0.0
 76
     0
330
2
  0
MLINESTYLE
  5
25
102
{ACAD_REACTORS
330
22
102
}
330
22
100
AcDbMlineStyle
  2
STANDARD
 70
     0
  3

 62
   256
 51
90.0
 52
90.0
 71
     2
 49
0.5
 62
   256
  6
BYLAYER
 49
-0.5
 62
   256
  6
BYLAYER
  0
ACDBPLACEHOLDER
  5
6
102
{ACAD_REACTORS
330
7
102
}
330
7
  0
VBA_PROJECT
  5
3AFB
102
{ACAD_REACTORS
330
3AFA
102
}
330
3AFA
100
AcDbVbaProject
 90
     7680
310
D0CF11E0A1B11AE1000000000000000000000000000000003E000300FEFF0900060000000000000000000000010000000100000000000000001000000200000001000000FEFFFFFF0000000000000000FFFFFFFFFFFFFFFFFFFFFFFFFFFFFFFFFFFFFFFFFFFFFFFFFFFFFFFFFFFFFFFFFFFFFFFFFFFFFFFFFFFFFFFFFFFFFF
310
FFFFFFFFFFFFFFFFFFFFFFFFFFFFFFFFFFFFFFFFFFFFFFFFFFFFFFFFFFFFFFFFFFFFFFFFFFFFFFFFFFFFFFFFFFFFFFFFFFFFFFFFFFFFFFFFFFFFFFFFFFFFFFFFFFFFFFFFFFFFFFFFFFFFFFFFFFFFFFFFFFFFFFFFFFFFFFFFFFFFFFFFFFFFFFFFFFFFFFFFFFFFFFFFFFFFFFFFFFFFFFFFFFFFFFFFFFFFFFFFFFFFFFFFFFFFFF
310
FFFFFFFFFFFFFFFFFFFFFFFFFFFFFFFFFFFFFFFFFFFFFFFFFFFFFFFFFFFFFFFFFFFFFFFFFFFFFFFFFFFFFFFFFFFFFFFFFFFFFFFFFFFFFFFFFFFFFFFFFFFFFFFFFFFFFFFFFFFFFFFFFFFFFFFFFFFFFFFFFFFFFFFFFFFFFFFFFFFFFFFFFFFFFFFFFFFFFFFFFFFFFFFFFFFFFFFFFFFFFFFFFFFFFFFFFFFFFFFFFFFFFFFFFFFFFF
310
FFFFFFFFFFFFFFFFFFFFFFFFFFFFFFFFFFFFFFFFFFFFFFFFFFFFFFFFFFFFFFFFFFFFFFFFFFFFFFFFFFFFFFFFFFFFFFFFFFFFFFFFFFFFFFFFFFFFFFFFFFFFFFFFFFFFFFFFFFFFFFFFFFFFFFFFFFFFFFFFFFFFFFFFFFFFFFFFFFFFFFFFFFFFFFFFFFFFFFFFFFFFFFFFFFFFFFFFFFFFFFFFFFFFFFFFFFFFFFFFFFFFFFFFFFFFFF
310
FFFFFFFFFDFFFFFF04000000FEFFFFFF050000000D000000060000000700000008000000090000000A0000000B0000000C000000FEFFFFFFFEFFFFFFFFFFFFFFFFFFFFFFFFFFFFFFFFFFFFFFFFFFFFFFFFFFFFFFFFFFFFFFFFFFFFFFFFFFFFFFFFFFFFFFFFFFFFFFFFFFFFFFFFFFFFFFFFFFFFFFFFFFFFFFFFFFFFFFFFFFFF
310
FFFFFFFFFFFFFFFFFFFFFFFFFFFFFFFFFFFFFFFFFFFFFFFFFFFFFFFFFFFFFFFFFFFFFFFFFFFFFFFFFFFFFFFFFFFFFFFFFFFFFFFFFFFFFFFFFFFFFFFFFFFFFFFFFFFFFFFFFFFFFFFFFFFFFFFFFFFFFFFFFFFFFFFFFFFFFFFFFFFFFFFFFFFFFFFFFFFFFFFFFFFFFFFFFFFFFFFFFFFFFFFFFFFFFFFFFFFFFFFFFFFFFFFFFFFFFF
310
FFFFFFFFFFFFFFFFFFFFFFFFFFFFFFFFFFFFFFFFFFFFFFFFFFFFFFFFFFFFFFFFFFFFFFFFFFFFFFFFFFFFFFFFFFFFFFFFFFFFFFFFFFFFFFFFFFFFFFFFFFFFFFFFFFFFFFFFFFFFFFFFFFFFFFFFFFFFFFFFFFFFFFFFFFFFFFFFFFFFFFFFFFFFFFFFFFFFFFFFFFFFFFFFFFFFFFFFFFFFFFFFFFFFFFFFFFFFFFFFFFFFFFFFFFFFFF
310
FFFFFFFFFFFFFFFFFFFFFFFFFFFFFFFFFFFFFFFFFFFFFFFFFFFFFFFFFFFFFFFFFFFFFFFFFFFFFFFFFFFFFFFFFFFFFFFFFFFFFFFFFFFFFFFFFFFFFFFFFFFFFFFFFFFFFFFFFFFFFFFFFFFFFFFFFFFFFFFFFFFFFFFFFFFFFFFFFFFFFFFFFFFFFFFFFFFFFFFFFFFFFFFFFFFFFFFFFFFFFFFFFFFFFFFFFFFFFFFFFFFFFFFFFFFFFF
310
FFFFFFFFFFFFFFFF52006F006F007400200045006E00740072007900000000000000000000000000000000000000000000000000000000000000000000000000000000000000000016000500FFFFFFFFFFFFFFFF01000000000000000000000000000000000000000000000000000000000000006017B548E3AEBF01030000
310
00C0100000000000005600420041005F00500072006F006A0065006300740000000000000000000000000000000000000000000000000000000000000000000000000000000000000018000101FFFFFFFF080000000600000000000000000000000000000000000000000000006017B548E3AEBF016017B548E3AEBF010000
310
000000000000000000005600420041000000000000000000000000000000000000000000000000000000000000000000000000000000000000000000000000000000000000000000000008000100FFFFFFFFFFFFFFFF0400000000000000000000000000000000000000000000006017B548E3AEBF016017B548E3AEBF0100
310
00000000000000000000006400690072000000000000000000000000000000000000000000000000000000000000000000000000000000000000000000000000000000000000000000000008000200FFFFFFFFFFFFFFFFFFFFFFFF000000000000000000000000000000000000000000000000000000000000000000000000
310
00000000F90100000000000001000000020000000300000004000000050000000600000007000000FEFFFFFF090000000A0000000B0000000C0000000D0000000E0000000F0000001000000011000000120000001300000014000000150000001600000017000000FEFFFFFF190000001A0000001B0000001C0000001D0000
310
001E0000001F000000200000002100000022000000230000002400000025000000260000002700000028000000290000002A0000002B0000002C0000002D0000002E0000002F000000300000003100000032000000330000003400000035000000360000003700000038000000390000003A0000003B000000FEFFFFFF3D00
310
00003E0000003F00000040000000FEFFFFFFFEFFFFFFFEFFFFFFFFFFFFFFFFFFFFFFFFFFFFFFFFFFFFFFFFFFFFFFFFFFFFFFFFFFFFFFFFFFFFFFFFFFFFFFFFFFFFFFFFFFFFFFFFFFFFFFFFFFFFFFFFFFFFFFFFFFFFFFFFFFFFFFFFFFFFFFFFFFFFFFFFFFFFFFFFFFFFFFFFFFFFFFFFFFFFFFFFFFFFFFFFFFFFFFFFFFFFFFFF
310
FFFFFFFFFFFFFFFFFFFFFFFFFFFFFFFFFFFFFFFFFFFFFFFFFFFFFFFFFFFFFFFFFFFFFFFFFFFFFFFFFFFFFFFFFFFFFFFFFFFFFFFFFFFFFFFFFFFFFFFFFFFFFFFFFFFFFFFFFFFFFFFFFFFFFFFFFFFFFFFFFFFFFFFFFFFFFFFFFFFFFFFFFFFFFFFFFFFFFFFFFFFFFFFFFFFFFFFFFFFFFFFFFFFFFFFFFFFFFFFFFFFFFFFFFFFFFF
310
FFFFFFFFFFFFFFFFFFFFFFFFFFFFFFFF01F5B1800100040000000100302A020290090070140648030082020064E40404000B001C004143414450726F6A10656374050038000040D5021406020A3D020A07027401140A08061209021232C3C3382809000C024A3C020A16000101727374646F6C653E0102197300740064006F
310
00006C0065000D00660500255C00032A5C477B3000303032303433302D3B0008040443000A020E011230300034367D23322E3023003023433A5C57494E00444F57535C5359530054454D5C5354444F004C45322E544C4223010008204175746F6D613074696F6E005E00011600020780024D53466F726D10733E000E010600
310
53000246004572006D007300682F007A800970800101463600354238343236302D00344131382D31314400312D384439372D348034343535333534014803174604332E545744234D006963726F736F66748A20023D200060204F6201B000204C69627261727947003900011E50300090001372038001015038393136374580
310
30362D35343239275081804A505C5642455C8528044558A728E12E450D8F00E01A10852E02608C284D0BB481940F828F01002213C20193CE198291546800697344726177696E44671A0D04320016C030541000680069805D4400721000610077C0026E006744001C4006000048420131C1C2941F0300001E42020105A22C42
310
1995CE2242082B420102104201000000000000005400680069007300440072006100770069006E006700000000000000000000000000000000000000000000000000000000000000000000000000000000000000180002010300000005000000FFFFFFFF000000000000000000000000000000000000000000000000000000
310
00000000000000000008000000D0030000000000005F005600420041005F00500052004F004A00450043005400000000000000000000000000000000000000000000000000000000000000000000000000000000001A000200FFFFFFFFFFFFFFFFFFFFFFFF0000000000000000000000000000000000000000000000000000
310
0000000000000000000018000000EA08000000000000500052004F004A004500430054000000000000000000000000000000000000000000000000000000000000000000000000000000000000000000000000000000100002010200000007000000FFFFFFFF00000000000000000000000000000000000000000000000000
310
00000000000000000000003C0000002C01000000000000500052004F004A0045004300540077006D000000000000000000000000000000000000000000000000000000000000000000000000000000000000000000000014000200FFFFFFFFFFFFFFFFFFFFFFFF000000000000000000000000000000000000000000000000
310
0000000000000000000000004100000026000000000000000116010000B600FFFF010100000000FFFFFFFF00000000FFFFFFFFFFFF0000000000000000000000000000000000000000000000000000000000000000000000000000000000000000000000000000000010000000030000000500000007000000FFFFFFFFFFFF
310
FFFF010108000000FFFFFFFF78000000DE000000AF020000F5010000FFFFFFFF000000000100000093CE95CE0000FFFF2300000088000000080000000000000000000000000000000000000000000000000000000000000000FFFF0000CB020000D6000000D60000001F0300000000FFFFFFFF00000000DF00FFFF00000000
310
0C00FFFFFFFFFFFFFFFFFFFFFFFFFFFFFFFFFFFFFFFFFFFFFFFFFFFFFFFFFFFFFFFFFFFFFFFFFFFFFFFFFFFFFFFFFFFFFFFFFFFFFFFFFFFFFFFFFFFFFFFFFFFFFFFFFFFFFFFFFFFFFFFFFFFFFFFFFFFFFFFFFFFFFFFFFFFFFFFFFFFFFFFFFFFFFFFFFFFFFFFFFFFFFFFFFFFFFFFFFFFFFFFFFFFFFFFFFFFFFFFFFFFFFFFFFF
310
FFFFFF280000000200534CFFFFFFFF000001005310FFFFFFFF000001005394FFFFFFFF00000000023CFFFFFFFF0000FFFF01010000000001004E0030007B00380045003700350044003900310033002D0033004400320031002D0031003100440032002D0038003500430034002D0030003800300030003000390041003000
310
43003600320036007D00000000000000DF00000000FFFFFFFF0101380000000281FEFFFFFFFFFFFFFFFFFF280000000000FFFF0000000000000000FFFFFFFFFFFFFFFF000000001D00000024000000FFFFFFFF480000000000FFFF00000100000000000000FFFFFFFFFFFFFFFFFFFFFFFF00000000FFFFFFFFFFFFFFFFFFFF
310
FFFFFFFFFFFF00000000FFFFFFFFFFFFFFFFFFFFFFFFFFFFFFFF0000000000000000FFFFFFFFFFFFFFFF00000000FFFFFFFFFFFFFFFFFFFFFFFFFFFFFFFFFFFFFFFFFFFFFFFFFFFFFFFFFFFF4D450000FFFFFFFFFFFF00000000FFFF00000000FFFF0101000000000000000000000000000000000000000000000000000000
310
00000000000000000000000000000000000000000000000000000000000000000000000000FECA01000000FFFFFFFF010108000000FFFFFFFF7800000001ADB000417474726962757400652056425F4E616D0065203D2022546869007344726177696E6788220D0A0A88426173028800307B3845373544390031332D334432
310
312D00313144322D38354300342D303830303039804130433632367D0D7C00437265617461626C41018646616C73650CBC508072656465636C610006444964008A5472750D22452078706F7365141C5465006D706C6174654465187269760224116543757360746F6D697A0488033200000000000000000000000000000000
310
0000000000000000000000000000000000000000000000000000000000000000CC615E00000100FF0904000009040000E4040100000000000000000001000400020016012A005C0047007B00300030003000320030003400450046002D0030003000300030002D0030003000300030002D0043003000300030002D00300030
310
0030003000300030003000300030003000340036007D00230033002E00300023003900230043003A005C00500052004F004700520041004D002000460049004C00450053005C0043004F004D004D004F004E002000460049004C00450053005C004D004900430052004F0053004F0046005400200053004800410052004500
310
44005C005600420041005C005600420041003300330032002E0044004C004C002300560069007300750061006C00200042006100730069006300200046006F00720020004100700070006C00690063006100740069006F006E007300000000000000000000000000CE002A005C0047007B0043003000390034004300310045
310
0032002D0035003700430036002D0031003100440032002D0038003500450033002D003000380030003000300039004100300043003600320036007D00230031002E00310023003000230043003A005C00500072006F006700720061006D002000460069006C00650073005C004D00440054005C0041004300410044002E00
310
54004C00420023004100750074006F00430041004400200032003000300030002000540079007000650020004C00690062007200610072007900000000000000000000000000B8002A005C0047007B00300030003000320030003400330030002D0030003000300030002D0030003000300030002D0043003000300030002D
310
003000300030003000300030003000300030003000340036007D00230032002E00300023003000230043003A005C00570049004E0044004F00570053005C00530059005300540045004D005C005300540044004F004C00450032002E0054004C00420023004F004C00450020004100750074006F006D006100740069006F00
310
6E00000000000000000000000000E0002A005C0047007B00360035004200380034003200360030002D0034004100310038002D0031003100440031002D0038004400390037002D003400340034003500350033003500340030003000300030007D00230032002E00300023003000230043003A005C00570049004E0044004F
310
00570053005C00530059005300540045004D005C004D00530046006F0072006D0073002E0054005700440023004D006900630072006F0073006F0066007400200046006F0072006D007300200032002E00300020004F0062006A0065006300740020004C00690062007200610072007900000000000000000000000100E400
310
2A005C0047007B00380039003100360037004500300036002D0035003400320039002D0031003100440031002D0038004400390037002D003400340034003500350033003500340030003000300030007D00230032002E00300023003000230043003A005C00570049004E0044004F00570053005C00540045004D0050005C
310
005600420045005C004D00530046006F0072006D0073002E0045005800440023004D006900630072006F0073006F0066007400200046006F0072006D007300200032002E00300020004F0062006A0065006300740020004C006900620072006100720079000000000000000000000001000000E12E450D8FE01A10852E0260
310
8C4D0BB400000100020003000402000006020100080200001002FFFFFFFFFFFF00000000FFFF000032C3C3380900FFFFFFFFFFFFFFFF0000FFFFFFFFFFFFFFFFFFFFFFFFFFFFFFFFFFFFFFFFFFFFFFFFFFFFFFFFFFFFFFFFFFFFFFFFFFFFFFFFFFFFFFFFFFFFFFFFFFFFFFFFFFFF0100000000000000000000000000000000
310
00000093CE010016005400680069007300440072006100770069006E0067000A003933386333633333320003002A44011302FFFF95CE00000000000000020000001F030000FFFFFFFFFFFF010120020000FFFFFFFFFFFFFFFFFFFFFFFFFFFFFFFFFFFFFFFFFFFFFFFFFFFFFFFFFFFFFFFFFFFFFFFFFFFFFFFFFFFFFFFFFFFF
310
FFFFFFFFFFFFFFFFFFFFFFFFFFFFFFFFFFFFFFFFFFFFFFFFFFFFFFFFFFFFFFFFFFFFFFFFFFFFFFFFFFFF00020000FFFFFFFFFFFFFFFFFFFFFFFFFFFFFFFFFFFFFFFFFFFFFFFFFFFFFFFFFFFFFFFFFFFFFFFFFFFFFFFFFFFFFFFFFFFFFFFFFFFFFFFFFFFFFFFFFFFFFFFFFFFFFFFFFFFFFFFFFFFFFFFFFFFFFFFFFFFFFFFFFF
310
FFFFFFFFFFFFFFFFFFFFFFFFFFFFFFFFFFFFFFFFFFFFFFFFFFFFFFFFFFFFFFFFFFFFFFFFFFFFFFFFFFFFFFFFFFFFFFFFFFFFFFFFFFFFFFFFFFFFFFFFFFFFFFFFFFFFFFFFFFFFFFFFFFFFFFFFFFFFFFFFFFFFFFFFFFFFFFFFFFFFFFFFFFFFFFFFFFFFFFFFFFFFFFFFFFFFFFFFFFFFFFFFFFFFFFFFFFFFFFFFFFFFFFFFFFFFFF
310
FFFFFFFFFFFFFFFFFFFFFFFFFFFFFFFFFFFFFFFFFFFFFFFFFFFFFFFFFFFFFFFFFFFFFFFFFFFFFFFFFFFFFFFFFFFFFFFFFFFFFFFFFFFFFFFFFFFFFFFFFFFFFFFFFFFFFFFFFFFFFFFFFFFFFFFFFFFFFFFFFFFFFFFFFFFFFFFFFFFFFFFFFFFFFFFFFFFFFFFFFFFFFFFFFFFFFFFFFFFFFFFFFFFFFFFFFFFFFFFFFFFFFFFFFFFFFF
310
FFFFFFFFFFFFFFFFFFFFFFFFFFFFFFFFFFFFFFFFFFFFFFFFFFFFFFFFFFFFFFFFFFFFFFFFFFFFFFFFFFFFFFFFFFFFFFFFFFFFFFFFFFFFFFFFFFFFFFFFFFFFFFFFFFFFFFFFFFFFFFFFFFFFFFFFFFFFFFFFFFFFFFFFFF7EA9EF5F33F3D3118DA400A0C981A35FFFFFFFFF01000000FFFFFFFF600000008000000000000B010C00
310
FF008825000007044175746F43414422F810000304564241F7E21000050457696E3136C17E1000050457696E3332077F100003044D6163B3B21000080450726F6A656374310A17100006047374646F6C659360100007004D53466F726D73430F10000B044143414450726F6A656374A6D410000B045468697344726177696E
310
67B935100009800000FF03FFFF5F4576616C7561746518D910000C0441636164446F63756D656E741B5A100002FFFF0101480000001002FFFFFFFF130200000100FFFFFFFFFFFFFFFFFFFFFFFF00020100FFFF02020000FFFFFFFFFFFFFFFFFFFFFFFFFFFFFFFFFFFFFFFFFFFFFFFFFFFF0C020200FFFF0E020300FFFF0100
310
0C0000000100120000000000000000000000000000000000000000000000000000000000000000000000000000000000000049443D227B35464546413943322D463333332D313144332D384441342D3030413043393831413335467D220D0A446F63756D656E743D5468697344726177696E672F264830303030303030300D
310
0A4E616D653D224143414450726F6A656374220D0A48656C70436F6E7465787449443D2230220D0A434D473D2235463544423035334430364445423731454237314542373145423731220D0A4450423D2237453743393137344146384343463844434638444346220D0A47433D223944394637323931384542313846423138
310
463445220D0A0D0A5B486F737420457874656E64657220496E666F5D0D0A264830303030303030313D7B33383332443634302D434639302D313143462D384534332D3030413043393131303035417D3B5642453B264830303030303030300D0A00000000000000000000000000000000000000005468697344726177696E67
310
005400680069007300440072006100770069006E0067000000000000000000000000000000000000000000000000000000000000000F00000000000000000000000000000000000000000000000000000000000000000000000000000000000000000000000000000000000000000000000000000000000000000000000000
310
00000000000000000000000000000000000000000000000000000000000000000000000000000000000000000000000000000000000000000000000000000000000000000000000000000000000000000000000000000000000000000000000000000000000000000000000000000000000000000000000000000000000000
310
00000000000000000000000000000000000000000000000000000000000000000000000000000000000000000000000000000000000000000000000000000000000000000000000000000000000000000000000000000000000000000000000000000000000000000000000000000000000000000000000000000000000000
310
00000000000000000000000000000000000000000000000000000000000000000000000000000000000000000000000000000000000000005600420041005F00500072006F006A006500630074005F00560065007200730069006F006E00000000000000000000000000000000000000000000000000000028000200FFFFFF
310
FFFFFFFFFFFFFFFFFF0000000000000000000000000000000000000000000000000000000000000000000000004200000008000000000000000000000000000000000000000000000000000000000000000000000000000000000000000000000000000000000000000000000000000000000000000000000000000000FFFF
310
FFFFFFFFFFFFFFFFFFFF0000000000000000000000000000000000000000000000000000000000000000000000000000000000000000000000000000000000000000000000000000000000000000000000000000000000000000000000000000000000000000000000000000000000000000000000000000000000000000FF
310
FFFFFFFFFFFFFFFFFFFFFF0000000000000000000000000000000000000000000000000000000000000000000000000000000000000000000000000000000000000000000000000000000000000000000000000000000000000000000000000000000000000000000000000000000000000000000000000000000000000000
310
FFFFFFFFFFFFFFFFFFFFFFFF000000000000000000000000000000000000000000000000000000000000000000000000000000000000000000000000
  0
ENDSEC
  0
EOF
